osu file format v14

[General]
AudioFilename: audio.ogg
AudioLeadIn: 0
PreviewTime:51044
Countdown: 0
SampleSet: Soft
StackLeniency: 0.4
Mode: 0
LetterboxInBreaks: 0
WidescreenStoryboard: 1

[Editor]
DistanceSpacing: 1
BeatDivisor: 4
GridSize: 32
TimelineZoom: 1

[Metadata]
Title:NAME (TV Size)
TitleUnicode:NAME (TV Size)
Artist:Tsuzuri
ArtistUnicode:綴
Creator:Kyutei
Version:ORI'S INSANE
Source:好きな子がめがねを忘れた
Tags:Anya Melfissa Shingyouji Yuni original3s Amats _Karaage Karaage Suki na Ko ga Megane wo Wasureta The Girl I Like Forgot Her Glasses Sukimega GoHands Square Enix flying DOG Glovision Shouchiku Manga DECO*27 DECO27 jpop j-pop pop japanese anime opening op
BeatmapID:4218499
BeatmapSetID:2024909

[Difficulty]
HPDrainRate:5
CircleSize:4
OverallDifficulty:8.2
ApproachRate:9
SliderMultiplier:1.8
SliderTickRate:1

[Events]
//Background and Video events
0,0,"bg.jpg",0,0
Video,-170,"op.mp4"
//Break Periods
//Storyboard Layer 0 (Background)
//Storyboard Layer 1 (Fail)
//Storyboard Layer 2 (Pass)
//Storyboard Layer 3 (Foreground)
//Storyboard Layer 4 (Overlay)
//Storyboard Sound Samples

[TimingPoints]
1290,327.868852459016,4,2,1,60,1,0
1290,-250,4,2,1,60,0,0
2765,-166.666666666667,4,2,1,60,0,0
3421,-250.000000000001,4,2,1,60,0,0
3912,-166.666666666667,4,2,1,60,0,0
6208,-100,4,2,1,60,0,0
6535,-100,4,2,1,70,0,0
7519,-83.3333333333333,4,2,1,70,0,0
8011,-100,4,2,1,70,0,0
10142,-83.3333333333333,4,2,1,70,0,0
11781,-125,4,2,1,60,0,0
22273,-83.3333333333333,4,2,1,60,0,0
22765,-100,4,2,1,60,0,0
25880,-83.3333333333333,4,2,1,60,0,0
26208,-100,4,2,1,60,0,0
28503,-83.3333333333333,4,2,1,60,0,0
28830,-100,4,2,1,60,0,0
30142,-100,4,2,1,50,0,0
31453,-125,4,2,1,50,0,0
40634,-111.111111111111,4,2,1,60,0,0
47027,-166.666666666667,4,2,1,60,0,0
47519,-125,4,2,1,60,0,0
49650,-250,4,2,1,60,0,0
51126,-90.9090909090909,4,2,1,80,0,0
53421,-76.9230769230769,4,2,1,80,0,0
55060,-250,4,2,1,80,0,0
55388,-125,4,2,1,80,0,0
55716,-100,4,2,1,80,0,0
56044,-83.3333333333333,4,2,1,80,0,0
57027,-100,4,2,1,80,0,0
60634,-83.3333333333333,4,2,1,80,0,0
60962,-71.4285714285714,4,2,1,80,0,0
61617,-90.9090909090909,4,2,1,80,0,0
63257,-76.9230769230769,4,2,1,80,0,0
63585,-125,4,2,1,80,0,0
63912,-71.4285714285714,4,2,1,80,0,0
65552,-100,4,2,1,80,0,0
65880,-125,4,2,1,80,0,0
66208,-100,4,2,1,80,0,0
66535,-83.3333333333333,4,2,1,80,0,0
66863,-66.6666666666667,4,2,1,80,0,0
67191,-100,4,2,1,80,0,0
67847,-83.3333333333333,4,2,1,80,0,0
68503,-90.9090909090909,4,2,1,80,0,0
72109,-90.9090909090909,4,2,1,70,0,0
77355,-125,4,2,1,60,0,0
79978,-100,4,2,1,70,0,0
85224,-125,4,2,1,50,0,0

[Colours]
Combo1 : 236,138,130
Combo2 : 233,69,114

[HitObjects]
41,168,1290,6,0,P|34:206|25:238,1,72,2|0,0:0|0:0,0:0:0:0:
117,203,1781,2,0,P|103:239|87:268,1,72,2|0,0:0|0:0,0:0:0:0:
167,291,2273,2,0,P|148:310|130:325,1,36,2|0,0:0|0:0,0:0:0:0:
142,316,2601,1,0,0:0:0:0:
353,238,2765,6,0,P|340:189|303:139,1,107.999996704102,2|0,0:0|0:0,0:0:0:0:
255,196,3257,1,2,0:0:0:0:
294,288,3421,2,0,P|274:278|250:272,1,36,2|0,0:0|0:0,0:0:0:0:
260,274,3749,1,0,0:0:0:0:
471,360,3912,6,0,P|495:288|519:251,1,107.999996704102,2|0,0:0|0:0,0:0:0:0:
401,341,4404,2,0,P|406:306|412:280,1,53.9999983520508,2|0,0:0|0:0,0:0:0:0:
409,287,4732,1,0,0:0:0:0:
327,344,4896,2,0,P|318:309|314:283,1,53.9999983520508,2|0,0:0|0:0,0:0:0:0:
455,123,5224,5,8,0:0:0:0:
468,118,5306,1,8,0:0:0:0:
479,113,5388,1,10,3:0:0:0:
512,183,5552,1,10,3:0:0:0:
386,78,5716,5,8,0:0:0:0:
397,56,5798,1,8,0:0:0:0:
417,52,5880,1,10,3:0:0:0:
480,83,6044,1,2,3:0:0:0:
296,153,6208,6,0,B|249:126|264:64|264:64|318:78,1,135,8|0,0:0|0:0,0:0:0:0:
295,72,6535,6,0,P|347:84|347:205,1,180,6|10,3:2|0:0,0:0:0:0:
113,288,7027,2,0,P|69:281|37:243,1,90,2|0,3:2|0:0,0:0:0:0:
124,362,7355,1,0,3:2:0:0:
39,248,7519,6,0,P|76:223|258:207,1,215.999993408203,10|0,0:0|3:2,0:0:0:0:
445,369,8011,1,2,3:2:0:0:
372,370,8175,2,0,B|357:330|357:330|374:282,1,90,10|0,0:0|3:2,0:0:0:0:
218,107,8503,5,2,3:2:0:0:
125,157,8667,1,2,3:2:0:0:
215,194,8830,1,10,0:0:0:0:
154,146,8994,1,0,0:0:0:0:
173,325,9158,6,0,P|222:314|242:202,1,180,6|10,3:2|0:0,0:0:0:0:
360,46,9650,1,2,3:2:0:0:
304,0,9814,2,0,P|263:18|216:24,1,90,0|0,0:0|3:2,0:0:0:0:
33,250,10142,6,0,P|159:207|266:203,1,215.999993408203,10|0,0:0|3:2,0:0:0:0:
438,42,10634,1,2,3:2:0:0:
452,225,10798,1,10,0:0:0:0:
505,168,10962,1,2,3:2:0:0:
375,140,11126,5,2,3:2:0:0:
317,232,11289,1,2,3:2:0:0:
338,319,11453,1,8,0:0:0:0:
399,361,11617,1,2,0:0:0:0:
329,217,11781,6,0,B|317:151|273:171|259:85,1,144,6|10,3:2|0:0,0:0:0:0:
137,182,12273,2,0,P|80:153|-7:139,1,144,2|2,3:2|3:2,0:0:0:0:
192,126,12765,1,8,0:0:0:0:
134,192,12929,2,0,P|142:219|154:243,2,36,2|0|0,3:2|0:0|0:0,0:0:0:0:
61,179,13257,1,2,3:2:0:0:
192,351,13421,6,0,P|203:316|205:281,1,72,8|2,0:0|0:0,0:0:0:0:
340,154,13749,1,2,3:2:0:0:
408,127,13912,1,2,3:2:0:0:
348,176,14076,1,10,0:0:0:0:
379,93,14240,1,2,0:0:0:0:
431,182,14404,6,0,P|470:190|517:200,1,72,0|0,3:2|0:0,0:0:0:0:
303,59,14732,2,0,P|231:80|132:96,1,144,8|0,0:0|0:0,0:0:0:0:
172,172,15224,1,0,3:2:0:0:
128,20,15388,2,0,P|68:49|77:131,1,144,8|0,0:0|0:0,0:0:0:0:
172,172,15880,1,0,3:2:0:0:
0,283,16044,6,0,B|31:252|77:257|77:257|96:294|156:294,1,144,8|0,0:0|3:2,0:0:0:0:
59,341,16535,1,0,3:2:0:0:
196,223,16699,2,0,B|167:182|167:182|169:226,1,72,8|0,0:0|0:0,0:0:0:0:
186,334,17027,6,0,P|221:316|267:308,1,72,6|0,3:2|0:0,0:0:0:0:
387,199,17355,1,10,0:0:0:0:
452,226,17519,2,0,P|445:260|419:308,1,72,2|0,3:2|0:0,0:0:0:0:
326,161,17847,2,0,P|333:127|359:79,1,72,2|8,3:2|0:0,0:0:0:0:
413,374,18175,1,2,3:2:0:0:
408,377,18257,1,0,0:0:0:0:
398,377,18339,5,0,0:0:0:0:
329,343,18503,1,2,3:2:0:0:
232,217,18667,1,8,0:0:0:0:
246,196,18830,5,2,0:0:0:0:
302,276,18994,2,0,P|263:285|228:303,1,72,2|2,3:2|3:2,0:0:0:0:
311,124,19322,2,0,P|278:108|243:101,1,72,10|2,0:0|0:0,0:0:0:0:
132,170,19650,1,0,3:2:0:0:
125,176,19978,6,0,P|65:187|40:276,1,144,8|0,0:0|0:0,0:0:0:0:
189,328,20470,1,0,3:2:0:0:
133,375,20634,2,0,P|139:334|160:286,1,72,8|0,0:0|0:0,0:0:0:0:
262,136,20962,5,0,0:0:0:0:
259,130,21126,1,0,3:2:0:0:
239,204,21289,2,0,B|272:218|272:218|320:209,1,72,8|2,0:0|0:0,0:0:0:0:
358,158,21617,1,2,3:2:0:0:
411,239,21781,1,2,3:2:0:0:
480,67,21945,5,10,0:0:0:0:
479,61,22109,2,0,L|431:76,1,36,2|0,0:0|0:0,0:0:0:0:
419,318,22273,6,0,B|441:234|491:271|504:170,1,161.999995056153,6|0,3:2|0:0,0:0:0:0:
477,175,22601,1,10,0:0:0:0:
355,384,22765,6,0,P|306:315|211:276,1,180,2|2,3:2|3:2,0:0:0:0:
112,116,23257,1,8,0:0:0:0:
70,175,23421,2,0,P|107:204|159:211,1,90,2|0,0:0|0:0,0:0:0:0:
289,24,23749,1,2,3:2:0:0:
226,56,23912,5,8,0:0:0:0:
318,101,24076,2,0,P|358:113|407:140,1,90,2|2,0:0|3:2,0:0:0:0:
213,176,24404,2,0,P|233:213|250:271,1,90,2|8,3:2|0:0,0:0:0:0:
166,0,24732,6,0,P|131:33|96:163,1,180,2|0,0:0|0:0,0:0:0:0:
61,313,25224,1,8,0:0:0:0:
0,255,25388,2,0,B|42:264|42:264|96:238,1,90,0|0,3:2|0:0,0:0:0:0:
0,255,25716,1,0,3:2:0:0:
248,384,25880,6,0,P|209:348|157:344,1,107.999996704102,8|2,0:0|0:0,0:0:0:0:
155,266,26208,6,0,P|200:228|201:111,1,180,2|10,0:0|0:0,0:0:0:0:
436,0,26699,2,0,P|394:10|349:47,1,90,2|0,0:0|3:2,0:0:0:0:
280,41,27027,1,2,3:2:0:0:
252,198,27191,2,0,P|286:195|305:254,1,90,8|2,0:0|0:0,0:0:0:0:
386,216,27519,6,0,P|406:162|471:89,1,135,0|0,3:2|0:0,0:0:0:0:
454,102,27847,1,8,0:0:0:0:
318,186,28011,2,0,P|327:129|377:45,1,135,0|0,3:2|0:0,0:0:0:0:
363,61,28339,1,0,3:2:0:0:
456,252,28503,6,0,B|470:313|497:291|519:361,1,107.999996704102,8|0,0:0|0:0,0:0:0:0:
243,135,28830,6,0,P|196:113|79:101,1,135,2|0,3:2|0:0,0:0:0:0:
104,85,29158,1,10,0:0:0:0:
0,0,29322,2,0,P|30:38|26:95,1,90,2|6,0:0|3:2,0:0:0:0:
153,183,29650,6,0,L|130:231,1,45,0|0,3:0|3:0,0:0:0:0:
135,231,29814,6,0,L|82:256,1,45,8|8,0:0|0:0,0:0:0:0:
17,201,29978,6,0,L|80:225,1,45,8|8,0:0|0:0,0:0:0:0:
199,274,30142,6,0,P|247:289|281:319,1,90,2|0,0:0|0:0,0:0:0:0:
341,221,30470,1,2,0:0:0:0:
391,168,30634,1,2,0:0:0:0:
497,138,30798,5,2,0:0:0:0:
430,172,30962,1,2,0:0:0:0:
354,141,31126,1,2,0:0:0:0:
153,21,31453,6,0,P|111:75|154:21,1,216,2|2,0:0|0:0,0:0:0:0:
64,270,32109,2,0,P|114:268|137:180,1,144,2|0,0:0|0:0,0:0:0:0:
105,127,32601,1,2,0:0:0:0:
0,214,32765,6,0,P|20:254|35:367,1,144,2|2,0:0|0:0,0:0:0:0:
245,384,33421,6,0,P|278:313|290:235,1,144,2|0,0:0|0:0,0:0:0:0:
48,109,34076,5,2,0:0:0:0:
108,79,34240,1,2,0:0:0:0:
175,83,34404,1,2,0:0:0:0:
230,43,34568,1,2,0:0:0:0:
221,41,34732,1,2,0:0:0:0:
375,189,35388,5,6,0:0:0:0:
409,190,35552,1,2,0:0:0:0:
451,209,35716,1,2,0:0:0:0:
491,204,35880,1,2,0:0:0:0:
502,216,36044,6,0,B|480:238|498:245|460:279,1,72,2|2,0:0|0:0,0:0:0:0:
396,271,36371,2,0,B|373:293|392:300|350:338,1,72,2|0,0:0|0:0,0:0:0:0:
260,202,36699,6,0,L|223:60,1,144,2|2,0:0|0:0,0:0:0:0:
232,293,37191,1,2,0:0:0:0:
174,240,37355,2,0,B|204:220|235:232|235:232|254:270|325:267,1,144,2|0,0:0|0:0,0:0:0:0:
112,192,37847,5,2,0:0:0:0:
148,125,38011,2,0,P|186:92|179:-9,1,144,2|2,0:0|0:0,0:0:0:0:
118,30,38503,1,2,0:0:0:0:
172,3,38667,2,0,P|146:47|155:163,1,144,2|0,0:0|0:0,0:0:0:0:
216,118,39158,1,2,0:0:0:0:
2,240,39322,5,2,0:0:0:0:
74,221,39486,1,2,0:0:0:0:
152,221,39650,1,2,0:0:0:0:
235,241,39814,1,2,0:0:0:0:
326,207,39978,1,2,0:0:0:0:
319,203,40142,1,2,0:0:0:0:
223,23,40634,6,0,L|320:-9,1,80.9999975280763,6|0,3:2|0:0,0:0:0:0:
238,96,40962,2,0,L|336:89,1,80.9999975280763,2|2,3:2|0:0,0:0:0:0:
420,246,41289,5,2,3:2:0:0:
486,211,41453,1,2,0:0:0:0:
376,180,41617,2,0,L|399:92,1,80.9999975280763,2|2,3:2|0:0,0:0:0:0:
420,246,41945,6,0,P|354:222|261:210,1,161.999995056153,2|0,3:2|3:2,0:0:0:0:
468,110,42437,1,2,0:0:0:0:
392,113,42601,2,0,P|449:72|511:0,1,161.999995056153,2|0,3:2|3:2,0:0:0:0:
321,113,43093,1,2,0:0:0:0:
293,247,43257,6,0,P|238:270|145:324,1,161.999995056153,2|0,3:2|3:2,0:0:0:0:
236,127,43749,1,0,0:0:0:0:
240,122,43830,1,0,0:0:0:0:
238,116,43912,6,0,P|166:121|75:134,1,161.999995056153,2|0,3:2|3:2,0:0:0:0:
22,154,44404,1,0,0:0:0:0:
162,82,44568,6,0,P|173:46|185:-2,1,80.9999975280763,2|0,3:2|0:0,0:0:0:0:
294,196,44896,2,0,P|322:171|358:137,1,80.9999975280763,0|0,3:2|0:0,0:0:0:0:
252,115,45224,2,0,P|273:84|300:40,1,80.9999975280763,0|0,3:2|0:0,0:0:0:0:
295,46,45552,1,0,3:2:0:0:
92,182,45880,5,6,3:2:0:0:
26,210,46044,1,2,0:0:0:0:
117,192,46208,1,2,0:0:0:0:
63,169,46371,1,2,0:0:0:0:
325,188,46699,5,2,0:0:0:0:
332,189,46863,1,2,0:0:0:0:
363,255,47027,2,0,B|447:199|463:236|521:190,1,161.999995056153,2|0,0:0|0:0,0:0:0:0:
218,12,47847,5,2,0:0:0:0:
232,88,48011,1,2,0:0:0:0:
275,153,48175,1,2,0:0:0:0:
329,383,48503,6,0,P|300:288|180:140,1,288,6|0,0:0|0:0,0:0:0:0:
47,110,49486,1,2,0:0:0:0:
113,73,49650,2,0,P|53:64|5:-11,1,144,2|0,0:0|0:0,0:0:0:0:
278,180,50470,5,8,3:0:0:0:
192,228,50634,1,0,3:0:0:0:
356,148,51126,6,0,P|417:105|479:-13,1,198.000006042481,6|8,3:2|0:0,0:0:0:0:
430,137,51617,1,2,3:2:0:0:
282,306,51781,6,0,P|329:275|482:236,1,198.000006042481,2|8,0:0|0:0,0:0:0:0:
441,349,52273,1,2,0:0:0:0:
423,368,52355,1,2,0:0:0:0:
415,364,52437,6,0,P|382:331|426:281,1,99.0000030212403,2|0,3:2|3:2,0:0:0:0:
191,165,52765,2,0,B|152:120|87:130|87:130|108:175,1,148.50000453186,10|0,0:0|0:0,0:0:0:0:
104,169,53093,2,0,P|49:192|14:229,1,99.0000030212403,2|0,0:0|3:2,0:0:0:0:
266,224,53421,6,0,B|195:172|110:2|304:-35|383:122|365:160|356:206|287:152|361:139|304:110,1,409.499981254578,10|0,0:0|0:0,0:0:0:0:
266,224,54076,2,0,B|191:308|121:212|259:88,1,233.999989288331,10|0,1:2|1:2,0:0:0:0:
326,178,54568,1,0,3:2:0:0:
171,358,54732,6,0,B|155:369|141:358|141:358|132:302|60:289,1,116.999994644165,10|0,1:2|0:0,0:0:0:0:
19,384,55060,2,0,P|47:380|69:366,1,54,2|0,3:2|0:0,0:0:0:0:
88,296,55388,6,0,P|103:256|92:205,1,72,10|0,1:2|3:2,0:0:0:0:
171,358,55716,2,0,P|205:332|227:274,1,90,2|0,1:2|3:2,0:0:0:0:
414,165,56044,6,0,B|371:161|351:121|351:121|363:172|331:195,1,161.999995056153,10|0,1:2|0:0,0:0:0:0:
331,195,56371,2,0,P|371:232|437:243,1,107.999996704102,6|0,3:2|0:0,0:0:0:0:
326,0,56699,5,10,0:0:0:0:
191,38,56863,1,2,3:2:0:0:
240,92,57027,2,0,P|232:141|204:178,1,90,2|0,0:0|3:2,0:0:0:0:
328,337,57355,1,10,0:0:0:0:
257,384,57519,1,0,0:0:0:0:
250,377,57601,1,0,0:0:0:0:
249,367,57683,6,0,P|259:304|288:255,1,90,2|0,3:1|3:2,0:0:0:0:
175,91,58011,2,0,P|203:147|209:204,1,90,8|0,1:2|3:2,0:0:0:0:
413,248,58339,2,0,P|356:219|318:176,1,90,0|0,1:2|3:2,0:0:0:0:
72,270,58667,2,0,P|135:260|190:272,1,90,10|0,1:2|0:0,0:0:0:0:
241,253,58994,6,0,B|269:192|309:218|325:134,1,135,2|0,3:2|0:0,0:0:0:0:
338,134,59322,2,0,P|359:115|405:105,1,45,10|0,0:0|0:0,0:0:0:0:
160,252,59486,6,0,P|86:300|59:384,1,180,2|2,3:2|3:2,0:0:0:0:
193,153,59978,1,10,0:0:0:0:
225,292,60142,1,0,0:0:0:0:
232,286,60224,1,0,0:0:0:0:
237,281,60306,6,0,L|266:185,1,90,2|0,3:1|3:2,0:0:0:0:
155,51,60634,6,0,L|196:164,1,107.999996704102,8|0,1:2|3:2,0:0:0:0:
431,384,60962,6,0,L|320:307,1,125.999996154785,8|8,1:2|0:0,0:0:0:0:
323,214,61208,1,8,0:0:0:0:
323,214,61289,2,0,L|245:189,1,62.9999980773926,8|8,1:2|0:0,0:0:0:0:
39,132,61453,2,0,L|98:151,1,62.9999980773926,8|8,0:0|0:0,0:0:0:0:
192,152,61617,6,0,P|235:120|389:122,1,198.000006042481,6|8,3:2|0:0,0:0:0:0:
234,75,62109,1,2,3:2:0:0:
443,146,62273,6,0,P|472:194|441:151,1,198.000006042481,2|8,0:0|0:0,0:0:0:0:
374,114,62765,1,2,0:0:0:0:
151,222,62929,6,0,P|172:265|182:332,1,99.0000030212403,2|0,3:2|3:2,0:0:0:0:
302,138,63257,2,0,P|256:160|235:99,1,116.999994644165,10|0,0:0|3:2,0:0:0:0:
269,46,63585,2,0,B|290:20|305:33|340:-17,1,72,2|0,0:0|3:2,0:0:0:0:
252,233,63912,6,0,B|290:109|123:17|144:110|256:115,1,251.999992309571,10|2,0:0|3:1,0:0:0:0:
311,384,64404,1,0,0:0:0:0:
362,360,64486,1,0,0:0:0:0:
357,352,64568,6,0,P|409:278|419:134,1,188.999994232178,10|0,1:2|0:0,0:0:0:0:
438,179,64896,1,0,1:2:0:0:
355,213,65060,1,0,3:2:0:0:
151,91,65224,5,10,1:2:0:0:
226,57,65388,1,0,0:0:0:0:
232,52,65470,1,0,0:0:0:0:
235,62,65552,6,0,P|209:104|196:215,1,135,2|0,3:2|0:0,0:0:0:0:
192,197,65880,2,0,P|153:215|113:220,1,72,10|0,0:0|3:2,0:0:0:0:
235,28,66208,2,0,P|192:21|143:-8,1,90,2|0,1:2|3:2,0:0:0:0:
252,251,66535,6,0,B|290:322|327:280|376:369,1,161.999995056153,10|0,1:2|0:0,0:0:0:0:
369,357,66863,6,0,B|435:340|462:201|321:203|386:251,1,202.500007724762,4|0,3:2|0:0,0:0:0:0:
380,246,67191,2,0,P|431:256|478:293,1,90,10|2,0:0|3:2,0:0:0:0:
272,131,67519,1,2,0:0:0:0:
203,157,67683,1,0,3:2:0:0:
123,100,67847,6,0,B|135:51|165:66|177:-3,1,107.999996704102,10|0,0:0|0:0,0:0:0:0:
261,212,68175,6,0,P|207:202|211:145,1,107.999996704102,2|0,3:1|3:2,0:0:0:0:
42,45,68503,2,0,P|88:66|129:109,1,99.0000030212403,8|0,1:2|3:2,0:0:0:0:
299,153,68830,2,0,P|249:163|190:152,1,99.0000030212403,0|0,1:2|3:2,0:0:0:0:
0,384,69158,2,0,P|51:328|131:289,1,148.50000453186,10|0,1:2|0:0,0:0:0:0:
114,294,69486,6,0,P|137:244|120:172,1,99.0000030212403,6|0,3:2|0:0,0:0:0:0:
279,42,69814,1,10,0:0:0:0:
339,4,69978,6,0,P|425:14|434:122,1,198.000006042481,2|2,3:2|3:2,0:0:0:0:
409,368,70470,2,0,P|390:321|391:262,1,99.0000030212403,10|0,0:0|0:0,0:0:0:0:
506,187,70798,5,0,3:2:0:0:
435,210,70962,1,0,3:2:0:0:
287,114,71126,1,8,0:0:0:0:
133,163,71289,1,0,3:2:0:0:
201,198,71453,5,8,0:0:0:0:
271,2,71617,1,8,0:0:0:0:
258,13,71699,1,8,0:0:0:0:
253,25,71781,2,0,P|239:80|219:123,1,99.0000030212403,8|8,0:0|0:0,0:0:0:0:
150,256,72109,5,6,3:2:0:0:
200,197,72273,2,0,P|245:216|295:222,1,99.0000030212403,2|8,0:0|0:0,0:0:0:0:
134,122,72601,5,2,3:2:0:0:
200,197,72765,1,2,0:0:0:0:
314,149,72929,2,0,P|359:130|399:100,1,99.0000030212403,2|8,3:2|0:0,0:0:0:0:
61,255,73257,5,2,3:2:0:0:
200,197,73421,1,2,3:2:0:0:
311,344,73585,2,0,P|369:362|420:396,1,99.0000030212403,2|8,3:2|0:0,0:0:0:0:
28,140,73912,5,2,3:2:0:0:
200,197,74076,1,2,0:0:0:0:
404,176,74240,2,0,P|459:169|518:144,1,99.0000030212403,2|8,3:2|0:0,0:0:0:0:
358,245,74568,5,2,0:0:0:0:
459,293,74732,2,0,B|429:197|376:242|334:120,1,198.000006042481,6|8,3:2|0:0,0:0:0:0:
129,15,75388,1,2,0:0:0:0:
56,0,75552,1,2,3:2:0:0:
188,64,75716,6,0,B|166:112|166:112|193:171,1,99.0000030212403,10|0,0:0|0:0,0:0:0:0:
411,92,76044,2,0,P|365:64|301:62,1,99.0000030212403,0|0,3:2|3:2,0:0:0:0:
116,240,76371,5,10,0:0:0:0:
231,219,76535,5,2,3:2:0:0:
296,172,76699,5,10,3:0:0:0:
313,150,76863,5,10,3:0:0:0:
236,230,77027,6,0,B|291:240|265:258|332:269,1,99.0000030212403,10|0,0:0|0:0,0:0:0:0:
120,154,77355,6,0,P|107:103|48:11,1,144,6|0,3:2|0:0,0:0:0:0:
61,25,77847,1,2,0:0:0:0:
205,138,78011,2,0,P|201:85|161:-16,1,144,2|0,0:0|0:0,0:0:0:0:
171,0,78503,1,2,0:0:0:0:
83,183,78667,2,0,P|60:135|-14:56,1,144,2|0,0:0|0:0,0:0:0:0:
236,179,79158,1,2,0:0:0:0:
218,197,79322,5,2,0:0:0:0:
288,176,79486,1,2,0:0:0:0:
358,188,79650,1,2,0:0:0:0:
141,346,79978,6,0,P|68:346|3:263,1,180,6|10,3:2|0:0,0:0:0:0:
150,74,80470,2,0,P|139:116|104:169,1,90,2|0,3:2|0:0,0:0:0:0:
67,99,80798,1,0,3:2:0:0:
260,213,80962,6,0,P|274:302|311:384,1,180,10|0,0:0|3:2,0:0:0:0:
189,193,81453,1,2,3:2:0:0:
260,213,81617,2,0,L|346:186,1,90,10|0,0:0|3:2,0:0:0:0:
397,17,81945,5,2,3:2:0:0:
506,62,82109,1,2,3:2:0:0:
410,100,82273,1,10,0:0:0:0:
466,57,82437,1,0,0:0:0:0:
401,196,82601,6,0,P|329:193|281:96,1,180,6|10,3:2|0:0,0:0:0:0:
145,48,83093,2,0,P|112:18|61:5,1,90,2|0,3:2|0:0,0:0:0:0:
33,69,83421,1,0,3:2:0:0:
271,107,83585,6,0,P|226:186|231:296,1,180,10|0,0:0|3:2,0:0:0:0:
0,384,84076,2,0,P|41:354|88:349,1,90,2|10,3:2|0:0,0:0:0:0:
152,342,84404,1,2,3:2:0:0:
271,107,84568,6,0,P|301:100|336:90,1,45,10|8,0:0|0:0,0:0:0:0:
425,38,84732,1,10,0:0:0:0:
431,37,84814,1,8,0:0:0:0:
431,47,84896,6,0,P|419:63|403:100,1,45,10|0,0:0|0:0,0:0:0:0:
369,0,85060,2,0,P|350:6|316:29,1,45,8|0,0:0|0:0,0:0:0:0:
430,228,85224,6,0,B|448:295|486:273|514:354,1,144,6|0,3:2|0:0,0:0:0:0:
510,344,85716,1,2,0:0:0:0:
393,384,85880,6,0,P|366:341|359:238,1,144,2|0,0:0|0:0,0:0:0:0:
247,183,86371,5,2,0:0:0:0:
173,220,86535,1,2,0:0:0:0:
59,336,87027,1,2,0:0:0:0:
114,282,87191,2,0,P|150:272|206:243,1,72,2|2,0:0|0:0,0:0:0:0:
132,324,87519,6,0,P|84:342|-17:390,1,144,2|0,0:0|0:0,0:0:0:0:
