osu file format v14

[General]
AudioFilename: audio.ogg
AudioLeadIn: 0
PreviewTime:51044
Countdown: 0
SampleSet: Soft
StackLeniency: 0.8
Mode: 0
LetterboxInBreaks: 0
WidescreenStoryboard: 1

[Editor]
Bookmarks:12721
DistanceSpacing: 1.3
BeatDivisor: 4
GridSize: 32
TimelineZoom: 1.8

[Metadata]
Title:NAME (TV Size)
TitleUnicode:NAME (TV Size)
Artist:Tsuzuri
ArtistUnicode:綴
Creator:Kyutei
Version:KARAAGE'S HARD
Source:好きな子がめがねを忘れた
Tags:Anya Melfissa Shingyouji Yuni original3s Amats _Karaage Karaage Suki na Ko ga Megane wo Wasureta The Girl I Like Forgot Her Glasses Sukimega GoHands Square Enix flying DOG Glovision Shouchiku Manga DECO*27 DECO27 jpop j-pop pop japanese anime opening op
BeatmapID:4220256
BeatmapSetID:2024909

[Difficulty]
HPDrainRate:4
CircleSize:3.3
OverallDifficulty:6
ApproachRate:8
SliderMultiplier:1.5
SliderTickRate:1

[Events]
//Background and Video events
0,0,"bg.jpg",0,0
Video,-170,"op.mp4"
//Break Periods
2,30342,39884
//Storyboard Layer 0 (Background)
//Storyboard Layer 1 (Fail)
//Storyboard Layer 2 (Pass)
//Storyboard Layer 3 (Foreground)
//Storyboard Layer 4 (Overlay)
//Storyboard Sound Samples

[TimingPoints]
1290,327.868852459016,4,2,1,60,1,0
1290,-166.666666666667,4,2,1,60,0,0
5224,-125,4,2,1,60,0,0
6535,-100,4,2,1,70,0,0
11781,-125,4,2,1,60,0,0
29814,-90.9090909090909,4,2,1,60,0,0
30142,-90.9090909090909,4,2,1,50,0,0
30798,-125,4,2,1,50,0,0
40634,-125,4,2,1,60,0,0
45880,-166.666666666667,4,2,1,60,0,0
51126,-90.9090909090909,4,2,1,80,0,1
72109,-90.9090909090909,4,2,1,70,0,1
77355,-90.9090909090909,4,2,1,60,0,0
79978,-100,4,2,1,70,0,0
85224,-166.666666666667,4,2,1,50,0,0

[Colours]
Combo1 : 236,138,130
Combo2 : 233,69,114

[HitObjects]
14,18,1290,6,0,B|17:57|17:57|21:61|21:61|27:118,1,89.9999972534181,2|0,0:0|0:0,0:0:0:0:
91,160,1781,1,2,0:0:0:0:
6,310,2109,1,0,0:0:0:0:
6,310,2273,2,0,B|44:289|44:289|98:306,1,89.9999972534181,2|0,0:0|0:0,0:0:0:0:
161,349,2765,1,2,0:0:0:0:
245,202,3093,1,0,0:0:0:0:
245,202,3257,2,0,B|222:228|222:228|225:289,1,89.9999972534181,2|0,0:0|0:0,0:0:0:0:
285,344,3749,1,0,0:0:0:0:
355,260,3912,6,0,B|352:154,1,89.9999972534181,2|0,0:0|0:0,0:0:0:0:
347,84,4404,1,2,0:0:0:0:
187,23,4732,1,0,0:0:0:0:
187,23,4896,2,0,B|170:55|170:55|185:87,1,67.4999979400635,2|0,0:0|0:0,0:0:0:0:
221,112,5224,6,0,L|223:156,2,30,8|8|10,0:0|0:0|3:0,0:0:0:0:
167,207,5552,1,10,3:0:0:0:
93,152,5716,1,8,0:0:0:0:
93,152,5798,1,8,0:0:0:0:
93,152,5880,2,0,L|9:173,1,60,10|2,3:0|3:0,0:0:0:0:
0,270,6208,1,8,0:0:0:0:
254,297,6535,6,0,B|347:298|312:349|416:357,1,150,6|10,3:2|0:0,0:0:0:0:
490,322,7027,2,0,P|500:275|516:236,1,75,2|0,3:2|0:0,0:0:0:0:
450,161,7355,1,0,3:2:0:0:
347,135,7519,2,0,P|354:171|366:207,1,75,10|0,0:0|0:0,0:0:0:0:
366,207,7765,1,0,0:0:0:0:
366,207,7847,1,0,3:2:0:0:
261,216,8011,6,0,P|225:189|185:199,1,75,2|10,3:2|0:0,0:0:0:0:
109,250,8339,1,0,3:2:0:0:
142,349,8503,1,2,3:2:0:0:
142,349,8667,2,0,P|183:331|194:291,2,75,2|10|0,3:2|0:0|0:0,0:0:0:0:
20,273,9158,6,0,P|13:204|-2:111,1,150,6|10,3:2|0:0,0:0:0:0:
43,27,9650,2,0,P|85:43|93:92,1,75,2|0,3:2|0:0,0:0:0:0:
149,159,9978,1,0,3:2:0:0:
235,99,10142,2,0,L|343:74,1,75,10|0,0:0|0:0,0:0:0:0:
308,82,10388,1,0,0:0:0:0:
308,82,10470,1,0,3:2:0:0:
411,0,10634,6,0,B|389:31|389:31|409:75,1,75,2|10,3:2|0:0,0:0:0:0:
470,145,10962,1,2,3:2:0:0:
392,234,11126,1,2,3:2:0:0:
392,234,11289,2,0,L|290:212,1,75,2|8,3:2|0:0,0:0:0:0:
236,271,11617,1,2,0:0:0:0:
165,341,11781,6,0,B|100:323|132:297|47:287,1,120,6|10,3:2|0:0,0:0:0:0:
12,207,12273,1,2,3:2:0:0:
21,214,12601,2,0,P|54:207|70:174,1,60,2|8,3:2|0:0,0:0:0:0:
10,99,12929,6,0,L|83:87,1,60,2|0,3:2|0:0,0:0:0:0:
138,21,13257,2,0,L|211:33,1,60,2|8,3:2|0:0,0:0:0:0:
258,105,13585,2,0,P|225:128|215:166,2,60,2|2|2,0:0|3:2|3:2,0:0:0:0:
322,34,14076,1,10,0:0:0:0:
322,34,14240,1,2,0:0:0:0:
429,4,14404,6,0,P|424:58|420:147,1,120,0|8,3:2|0:0,0:0:0:0:
335,169,14896,2,0,P|340:223|344:312,1,120,0|0,3:2|3:2,0:0:0:0:
415,352,15388,1,8,0:0:0:0:
230,298,15716,5,0,0:0:0:0:
230,298,15880,2,0,P|210:267|183:260,1,60,0|8,3:2|0:0,0:0:0:0:
109,205,16208,2,0,L|34:222,2,60,0|0|0,0:0|3:2|3:2,0:0:0:0:
150,118,16699,1,8,0:0:0:0:
309,10,17027,6,0,P|335:51|421:65,1,120,6|10,3:2|0:0,0:0:0:0:
478,127,17519,1,2,3:2:0:0:
486,135,17847,2,0,L|464:194,1,60,2|8,3:2|0:0,0:0:0:0:
398,260,18175,6,0,P|372:226|348:221,1,60,2|0,3:2|0:0,0:0:0:0:
314,134,18503,2,0,P|276:153|266:176,1,60,2|8,3:2|0:0,0:0:0:0:
205,240,18830,1,2,0:0:0:0:
205,240,18994,2,0,L|215:315,2,60,2|2|10,3:2|3:2|0:0,0:0:0:0:
120,192,19486,1,2,0:0:0:0:
28,133,19650,6,0,B|79:118|79:118|88:110|88:110|159:94,1,120,0|8,3:2|0:0,0:0:0:0:
216,37,20142,2,0,B|267:52|267:52|276:60|276:60|347:76,1,120,0|0,3:2|3:2,0:0:0:0:
414,26,20634,1,8,0:0:0:0:
493,200,20962,5,0,0:0:0:0:
493,200,21126,2,0,P|456:217|443:257,1,60,0|8,3:2|0:0,0:0:0:0:
378,300,21453,2,0,L|383:368,2,60,2|2|2,0:0|3:2|3:2,0:0:0:0:
293,253,21945,1,10,0:0:0:0:
293,253,22109,1,2,0:0:0:0:
240,357,22273,6,0,P|215:313|136:300,1,120,6|10,3:2|0:0,0:0:0:0:
90,227,22765,1,2,3:2:0:0:
100,221,23093,2,0,L|176:205,1,60,2|8,3:2|0:0,0:0:0:0:
241,159,23421,6,0,P|211:135|205:103,1,60,2|0,0:0|0:0,0:0:0:0:
110,93,23749,2,0,P|122:56|150:40,1,60,2|8,3:2|0:0,0:0:0:0:
226,5,24076,6,0,L|294:13,1,60,2|2,0:0|3:2,0:0:0:0:
356,77,24404,2,0,L|424:69,1,60,2|8,3:2|0:0,0:0:0:0:
489,132,24732,1,2,0:0:0:0:
450,230,24896,6,0,P|402:244|382:322,1,120,0|8,3:2|0:0,0:0:0:0:
295,355,25388,2,0,B|232:328|262:310|166:293,1,120,0|0,3:2|3:2,0:0:0:0:
102,336,25880,1,8,0:0:0:0:
15,272,26044,5,2,0:0:0:0:
15,272,26208,2,0,P|31:243|80:236,1,60,2|0,0:0|3:2,0:0:0:0:
138,185,26535,1,10,0:0:0:0:
75,112,26699,2,0,P|47:106|14:101,1,60,2|0,0:0|3:2,0:0:0:0:
43,8,27027,2,0,P|71:14|104:19,1,60,2|8,3:2|0:0,0:0:0:0:
172,84,27355,1,2,0:0:0:0:
283,63,27519,6,0,B|327:47|327:47|339:29|339:29|402:11,1,120,0|8,3:2|0:0,0:0:0:0:
467,70,28011,2,0,B|488:125|488:125|438:178,1,120,0|0,3:2|3:2,0:0:0:0:
364,221,28503,1,8,0:0:0:0:
419,305,28667,5,0,0:0:0:0:
419,305,28830,2,0,L|344:321,1,60,2|0,3:2|3:2,0:0:0:0:
261,346,29158,1,10,0:0:0:0:
221,252,29321,2,0,L|146:236,1,60,2|6,0:0|3:2,0:0:0:0:
79,185,29650,5,0,3:0:0:0:
79,185,29732,1,0,3:0:0:0:
79,185,29814,2,0,L|66:133,3,41.2500012588501,8|8|8|8,0:0|0:0|0:0|0:0,0:0:0:0:
49,107,30142,1,2,0:0:0:0:
512,19,40634,6,0,B|445:33|469:58|388:74,1,120,6|2,3:2|3:2,0:0:0:0:
233,15,41289,2,0,P|235:44|236:74,2,60,2|2|2,3:2|0:0|3:2,0:0:0:0:
293,143,41945,6,0,P|351:149|388:194,1,120,2|0,3:2|3:2,0:0:0:0:
406,288,42437,1,2,0:0:0:0:
406,288,42601,2,0,P|372:335|315:345,1,120,2|0,3:2|3:2,0:0:0:0:
227,308,43093,1,2,0:0:0:0:
227,308,43257,6,0,P|203:254|223:200,1,120,2|0,3:2|3:2,0:0:0:0:
324,50,43912,2,0,P|348:103|327:158,1,120,2|0,3:2|3:2,0:0:0:0:
152,111,44568,2,0,L|20:125,3,120,2|0|0|0,3:2|3:2|3:2|3:2,0:0:0:0:
197,262,45880,6,0,B|203:171|263:198|259:82,2,179.999994506836,6|0|2,3:2|0:0|0:0,0:0:0:0:
52,369,47847,2,0,P|36:353|2:344,2,44.999998626709,2|2|2,0:0|0:0|0:0,0:0:0:0:
146,338,48503,5,6,0:0:0:0:
117,95,50470,5,8,3:0:0:0:
117,95,50634,1,0,3:0:0:0:
443,343,51126,6,0,B|405:357|405:357|272:322,1,165.000005035401,6|8,3:2|0:0,0:0:0:0:
179,347,51617,1,2,3:2:0:0:
135,248,51781,2,0,B|173:262|173:262|306:227,1,165.000005035401,2|8,0:0|0:0,0:0:0:0:
386,171,52273,1,2,0:0:0:0:
386,171,52355,1,2,0:0:0:0:
386,171,52437,6,0,P|344:150|335:94,1,82.5000025177003,2|0,3:2|3:2,0:0:0:0:
375,20,52765,2,0,P|414:-5|467:14,1,82.5000025177003,10|0,0:0|3:2,0:0:0:0:
492,102,53093,1,2,0:0:0:0:
492,102,53257,1,0,3:2:0:0:
497,209,53421,2,0,P|474:259|441:354,1,123.75000377655,10|0,0:0|0:0,0:0:0:0:
435,338,53749,6,0,P|406:303|358:297,1,82.5000025177003,2|0,3:1|0:0,0:0:0:0:
277,347,54076,1,10,1:2:0:0:
199,272,54240,2,0,B|286:248|249:210|365:203,1,165.000005035401,0|0,3:2|3:2,0:0:0:0:
445,162,54732,1,10,1:2:0:0:
388,70,54896,1,0,0:0:0:0:
388,70,54978,1,0,0:0:0:0:
388,70,55060,6,0,P|356:114|317:110,1,82.5000025177003,2|0,3:2|3:2,0:0:0:0:
253,189,55388,2,0,P|208:157|212:118,1,82.5000025177003,10|0,1:2|3:2,0:0:0:0:
267,44,55716,1,2,1:2:0:0:
168,2,55880,1,0,3:2:0:0:
118,97,56044,2,0,B|47:78|86:58|-10:40,1,123.75000377655,10|0,1:2|0:0,0:0:0:0:
1,52,56371,6,0,L|19:140,1,82.5000025177003,6|0,3:2|0:0,0:0:0:0:
1,239,56699,1,10,0:0:0:0:
1,239,56863,1,2,3:2:0:0:
41,338,57027,2,0,P|73:290|185:290,1,165.000005035401,2|10,0:0|0:0,0:0:0:0:
255,356,57519,1,0,0:0:0:0:
255,356,57601,1,0,0:0:0:0:
255,356,57683,6,0,P|263:302|276:262,1,82.5000025177003,2|0,3:1|3:2,0:0:0:0:
368,228,58011,1,8,1:2:0:0:
287,156,58175,2,0,P|296:121|300:86,2,41.2500012588501,0|0|0,3:2|0:0|1:2,0:0:0:0:
184,179,58503,1,0,3:2:0:0:
184,179,58667,1,10,1:2:0:0:
29,32,58994,6,0,P|51:90|124:101,1,123.75000377655,2|0,3:2|0:0,0:0:0:0:
123,95,59322,1,10,0:0:0:0:
227,69,59486,2,0,B|319:60|281:19|400:19,1,165.000005035401,2|2,3:2|3:2,0:0:0:0:
466,85,59978,2,0,P|444:137|437:181,1,82.5000025177003,10|0,0:0|0:0,0:0:0:0:
438,162,60224,1,0,0:0:0:0:
438,162,60306,1,2,3:1:0:0:
360,235,60470,1,0,3:2:0:0:
397,335,60634,1,8,1:2:0:0:
184,365,60962,6,0,L|93:346,1,82.5000025177003,8|8,1:2|0:0,0:0:0:0:
63,360,61208,1,8,0:0:0:0:
63,360,61289,2,0,L|55:314,3,41.2500012588501,8|8|8|8,1:2|0:0|0:0|0:0,0:0:0:0:
20,296,61617,6,0,B|30:234|30:234|66:219|66:219|85:142,1,165.000005035401,6|8,3:2|0:0,0:0:0:0:
47,55,62109,1,2,3:2:0:0:
143,8,62273,2,0,B|158:69|158:69|194:84|194:84|204:146,1,165.000005035401,2|8,0:0|0:0,0:0:0:0:
280,223,62765,1,2,0:0:0:0:
280,223,62847,1,2,0:0:0:0:
280,223,62929,6,0,P|306:183|356:186,1,82.5000025177003,2|0,3:2|3:2,0:0:0:0:
423,243,63257,2,0,P|444:285|417:327,1,82.5000025177003,10|0,0:0|3:2,0:0:0:0:
329,334,63585,1,2,0:0:0:0:
329,334,63749,1,0,3:2:0:0:
227,300,63912,2,0,B|164:273|193:257|113:237,1,123.75000377655,10|0,0:0|0:0,0:0:0:0:
101,245,64240,6,0,L|85:145,1,82.5000025177003,2|0,3:1|0:0,0:0:0:0:
11,87,64568,1,10,1:2:0:0:
84,9,64732,2,0,P|120:67|222:71,1,165.000005035401,0|0,3:2|3:2,0:0:0:0:
311,40,65224,2,0,L|305:-2,3,41.2500012588501,10|0|0|0,1:2|0:0|0:0|0:0,0:0:0:0:
350,63,65552,6,0,L|330:153,1,82.5000025177003,2|0,3:2|3:2,0:0:0:0:
401,233,65880,1,10,0:0:0:0:
401,233,66044,1,0,3:2:0:0:
328,311,66208,2,0,P|304:268|260:257,1,82.5000025177003,2|0,1:2|3:2,0:0:0:0:
184,314,66535,2,0,B|161:325|161:325|61:299,1,123.75000377655,10|0,1:2|0:0,0:0:0:0:
45,295,66863,6,0,B|33:258|33:258|70:222,1,82.5000025177003,4|0,3:2|0:0,0:0:0:0:
35,123,67191,2,0,L|217:164,1,165.000005035401,10|2,0:0|0:0,0:0:0:0:
248,66,67683,1,0,3:2:0:0:
248,66,67847,2,0,P|272:108|327:109,1,82.5000025177003,10|0,0:0|0:0,0:0:0:0:
342,104,68093,1,0,0:0:0:0:
342,104,68175,6,0,P|399:98|440:101,1,82.5000025177003,2|0,3:1|3:2,0:0:0:0:
498,176,68503,1,8,1:2:0:0:
413,242,68667,2,0,P|382:244|366:243,2,41.2500012588501,0|0|0,3:2|0:0|1:2,0:0:0:0:
487,327,68994,1,0,3:2:0:0:
487,327,69158,1,10,1:2:0:0:
277,298,69486,6,0,P|256:248|166:246,1,123.75000377655,6|0,3:2|0:0,0:0:0:0:
175,243,69814,1,10,0:0:0:0:
81,295,69978,2,0,P|79:238|74:196,1,82.5000025177003,2|0,3:2|0:0,0:0:0:0:
30,114,70306,1,2,3:2:0:0:
117,52,70470,1,10,0:0:0:0:
333,104,70798,5,0,3:2:0:0:
333,104,70962,1,0,3:2:0:0:
424,160,71126,2,0,L|397:240,1,82.5000025177003,8|0,0:0|3:2,0:0:0:0:
338,327,71453,1,8,0:0:0:0:
239,287,71617,2,0,L|226:231,2,41.2500012588501,8|8|8,0:0|0:0|0:0,0:0:0:0:
163,363,71945,1,8,0:0:0:0:
163,363,72027,1,8,0:0:0:0:
163,363,72109,6,0,P|135:311|23:304,1,165.000005035401,6|8,3:2|0:0,0:0:0:0:
5,209,72601,1,2,3:2:0:0:
5,209,72765,1,2,0:0:0:0:
63,118,72929,2,0,P|89:166|133:165,1,82.5000025177003,2|8,3:2|0:0,0:0:0:0:
202,110,73257,6,0,P|220:57|225:42,2,41.2500012588501,2|0|2,3:2|0:0|3:2,0:0:0:0:
290,171,73585,2,0,P|272:224|264:259,1,82.5000025177003,2|8,3:2|0:0,0:0:0:0:
190,326,73912,1,2,3:2:0:0:
297,377,74076,1,2,0:0:0:0:
297,377,74240,2,0,P|327:338|386:335,1,82.5000025177003,2|8,3:2|0:0,0:0:0:0:
460,297,74568,1,2,0:0:0:0:
392,204,74732,6,0,B|385:121|329:145|305:57,1,165.000005035401,6|8,3:2|0:0,0:0:0:0:
217,8,75224,1,0,3:2:0:0:
143,86,75388,2,0,P|194:114|201:150,1,82.5000025177003,2|2,0:0|3:2,0:0:0:0:
125,210,75716,1,10,0:0:0:0:
217,283,75880,5,0,0:0:0:0:
217,283,75962,1,0,0:0:0:0:
217,283,76044,2,0,L|305:269,2,82.5000025177003,0|0|10,3:2|3:2|0:0,0:0:0:0:
131,332,76535,1,2,3:2:0:0:
57,265,76699,1,10,3:0:0:0:
97,175,76863,1,10,3:0:0:0:
195,185,77027,1,10,0:0:0:0:
385,131,77355,5,6,3:2:0:0:
256,192,77437,12,2,79322,0:0:0:0:
25,363,79978,6,0,B|67:354|67:354|96:320|96:320|160:307,1,150,6|10,3:2|0:0,0:0:0:0:
248,254,80470,2,0,B|227:225|227:225|265:183,1,75,2|0,3:2|0:0,0:0:0:0:
343,141,80798,1,0,3:2:0:0:
280,56,80962,2,0,L|197:68,1,75,10|0,0:0|0:0,0:0:0:0:
206,67,81208,1,0,0:0:0:0:
206,67,81289,1,0,3:2:0:0:
120,6,81453,6,0,P|82:29|78:67,1,75,2|10,3:2|0:0,0:0:0:0:
132,146,81781,1,0,3:2:0:0:
82,240,81945,1,2,3:2:0:0:
82,240,82109,2,0,P|28:235|-9:234,2,75,2|10|0,3:2|0:0|0:0,0:0:0:0:
116,354,82601,6,0,P|145:297|231:279,1,150,6|10,3:2|0:0,0:0:0:0:
312,334,83093,2,0,P|361:342|420:352,1,75,2|0,3:2|0:0,0:0:0:0:
470,282,83421,1,0,3:2:0:0:
477,177,83585,2,0,P|440:183|402:189,1,75,10|0,0:0|0:0,0:0:0:0:
402,189,83830,1,0,0:0:0:0:
402,189,83912,1,0,3:2:0:0:
316,129,84076,6,0,P|291:92|245:88,1,75,2|10,3:2|0:0,0:0:0:0:
165,124,84404,1,2,3:2:0:0:
95,61,84568,5,10,0:0:0:0:
95,61,84650,1,8,0:0:0:0:
95,61,84732,2,0,L|102:9,2,37.5,10|8|10,0:0|0:0|0:0,0:0:0:0:
19,134,85060,1,8,0:0:0:0:
83,212,85224,6,0,B|166:219|129:244|216:265,1,134.999995880127,6|2,3:2|0:0,0:0:0:0:
267,340,85880,2,0,P|302:298|393:296,1,134.999995880127,2|2,0:0|0:0,0:0:0:0:
460,345,86535,1,2,0:0:0:0:
460,345,87191,6,0,L|467:298,1,44.999998626709,2|2,0:0|0:0,0:0:0:0:
509,220,87519,2,0,L|491:117,1,89.9999972534181,2|0,0:0|0:0,0:0:0:0:
