osu file format v14

[General]
AudioFilename: audio.ogg
AudioLeadIn: 0
PreviewTime:51044
Countdown: 0
SampleSet: Soft
StackLeniency: 0.4
Mode: 0
LetterboxInBreaks: 0
WidescreenStoryboard: 1

[Editor]
DistanceSpacing: 1
BeatDivisor: 4
GridSize: 16
TimelineZoom: 1.6

[Metadata]
Title:NAME (TV Size)
TitleUnicode:NAME (TV Size)
Artist:Tsuzuri
ArtistUnicode:綴
Creator:Kyutei
Version:AMATS' NORMAL
Source:好きな子がめがねを忘れた
Tags:Anya Melfissa Shingyouji Yuni original3s Amats _Karaage Karaage Suki na Ko ga Megane wo Wasureta The Girl I Like Forgot Her Glasses Sukimega GoHands Square Enix flying DOG Glovision Shouchiku Manga DECO*27 DECO27 jpop j-pop pop japanese anime opening op
BeatmapID:4218496
BeatmapSetID:2024909

[Difficulty]
HPDrainRate:3
CircleSize:3.2
OverallDifficulty:4
ApproachRate:5
SliderMultiplier:0.999999999999999
SliderTickRate:1

[Events]
//Background and Video events
0,0,"bg.jpg",0,0
Video,-170,"op.mp4"
//Break Periods
2,30178,39434
//Storyboard Layer 0 (Background)
//Storyboard Layer 1 (Fail)
//Storyboard Layer 2 (Pass)
//Storyboard Layer 3 (Foreground)
//Storyboard Layer 4 (Overlay)
//Storyboard Sound Samples

[TimingPoints]
1290,327.868852459016,4,2,1,60,1,0
1290,-111.111111111111,4,2,1,60,0,0
5224,-100,4,2,1,60,0,0
6535,-100,4,2,1,70,0,0
11781,-111.111111111111,4,2,1,60,0,0
30142,-111.111111111111,4,2,1,50,0,0
35388,-125,4,2,1,50,0,0
40634,-111.111111111111,4,2,1,60,0,0
45880,-125,4,2,1,60,0,0
51126,-100,4,2,1,80,0,1
72109,-100,4,2,1,70,0,1
77355,-100,4,2,1,60,0,0
79978,-100,4,2,1,70,0,0
85224,-100,4,2,1,50,0,0

[Colours]
Combo1 : 236,138,130
Combo2 : 233,69,114

[HitObjects]
124,112,1290,6,0,L|219:95,1,89.999997253418,2|0,0:0|0:0,0:0:0:0:
252,120,1781,1,2,0:0:0:0:
376,72,2273,2,0,P|392:108|376:168,1,89.999997253418,2|0,0:0|0:0,0:0:0:0:
344,180,2765,1,2,0:0:0:0:
236,108,3257,1,2,0:0:0:0:
236,108,3421,2,0,L|141:125,1,89.999997253418,2|0,0:0|0:0,0:0:0:0:
108,104,3912,5,2,0:0:0:0:
0,188,4404,2,0,L|17:283,1,89.999997253418,2|0,0:0|0:0,0:0:0:0:
24,320,4896,1,2,0:0:0:0:
116,280,5224,1,8,0:0:0:0:
116,280,5388,2,0,L|214:297,1,99.9999999999999,10|8,3:0|0:0,0:0:0:0:
248,336,5880,1,10,3:0:0:0:
328,276,6208,1,8,0:0:0:0:
424,304,6535,6,0,P|444:264|424:200,1,99.9999999999999,6|10,3:2|0:0,0:0:0:0:
404,172,7027,1,2,3:2:0:0:
308,192,7355,1,0,3:2:0:0:
308,192,7519,2,0,L|210:175,1,99.9999999999999,10|0,0:0|3:2,0:0:0:0:
160,188,8011,2,0,P|140:148|160:84,1,99.9999999999999,2|0,3:2|3:2,0:0:0:0:
176,52,8503,1,2,3:2:0:0:
264,100,8830,1,10,0:0:0:0:
344,40,9158,6,0,L|442:23,1,99.9999999999999,6|10,3:2|0:0,0:0:0:0:
492,36,9650,2,0,P|512:76|492:140,1,99.9999999999999,2|0,3:2|3:2,0:0:0:0:
464,160,10142,1,10,0:0:0:0:
376,128,10470,1,0,3:2:0:0:
376,128,10634,2,0,L|278:145,1,99.9999999999999,2|2,3:2|3:2,0:0:0:0:
240,180,11126,1,2,3:2:0:0:
172,108,11453,1,8,0:0:0:0:
80,140,11781,6,0,P|61:178|80:240,1,89.999997253418,6|10,3:2|0:0,0:0:0:0:
108,244,12273,1,2,3:2:0:0:
172,308,12601,1,2,3:2:0:0:
252,264,12929,2,0,L|347:281,1,89.999997253418,2|2,3:2|3:2,0:0:0:0:
424,328,13585,1,2,0:0:0:0:
424,328,13749,2,0,P|443:290|424:228,1,89.999997253418,2|10,3:2|0:0,0:0:0:0:
352,212,14404,6,0,P|333:174|352:112,1,89.999997253418,0|8,3:2|0:0,0:0:0:0:
368,92,14896,1,0,3:2:0:0:
252,24,15388,1,8,0:0:0:0:
172,64,15716,2,0,L|77:47,2,89.999997253418,0|8|0,0:0|0:0|3:2,0:0:0:0:
252,24,16699,1,8,0:0:0:0:
336,60,17027,6,0,P|355:98|336:160,1,89.999997253418,6|10,3:2|0:0,0:0:0:0:
324,184,17519,1,2,3:2:0:0:
252,236,17847,1,2,3:2:0:0:
312,304,18175,2,0,L|400:288,1,89.999997253418,2|2,3:2|3:2,0:0:0:0:
476,236,18830,1,2,0:0:0:0:
476,236,18994,2,0,P|495:198|476:136,1,89.999997253418,2|10,3:2|0:0,0:0:0:0:
440,76,19650,6,0,L|345:93,1,89.999997253418,0|8,3:2|0:0,0:0:0:0:
324,128,20142,1,0,3:2:0:0:
196,80,20634,1,8,0:0:0:0:
128,140,20962,2,0,P|109:178|128:240,1,89.999997253418,0|8,0:0|0:0,0:0:0:0:
144,264,21453,1,2,0:0:0:0:
144,264,21617,2,0,L|239:247,1,89.999997253418,2|10,3:2|0:0,0:0:0:0:
300,308,22273,6,0,L|395:291,1,89.999997253418,6|10,3:2|0:0,0:0:0:0:
432,304,22765,2,0,P|451:264|444:221,1,89.999997253418,2|2,3:2|3:2,0:0:0:0:
412,136,23421,2,0,L|317:153,1,89.999997253418,2|2,0:0|3:2,0:0:0:0:
240,184,24076,2,0,P|221:144|228:101,1,89.999997253418,2|2,0:0|3:2,0:0:0:0:
284,28,24732,1,2,0:0:0:0:
284,28,24896,6,0,L|195:12,1,89.999997253418,0|8,3:2|0:0,0:0:0:0:
153,29,25388,1,0,3:2:0:0:
72,0,25716,1,0,3:2:0:0:
72,0,25880,1,8,0:0:0:0:
4,60,26208,2,0,L|20:149,1,89.999997253418,2|10,0:0|0:0,0:0:0:0:
30,192,26699,1,2,0:0:0:0:
108,236,27027,2,0,P|152:244|191:224,1,89.999997253418,2|2,3:2|0:0,0:0:0:0:
220,188,27519,6,0,P|260:169|303:176,1,89.999997253418,0|8,3:2|0:0,0:0:0:0:
336,208,28011,1,0,3:2:0:0:
412,160,28339,1,0,3:2:0:0:
412,160,28503,1,8,0:0:0:0:
496,192,28830,2,0,L|480:281,1,89.999997253418,2|10,3:2|0:0,0:0:0:0:
468,324,29322,2,0,P|428:305|385:312,1,89.999997253418,2|0,0:0|3:0,0:0:0:0:
352,344,29814,1,8,0:0:0:0:
352,344,29978,1,8,0:0:0:0:
332,108,40634,6,0,L|241:124,2,89.999997253418,6|2|2,3:2|3:2|3:2,0:0:0:0:
396,44,41617,1,2,3:2:0:0:
480,72,41945,2,0,P|499:110|480:172,1,89.999997253418,2|0,3:2|3:2,0:0:0:0:
404,172,42601,2,0,P|385:212|392:255,1,89.999997253418,2|0,3:2|3:2,0:0:0:0:
436,336,43257,6,0,L|347:352,1,89.999997253418,2|0,3:2|3:2,0:0:0:0:
276,300,43912,2,0,L|187:316,1,89.999997253418,2|0,3:2|3:2,0:0:0:0:
104,352,44568,2,0,P|85:312|92:269,1,89.999997253418,2|0,3:2|3:2,0:0:0:0:
172,224,45224,1,0,3:2:0:0:
112,156,45552,1,0,3:2:0:0:
184,104,45880,6,0,B|226:103|247:145|247:145|240:54|321:37|352:72|352:72|309:89|310:132,1,320,6|2,3:2|0:0,0:0:0:0:
256,192,48503,8,8,50470,3:0:0:0:
80,108,51126,6,0,B|134:92|134:92|154:108|170:116,1,99.9999999999999,6|8,3:2|0:0,0:0:0:0:
212,152,51617,1,2,3:2:0:0:
212,152,51781,2,0,L|310:135,1,99.9999999999999,2|8,0:0|0:0,0:0:0:0:
356,164,52273,1,2,0:0:0:0:
356,164,52437,1,2,3:2:0:0:
440,108,52765,1,10,0:0:0:0:
512,180,53093,1,2,0:0:0:0:
452,260,53421,2,0,L|462:319,1,50,10|0,0:0|0:0,0:0:0:0:
448,360,53749,6,0,B|392:360|408:336|336:332,1,99.9999999999999,2|10,3:1|1:2,0:0:0:0:
308,356,54240,1,0,3:2:0:0:
232,300,54568,1,0,3:2:0:0:
232,300,54732,2,0,L|222:241,1,50,10|0,1:2|0:0,0:0:0:0:
248,208,55060,1,2,3:2:0:0:
192,124,55388,2,0,L|133:134,1,50,10|0,1:2|3:2,0:0:0:0:
100,156,55716,1,2,1:2:0:0:
24,92,56044,1,10,1:2:0:0:
76,8,56371,6,0,B|117:15|117:15|130:9|130:9|173:17,1,99.9999999999999,6|10,3:2|0:0,0:0:0:0:
228,32,56863,1,2,3:2:0:0:
228,32,57027,2,0,P|248:72|228:136,1,99.9999999999999,2|10,0:0|0:0,0:0:0:0:
140,152,57683,2,0,P|120:192|140:256,1,99.9999999999999,2|8,3:1|1:2,0:0:0:0:
160,284,58175,2,0,L|258:267,1,99.9999999999999,0|0,3:2|3:2,0:0:0:0:
296,300,58667,1,10,1:2:0:0:
392,268,58994,6,0,P|412:228|392:164,1,99.9999999999999,2|10,3:2|0:0,0:0:0:0:
360,144,59486,1,2,3:2:0:0:
272,188,59814,1,2,3:2:0:0:
272,188,59978,2,0,L|213:178,1,50,10|0,0:0|0:0,0:0:0:0:
180,208,60306,1,2,3:1:0:0:
96,156,60634,1,8,1:2:0:0:
132,64,60962,1,8,1:2:0:0:
228,84,61289,2,0,L|287:74,1,50,8|8,1:2|0:0,0:0:0:0:
324,56,61617,6,0,B|317:97|317:97|323:110|323:110|315:153,1,99.9999999999999,6|8,3:2|0:0,0:0:0:0:
308,204,62109,1,2,3:2:0:0:
308,204,62273,2,0,P|268:184|204:204,1,99.9999999999999,2|8,0:0|0:0,0:0:0:0:
176,224,62765,1,2,0:0:0:0:
176,224,62929,1,2,3:2:0:0:
92,172,63257,1,10,0:0:0:0:
24,244,63585,1,2,0:0:0:0:
76,328,63912,2,0,L|135:318,1,50,10|0,0:0|0:0,0:0:0:0:
164,348,64240,6,0,L|262:331,1,99.9999999999999,2|10,3:1|1:2,0:0:0:0:
308,352,64732,1,0,3:2:0:0:
404,316,65060,1,0,3:2:0:0:
404,316,65224,2,0,L|394:257,1,50,10|0,1:2|0:0,0:0:0:0:
384,216,65552,1,2,3:2:0:0:
292,252,65880,1,10,0:0:0:0:
224,180,66208,1,2,1:2:0:0:
272,92,66535,1,10,1:2:0:0:
368,116,66863,6,0,B|424:116|408:92|480:88,1,99.9999999999999,4|10,3:2|0:0,0:0:0:0:
512,116,67355,1,2,3:2:0:0:
512,116,67519,2,0,L|495:214,1,99.9999999999999,2|10,0:0|0:0,0:0:0:0:
424,288,68175,2,0,P|376:299|332:279,1,99.9999999999999,2|8,3:1|1:2,0:0:0:0:
300,240,68667,1,0,3:2:0:0:
216,292,68994,1,0,3:2:0:0:
216,292,69158,2,0,L|157:282,1,50,10|0,1:2|0:0,0:0:0:0:
116,292,69486,6,0,L|99:194,1,99.9999999999999,6|10,3:2|0:0,0:0:0:0:
64,160,69978,1,2,3:2:0:0:
108,72,70306,1,2,3:2:0:0:
108,72,70470,1,10,0:0:0:0:
200,116,70798,2,0,L|259:106,1,50,0|0,3:2|3:2,0:0:0:0:
292,132,71126,2,0,L|351:122,1,50,8|0,0:0|3:2,0:0:0:0:
376,84,71453,1,8,0:0:0:0:
470,116,71781,2,0,L|460:175,1,50,8|8,0:0|0:0,0:0:0:0:
450,216,72109,6,0,B|409:223|409:223|396:217|396:217|353:225,1,99.9999999999999,6|8,3:2|0:0,0:0:0:0:
308,244,72601,1,2,3:2:0:0:
308,244,72765,2,0,P|287:199|299:152,1,99.9999999999999,2|8,0:0|0:0,0:0:0:0:
340,60,73421,2,0,L|242:77,1,99.9999999999999,2|8,3:2|0:0,0:0:0:0:
204,112,73912,2,0,L|145:122,1,50,2|2,3:2|0:0,0:0:0:0:
116,88,74240,1,2,3:2:0:0:
36,148,74568,1,2,0:0:0:0:
36,148,74732,6,0,B|43:189|43:189|37:202|37:202|45:245,2,99.9999999999999,6|8|2,3:2|0:0|0:0,0:0:0:0:
20,104,75552,1,2,3:2:0:0:
20,104,75716,1,10,0:0:0:0:
104,48,76044,2,0,L|202:65,1,99.9999999999999,0|10,3:2|0:0,0:0:0:0:
256,76,76535,1,2,3:2:0:0:
256,76,76699,2,0,L|266:17,2,50,10|10|10,3:0|3:0|0:0,0:0:0:0:
240,176,77355,5,6,3:2:0:0:
32,280,79978,6,0,L|130:263,1,99.9999999999999,6|10,3:2|0:0,0:0:0:0:
168,296,80470,1,2,3:2:0:0:
264,264,80798,1,0,3:2:0:0:
264,264,80962,2,0,P|285:219|273:172,1,99.9999999999999,10|0,0:0|3:2,0:0:0:0:
236,140,81453,1,2,3:2:0:0:
300,64,81781,1,0,3:2:0:0:
300,64,81945,2,0,L|359:74,1,50,2|2,3:2|3:2,0:0:0:0:
392,100,82273,1,10,0:0:0:0:
488,68,82601,6,0,P|509:113|497:160,1,99.9999999999999,6|10,3:2|0:0,0:0:0:0:
472,204,83093,1,2,3:2:0:0:
380,188,83421,1,0,3:2:0:0:
380,188,83585,2,0,L|282:205,1,99.9999999999999,10|0,0:0|3:2,0:0:0:0:
240,232,84076,1,2,3:2:0:0:
164,176,84404,1,2,3:2:0:0:
164,176,84568,2,0,L|174:117,1,50,10|10,0:0|0:0,0:0:0:0:
220,108,84896,2,0,L|230:49,1,50,10|8,0:0|0:0,0:0:0:0:
196,20,85224,5,6,3:2:0:0:
