osu file format v14

[General]
AudioFilename: audio.ogg
AudioLeadIn: 0
PreviewTime: 51044
Countdown: 0
SampleSet: Soft
StackLeniency: 0.7
Mode: 0
LetterboxInBreaks: 0
WidescreenStoryboard: 0

[Editor]
DistanceSpacing: 1.4
BeatDivisor: 4
GridSize: 32
TimelineZoom: 1.3

[Metadata]
Title:NAME (TV Size)
TitleUnicode:NAME (TV Size)
Artist:Tsuzuri
ArtistUnicode:綴
Creator:Amats
Version:Normal
Source:好きな子がめがねを忘れた
Tags:kemu shouta grazuko 堀江晶太 Shota Horie 三重 あい Mie Ai female vocals Suki na Ko ga Megane wo Wasureta The Girl I Like Forgot Her Glasses DECO*27 DECO27 anime japanese jpop pop j-pop op opening asukow -_nilou_- Syndicate_ bm69 ballsmaster69 mrcheesemr actiol fujinn
BeatmapID:4224533
BeatmapSetID:2027396

[Difficulty]
HPDrainRate:3
CircleSize:3
OverallDifficulty:4
ApproachRate:5.5
SliderMultiplier:1
SliderTickRate:1

[Events]
//Background and Video events
Video,-115,"op.mp4"
0,0,"aaaaaaa.jpg",0,0
//Break Periods
//Storyboard Layer 0 (Background)
//Storyboard Layer 1 (Fail)
//Storyboard Layer 2 (Pass)
//Storyboard Layer 3 (Foreground)
//Storyboard Layer 4 (Overlay)
//Storyboard Sound Samples

[TimingPoints]
1290,327.868852459016,4,2,91,40,1,0
1290,-111.111111111111,4,2,91,40,0,0
5224,-100,4,2,91,50,0,0
5552,-100,4,2,11,50,0,0
5716,-100,4,2,24,50,0,0
5880,-100,4,2,92,50,0,0
6208,-100,4,2,91,50,0,0
6535,-100,4,2,93,65,0,0
6863,-100,4,2,51,65,0,0
7027,-100,4,2,94,65,0,0
7191,-100,4,2,97,65,0,0
7519,-100,4,2,91,65,0,0
7847,-100,4,2,94,65,0,0
8175,-100,4,2,97,65,0,0
8503,-100,4,2,91,65,0,0
8667,-100,4,2,94,65,0,0
8830,-100,4,2,51,65,0,0
9158,-100,4,2,94,65,0,0
9322,-100,4,2,51,65,0,0
9650,-100,4,2,94,65,0,0
9814,-100,4,2,97,65,0,0
10142,-100,4,2,91,65,0,0
10470,-100,4,2,94,65,0,0
10798,-100,4,2,97,65,0,0
11126,-100,4,2,91,65,0,0
11289,-100,4,2,94,65,0,0
11453,-100,4,2,91,65,0,0
11781,-111.111111111111,4,2,95,55,0,0
12273,-111.111111111111,4,2,94,55,0,0
12437,-111.111111111111,4,2,7,55,0,0
12601,-111.111111111111,4,2,94,55,0,0
12765,-111.111111111111,4,2,91,55,0,0
13257,-111.111111111111,4,2,94,55,0,0
13421,-111.111111111111,4,2,91,55,0,0
13749,-111.111111111111,4,2,94,55,0,0
14076,-111.111111111111,4,2,91,55,0,0
14404,-111.111111111111,4,2,97,55,0,0
17027,-111.111111111111,4,2,94,55,0,0
17191,-111.111111111111,4,2,91,55,0,0
17519,-111.111111111111,4,2,94,55,0,0
17683,-111.111111111111,4,2,7,55,0,0
17847,-111.111111111111,4,2,94,55,0,0
18011,-111.111111111111,4,2,91,55,0,0
18339,-111.111111111111,4,2,94,55,0,0
18667,-111.111111111111,4,2,91,55,0,0
18994,-111.111111111111,4,2,94,55,0,0
19322,-111.111111111111,4,2,91,55,0,0
19650,-111.111111111111,4,2,97,55,0,0
21453,-111.111111111111,4,2,91,55,0,0
21617,-111.111111111111,4,2,94,55,0,0
21945,-111.111111111111,4,2,91,55,0,0
22273,-111.111111111111,4,2,93,55,0,0
22437,-111.111111111111,4,2,91,55,0,0
22765,-111.111111111111,4,2,94,55,0,0
22929,-111.111111111111,4,2,7,55,0,0
23093,-111.111111111111,4,2,94,55,0,0
23257,-111.111111111111,4,2,91,55,0,0
23749,-111.111111111111,4,2,94,55,0,0
23912,-111.111111111111,4,2,91,55,0,0
24240,-111.111111111111,4,2,94,55,0,0
24568,-111.111111111111,4,2,91,55,0,0
24896,-111.111111111111,4,2,97,55,0,0
26044,-111.111111111111,4,2,91,55,0,0
26371,-111.111111111111,4,2,50,55,0,0
26535,-111.111111111111,4,2,91,55,0,0
26863,-111.111111111111,4,2,94,55,0,0
27191,-111.111111111111,4,2,91,55,0,0
27519,-111.111111111111,4,2,97,55,0,0
28667,-111.111111111111,4,2,91,55,0,0
28830,-111.111111111111,4,2,94,55,0,0
28994,-111.111111111111,4,2,91,55,0,0
29486,-111.111111111111,4,2,94,55,0,0
29650,-111.111111111111,4,2,94,45,0,0
29732,-111.111111111111,4,2,94,50,0,0
29814,-111.111111111111,4,2,94,55,0,0
29896,-111.111111111111,4,2,94,60,0,0
29978,-111.111111111111,4,2,94,65,0,0
30060,-111.111111111111,4,2,94,70,0,0
30142,-111.111111111111,4,2,94,40,0,0
40634,-111.111111111111,4,2,93,45,0,0
41453,-111.111111111111,4,2,91,45,0,0
45880,-111.111111111111,4,2,95,35,0,0
46044,-111.111111111111,4,2,91,35,0,0
50470,-111.111111111111,4,2,14,65,0,0
50634,-111.111111111111,4,2,52,65,0,0
51126,-100,4,2,96,80,0,1
51453,-100,4,2,97,80,0,1
51617,-100,4,2,94,80,0,1
51781,-100,4,2,96,80,0,1
51945,-100,4,2,97,80,0,1
52273,-100,4,2,91,80,0,1
52437,-100,4,2,98,80,0,1
52765,-100,4,2,96,80,0,1
52929,-100,4,2,97,80,0,1
53093,-100,4,2,96,80,0,1
53257,-100,4,2,50,80,0,1
53421,-100,4,2,96,80,0,1
53749,-100,4,2,50,80,0,1
53912,-100,4,2,96,80,0,1
54240,-100,4,2,50,80,0,1
54404,-100,4,2,10,80,0,1
54568,-100,4,2,50,80,0,1
54732,-100,4,2,96,80,0,1
55060,-100,4,2,98,80,0,1
55388,-100,4,2,96,80,0,1
55552,-100,4,2,97,80,0,1
55716,-100,4,2,96,80,0,1
55880,-100,4,2,50,80,0,1
56044,-100,4,2,96,80,0,1
56371,-100,4,2,97,80,0,1
56535,-100,4,2,96,80,0,1
56863,-100,4,2,94,80,0,1
57027,-100,4,2,96,80,0,1
57191,-100,4,2,50,80,0,1
57355,-100,4,2,96,80,0,1
57683,-100,4,2,50,80,0,1
58011,-100,4,2,97,80,0,1
58339,-100,4,2,10,80,0,1
58503,-100,4,2,50,80,0,1
58667,-100,4,2,96,80,0,1
58994,-100,4,2,98,80,0,1
59158,-100,4,2,96,80,0,1
59486,-100,4,2,94,80,0,1
59650,-100,4,2,10,80,0,1
59814,-100,4,2,94,80,0,1
59978,-100,4,2,96,80,0,1
60306,-100,4,2,50,80,0,1
60634,-100,4,2,97,80,0,1
60798,-100,4,2,95,80,0,1
61126,-100,4,2,94,80,0,1
61617,-100,4,2,93,80,0,1
61945,-100,4,2,97,80,0,1
62109,-100,4,2,94,80,0,1
62273,-100,4,2,96,80,0,1
62437,-100,4,2,97,80,0,1
62765,-100,4,2,91,80,0,1
62929,-100,4,2,98,80,0,1
63257,-100,4,2,96,80,0,1
63421,-100,4,2,97,80,0,1
63585,-100,4,2,96,80,0,1
63749,-100,4,2,50,80,0,1
63912,-100,4,2,96,80,0,1
64240,-100,4,2,50,80,0,1
64404,-100,4,2,96,80,0,1
64732,-100,4,2,50,80,0,1
64896,-100,4,2,10,80,0,1
65060,-100,4,2,97,80,0,1
65552,-100,4,2,98,80,0,1
65880,-100,4,2,96,80,0,1
66044,-100,4,2,50,80,0,1
66208,-100,4,2,96,80,0,1
66371,-100,4,2,50,80,0,1
66535,-100,4,2,96,80,0,1
67191,-100,4,2,91,80,0,1
67355,-100,4,2,50,80,0,1
67519,-100,4,2,96,80,0,1
67683,-100,4,2,94,80,0,1
67847,-100,4,2,96,80,0,1
68175,-100,4,2,50,80,0,1
68503,-100,4,2,97,80,0,1
68830,-100,4,2,10,80,0,1
68994,-100,4,2,50,80,0,1
69158,-100,4,2,96,80,0,1
69486,-100,4,2,98,80,0,1
69650,-100,4,2,96,80,0,1
69978,-100,4,2,94,80,0,1
70142,-100,4,2,10,80,0,1
70306,-100,4,2,94,80,0,1
70470,-100,4,2,95,80,0,1
70798,-100,4,2,97,80,0,1
71453,-100,4,2,91,70,0,1
72109,-100,4,2,93,80,0,1
72273,-100,4,2,91,80,0,1
72437,-100,4,2,97,80,0,1
72601,-100,4,2,94,80,0,1
72765,-100,4,2,96,80,0,1
72929,-100,4,2,94,80,0,1
73093,-100,4,2,97,80,0,1
73257,-100,4,2,91,80,0,1
73421,-100,4,2,98,80,0,1
73585,-100,4,2,94,80,0,1
73749,-100,4,2,51,80,0,1
73912,-100,4,2,94,80,0,1
74076,-100,4,2,96,80,0,1
74240,-100,4,2,94,80,0,1
74404,-100,4,2,97,80,0,1
74568,-100,4,2,94,80,0,1
74896,-100,4,2,97,80,0,1
75388,-100,4,2,96,80,0,1
75552,-100,4,2,94,80,0,1
75716,-100,4,2,96,80,0,1
76044,-100,4,2,50,80,0,1
76371,-100,4,2,82,80,0,1
76535,-100,4,2,94,80,0,1
76617,-100,4,2,92,80,0,1
76863,-100,4,2,99,80,0,1
77027,-100,4,2,100,80,0,1
77355,-100,4,2,94,50,0,0
79978,-100,4,2,93,65,0,0
80306,-100,4,2,51,65,0,0
80470,-100,4,2,94,65,0,0
80634,-100,4,2,97,65,0,0
80962,-100,4,2,91,65,0,0
81289,-100,4,2,94,65,0,0
81617,-100,4,2,97,65,0,0
81945,-100,4,2,91,65,0,0
82109,-100,4,2,94,65,0,0
82273,-100,4,2,51,65,0,0
82601,-100,4,2,94,65,0,0
82765,-100,4,2,51,65,0,0
83093,-100,4,2,94,65,0,0
83257,-100,4,2,97,65,0,0
83585,-100,4,2,91,65,0,0
83912,-100,4,2,94,65,0,0
84240,-100,4,2,51,65,0,0
84404,-100,4,2,94,65,0,0
84486,-100,4,2,91,65,0,0
85224,-100,4,2,95,40,0,0
85716,-100,4,2,91,40,0,0

[Colours]
Combo1 : 0,157,157
Combo2 : 191,128,128
Combo3 : 255,169,128

[HitObjects]
2,102,1290,6,0,L|96:85,1,90.0000000000001,2|0,2:2|0:0,0:0:0:0:
132,104,1781,1,2,2:2:0:0:
260,64,2273,2,0,P|280:104|264:160,1,90.0000000000001,2|0,2:2|0:0,0:0:0:0:
244,182,2765,1,2,2:2:0:0:
132,104,3257,2,0,L|122:46,2,45.0000000000001,2|2|0,2:2|2:2|0:0,0:0:0:0:
62,162,3912,6,0,P|42:202|58:258,1,90.0000000000001,2|0,2:2|0:0,0:0:0:0:
67,286,4404,1,2,2:2:0:0:
179,361,4896,1,2,2:2:0:0:
272,320,5224,2,0,L|322:329,2,50,8|6|4,2:2|2:2|2:3,0:0:0:0:
244,284,5716,1,8,2:2:0:0:
244,284,5880,2,0,P|235:262|235:237,1,50,6|6,2:2|1:2,0:0:0:0:
272,200,6208,1,8,1:2:0:0:
204,128,6535,6,0,B|140:128|168:152|108:156,1,100,6|8,1:2|3:2,0:0:0:0:
72,188,7027,1,2,1:2:0:0:
0,128,7355,1,0,1:1:0:0:
0,128,7519,2,0,L|18:29,1,100,10|0,3:2|1:1,0:0:0:0:
64,8,8011,2,0,L|163:26,1,100,2|0,1:2|1:1,0:0:0:0:
204,56,8503,1,2,3:2:0:0:
288,4,8830,1,8,3:2:0:0:
380,44,9158,6,0,L|362:143,1,100,2|8,1:2|3:2,0:0:0:0:
356,192,9650,1,2,1:2:0:0:
328,292,9978,1,0,1:1:0:0:
328,292,10142,2,0,L|229:274,1,100,10|0,3:2|1:1,0:0:0:0:
192,240,10634,2,0,P|168:196|180:140,1,100,2|0,1:2|1:1,0:0:0:0:
204,108,11126,2,0,L|194:49,1,50,2|2,3:2|1:2,0:0:0:0:
160,24,11453,1,8,3:2:0:0:
79,63,11781,6,0,L|63:157,1,90.0000000000001,6|10,1:2|3:2,0:0:0:0:
58,196,12273,1,2,1:2:0:0:
105,272,12601,1,2,1:2:0:0:
189,240,12929,2,0,P|228:226|282:241,1,90.0000000000001,2|2,3:2|1:2,0:0:0:0:
368,232,13585,1,2,3:2:0:0:
368,232,13749,2,0,L|352:326,1,90.0000000000001,2|10,1:2|3:2,0:0:0:0:
278,371,14404,6,0,L|184:355,1,90.0000000000001,0|8,1:1|3:2,0:0:0:0:
148,372,14896,1,0,1:1:0:0:
93,307,15224,1,0,1:1:0:0:
93,307,15388,1,8,3:2:0:0:
110,218,15716,2,0,P|66:207|24:221,2,90.0000000000001,0|8|0,3:3|3:2|1:1,0:0:0:0:
196,244,16699,1,8,3:2:0:0:
276,204,17027,6,0,L|260:115,1,90.0000000000001,2|10,1:2|3:2,0:0:0:0:
252,72,17519,1,2,1:2:0:0:
180,16,17847,1,2,1:2:0:0:
92,40,18175,2,0,P|78:79|93:133,1,90.0000000000001,2|2,3:2|1:2,0:0:0:0:
149,199,18830,1,2,3:2:0:0:
149,199,18994,2,0,L|237:183,1,90.0000000000001,2|10,1:2|3:2,0:0:0:0:
321,217,19650,6,0,L|410:202,1,90.0000000000001,0|8,1:1|3:2,0:0:0:0:
440,168,20142,1,0,1:1:0:0:
508,236,20470,1,0,1:1:0:0:
508,236,20634,1,8,3:2:0:0:
468,316,20962,2,0,P|429:330|375:315,1,90.0000000000001,0|8,1:1|3:2,0:0:0:0:
352,296,21453,1,2,3:2:0:0:
352,296,21617,2,0,L|264:312,1,90.0000000000001,2|10,1:2|3:2,0:0:0:0:
188,360,22273,6,0,L|100:345,1,90.0000000000001,6|10,1:2|3:2,0:0:0:0:
56,352,22765,1,2,1:2:0:0:
20,272,23093,1,2,1:2:0:0:
68,196,23421,2,0,P|111:185|153:199,1,90.0000000000001,2|2,3:2|1:2,0:0:0:0:
232,244,24076,2,0,P|246:201|235:158,1,90.0000000000001,2|2,3:2|1:2,0:0:0:0:
260,76,24732,1,2,2:2:0:0:
260,76,24896,6,0,L|349:91,1,90.0000000000001,0|8,1:1|3:2,0:0:0:0:
380,124,25388,1,0,1:1:0:0:
452,68,25716,1,0,1:1:0:0:
452,68,25880,1,8,3:2:0:0:
508,140,26208,2,0,L|492:228,1,90.0000000000001,2|10,3:2|3:2,0:0:0:0:
484,272,26699,1,2,3:2:0:0:
400,296,27027,1,2,1:2:0:0:
400,296,27191,1,8,3:2:0:0:
326,243,27519,6,0,P|311:200|322:157,1,90.0000000000001,0|8,1:1|3:2,0:0:0:0:
356,128,28011,1,0,1:1:0:0:
324,48,28339,1,0,1:1:0:0:
324,48,28503,1,8,3:2:0:0:
236,72,28830,2,0,L|147:56,1,90.0000000000001,2|10,1:2|3:2,0:0:0:0:
112,32,29322,1,2,3:2:0:0:
40,84,29650,1,10,2:2:0:0:
40,84,29814,2,0,L|50:143,1,45.0000000000001,8|10,1:2|2:2,0:0:0:0:
56,172,30142,6,0,B|164:148|120:240|252:224,1,180,2|2,2:2|2:2,0:0:0:0:
280,160,31126,1,2,2:2:0:0:
364,188,31453,2,0,B|408:260|364:328|364:328|352:310|336:296,1,180,2|2,2:2|2:2,0:0:0:0:
176,240,32765,6,0,B|104:264|104:264|78:252|78:252|7:276,1,180,2|2,2:2|2:2,0:0:0:0:
170,350,34076,2,0,L|363:374,1,180,2|0,2:2|0:0,0:0:0:0:
242,226,35388,6,0,P|205:146|234:63,1,180,2|2,2:2|2:2,0:0:0:0:
311,18,36371,1,2,2:2:0:0:
349,99,36699,2,0,B|457:75|413:167|545:151,1,180,2|2,2:2|2:2,0:0:0:0:
451,322,38011,5,2,2:2:0:0:
321,196,38667,2,0,P|264:230|199:218,1,135,2|2,2:2|2:2,0:0:0:0:
159,196,39322,2,0,B|124:298|124:298|151:324|164:358,1,180,2|0,2:2|0:0,0:0:0:0:
341,327,40634,6,0,L|429:311,1,90.0000000000001,6|0,1:2|1:1,0:0:0:0:
459,226,41289,2,0,L|504:233,2,45.0000000000001,2|2|2,1:2|2:2|1:2,0:0:0:0:
428,141,41945,2,0,L|339:156,1,90.0000000000001,2|0,1:2|1:1,0:0:0:0:
298,163,42437,1,2,2:2:0:0:
298,163,42601,2,0,L|209:147,1,90.0000000000001,2|0,1:2|1:1,0:0:0:0:
122,123,43257,6,0,P|107:165|118:208,1,90.0000000000001,2|0,1:2|1:1,0:0:0:0:
200,240,43912,1,2,1:2:0:0:
201,330,44240,1,0,1:1:0:0:
124,376,44568,2,0,L|35:360,2,90.0000000000001,2|0|0,1:2|1:1|1:1,0:0:0:0:
201,330,45552,1,0,1:1:0:0:
280,376,45880,5,6,1:2:0:0:
256,192,48503,12,12,50470,2:3:0:0:
372,64,51126,6,0,B|324:44|324:44|272:64,1,100,6|10,1:2|3:2,0:0:0:0:
232,92,51617,1,2,1:2:0:0:
232,92,51781,2,0,L|251:202,1,100,2|10,3:2|3:2,0:0:0:0:
256,244,52273,1,2,3:2:0:0:
256,244,52437,1,2,1:2:0:0:
340,192,52765,1,10,3:2:0:0:
416,256,53093,2,0,L|404:310,1,50,2|0,3:2|1:1,0:0:0:0:
388,352,53421,1,10,3:2:0:0:
288,340,53749,6,0,L|177:359,1,100,2|10,1:3|3:2,0:0:0:0:
140,364,54240,2,0,B|116:332|116:332|140:256,1,100,0|0,1:1|1:1,0:0:0:0:
156,232,54732,1,10,3:2:0:0:
236,172,55060,2,0,L|346:191,1,100,2|10,1:2|3:2,0:0:0:0:
384,216,55552,1,0,1:1:0:0:
384,216,55716,1,2,3:2:0:0:
444,136,56044,1,10,3:2:0:0:
396,48,56371,6,0,P|347:37|301:53,1,100,6|10,1:2|3:2,0:0:0:0:
265,87,56863,1,2,1:2:0:0:
265,87,57027,2,0,P|216:97|170:81,1,100,2|10,3:2|3:2,0:0:0:0:
72,68,57683,2,0,B|53:125|53:125|67:138|77:157,1,100,2|10,1:3|3:2,0:0:0:0:
109,195,58175,2,0,P|155:178|203:189,1,100,0|0,1:1|1:1,0:0:0:0:
233,229,58667,1,10,3:2:0:0:
308,164,58994,6,0,L|418:183,1,100,2|10,1:2|3:2,0:0:0:0:
452,160,59486,1,2,1:2:0:0:
512,245,59814,1,2,1:2:0:0:
512,245,59978,2,0,L|502:300,1,50,10|0,3:2|3:3,0:0:0:0:
497,344,60306,1,2,1:3:0:0:
404,380,60634,1,14,1:2:0:0:
320,324,60962,1,12,3:2:0:0:
368,236,61289,2,0,L|359:186,1,50,12|8,1:2|2:2,0:0:0:0:
352,136,61617,6,0,B|288:136|316:160|256:164,1,100,6|10,1:2|3:2,0:0:0:0:
212,180,62109,1,2,1:2:0:0:
212,180,62273,2,0,P|195:133|206:85,1,100,2|10,3:2|3:2,0:0:0:0:
244,52,62765,1,2,3:2:0:0:
244,52,62929,1,2,1:2:0:0:
156,8,63257,1,10,3:2:0:0:
60,36,63585,2,0,L|49:90,1,50,2|0,3:2|1:1,0:0:0:0:
20,124,63912,1,10,3:2:0:0:
96,192,64240,6,0,L|194:174,1,100,2|10,1:3|3:2,0:0:0:0:
228,136,64732,2,0,L|326:153,1,100,0|0,1:1|1:1,0:0:0:0:
352,196,65224,1,10,3:2:0:0:
424,128,65552,1,2,1:2:0:0:
512,176,65880,1,10,3:2:0:0:
496,276,66208,1,2,3:2:0:0:
396,292,66535,1,10,3:2:0:0:
332,216,66863,6,0,P|283:205|237:221,1,100,4|10,1:2|3:2,0:0:0:0:
216,268,67355,1,0,1:1:0:0:
216,268,67519,1,2,3:2:0:0:
140,204,67847,1,10,3:2:0:0:
44,228,68175,2,0,B|33:209|20:196|20:196|38:138,1,100,2|10,1:3|3:2,0:0:0:0:
60,92,68667,2,0,L|170:73,1,100,0|0,1:1|1:1,0:0:0:0:
204,96,69158,1,10,3:2:0:0:
272,24,69486,6,0,P|320:13|366:29,1,100,2|10,1:2|3:2,0:0:0:0:
413,48,69978,2,0,L|433:158,1,100,2|2,1:2|1:2,0:0:0:0:
459,187,70470,1,14,3:2:0:0:
428,280,70798,2,0,L|378:272,1,50,0|0,1:1|1:1,0:0:0:0:
348,232,71126,2,0,L|298:224,1,50,12|0,3:2|1:1,0:0:0:0:
260,252,71453,1,10,3:2:0:0:
172,208,71781,2,0,L|180:158,1,50,10|10,1:2|2:2,0:0:0:0:
192,108,72109,6,0,B|234:98|234:98|242:83|242:83|281:73,1,100,6|10,1:2|3:2,0:0:0:0:
328,103,72601,1,2,1:2:0:0:
328,103,72765,2,0,P|344:150|333:198,1,100,2|10,3:2|3:2,0:0:0:0:
256,260,73421,2,0,L|146:240,1,100,2|8,1:2|3:2,0:0:0:0:
123,205,73912,1,2,1:2:0:0:
36,252,74240,1,2,1:2:0:0:
36,252,74404,2,0,L|44:302,1,50,10|2,3:2|2:2,0:0:0:0:
52,352,74732,6,0,L|162:332,1,100,2|8,1:2|3:2,0:0:0:0:
232,276,75388,2,0,L|282:284,1,50,2|2,3:2|1:2,0:0:0:0:
316,320,75716,1,10,3:2:0:0:
408,276,76044,2,0,P|418:227|403:181,1,100,2|8,1:3|3:2,0:0:0:0:
376,144,76535,1,2,1:2:0:0:
376,144,76699,2,0,L|326:152,1,50,10|6,3:2|1:2,0:0:0:0:
288,184,77027,1,14,3:2:0:0:
208,124,77355,5,6,2:2:0:0:
256,192,77437,12,2,79322,2:2:0:0:
208,124,79978,6,0,L|318:104,1,100,6|8,1:2|3:2,0:0:0:0:
344,136,80470,1,2,1:2:0:0:
444,112,80798,1,0,1:1:0:0:
444,112,80962,2,0,P|459:158|448:206,1,100,10|0,3:2|1:1,0:0:0:0:
432,252,81453,1,2,1:2:0:0:
340,232,81781,1,0,1:1:0:0:
340,232,81945,2,0,L|290:240,1,50,2|2,3:2|1:2,0:0:0:0:
260,280,82273,1,8,3:2:0:0:
176,224,82601,6,0,L|196:114,1,100,2|8,1:2|3:2,0:0:0:0:
208,76,83093,1,2,1:2:0:0:
132,24,83421,1,0,1:1:0:0:
132,24,83585,2,0,L|22:44,1,100,10|0,3:2|1:1,0:0:0:0:
0,80,84076,1,2,1:2:0:0:
44,176,84404,1,2,1:2:0:0:
44,176,84568,2,0,L|94:168,1,50,10|10,3:2|1:2,0:0:0:0:
132,200,84896,2,0,L|182:192,1,50,10|8,1:2|2:2,0:0:0:0:
224,168,85224,5,6,1:2:0:0:
