osu file format v14

[General]
AudioFilename: audio.ogg
AudioLeadIn: 0
PreviewTime: 51044
Countdown: 0
SampleSet: Soft
StackLeniency: 0.4
Mode: 0
LetterboxInBreaks: 0
WidescreenStoryboard: 1

[Editor]
DistanceSpacing: 1
BeatDivisor: 4
GridSize: 32
TimelineZoom: 1.2

[Metadata]
Title:NAME (TV Size)
TitleUnicode:NAME (TV Size)
Artist:Tsuzuri
ArtistUnicode:綴
Creator:Amats
Version:Nilou's Confession
Source:好きな子がめがねを忘れた
Tags:kemu shouta grazuko 堀江晶太 Shota Horie 三重 あい Mie Ai female vocals Suki na Ko ga Megane wo Wasureta The Girl I Like Forgot Her Glasses DECO*27 DECO27 anime japanese jpop pop j-pop op opening asukow -_nilou_- Syndicate_ bm69 ballsmaster69 mrcheesemr actiol fujinn
BeatmapID:4226731
BeatmapSetID:2027396

[Difficulty]
HPDrainRate:5.5
CircleSize:4
OverallDifficulty:8.5
ApproachRate:9.2
SliderMultiplier:1.7
SliderTickRate:1

[Events]
//Background and Video events
Video,-115,"op.mp4"
0,0,"aaaaaaa.jpg",0,0
//Break Periods
//Storyboard Layer 0 (Background)
//Storyboard Layer 1 (Fail)
//Storyboard Layer 2 (Pass)
//Storyboard Layer 3 (Foreground)
//Storyboard Layer 4 (Overlay)
//Storyboard Sound Samples

[TimingPoints]
1290,327.868852459016,4,2,91,40,1,0
1290,-294.117647058824,4,2,91,40,0,0
1781,-166.666666666667,4,2,91,40,0,0
2273,-116.279069767442,4,2,91,40,0,0
2765,-166.666666666667,4,2,91,40,0,0
3912,-294.117647058824,4,2,91,40,0,0
4404,-166.666666666667,4,2,91,40,0,0
4896,-116.279069767442,4,2,91,40,0,0
5224,-116.279069767442,4,2,91,50,0,0
5552,-116.279069767442,4,2,11,50,0,0
5716,-116.279069767442,4,2,24,50,0,0
5880,-116.279069767442,4,2,92,50,0,0
6208,-100,4,2,91,50,0,0
6535,-111.111111111111,4,2,93,65,0,0
6863,-111.111111111111,4,2,51,65,0,0
7027,-125,4,2,94,65,0,0
7191,-125,4,2,97,65,0,0
7519,-100,4,2,91,65,0,0
7847,-100,4,2,94,65,0,0
8175,-100,4,2,97,65,0,0
8503,-100,4,2,91,65,0,0
8667,-100,4,2,94,65,0,0
8830,-100,4,2,51,65,0,0
9158,-111.111111111111,4,2,94,65,0,0
9322,-111.111111111111,4,2,51,65,0,0
9650,-125,4,2,94,65,0,0
9814,-125,4,2,97,65,0,0
10142,-100,4,2,91,65,0,0
10470,-100,4,2,94,65,0,0
10798,-100,4,2,97,65,0,0
11126,-100,4,2,91,65,0,0
11289,-100,4,2,94,65,0,0
11453,-100,4,2,91,65,0,0
11781,-117.647058823529,4,2,95,55,0,0
12273,-117.647058823529,4,2,94,55,0,0
12437,-117.647058823529,4,2,7,55,0,0
12601,-117.647058823529,4,2,94,55,0,0
12765,-117.647058823529,4,2,91,55,0,0
13257,-117.647058823529,4,2,94,55,0,0
13421,-117.647058823529,4,2,91,55,0,0
13749,-117.647058823529,4,2,94,55,0,0
14076,-117.647058823529,4,2,91,55,0,0
14404,-117.647058823529,4,2,97,55,0,0
17027,-117.647058823529,4,2,94,55,0,0
17191,-117.647058823529,4,2,91,55,0,0
17519,-117.647058823529,4,2,94,55,0,0
17683,-117.647058823529,4,2,7,55,0,0
17847,-117.647058823529,4,2,94,55,0,0
18011,-117.647058823529,4,2,91,55,0,0
18339,-117.647058823529,4,2,94,55,0,0
18667,-117.647058823529,4,2,91,55,0,0
18994,-117.647058823529,4,2,94,55,0,0
19322,-117.647058823529,4,2,91,55,0,0
19650,-117.647058823529,4,2,97,55,0,0
21453,-117.647058823529,4,2,91,55,0,0
21617,-117.647058823529,4,2,94,55,0,0
21945,-117.647058823529,4,2,91,55,0,0
22273,-117.647058823529,4,2,93,55,0,0
22437,-117.647058823529,4,2,91,55,0,0
22765,-117.647058823529,4,2,94,55,0,0
22929,-117.647058823529,4,2,7,55,0,0
23093,-117.647058823529,4,2,94,55,0,0
23257,-117.647058823529,4,2,91,55,0,0
23749,-117.647058823529,4,2,94,55,0,0
23912,-117.647058823529,4,2,91,55,0,0
24240,-117.647058823529,4,2,94,55,0,0
24568,-117.647058823529,4,2,91,55,0,0
24896,-117.647058823529,4,2,97,55,0,0
26044,-117.647058823529,4,2,91,55,0,0
26371,-117.647058823529,4,2,50,55,0,0
26535,-117.647058823529,4,2,91,55,0,0
26863,-117.647058823529,4,2,94,55,0,0
27191,-117.647058823529,4,2,91,55,0,0
27519,-117.647058823529,4,2,97,55,0,0
28667,-117.647058823529,4,2,91,55,0,0
28830,-117.647058823529,4,2,94,55,0,0
28994,-117.647058823529,4,2,91,55,0,0
29486,-117.647058823529,4,2,94,55,0,0
29650,-117.647058823529,4,2,94,45,0,0
29732,-117.647058823529,4,2,94,50,0,0
29814,-117.647058823529,4,2,94,55,0,0
29896,-117.647058823529,4,2,94,60,0,0
29978,-117.647058823529,4,2,94,65,0,0
30060,-117.647058823529,4,2,94,70,0,0
30142,-117.647058823529,4,2,94,40,0,0
30798,-250,4,2,94,40,0,0
31453,-333.333333333333,4,2,94,40,0,0
36044,-250,4,2,94,40,0,0
36699,-333.333333333333,4,2,94,40,0,0
38011,-222.222222222222,4,2,94,40,0,0
40634,-222.222222222222,4,2,93,45,0,0
41453,-222.222222222222,4,2,91,45,0,0
45880,-222.222222222222,4,2,95,35,0,0
46044,-222.222222222222,4,2,91,35,0,0
50470,-222.222222222222,4,2,14,65,0,0
50634,-222.222222222222,4,2,52,65,0,0
51126,-100,4,2,96,80,0,1
51453,-100,4,2,97,80,0,1
51617,-100,4,2,94,80,0,1
51781,-100,4,2,96,80,0,1
51945,-100,4,2,97,80,0,1
52273,-100,4,2,91,80,0,1
52437,-100,4,2,98,80,0,1
52765,-100,4,2,96,80,0,1
52929,-100,4,2,97,80,0,1
53093,-100,4,2,96,80,0,1
53257,-100,4,2,50,80,0,1
53421,-90.9090909090909,4,2,96,80,0,1
53749,-100,4,2,50,80,0,1
53912,-100,4,2,96,80,0,1
54240,-100,4,2,50,80,0,1
54404,-100,4,2,10,80,0,1
54568,-100,4,2,50,80,0,1
54732,-100,4,2,96,80,0,1
55060,-100,4,2,98,80,0,1
55388,-100,4,2,96,80,0,1
55552,-100,4,2,97,80,0,1
55716,-100,4,2,96,80,0,1
55880,-100,4,2,50,80,0,1
56044,-90.9090909090909,4,2,96,80,0,1
56371,-100,4,2,97,80,0,1
56535,-100,4,2,96,80,0,1
56863,-100,4,2,94,80,0,1
57027,-100,4,2,96,80,0,1
57191,-100,4,2,50,80,0,1
57355,-100,4,2,96,80,0,1
57683,-100,4,2,50,80,0,1
58011,-100,4,2,97,80,0,1
58339,-100,4,2,10,80,0,1
58503,-100,4,2,50,80,0,1
58667,-149.253731343284,4,2,96,80,0,1
58994,-90.9090909090909,4,2,98,80,0,1
59158,-90.9090909090909,4,2,96,80,0,1
59486,-90.9090909090909,4,2,94,80,0,1
59650,-90.9090909090909,4,2,10,80,0,1
59814,-90.9090909090909,4,2,94,80,0,1
59978,-90.9090909090909,4,2,96,80,0,1
60306,-90.9090909090909,4,2,50,80,0,1
60634,-90.9090909090909,4,2,97,80,0,1
60798,-90.9090909090909,4,2,95,80,0,1
60962,-90.9090909090909,4,2,95,80,0,0
61126,-90.9090909090909,4,2,94,80,0,0
61617,-100,4,2,93,80,0,1
61945,-100,4,2,97,80,0,1
62109,-100,4,2,94,80,0,1
62273,-100,4,2,96,80,0,1
62437,-100,4,2,97,80,0,1
62765,-100,4,2,91,80,0,1
62929,-100,4,2,98,80,0,1
63257,-100,4,2,96,80,0,1
63421,-100,4,2,97,80,0,1
63585,-100,4,2,96,80,0,1
63749,-100,4,2,50,80,0,1
63912,-90.9090909090909,4,2,96,80,0,1
64240,-100,4,2,50,80,0,1
64404,-100,4,2,96,80,0,1
64732,-100,4,2,50,80,0,1
64896,-100,4,2,10,80,0,1
65060,-100,4,2,97,80,0,1
65552,-100,4,2,98,80,0,1
65880,-100,4,2,96,80,0,1
66044,-100,4,2,50,80,0,1
66208,-100,4,2,96,80,0,1
66371,-100,4,2,50,80,0,1
66535,-90.9090909090909,4,2,96,80,0,1
66863,-100,4,2,96,80,0,1
67191,-100,4,2,91,80,0,1
67355,-100,4,2,50,80,0,1
67519,-100,4,2,96,80,0,1
67683,-100,4,2,94,80,0,1
67847,-100,4,2,96,80,0,1
68175,-100,4,2,50,80,0,1
68503,-100,4,2,97,80,0,1
68830,-100,4,2,10,80,0,1
68994,-100,4,2,50,80,0,1
69158,-151.515151515152,4,2,96,80,0,1
69486,-90.9090909090909,4,2,98,80,0,1
69650,-90.9090909090909,4,2,96,80,0,1
69978,-90.9090909090909,4,2,94,80,0,1
70142,-90.9090909090909,4,2,10,80,0,1
70306,-90.9090909090909,4,2,94,80,0,1
70470,-90.9090909090909,4,2,95,80,0,1
70798,-90.9090909090909,4,2,97,80,0,1
71453,-90.9090909090909,4,2,91,70,0,0
72109,-90.9090909090909,4,2,93,80,0,1
72273,-100,4,2,91,80,0,1
72437,-100,4,2,97,80,0,1
72601,-100,4,2,94,80,0,1
72765,-100,4,2,96,80,0,1
72929,-100,4,2,94,80,0,1
73093,-100,4,2,97,80,0,1
73257,-100,4,2,91,80,0,1
73421,-100,4,2,98,80,0,1
73585,-100,4,2,94,80,0,1
73749,-100,4,2,51,80,0,1
73912,-100,4,2,94,80,0,1
74076,-100,4,2,96,80,0,1
74240,-100,4,2,94,80,0,1
74404,-100,4,2,97,80,0,1
74568,-100,4,2,94,80,0,1
74896,-100,4,2,97,80,0,1
75388,-100,4,2,96,80,0,1
75552,-100,4,2,94,80,0,1
75716,-100,4,2,96,80,0,1
76044,-100,4,2,50,80,0,1
76371,-100,4,2,82,80,0,1
76535,-100,4,2,94,80,0,1
76617,-100,4,2,92,80,0,1
76863,-100,4,2,99,80,0,1
77027,-100,4,2,100,80,0,1
77355,-250,4,2,94,50,0,0
77519,-250,4,2,94,40,0,0
79978,-111.111111111111,4,2,93,65,0,0
80306,-111.111111111111,4,2,51,65,0,0
80470,-125,4,2,94,65,0,0
80634,-125,4,2,97,65,0,0
80962,-100,4,2,91,65,0,0
81289,-100,4,2,94,65,0,0
81617,-100,4,2,97,65,0,0
81945,-100,4,2,91,65,0,0
82109,-100,4,2,94,65,0,0
82273,-100,4,2,51,65,0,0
82601,-111.111111111111,4,2,94,65,0,0
82765,-111.111111111111,4,2,51,65,0,0
83093,-125,4,2,94,65,0,0
83257,-125,4,2,97,65,0,0
83585,-100,4,2,91,65,0,0
83912,-100,4,2,94,65,0,0
84240,-100,4,2,51,65,0,0
84404,-100,4,2,94,65,0,0
84486,-100,4,2,91,65,0,0
85224,-250,4,2,95,40,0,0
85716,-250,4,2,91,40,0,0
87847,-250,4,2,91,5,0,0

[Colours]
Combo1 : 0,157,157
Combo2 : 191,128,128
Combo3 : 255,169,128

[HitObjects]
166,138,1290,6,1,P|191:150|203:175,1,57.7999999999999,2|0,2:2|0:0,0:0:0:0:
100,80,1781,2,1,P|141:50|191:54,1,102,2|0,2:2|0:0,0:0:0:0:
21,131,2273,2,1,P|14:58|55:-1,1,146.2,2|0,2:2|0:0,0:0:0:0:
89,187,2765,6,1,L|73:287,1,102,2|0,2:2|0:0,0:0:0:0:
63,374,3257,1,2,2:2:0:0:
63,374,3421,1,2,2:2:0:0:
171,264,3585,2,1,L|163:314,1,50.9999999999999,0|0,0:0|0:0,0:0:0:0:
308,255,3912,6,1,P|284:240|257:243,1,57.7999999999999,2|0,2:2|0:0,0:0:0:0:
392,280,4404,2,1,P|395:229|365:189,1,102,2|0,2:2|0:0,0:0:0:0:
337,345,4896,2,0,P|368:362|405:364,1,73.1000011154175,2|0,2:2|0:0,0:0:0:0:
512,198,5224,6,1,L|475:192,1,36.55,8|8,2:2|2:2,0:0:0:0:
308,255,5388,1,6,2:2:0:0:
389,161,5552,1,4,2:3:0:0:
259,53,5716,1,8,2:2:0:0:
259,53,5798,1,8,2:2:0:0:
259,53,5880,1,6,2:2:0:0:
221,217,6044,1,6,1:2:0:0:
49,105,6208,6,1,B|93:94|93:94|128:112,1,85,8|0,1:2|0:0,0:0:0:0:
59,332,6535,6,1,L|76:218,1,114.75,6|0,1:2|0:0,0:0:0:0:
82,190,6863,1,8,3:2:0:0:
279,307,7027,2,1,B|214:327|214:327|157:291,1,136,2|0,1:2|1:1,0:0:0:0:
271,78,7519,6,1,P|193:59|127:113,1,170,10|0,3:2|1:1,0:0:0:0:
82,190,8011,1,2,1:2:0:0:
279,307,8175,1,8,3:2:0:0:
139,384,8339,1,0,1:1:0:0:
139,384,8421,1,0,3:3:0:0:
139,384,8503,1,2,3:2:0:0:
243,229,8667,1,2,1:2:0:0:
433,347,8830,6,1,B|477:357|477:357|512:338,1,85,8|0,3:2|0:0,0:0:0:0:
439,122,9158,6,1,L|456:235,1,114.75,2|0,1:2|0:0,0:0:0:0:
462,264,9486,1,8,3:2:0:0:
243,229,9650,2,1,B|207:172|207:172|227:107,1,136,2|0,1:2|1:1,0:0:0:0:
474,0,10142,6,1,P|446:77|366:94,1,170,10|0,3:2|1:1,0:0:0:0:
296,45,10634,1,2,1:2:0:0:
150,133,10798,1,8,3:2:0:0:
243,229,10962,1,0,1:1:0:0:
243,229,11044,1,0,3:3:0:0:
243,229,11126,1,2,3:2:0:0:
342,212,11289,1,2,1:2:0:0:
150,133,11453,6,1,B|131:173|131:173|143:212,1,85,8|2,3:2|2:2,0:0:0:0:
271,377,11781,6,1,L|199:366,1,72.2500000000003,6|0,1:2|0:0,0:0:0:0:
0,384,12109,1,10,3:2:0:0:
166,292,12273,5,2,1:2:0:0:
0,110,12601,5,2,1:2:0:0:
50,300,12929,6,1,L|60:254,2,36.1250000000001,2|0|0,3:2|3:3|3:3,0:0:0:0:
90,384,13257,1,2,1:2:0:0:
166,292,13421,2,1,L|237:302,1,72.2500000000003,8|2,3:2|3:2,0:0:0:0:
390,354,13749,1,2,1:2:0:0:
390,354,13912,1,2,1:2:0:0:
301,229,14076,1,10,3:2:0:0:
237,302,14240,1,2,2:2:0:0:
448,278,14404,6,1,P|467:210|428:153,1,144.500000000001,0|8,1:1|3:2,0:0:0:0:
254,146,14896,1,0,1:1:0:0:
254,146,15224,1,0,1:1:0:0:
357,13,15388,6,1,B|373:46|373:46|364:81,1,72.2500000000003,8|0,3:2|3:3,0:0:0:0:
346,108,15634,1,0,3:3:0:0:
346,108,15716,1,0,3:3:0:0:
254,146,15880,1,0,1:1:0:0:
119,63,16044,2,1,L|190:73,1,72.2500000000003,8|0,3:2|3:3,0:0:0:0:
306,231,16371,1,0,1:1:0:0:
306,231,16535,1,0,1:1:0:0:
151,268,16699,2,1,L|222:278,1,72.2500000000003,8|0,3:2|0:0,0:0:0:0:
400,336,17027,6,1,P|331:323|276:367,1,144.500000000001,2|10,1:2|3:2,0:0:0:0:
497,331,17519,5,2,1:2:0:0:
306,231,17847,5,2,1:2:0:0:
512,201,18175,6,1,L|504:236,2,36.1250000000001,2|0|0,3:2|3:3|1:1,0:0:0:0:
456,123,18503,1,2,1:2:0:0:
377,220,18667,2,1,L|306:230,1,72.2500000000003,8|2,3:2|3:2,0:0:0:0:
141,177,18994,1,2,1:2:0:0:
141,177,19158,1,2,1:2:0:0:
305,230,19322,1,10,3:2:0:0:
262,146,19486,1,2,2:2:0:0:
101,266,19650,6,1,P|47:212|69:122,1,144.500000000001,0|8,1:1|3:2,0:0:0:0:
219,61,20142,1,0,1:1:0:0:
219,61,20470,1,0,1:1:0:0:
90,0,20634,2,1,B|81:35|81:35|97:68,1,72.2500000000003,8|0,3:2|3:3,0:0:0:0:
120,88,20880,1,0,3:3:0:0:
120,88,20962,5,0,1:1:0:0:
192,153,21126,1,0,1:1:0:0:
290,50,21289,2,1,L|219:60,1,72.2500000000003,8|2,3:2|3:2,0:0:0:0:
264,215,21617,2,1,L|335:205,1,72.2500000000003,2|2,1:2|1:2,0:0:0:0:
459,101,21945,1,10,3:2:0:0:
459,101,22109,1,2,2:2:0:0:
512,23,22273,6,1,B|442:1|442:1|382:39,1,144.500000000001,6|10,1:2|3:2,0:0:0:0:
264,215,22765,5,2,1:2:0:0:
481,352,23093,5,2,1:2:0:0:
400,216,23421,6,1,L|407:181,2,36.1250000000001,2|0|0,3:2|3:3|3:3,0:0:0:0:
483,261,23749,1,2,1:2:0:0:
338,292,23912,2,1,L|267:302,1,72.2500000000003,8|2,3:2|3:2,0:0:0:0:
234,307,24158,1,0,3:3:0:0:
234,307,24240,1,0,1:1:0:0:
140,364,24404,1,2,1:2:0:0:
10,269,24568,1,8,3:2:0:0:
10,269,24732,1,2,2:2:0:0:
201,216,24896,6,1,B|131:237|131:237|71:199,1,144.500000000001,0|8,1:1|3:2,0:0:0:0:
271,154,25388,1,0,1:1:0:0:
271,154,25716,1,0,1:1:0:0:
163,33,25880,2,1,L|153:104,1,72.2500000000003,8|2,3:2|3:2,0:0:0:0:
152,138,26126,1,0,3:3:0:0:
152,138,26208,5,2,3:2:0:0:
201,216,26371,1,0,1:1:0:0:
342,164,26535,2,1,L|271:154,1,72.2500000000003,10|2,3:2|3:2,0:0:0:0:
148,292,26863,1,0,1:1:0:0:
148,292,27027,1,2,1:2:0:0:
277,370,27191,2,1,L|206:360,1,72.2500000000003,8|2,3:2|2:2,0:0:0:0:
346,302,27519,6,1,B|406:264|406:264|476:285,1,144.500000000001,0|8,1:1|3:2,0:0:0:0:
277,370,28011,1,0,1:1:0:0:
277,370,28339,1,0,1:1:0:0:
139,286,28503,2,1,L|149:215,1,72.2500000000003,8|2,3:2|3:2,0:0:0:0:
157,182,28749,1,0,3:3:0:0:
157,182,28830,5,2,1:2:0:0:
244,214,28994,1,0,3:3:0:0:
344,85,29158,1,10,3:2:0:0:
224,94,29322,2,1,L|234:147,1,36.1250000000001,2|0,3:2|3:3,0:0:0:0:
305,273,29486,5,0,1:1:0:0:
346,306,29568,1,8,2:2:0:0:
400,305,29650,1,10,2:2:0:0:
440,269,29732,1,8,2:2:0:0:
447,216,29814,1,8,1:2:0:0:
417,171,29896,1,8,2:2:0:0:
366,156,29978,1,10,2:2:0:0:
317,178,30060,1,8,2:2:0:0:
373,234,30142,5,2,2:2:0:0:
373,234,30798,2,1,L|378:267,1,34,2|2,2:2|2:2,0:0:0:0:
392,347,31126,1,2,2:2:0:0:
242,359,31453,6,1,P|209:339|171:337,1,76.5000000000001,2|2,2:2|2:2,0:0:0:0:
38,369,32109,2,1,P|71:350|92:319,1,76.5000000000001,2|2,2:2|2:2,0:0:0:0:
134,153,32765,6,1,L|150:253,1,102,2|2,2:2|2:2,0:0:0:0:
378,0,34076,6,1,L|344:201,1,204,2|2,2:2|2:2,0:0:0:0:
344,201,36044,6,1,L|310:206,1,34,2|2,2:2|2:2,0:0:0:0:
231,220,36371,1,2,2:2:0:0:
10,102,36699,6,1,P|46:110|81:94,1,76.5000000000001,2|2,2:2|2:2,0:0:0:0:
71,14,37355,2,1,P|34:5|0:21,1,76.5000000000001,2|2,2:2|2:2,0:0:0:0:
158,144,38011,6,1,L|176:26,1,114.75,2|2,2:2|2:2,0:0:0:0:
258,45,38667,2,1,L|240:158,1,114.75,2|2,2:2|2:2,0:0:0:0:
145,249,39322,6,1,B|198:244|237:190|237:190|289:230|355:220,1,229.5,2|0,2:2|0:0,0:0:0:0:
346,221,40634,5,6,1:2:0:0:
440,237,40962,1,0,1:1:0:0:
424,331,41289,1,2,1:2:0:0:
330,315,41617,1,2,1:2:0:0:
346,221,41945,5,2,1:2:0:0:
362,127,42273,1,0,1:1:0:0:
268,111,42601,1,2,1:2:0:0:
252,205,42929,1,0,1:1:0:0:
99,266,43257,5,2,1:2:0:0:
252,205,43585,1,0,1:1:0:0:
191,52,43912,1,2,1:2:0:0:
38,113,44240,1,0,1:1:0:0:
99,266,44568,5,2,1:2:0:0:
191,52,44896,1,0,1:1:0:0:
405,144,45224,1,0,1:1:0:0:
313,358,45552,1,0,1:1:0:0:
252,205,45880,5,6,1:2:0:0:
252,205,47191,5,2,2:2:0:0:
256,192,48503,12,1,50306,0:0:0:0:
169,307,50470,5,12,2:3:0:0:
17,144,50634,1,8,1:3:0:0:
17,144,51126,6,1,L|222:111,1,170,6|10,1:2|3:2,0:0:0:0:
338,337,51617,5,2,1:2:0:0:
338,337,51781,2,1,L|505:363,1,170,2|10,3:2|3:2,0:0:0:0:
255,290,52273,1,2,3:2:0:0:
255,290,52355,1,0,3:3:0:0:
255,290,52437,6,1,B|237:329|237:329|248:369,1,85,2|0,1:2|1:1,0:0:0:0:
506,268,52765,2,1,B|524:229|524:229|513:189,1,85,10|0,3:2|1:1,0:0:0:0:
386,86,53093,1,2,3:2:0:0:
386,86,53257,1,0,1:1:0:0:
255,290,53421,6,1,B|223:253|180:264|180:264|159:293|112:296,1,140.25,10|0,3:2|0:0,0:0:0:0:
44,283,53749,6,1,L|57:366,1,85,2|0,1:3|3:3,0:0:0:0:
256,175,54076,2,1,B|284:93|284:93|233:26,1,170,10|2,3:2|3:3,0:0:0:0:
96,126,54568,1,0,1:1:0:0:
255,290,54732,2,1,L|338:277,1,85,10|0,3:2|3:3,0:0:0:0:
369,46,55060,5,2,1:2:0:0:
369,46,55224,1,0,1:1:0:0:
276,15,55388,2,1,B|265:55|265:55|283:94,1,85,10|0,3:2|1:1,0:0:0:0:
459,79,55716,2,1,B|470:39|470:39|452:0,1,85,2|0,3:2|1:1,0:0:0:0:
512,205,56044,6,1,B|480:168|437:179|437:179|416:208|369:211,1,140.25,10|0,3:2|3:3,0:0:0:0:
303,237,56371,6,1,L|316:320,1,85,6|0,1:2|3:3,0:0:0:0:
459,79,56699,1,10,3:2:0:0:
276,15,56863,1,2,1:2:0:0:
390,207,57027,2,1,B|429:225|429:225|469:214,1,85,2|0,3:2|1:1,0:0:0:0:
187,49,57355,2,1,L|48:70,1,127.5,10|0,3:2|3:3,0:0:0:0:
29,74,57683,5,2,1:3:0:0:
135,153,57847,1,0,1:1:0:0:
276,15,58011,1,10,3:2:0:0:
234,134,58175,1,0,1:1:0:0:
234,134,58257,1,0,3:3:0:0:
234,134,58339,1,2,3:3:0:0:
312,237,58503,1,0,1:1:0:0:
143,323,58667,6,1,B|134:279|134:279|154:243,1,85.4249999999998,10|0,3:2|0:0,0:0:0:0:
59,266,58994,6,1,L|197:288,1,140.25,2|0,1:2|0:0,0:0:0:0:
227,294,59322,1,10,3:2:0:0:
503,61,59486,6,1,L|365:82,1,140.25,2|0,1:2|0:0,0:0:0:0:
334,88,59814,1,2,1:2:0:0:
505,279,59978,1,10,3:2:0:0:
325,384,60142,1,0,3:3:0:0:
325,384,60224,1,0,3:3:0:0:
325,384,60306,5,2,1:3:0:0:
382,266,60470,1,0,1:1:0:0:
154,161,60634,2,1,L|59:175,1,93.5,14|0,1:2|1:1,0:0:0:0:
248,312,60962,5,12,3:2:0:0:
253,283,61044,1,8,2:2:0:0:
257,256,61126,1,8,2:2:0:0:
261,228,61208,1,8,2:2:0:0:
266,199,61289,5,12,1:2:0:0:
273,152,61371,1,8,2:2:0:0:
280,107,61453,1,8,2:2:0:0:
287,62,61535,1,8,2:2:0:0:
294,16,61617,6,1,L|461:43,1,170,6|10,1:2|3:2,0:0:0:0:
266,199,62109,5,2,1:2:0:0:
266,199,62273,2,1,L|98:226,1,170,2|10,3:2|3:2,0:0:0:0:
344,154,62765,1,2,3:2:0:0:
344,154,62847,1,2,3:2:0:0:
344,154,62929,6,1,B|362:193|362:193|351:233,1,85,2|0,1:2|1:1,0:0:0:0:
62,138,63257,2,1,B|44:99|44:99|55:59,1,85,10|0,3:2|1:1,0:0:0:0:
188,1,63585,1,2,3:2:0:0:
188,1,63749,1,0,1:1:0:0:
281,236,63912,6,0,B|335:237|369:263|369:263|389:222|418:217,1,140.25000428009,10|0,3:2|0:0,0:0:0:0:
468,173,64240,6,0,P|476:132|452:98,1,85,2|0,1:3|3:3,0:0:0:0:
204,172,64568,2,1,B|176:254|176:254|227:321,1,170,10|2,3:2|3:3,0:0:0:0:
396,226,65060,1,0,1:1:0:0:
232,73,65224,1,10,3:2:0:0:
211,76,65306,1,0,0:0:0:0:
190,79,65388,1,0,3:3:0:0:
169,83,65470,1,0,3:3:0:0:
148,86,65552,5,2,1:2:0:0:
260,244,65716,1,0,1:1:0:0:
95,308,65880,2,1,B|77:269|77:269|88:229,1,85,10|0,3:2|1:1,0:0:0:0:
260,244,66208,2,1,L|176:257,1,85,2|0,3:2|1:1,0:0:0:0:
23,62,66535,6,1,P|89:48|147:85,1,140.25,10|0,3:2|0:0,0:0:0:0:
231,77,66863,6,0,P|254:43|246:2,1,85,4|0,1:2|0:0,0:0:0:0:
53,242,67191,1,10,3:2:0:0:
198,336,67355,1,0,1:1:0:0:
290,173,67519,2,1,B|250:162|250:162|211:180,1,85,2|2,3:2|1:2,0:0:0:0:
466,378,67847,2,1,L|486:249,1,127.5,10|0,3:2|3:3,0:0:0:0:
491,219,68175,5,2,1:3:0:0:
362,280,68339,1,0,1:1:0:0:
231,77,68503,1,10,3:2:0:0:
393,142,68667,1,0,1:1:0:0:
393,142,68749,1,0,3:3:0:0:
393,142,68830,1,2,3:3:0:0:
464,32,68994,1,0,1:1:0:0:
281,147,69158,6,1,B|244:164|244:164|202:156,1,84.1499999999997,10|0,3:2|0:0,0:0:0:0:
231,77,69486,6,1,L|253:215,1,140.25,2|0,1:2|3:3,0:0:0:0:
258,250,69814,1,10,3:2:0:0:
28,384,69978,6,1,L|6:246,1,140.25,2|0,1:2|0:0,0:0:0:0:
0,215,70306,1,2,1:2:0:0:
197,334,70470,1,14,3:2:0:0:
281,147,70634,1,0,3:3:0:0:
281,147,70716,1,0,3:3:0:0:
281,147,70798,5,0,1:1:0:0:
117,273,70962,1,0,1:1:0:0:
410,361,71126,6,1,L|502:346,1,93.5,12|0,3:2|1:1,0:0:0:0:
373,103,71453,2,1,L|365:149,1,46.75,10|0,3:2|0:0,0:0:0:0:
223,326,71617,2,1,L|215:279,1,46.75,10|8,2:2|2:2,0:0:0:0:
162,71,71781,1,10,1:2:0:0:
122,47,71863,1,8,2:2:0:0:
75,45,71945,1,10,2:2:0:0:
34,66,72027,1,8,2:2:0:0:
9,107,72109,5,6,1:2:0:0:
208,249,72273,2,1,B|219:209|219:209|201:170,1,85,2|10,2:2|3:2,0:0:0:0:
64,309,72601,1,2,1:2:0:0:
200,169,72765,5,2,3:2:0:0:
9,107,72929,2,1,B|-9:146|-9:146|2:186,1,85,2|10,1:2|3:2,0:0:0:0:
162,71,73257,1,2,3:2:0:0:
2,186,73421,5,2,1:2:0:0:
208,249,73585,2,1,L|291:235,1,85,2|8,1:2|3:2,0:0:0:0:
492,166,73912,1,2,1:2:0:0:
445,79,74076,1,2,3:2:0:0:
294,200,74240,1,2,1:2:0:0:
512,310,74404,1,10,3:2:0:0:
413,215,74568,1,2,2:2:0:0:
190,325,74732,6,1,L|9:296,1,170,2|8,1:2|3:2,0:0:0:0:
22,298,75224,1,0,1:1:0:0:
195,220,75388,1,2,3:2:0:0:
195,220,75552,1,2,1:2:0:0:
0,89,75716,2,1,L|14:172,1,85,10|0,3:2|3:3,0:0:0:0:
23,203,75962,1,0,3:3:0:0:
23,203,76044,5,2,1:3:0:0:
103,140,76208,1,0,1:1:0:0:
265,288,76371,1,8,3:2:0:0:
272,70,76535,5,2,1:2:0:0:
198,127,76699,1,10,3:2:0:0:
195,220,76863,1,6,1:2:0:0:
348,302,77027,2,1,L|265:288,1,85,14|0,3:2|0:0,0:0:0:0:
272,70,77355,6,1,P|315:45|365:52,1,102,6|2,2:2|2:2,0:0:0:0:
394,211,78011,2,1,P|351:185|333:139,1,102,2|2,2:2|2:2,0:0:0:0:
461,35,78667,2,1,P|460:85|429:124,1,102,2|2,2:2|2:2,0:0:0:0:
239,194,79322,6,1,L|246:146,2,34,2|2|2,2:2|2:2|2:2,0:0:0:0:
239,194,79978,6,1,L|125:211,1,114.75,6|0,1:2|0:0,0:0:0:0:
92,218,80306,1,8,3:2:0:0:
273,348,80470,2,1,B|293:283|293:283|257:226,1,136,2|0,1:2|1:1,0:0:0:0:
2,265,80962,6,1,P|65:317|145:298,1,170,10|0,3:2|1:1,0:0:0:0:
169,211,81453,1,2,1:2:0:0:
29,75,81617,1,8,3:2:0:0:
179,31,81781,1,0,1:1:0:0:
179,31,81863,1,0,3:3:0:0:
179,31,81945,1,2,3:2:0:0:
100,163,82109,1,2,1:2:0:0:
268,62,82273,2,1,B|304:44|304:44|347:53,1,85,8|0,3:2|0:0,0:0:0:0:
295,285,82601,6,1,L|312:171,1,114.75,2|0,1:2|0:0,0:0:0:0:
318,138,82929,1,8,3:2:0:0:
512,305,83093,2,1,B|447:325|447:325|390:289,1,136,2|0,1:2|1:1,0:0:0:0:
461,105,83585,6,1,P|381:86|317:138,1,170,10|0,3:2|1:1,0:0:0:0:
304,276,84076,1,2,1:2:0:0:
109,126,84240,1,8,3:2:0:0:
271,31,84404,1,2,1:2:0:0:
172,256,84568,5,10,3:2:0:0:
135,276,84650,1,8,2:2:0:0:
93,278,84732,1,10,1:2:0:0:
54,260,84814,1,8,2:2:0:0:
28,227,84896,2,1,L|39:176,1,42.5,10|0,1:2|0:0,0:0:0:0:
167,14,85060,2,1,L|176:55,1,42.5,8|0,2:2|0:0,0:0:0:0:
304,276,85224,6,1,P|353:283|397:258,1,102,6|2,1:2|2:2,0:0:0:0:
454,201,85880,2,1,L|437:100,1,102,2|2,2:2|2:2,0:0:0:0:
470,26,86535,5,2,2:2:0:0:
470,26,87027,2,1,P|441:16|430:18,2,34,2|2|2,0:0|2:2|2:2,0:0:0:0:
437,100,87519,6,1,L|449:175,1,68,2|0,2:2|0:0,0:0:0:0:
