osu file format v14

[General]
AudioFilename: audio.mp3
AudioLeadIn: 0
PreviewTime: 51318
Countdown: 0
SampleSet: Soft
StackLeniency: 0.7
Mode: 2
LetterboxInBreaks: 0
WidescreenStoryboard: 0

[Editor]
DistanceSpacing: 1.3
BeatDivisor: 4
GridSize: 8
TimelineZoom: 2.3

[Metadata]
Title:NAME
TitleUnicode:NAME
Artist:Tsuzuri
ArtistUnicode:綴
Creator:Dapulezatos
Version:I want to be by your side, always and forever
Source:好きな子がめがねを忘れた
Tags:sukimega suki na ko ga megane wo wasureta the girl i like forgot her glasses anime j-pop jpop japanese pop deco*27 堀江晶太 horie shota shouta kemu deco27 opening op -hex- hex -joakh
BeatmapID:4322933
BeatmapSetID:2066347

[Difficulty]
HPDrainRate:6
CircleSize:4.2
OverallDifficulty:9.3
ApproachRate:9.3
SliderMultiplier:1.9
SliderTickRate:2

[Events]
//Background and Video events
0,0,"mylovestory.jpg",0,0
//Break Periods
//Storyboard Layer 0 (Background)
//Storyboard Layer 1 (Fail)
//Storyboard Layer 2 (Pass)
//Storyboard Layer 3 (Foreground)
//Storyboard Layer 4 (Overlay)
//Storyboard Sound Samples

[TimingPoints]
254,327.868852459016,4,2,1,50,1,8
1565,-100,4,2,1,50,0,0
5499,-100,4,2,1,60,0,0
6810,-100,4,2,1,70,0,0
7137,-100,4,2,2,70,0,0
7302,-100,4,2,1,70,0,0
7466,-100,4,2,2,70,0,0
7794,-100,4,2,3,70,0,0
7958,-100,4,2,4,70,0,0
8122,-100,4,2,2,70,0,0
8286,-100,4,2,1,70,0,0
8450,-100,4,2,2,70,0,0
8614,-100,4,2,4,70,0,0
8778,-100,4,2,3,70,0,0
8941,-100,4,2,1,70,0,0
9105,-100,4,2,3,70,0,0
9761,-100,4,2,2,70,0,0
9925,-100,4,2,1,70,0,0
10088,-100,4,2,2,70,0,0
10417,-100,4,2,3,70,0,0
10581,-100,4,2,4,70,0,0
10745,-100,4,2,2,70,0,0
10908,-100,4,2,1,70,0,0
11073,-100,4,2,2,70,0,0
11237,-100,4,2,4,70,0,0
11401,-100,4,2,3,70,0,0
11564,-100,4,2,1,70,0,0
11728,-100,4,2,3,70,0,0
11891,-100,4,2,1,70,0,0
12056,-100,4,2,1,70,0,0
29925,-100,4,2,1,60,0,0
30417,-100,4,2,1,40,0,0
40908,-100,4,2,1,50,0,0
46154,-100,4,2,1,40,0,0
50744,-100,4,2,1,70,0,0
50908,-100,4,2,2,70,0,0
51401,-100,4,2,1,80,0,1
51727,-100,4,2,6,80,0,1
51890,-100,4,2,1,80,0,1
52055,-100,4,2,7,80,0,1
52383,-100,4,2,6,80,0,1
52547,-100,4,2,5,80,0,1
52711,-100,4,2,7,80,0,1
53203,-100,4,2,1,80,0,1
53367,-100,4,2,7,80,0,1
54678,-100,4,2,6,80,0,1
55006,-100,4,2,7,80,0,1
55170,-100,4,2,5,80,0,1
55334,-100,4,2,7,80,0,1
55826,-100,4,2,1,80,0,1
55990,-100,4,2,7,80,0,1
56153,-100,4,2,1,80,0,1
56318,-100,4,2,7,80,0,1
56645,-100,4,2,1,80,0,1
56972,-100,4,2,7,80,0,1
57137,-100,4,2,1,80,0,1
57301,-100,4,2,7,80,0,1
57464,-100,4,2,1,80,0,1
57629,-100,4,2,7,80,0,1
57793,-100,4,2,1,80,0,1
57957,-100,4,2,6,80,0,1
58449,-100,4,2,4,80,0,1
58613,-100,4,2,6,80,0,1
58941,-100,4,2,7,80,0,1
59760,-100,4,2,1,80,0,1
59923,-100,4,2,6,80,0,1
60088,-100,4,2,1,80,0,1
60252,-100,4,2,7,80,0,1
60416,-100,4,2,4,80,0,1
60580,-100,4,2,6,80,0,1
60908,-100,4,2,1,80,0,1
62219,-100,4,2,6,80,0,1
62383,-100,4,2,1,80,0,1
62547,-100,4,2,7,80,0,1
62875,-100,4,2,6,80,0,1
63039,-100,4,2,1,80,0,1
63203,-100,4,2,7,80,0,1
63695,-100,4,2,1,80,0,1
63859,-100,4,2,7,80,0,1
64022,-100,4,2,1,80,0,1
64186,-100,4,2,7,80,0,1
64514,-100,4,2,6,80,0,1
64841,-100,4,2,7,80,0,1
65170,-100,4,2,6,80,0,1
65498,-100,4,2,7,80,0,1
65662,-100,4,2,5,80,0,1
65826,-100,4,2,7,80,0,1
66318,-100,4,2,1,80,0,1
66482,-100,4,2,7,80,0,1
67137,-100,4,2,1,80,0,1
67464,-100,4,2,7,80,0,1
67629,-100,4,2,1,80,0,1
67793,-100,4,2,7,80,0,1
67956,-100,4,2,1,80,0,1
68121,-100,4,2,7,80,0,1
68285,-100,4,2,4,80,0,1
68449,-100,4,2,6,80,0,1
68941,-100,4,2,4,80,0,1
69104,-100,4,2,6,80,0,1
69432,-100,4,2,7,80,0,1
70252,-100,4,2,1,80,0,1
70416,-100,4,2,6,80,0,1
70580,-100,4,2,1,80,0,1
72710,-100,4,2,6,80,0,1
72875,-100,4,2,1,80,0,1
73039,-100,4,2,7,80,0,1
73203,-100,4,2,1,80,0,1
73366,-100,4,2,6,80,0,1
73531,-100,4,2,1,80,0,1
73695,-100,4,2,7,80,0,1
73859,-100,4,2,1,80,0,1
74023,-100,4,2,6,80,0,1
74186,-100,4,2,1,80,0,1
74350,-100,4,2,7,80,0,1
74513,-100,4,2,1,80,0,1
74678,-100,4,2,7,80,0,1
74841,-100,4,2,1,80,0,1
75006,-100,4,2,7,80,0,1
75334,-100,4,2,6,80,0,1
75662,-100,4,2,7,80,0,1
75826,-100,4,2,1,80,0,1
75990,-100,4,2,7,80,0,1
76154,-100,4,2,1,80,0,1
76318,-100,4,2,6,80,0,1
76809,-100,4,2,1,80,0,1
77631,-100,4,2,1,40,0,0
80253,-100,4,2,1,70,0,0
80581,-100,4,2,2,70,0,0
80745,-100,4,2,1,70,0,0
80909,-100,4,2,2,70,0,0
81237,-100,4,2,3,70,0,0
81401,-100,4,2,4,70,0,0
81564,-100,4,2,2,70,0,0
81727,-100,4,2,1,70,0,0
81892,-100,4,2,2,70,0,0
82056,-100,4,2,4,70,0,0
82220,-100,4,2,3,70,0,0
82383,-100,4,2,1,70,0,0
82548,-100,4,2,3,70,0,0
83204,-100,4,2,2,70,0,0
83368,-100,4,2,1,70,0,0
83532,-100,4,2,2,70,0,0
83860,-100,4,2,3,70,0,0
84024,-100,4,2,4,70,0,0
84187,-100,4,2,2,70,0,0
84351,-100,4,2,1,70,0,0
84515,-100,4,2,2,70,0,0
84679,-100,4,2,1,70,0,0
85498,-100,4,2,1,50,0,0
90745,-100,4,2,3,40,0,0
91072,-100,4,2,8,40,0,0
91401,-100,4,2,4,40,0,0
91564,-100,4,2,8,40,0,0
91728,-100,4,2,4,40,0,0
91892,-100,4,2,5,40,0,0
92056,-100,4,2,9,40,0,0
92219,-100,4,2,5,40,0,0
92384,-100,4,2,4,40,0,0
92547,-100,4,2,8,40,0,0
93532,-100,4,2,9,40,0,0
93860,-100,4,2,5,40,0,0
94024,-100,4,2,4,40,0,0
94187,-100,4,2,8,40,0,0
95007,-100,4,2,3,40,0,0
95171,-100,4,2,1,40,0,0
95334,-100,4,2,1,55,0,0
95417,-100,4,2,2,55,0,0
95499,-100,4,2,1,55,0,0
95990,-100,4,2,1,55,0,0
96319,-100,4,2,5,60,0,0
96646,-100,4,2,4,60,0,0
96810,-100,4,2,5,60,0,0
98449,-100,4,2,1,60,0,0
98614,-100,4,2,5,60,0,0
101072,-100,4,2,1,60,0,0
101237,-100,4,2,5,60,0,0
102220,-100,4,2,1,60,0,0
103532,-100,4,2,2,60,0,0
103695,-100,4,2,1,60,0,0
103859,-100,4,2,1,50,0,0
119597,-100,4,2,1,40,0,0
123367,-100,4,2,1,70,0,0
124187,-100,4,2,1,70,0,0
124844,-100,4,2,1,80,0,1
125170,-100,4,2,6,80,0,1
125335,-100,4,2,1,80,0,1
125499,-100,4,2,7,80,0,1
125827,-100,4,2,6,80,0,1
125991,-100,4,2,5,80,0,1
126155,-100,4,2,7,80,0,1
126318,-100,4,2,1,80,0,1
126483,-100,4,2,7,80,0,1
126646,-100,4,2,1,80,0,1
126810,-100,4,2,7,80,0,1
127466,-100,4,2,6,80,0,1
127794,-100,4,2,7,80,0,1
128122,-100,4,2,6,80,0,1
128450,-100,4,2,7,80,0,1
128614,-100,4,2,5,80,0,1
128778,-100,4,2,7,80,0,1
129269,-100,4,2,1,80,0,1
129433,-100,4,2,7,80,0,1
129596,-100,4,2,1,80,0,1
129761,-100,4,2,7,80,0,1
130089,-100,4,2,1,80,0,1
130416,-100,4,2,7,80,0,1
130581,-100,4,2,1,80,0,1
130745,-100,4,2,7,80,0,1
130908,-100,4,2,1,80,0,1
131073,-100,4,2,7,80,0,1
131237,-100,4,2,4,80,0,1
131401,-100,4,2,6,80,0,1
131892,-100,4,2,4,80,0,1
132056,-100,4,2,6,80,0,1
132384,-100,4,2,7,80,0,1
132548,-100,4,2,1,80,0,1
132712,-100,4,2,7,80,0,1
133204,-100,4,2,1,80,0,1
133368,-100,4,2,7,80,0,1
133532,-100,4,2,1,80,0,1
133696,-100,4,2,7,80,0,1
133859,-100,4,2,4,80,0,1
134024,-100,4,2,1,80,0,1
135663,-100,4,2,6,80,0,1
135827,-100,4,2,1,80,0,1
135991,-100,4,2,7,80,0,1
136319,-100,4,2,6,80,0,1
136483,-100,4,2,5,80,0,1
136646,-100,4,2,7,80,0,1
136809,-100,4,2,1,80,0,1
136974,-100,4,2,7,80,0,1
137138,-100,4,2,5,80,0,1
137302,-100,4,2,7,80,0,1
137958,-100,4,2,6,80,0,1
138285,-100,4,2,7,80,0,1
138614,-100,4,2,6,80,0,1
138942,-100,4,2,7,80,0,1
139761,-100,4,2,1,80,0,1
139925,-100,4,2,7,80,0,1
140088,-100,4,2,1,80,0,1
140253,-100,4,2,7,80,0,1
140581,-100,4,2,1,80,0,1
140908,-100,4,2,7,80,0,1
141073,-100,4,2,1,80,0,1
141237,-100,4,2,7,80,0,1
141400,-100,4,2,1,80,0,1
141564,-100,4,2,7,80,0,1
141728,-100,4,2,4,80,0,1
141892,-100,4,2,6,80,0,1
142384,-100,4,2,4,80,0,1
142548,-100,4,2,6,80,0,1
142712,-100,4,2,1,80,0,1
142876,-100,4,2,7,80,0,1
143040,-100,4,2,1,80,0,1
143204,-100,4,2,7,80,0,1
143696,-100,4,2,1,80,0,1
143859,-100,4,2,6,80,0,1
144024,-100,4,2,1,80,0,1
145827,-100,4,2,1,60,0,0
146154,-100,4,2,5,60,0,0
147301,-100,4,2,4,60,0,0
147466,-100,4,2,5,60,0,0
150908,-100,4,2,1,60,0,0
151401,-100,4,2,5,60,0,0
160745,-100,4,2,1,60,0,0
160827,-100,4,2,2,60,0,0
160909,-100,4,2,1,60,0,0
161564,-100,4,2,1,60,0,0
161891,-100,4,2,7,60,0,0
162220,-100,4,2,6,60,0,0
162712,-100,4,2,5,60,0,0
162876,-100,4,2,7,60,0,0
163039,-100,4,2,1,60,0,0
163204,-100,4,2,7,60,0,0
163368,-100,4,2,5,60,0,0
163532,-100,4,2,6,60,0,0
163695,-100,4,2,1,60,0,0
164514,-100,4,2,6,60,0,0
164679,-100,4,2,1,60,0,0
164843,-100,4,2,7,60,0,0
165171,-100,4,2,6,60,0,0
165334,-100,4,2,4,60,0,0
165499,-100,4,2,1,60,0,0
166810,-100,4,2,7,45,0,0
168121,-100,4,2,1,30,0,0
175989,-100,4,2,1,30,0,0
177301,-100,4,2,1,70,0,0
177629,-100,4,2,1,70,0,0
178614,-100,4,2,1,80,0,1
178940,-100,4,2,2,80,0,1
179268,-100,4,2,7,80,0,1
179595,-100,4,2,6,80,0,1
179760,-100,4,2,1,80,0,1
179924,-100,4,2,7,80,0,1
180088,-100,4,2,1,80,0,1
180252,-100,4,2,7,80,0,1
180416,-100,4,2,1,80,0,1
180580,-100,4,2,7,80,0,1
180908,-100,4,2,1,80,0,1
181563,-100,4,2,7,80,0,1
181891,-100,4,2,6,80,0,1
182547,-100,4,2,7,80,0,1
183039,-100,4,2,1,80,0,1
183203,-100,4,2,7,80,0,1
183366,-100,4,2,1,80,0,1
183531,-100,4,2,7,80,0,1
183859,-100,4,2,1,80,0,1
184186,-100,4,2,7,80,0,1
184350,-100,4,2,1,80,0,1
184514,-100,4,2,7,80,0,1
184677,-100,4,2,1,80,0,1
184842,-100,4,2,7,80,0,1
185006,-100,4,2,4,80,0,1
185170,-100,4,2,6,80,0,1
185662,-100,4,2,4,80,0,1
185826,-100,4,2,6,80,0,1
186154,-100,4,2,1,80,0,1
186809,-100,4,2,7,80,0,1
186973,-100,4,2,1,80,0,1
188858,-100,4,2,2,80,0,1
188941,-100,4,2,1,80,0,1
189760,-100,4,2,7,80,0,1
189924,-100,4,2,1,80,0,1
190087,-100,4,2,7,80,0,1
190252,-100,4,2,5,80,0,1
190416,-100,4,2,7,80,0,1
190580,-100,4,2,1,80,0,1
190744,-100,4,2,6,80,0,1
190908,-100,4,2,1,80,0,1
191072,-100,4,2,7,80,0,1
191235,-100,4,2,1,80,0,1
191400,-100,4,2,7,80,0,1
191563,-100,4,2,1,80,0,1
191727,-100,4,2,7,80,0,1
192547,-100,4,2,1,80,0,1
192711,-100,4,2,7,80,0,1
192875,-100,4,2,4,80,0,1
193039,-100,4,2,6,80,0,1
193367,-100,4,2,1,80,0,1
194352,-100,4,2,1,40,0,0
198284,-100,4,2,1,70,0,0
198613,-100,4,2,2,70,0,0
198777,-100,4,2,1,70,0,0
198941,-100,4,2,2,70,0,0
199268,-100,4,2,3,70,0,0
199432,-100,4,2,4,70,0,0
199596,-100,4,2,2,70,0,0
199759,-100,4,2,1,70,0,0
199924,-100,4,2,3,70,0,0
200088,-100,4,2,5,70,0,0
200252,-100,4,2,3,70,0,0
200415,-100,4,2,1,70,0,0
200580,-100,4,2,3,70,0,0
201236,-100,4,2,2,70,0,0
201400,-100,4,2,1,70,0,0
201563,-100,4,2,2,70,0,0
201726,-100,4,2,1,70,0,0
201891,-100,4,2,3,70,0,0
202219,-100,4,2,2,70,0,0
202383,-100,4,2,1,70,0,0
202547,-100,4,2,3,70,0,0
202711,-100,4,2,5,70,0,0
202875,-100,4,2,1,70,0,0
203530,-100,4,2,1,40,0,0

[Colours]
Combo1 : 83,226,75
Combo2 : 244,244,0
Combo3 : 255,140,26

[HitObjects]
256,192,254,12,0,1237,0:0:0:0:
352,136,1565,6,0,P|416:192|352:248,1,190,2|0,0:0|0:0,0:0:0:0:
192,192,2056,1,2,0:0:0:0:
344,320,2384,1,2,0:0:0:0:
184,320,2548,1,2,0:0:0:0:
336,96,2876,5,2,0:0:0:0:
176,96,3040,1,2,0:0:0:0:
24,192,3368,1,2,0:0:0:0:
184,296,3532,1,2,0:0:0:0:
216,272,3696,1,2,0:0:0:0:
184,248,3860,1,2,0:0:0:0:
96,248,4024,1,2,0:0:0:0:
256,192,4187,6,0,L|448:192,1,190,2|2,0:0|0:0,0:0:0:0:
288,144,4679,1,2,0:0:0:0:
136,48,5007,1,2,0:0:0:0:
296,48,5171,2,0,L|400:48,1,95,2|0,0:0|0:0,0:0:0:0:
152,192,5499,5,8,3:2:0:0:
104,192,5581,1,8,3:2:0:0:
256,264,5663,2,0,L|360:264,1,95,8|8,3:2|3:0,0:0:0:0:
104,336,5991,1,8,3:2:0:0:
56,336,6073,1,8,3:2:0:0:
208,336,6155,2,0,L|312:336,1,95,4|4,3:0|3:0,0:0:0:0:
64,64,6483,2,0,L|64:160,1,95,8|0,3:2|0:0,0:0:0:0:
336,136,6810,6,0,P|400:192|336:248,1,190,6|10,0:0|0:0,0:0:0:0:
96,192,7302,2,0,L|96:304,1,95,2|2,3:2|0:0,0:0:0:0:
192,192,7630,1,0,3:0:0:0:
432,56,7794,2,0,L|328:56,1,95,10|2,0:0|0:0,0:0:0:0:
288,56,8040,1,0,0:0:0:0:
144,112,8122,6,0,L|48:112,1,95,2|2,3:2|3:2,0:0:0:0:
288,264,8450,2,0,L|416:264,1,95,10|2,0:0|3:2,0:0:0:0:
336,224,8696,1,0,0:0:0:0:
192,192,8778,2,0,L|80:192,1,95,2|2,0:0|3:2,0:0:0:0:
256,136,9105,1,10,0:0:0:0:
96,136,9269,1,0,0:0:0:0:
336,312,9433,6,0,L|144:312,1,190,2|10,3:2|0:0,0:0:0:0:
384,56,9925,2,0,L|496:56,2,95,2|2|0,3:2|0:0|3:0,0:0:0:0:
144,144,10417,2,0,L|264:144,1,95,10|2,0:0|0:0,0:0:0:0:
288,144,10663,1,0,0:0:0:0:
432,144,10745,5,2,3:2:0:0:
192,272,10909,1,2,3:2:0:0:
352,256,11073,2,0,L|352:360,1,95,10|2,0:0|0:0,0:0:0:0:
296,352,11319,1,0,0:0:0:0:
152,192,11401,1,2,0:0:0:0:
392,192,11564,1,2,3:2:0:0:
240,64,11728,2,0,L|112:64,1,95,10|2,0:0|0:0,0:0:0:0:
384,288,12056,6,0,B|384:192|384:192|288:192,1,190,6|10,0:0|0:0,0:0:0:0:
128,288,12548,2,0,L|32:288,1,95,2|0,3:2|0:0,0:0:0:0:
144,192,12876,1,2,3:2:0:0:
384,88,13040,2,0,L|488:88,1,95,10|2,0:0|0:0,0:0:0:0:
424,136,13286,1,0,0:0:0:0:
280,40,13368,6,0,L|176:40,1,95,0|2,0:0|3:2,0:0:0:0:
424,192,13696,1,10,0:0:0:0:
272,288,13860,2,0,L|176:288,1,95,2|2,0:0|3:2,0:0:0:0:
328,288,14187,1,2,3:2:0:0:
176,96,14351,2,0,L|80:96,1,95,10|2,0:0|0:0,0:0:0:0:
320,96,14679,6,0,P|384:152|320:208,1,190,2|10,3:2|0:0,0:0:0:0:
160,208,15171,2,0,L|65:208,2,95,2|0|2,3:2|0:0|3:2,0:0:0:0:
401,304,15663,2,0,L|496:304,1,95,10|0,0:0|0:0,0:0:0:0:
416,248,15909,1,0,0:0:0:0:
336,248,15991,2,0,L|336:368,1,95,2|2,0:0|3:2,0:0:0:0:
96,192,16319,6,0,L|96:296,1,95,10|0,0:0|0:0,0:0:0:0:
176,192,16564,1,0,0:0:0:0:
256,264,16646,2,0,L|160:264,1,95,2|2,3:2|3:2,0:0:0:0:
320,176,16974,2,0,L|424:176,1,95,10|0,0:0|0:0,0:0:0:0:
176,56,17302,6,0,L|376:56,1,190,2|10,3:2|0:0,0:0:0:0:
208,128,17794,2,0,L|96:128,2,95,2|0|2,3:2|0:0|3:2,0:0:0:0:
463,192,18286,2,0,L|464:304,1,95,10|2,0:0|0:0,0:0:0:0:
408,288,18532,1,0,0:0:0:0:
264,224,18614,6,0,L|160:224,1,95,2|2,3:2|3:2,0:0:0:0:
408,32,18942,1,10,0:0:0:0:
320,32,19105,1,2,3:2:0:0:
408,96,19269,2,0,L|408:192,1,95,2|2,3:2|3:2,0:0:0:0:
248,200,19597,2,0,L|248:320,1,95,10|2,0:0|0:0,0:0:0:0:
16,128,19925,6,0,B|16:224|16:224|120:224,1,190,2|10,3:2|0:0,0:0:0:0:
272,80,20417,2,0,L|392:80,2,95,2|0|2,3:2|0:0|3:2,0:0:0:0:
32,200,20909,2,0,L|32:312,1,95,10|0,0:0|0:0,0:0:0:0:
112,296,21155,1,0,0:0:0:0:
192,296,21237,6,0,L|192:200,1,95,2|2,3:2|3:2,0:0:0:0:
432,120,21564,2,0,L|432:232,1,95,10|2,0:0|3:2,0:0:0:0:
337,215,21892,2,0,L|441:215,1,95,2|2,3:2|3:2,0:0:0:0:
272,64,22220,1,10,0:0:0:0:
40,64,22384,1,2,0:0:0:0:
272,144,22548,6,0,P|336:200|272:256,1,190,6|10,3:2|0:0,0:0:0:0:
104,328,23040,2,0,L|199:328,2,95,2|0|2,3:2|0:0|3:2,0:0:0:0:
344,48,23532,2,0,L|456:48,1,95,10|2,0:0|0:0,0:0:0:0:
384,88,23778,1,0,0:0:0:0:
240,144,23860,5,0,0:0:0:0:
120,144,24024,1,2,3:2:0:0:
360,256,24187,1,10,0:0:0:0:
200,216,24351,2,0,L|88:216,2,95,2|2|2,0:0|3:2|3:2,0:0:0:0:
440,48,24843,2,0,L|440:168,1,95,10|2,0:0|0:0,0:0:0:0:
200,56,25171,6,0,P|136:112|200:168,1,190,2|10,3:2|0:0,0:0:0:0:
360,168,25663,2,0,B|360:264|360:264|264:264,1,190,2|2,3:2|3:2,0:0:0:0:
24,48,26155,2,0,L|24:152,1,95,10|2,0:0|0:0,0:0:0:0:
80,144,26401,1,0,0:0:0:0:
224,344,26483,6,0,L|319:344,1,95,2|2,0:0|3:2,0:0:0:0:
80,224,26810,1,10,0:0:0:0:
240,224,26974,2,0,L|240:104,1,95,2|2,0:0|3:2,0:0:0:0:
144,136,27302,1,2,3:2:0:0:
384,48,27466,2,0,L|480:48,1,95,10|2,0:0|0:0,0:0:0:0:
240,192,27794,6,0,B|240:288|240:288|344:288,1,190,2|10,3:2|0:0,0:0:0:0:
496,288,28286,2,0,B|496:192|496:192|400:192,1,190,2|2,3:2|3:2,0:0:0:0:
160,40,28778,2,0,L|56:40,1,95,10|2,0:0|0:0,0:0:0:0:
120,88,29024,1,0,0:0:0:0:
264,88,29105,2,0,L|384:88,1,95,2|2,3:2|3:2,0:0:0:0:
120,192,29433,1,10,0:0:0:0:
344,192,29597,1,2,0:0:0:0:
472,192,29761,5,0,3:0:0:0:
496,216,29843,1,0,0:0:0:0:
472,232,29925,1,10,0:0:0:0:
400,232,30007,1,10,0:0:0:0:
224,288,30089,1,10,0:0:0:0:
176,288,30171,1,8,0:0:0:0:
344,320,30253,1,10,0:0:0:0:
392,320,30335,1,8,0:0:0:0:
224,80,30417,6,0,P|160:136|232:192,1,190,2|2,0:0|0:0,0:0:0:0:
416,88,31073,1,2,0:0:0:0:
424,136,31237,1,2,0:0:0:0:
432,192,31401,1,2,0:0:0:0:
112,120,31728,6,0,P|64:200|200:280,1,285,2|2,0:0|0:0,0:0:0:0:
296,272,32384,2,0,P|264:136|136:80,1,285,2|2,0:0|0:0,0:0:0:0:
304,48,33040,2,0,P|264:224|88:264,1,380,2|2,0:0|0:0,0:0:0:0:
464,32,34351,6,0,P|200:192|480:384,1,760,2|2,0:0|0:0,0:0:0:0:
160,192,36319,1,2,0:0:0:0:
152,248,36483,1,0,0:0:0:0:
144,304,36646,1,2,0:0:0:0:
368,152,36974,6,0,P|304:51|143:47,1,285,2|2,0:0|0:0,0:0:0:0:
302,240,37630,2,0,P|270:104|142:48,1,285,2|2,0:0|0:0,0:0:0:0:
302,240,38286,6,0,P|406:304|302:360,1,285,2|2,0:0|0:0,0:0:0:0:
216,128,38942,2,0,P|296:238|448:240,1,285,2|2,0:0|0:0,0:0:0:0:
280,24,39597,6,0,P|88:184|280:352,1,570,2|2,0:0|0:0,0:0:0:0:
376,352,40745,1,0,0:0:0:0:
136,112,40909,6,0,L|128:304,1,190,6|0,3:2|3:0,0:0:0:0:
448,232,41564,2,0,L|354:246,2,95,2|2|2,3:2|0:0|3:2,0:0:0:0:
208,192,42220,6,0,B|208:288|208:288|312:288,1,190,2|0,3:2|3:0,0:0:0:0:
304,216,42712,1,2,0:0:0:0:
144,40,42876,2,0,L|334:40,1,190,2|0,3:2|3:2,0:0:0:0:
232,88,43368,1,2,0:0:0:0:
384,120,43532,6,0,P|448:176|368:224,1,190,2|0,3:2|3:0,0:0:0:0:
72,312,44187,2,0,L|96:120,1,190,2|0,3:2|3:0,0:0:0:0:
400,272,44843,6,0,L|224:152,2,190,2|2|2,3:2|3:2|3:2,0:0:0:0:
104,192,45827,1,2,3:2:0:0:
392,56,46155,5,6,3:2:0:0:
440,96,46319,1,2,0:0:0:0:
392,128,46483,1,2,0:0:0:0:
232,136,46646,2,0,B|232:232|232:232|328:232,1,190,2|2,0:0|0:0,0:0:0:0:
224,256,47138,1,2,0:0:0:0:
128,160,47302,6,0,B|128:296|128:296|280:296,1,285,2|0,0:0|0:0,0:0:0:0:
472,312,48122,1,2,0:0:0:0:
464,240,48286,1,2,0:0:0:0:
456,168,48450,1,2,0:0:0:0:
184,192,48778,5,2,0:0:0:0:
256,192,48942,12,0,50417,0:0:0:0:
336,192,50745,5,8,3:2:0:0:
176,192,50909,2,0,P|112:248|176:304,1,190,4|0,3:0|0:0,0:0:0:0:
416,128,51401,6,0,L|224:128,1,190,6|10,3:2|0:0,0:0:0:0:
384,176,51892,1,2,3:2:0:0:
144,88,52056,2,0,L|144:184,1,95,2|0,0:0|3:0,0:0:0:0:
304,224,52384,2,0,L|200:224,1,95,10|2,0:0|0:0,0:0:0:0:
160,224,52630,1,2,0:0:0:0:
328,320,52712,6,0,L|440:320,1,95,2|0,3:2|3:0,0:0:0:0:
168,24,53040,2,0,L|48:24,1,95,10|2,0:0|3:2,0:0:0:0:
120,64,53286,1,2,0:0:0:0:
288,88,53368,1,2,0:0:0:0:
416,88,53532,1,0,3:0:0:0:
176,192,53696,2,0,L|72:192,1,95,10|0,0:0|0:0,0:0:0:0:
328,288,54024,6,0,L|424:288,1,95,2|0,3:2|0:0,0:0:0:0:
168,72,54351,2,0,L|168:176,1,95,10|0,0:0|3:0,0:0:0:0:
328,120,54679,2,0,L|328:232,1,95,2|0,0:0|3:0,0:0:0:0:
80,288,55007,2,0,L|184:288,1,95,10|2,0:0|0:0,0:0:0:0:
224,288,55253,1,2,0:0:0:0:
392,200,55335,6,0,L|488:200,1,95,2|0,3:2|3:0,0:0:0:0:
240,192,55663,2,0,L|240:80,1,95,10|2,0:0|3:2,0:0:0:0:
296,96,55909,1,2,0:0:0:0:
464,56,55991,2,0,L|464:160,1,95,2|2,0:0|3:2,0:0:0:0:
208,192,56319,2,0,L|112:192,1,95,10|0,0:0|0:0,0:0:0:0:
360,296,56646,6,0,L|456:296,1,95,4|0,3:2|0:0,0:0:0:0:
200,96,56974,1,10,0:0:0:0:
336,96,57138,1,2,3:2:0:0:
472,96,57302,2,0,L|472:208,1,95,2|2,0:0|3:2,0:0:0:0:
208,296,57630,2,0,L|312:296,1,95,10|2,0:0|0:0,0:0:0:0:
256,256,57876,1,2,0:0:0:0:
111,256,57958,6,0,L|16:256,1,95,2|0,3:2|3:0,0:0:0:0:
256,64,58286,2,0,L|144:64,1,95,10|2,0:0|3:2,0:0:0:0:
216,104,58532,1,2,0:0:0:0:
368,200,58614,2,0,L|480:200,1,95,2|0,0:0|3:0,0:0:0:0:
200,192,58942,2,0,L|96:192,1,95,10|0,0:0|0:0,0:0:0:0:
344,40,59269,6,0,L|344:135,1,95,2|0,3:2|0:0,0:0:0:0:
104,136,59597,1,10,0:0:0:0:
344,192,59761,2,0,L|448:192,1,95,2|2,3:2|0:0,0:0:0:0:
280,256,60089,1,2,3:2:0:0:
40,256,60253,2,0,L|40:152,1,95,10|2,0:0|0:0,0:0:0:0:
96,160,60499,1,2,0:0:0:0:
264,48,60581,6,0,L|359:48,1,95,2|0,3:2|3:0,0:0:0:0:
120,96,60909,2,0,L|120:208,1,95,12|0,0:0|3:0,0:0:0:0:
360,128,61237,1,12,0:0:0:0:
248,128,61401,1,0,3:0:0:0:
200,128,61483,1,0,3:0:0:0:
368,192,61564,1,8,3:2:0:0:
416,192,61646,1,8,3:2:0:0:
224,240,61728,1,8,3:2:0:0:
176,240,61810,1,8,3:2:0:0:
360,256,61892,6,0,B|360:352|360:352|264:352,1,190,6|10,3:2|0:0,0:0:0:0:
104,352,62384,1,2,3:2:0:0:
344,40,62548,2,0,L|240:40,1,95,2|0,0:0|3:0,0:0:0:0:
408,88,62876,2,0,L|408:192,1,95,10|2,0:0|0:0,0:0:0:0:
352,184,63122,1,2,0:0:0:0:
200,256,63204,6,0,L|104:256,1,95,2|0,3:2|3:0,0:0:0:0:
360,336,63532,2,0,L|248:336,1,95,10|2,0:0|3:2,0:0:0:0:
216,336,63778,1,0,0:0:0:0:
376,248,63860,2,0,L|488:248,1,95,2|2,0:0|3:2,0:0:0:0:
232,96,64187,2,0,L|328:96,1,95,10|0,0:0|0:0,0:0:0:0:
88,192,64515,6,0,L|184:192,1,95,2|0,3:2|0:0,0:0:0:0:
424,192,64843,1,10,0:0:0:0:
328,264,65007,2,0,L|423:264,1,95,0|2,3:0|0:0,0:0:0:0:
423,264,65335,1,0,3:0:0:0:
184,64,65499,2,0,L|80:64,1,95,10|2,0:0|0:0,0:0:0:0:
144,104,65745,1,2,0:0:0:0:
296,192,65827,6,0,L|392:192,1,95,2|0,3:2|3:0,0:0:0:0:
152,192,66155,2,0,L|152:288,1,95,10|2,0:0|3:2,0:0:0:0:
208,288,66401,1,2,0:0:0:0:
368,72,66483,2,0,L|464:72,1,95,2|0,0:0|3:0,0:0:0:0:
224,144,66810,1,10,0:0:0:0:
384,144,66974,1,0,0:0:0:0:
112,192,67138,6,0,L|112:296,1,95,4|0,0:0|0:0,0:0:0:0:
352,312,67466,1,10,0:0:0:0:
200,312,67630,1,2,3:2:0:0:
352,120,67794,2,0,L|472:120,1,95,2|2,0:0|3:2,0:0:0:0:
208,80,68122,2,0,L|320:80,1,95,10|2,0:0|0:0,0:0:0:0:
256,120,68368,1,0,0:0:0:0:
96,192,68450,6,0,L|96:288,1,95,2|0,3:2|3:0,0:0:0:0:
336,328,68778,2,0,L|208:328,1,95,10|2,0:0|3:2,0:0:0:0:
288,288,69024,1,0,0:0:0:0:
448,296,69105,1,2,0:0:0:0:
448,208,69269,1,0,3:0:0:0:
200,56,69433,2,0,L|104:56,1,95,10|0,0:0|0:0,0:0:0:0:
352,120,69761,6,0,L|472:120,1,95,2|0,3:2|0:0,0:0:0:0:
192,192,70089,1,10,0:0:0:0:
448,192,70253,2,0,L|344:192,2,95,2|0|2,3:2|0:0|3:2,0:0:0:0:
200,272,70745,2,0,L|80:272,1,95,14|0,3:2|0:0,0:0:0:0:
152,312,70991,1,0,0:0:0:0:
320,320,71073,6,0,L|424:320,1,95,0|0,3:0|3:0,0:0:0:0:
176,112,71401,1,8,0:0:0:0:
32,112,71564,1,0,3:0:0:0:
280,256,71728,1,10,0:0:0:0:
40,256,71892,1,10,3:2:0:0:
16,280,71974,1,8,3:2:0:0:
40,304,72056,1,10,3:2:0:0:
112,304,72138,1,8,3:2:0:0:
280,304,72220,1,10,3:2:0:0:
344,304,72302,1,8,3:2:0:0:
176,192,72384,5,6,3:2:0:0:
80,192,72548,2,0,L|80:97,1,95,2|10,0:0|0:0,0:0:0:0:
336,240,72876,1,2,3:2:0:0:
192,240,73040,2,0,L|192:144,1,95,2|2,0:0|3:2,0:0:0:0:
360,40,73368,2,0,L|232:40,1,95,10|2,0:0|0:0,0:0:0:0:
320,80,73614,1,0,0:0:0:0:
472,192,73696,6,0,L|472:312,1,95,2|2,3:2|3:2,0:0:0:0:
216,288,74024,2,0,L|96:288,1,95,10|2,0:0|3:2,0:0:0:0:
176,248,74269,1,0,0:0:0:0:
344,248,74351,1,2,0:0:0:0:
472,248,74515,1,2,3:2:0:0:
320,304,74679,2,0,L|415:304,1,95,10|2,0:0|0:0,0:0:0:0:
160,224,75007,6,0,B|160:128|160:128|256:128,1,190,2|10,3:2|0:0,0:0:0:0:
160,128,75499,1,0,3:0:0:0:
320,304,75663,2,0,L|320:209,1,95,2|2,0:0|3:2,0:0:0:0:
80,31,75991,2,0,L|184:31,1,95,10|2,0:0|3:2,0:0:0:0:
224,31,76237,1,0,0:0:0:0:
72,192,76319,6,0,L|72:304,1,95,2|0,3:2|3:0,0:0:0:0:
328,288,76646,2,0,L|448:288,1,95,10|2,0:0|3:2,0:0:0:0:
368,248,76892,1,0,0:0:0:0:
216,352,76974,2,0,L|112:352,1,95,8|4,3:0|3:0,0:0:0:0:
280,288,77302,2,0,L|280:192,1,95,8|2,3:0|0:0,0:0:0:0:
24,192,77630,5,6,3:2:0:0:
256,192,77958,12,0,79925,0:0:0:0:
176,136,80253,6,0,P|112:192|176:248,1,190,6|10,3:2|0:0,0:0:0:0:
416,192,80745,2,0,L|416:304,1,95,2|2,3:2|0:0,0:0:0:0:
320,192,81073,1,0,3:0:0:0:
80,56,81237,2,0,L|184:56,1,95,10|2,0:0|0:0,0:0:0:0:
224,56,81483,1,0,0:0:0:0:
368,112,81564,6,0,L|464:112,1,95,2|2,3:2|3:2,0:0:0:0:
224,264,81892,2,0,L|96:264,1,95,10|2,0:0|3:2,0:0:0:0:
176,224,82138,1,0,0:0:0:0:
320,192,82220,2,0,L|432:192,1,95,2|2,0:0|3:2,0:0:0:0:
256,136,82548,1,10,0:0:0:0:
416,136,82712,1,0,0:0:0:0:
176,312,82876,6,0,B|176:216|176:216|272:216,1,190,2|10,0:2|0:0,0:0:0:0:
33,56,83368,2,0,L|128:56,2,95,2|2|0,3:2|0:0|3:0,0:0:0:0:
272,120,83860,2,0,L|400:120,1,95,10|2,0:0|0:0,0:0:0:0:
320,160,84105,1,0,0:0:0:0:
144,160,84187,5,2,3:2:0:0:
384,328,84351,1,2,3:2:0:0:
280,288,84515,2,0,L|168:288,1,95,10|2,0:0|3:2,0:0:0:0:
136,288,84761,1,0,0:0:0:0:
304,272,84843,5,10,0:0:0:0:
360,272,84925,1,8,0:0:0:0:
200,104,85007,1,10,0:0:0:0:
144,104,85089,1,10,0:0:0:0:
336,104,85171,1,10,0:0:0:0:
440,104,85335,1,10,0:0:0:0:
200,192,85499,6,0,P|136:248|208:304,1,190,6|2,3:2|0:0,0:0:0:0:
344,304,85991,1,2,0:0:0:0:
80,96,86319,2,0,L|192:96,2,95,2|2|2,0:0|0:0|0:0,0:0:0:0:
368,48,86974,6,0,L|440:120,2,95,2|2|2,0:0|0:0|0:0,0:0:0:0:
96,192,87630,1,2,0:0:0:0:
192,224,87794,1,2,0:0:0:0:
96,256,87958,6,0,L|96:360,1,95,2|2,0:0|0:0,0:0:0:0:
352,72,88614,2,0,P|416:128|352:184,1,190,2|2,0:0|0:0,0:0:0:0:
208,192,89105,1,2,0:0:0:0:
400,296,89433,6,0,L|288:296,1,95,2|2,0:0|0:0,0:0:0:0:
400,248,89761,1,0,0:0:0:0:
496,248,89925,2,0,B|496:152|496:152|400:152,1,190,2|2,0:0|0:0,0:0:0:0:
304,152,90417,1,2,0:0:0:0:
96,112,90745,6,0,P|40:176|112:240,1,190,2|10,0:0|0:0,0:0:0:0:
256,224,91237,2,0,P|352:224|392:304,1,190,2|10,0:0|0:0,0:0:0:0:
80,48,91892,6,0,B|80:144|80:144|184:144,1,190,2|2,0:0|0:0,0:0:0:0:
456,144,92548,1,10,0:0:0:0:
192,272,92876,2,0,L|304:272,1,95,2|10,0:0|0:0,0:0:0:0:
152,192,93204,1,2,0:0:0:0:
208,192,93286,1,8,0:0:0:0:
264,192,93368,6,0,P|320:128|256:64,1,190,10|10,0:0|0:0,0:0:0:0:
160,64,93860,1,2,0:0:0:0:
360,312,94187,1,10,0:0:0:0:
208,312,94351,1,2,0:0:0:0:
456,96,94679,6,0,B|456:192|456:192|360:192,1,190,10|2,0:0|0:0,0:0:0:0:
120,136,95171,1,2,0:0:0:0:
360,40,95335,2,0,L|416:40,1,47.5,8|4,3:0|3:0,0:0:0:0:
240,288,95499,2,0,L|192:288,1,47.5,10|0,0:0|0:0,0:0:0:0:
368,288,95663,2,0,L|472:288,1,95,4|2,3:0|0:0,0:0:0:0:
240,144,95991,6,0,P|176:200|240:256,1,190,6|10,3:2|0:0,0:0:0:0:
392,328,96483,2,0,L|297:328,2,95,2|2|2,3:2|0:0|3:2,0:0:0:0:
152,48,96974,2,0,L|40:48,1,95,10|2,0:0|0:0,0:0:0:0:
112,88,97220,1,0,0:0:0:0:
272,144,97302,5,2,0:0:0:0:
392,144,97466,1,2,3:2:0:0:
152,256,97630,1,10,0:0:0:0:
312,216,97794,2,0,L|424:216,2,95,2|2|2,0:0|3:2|3:2,0:0:0:0:
72,48,98286,2,0,L|72:168,1,95,10|2,0:0|0:0,0:0:0:0:
312,56,98614,6,0,P|376:112|312:168,1,190,2|10,3:2|0:0,0:0:0:0:
152,168,99105,2,0,B|152:264|152:264|248:264,1,190,2|2,3:2|3:2,0:0:0:0:
488,48,99597,2,0,L|488:152,1,95,10|2,0:0|0:0,0:0:0:0:
432,144,99843,1,0,0:0:0:0:
288,344,99925,6,0,L|193:344,1,95,2|2,0:0|3:2,0:0:0:0:
432,224,100253,1,10,0:0:0:0:
272,224,100417,2,0,L|272:104,1,95,2|2,0:0|3:2,0:0:0:0:
368,136,100745,1,2,3:2:0:0:
128,48,100909,2,0,L|32:48,1,95,10|2,0:0|0:0,0:0:0:0:
272,192,101237,6,0,B|272:288|272:288|168:288,1,190,2|10,3:2|0:0,0:0:0:0:
16,288,101728,2,0,B|16:192|16:192|112:192,1,190,2|2,3:2|3:2,0:0:0:0:
352,40,102220,2,0,L|456:40,1,95,10|8,0:0|3:0,0:0:0:0:
392,88,102466,1,8,3:0:0:0:
248,88,102548,6,0,L|128:88,1,95,10|4,0:0|3:0,0:0:0:0:
392,192,102876,1,8,3:0:0:0:
143,192,103040,2,0,L|31:192,1,95,4|2,3:0|0:0,0:0:0:0:
184,256,103368,2,0,L|184:360,1,95,4|4,3:0|3:0,0:0:0:0:
32,256,103696,1,8,3:0:0:0:
288,80,103860,6,0,P|352:136|280:192,1,190,4|0,3:2|3:0,0:0:0:0:
96,88,104515,1,2,3:2:0:0:
88,136,104679,1,2,0:0:0:0:
80,192,104843,1,2,3:2:0:0:
392,32,105171,6,0,P|456:88|376:144,1,190,2|0,3:2|3:0,0:0:0:0:
192,288,105827,2,0,B|192:192|192:192|288:192,1,190,2|0,3:2|3:0,0:0:0:0:
384,192,106319,1,2,0:0:0:0:
128,40,106483,6,0,P|64:96|136:144,1,190,2|0,3:2|3:0,0:0:0:0:
360,80,107138,2,0,P|424:136|360:192,1,190,2|2,3:2|3:2,0:0:0:0:
48,32,107794,6,0,P|312:192|32:384,1,760,2|6,3:2|3:2,0:0:0:0:
352,192,109433,1,0,3:2:0:0:
360,240,109597,1,2,0:0:0:0:
136,192,109925,1,2,0:0:0:0:
128,240,110089,1,2,3:2:0:0:
432,64,110417,6,0,L|240:64,1,190,2|0,3:2|3:0,0:0:0:0:
400,104,110909,1,2,0:0:0:0:
240,200,111073,2,0,B|240:104|240:104|336:104,1,190,2|0,3:2|3:0,0:0:0:0:
120,64,111728,6,0,B|120:160|120:160|224:160,1,190,2|0,3:2|3:0,0:0:0:0:
464,280,112384,2,0,L|264:280,1,190,2|0,3:2|3:0,0:0:0:0:
432,248,112876,1,2,0:0:0:0:
280,32,113040,6,0,P|88:192|280:360,1,570,2|2,3:2|3:2,0:0:0:0:
376,352,114187,1,2,0:0:0:0:
224,96,114351,2,0,P|168:136|232:216,1,190,6|0,3:2|3:0,0:0:0:0:
480,248,115007,2,0,L|384:224,2,95,2|2|2,3:2|0:0|3:2,0:0:0:0:
168,192,115663,6,0,B|72:192|72:192|72:288,1,190,2|0,3:2|3:0,0:0:0:0:
200,288,116155,1,2,0:0:0:0:
328,56,116319,2,0,L|138:56,1,190,2|0,3:2|3:0,0:0:0:0:
288,112,116810,1,2,0:0:0:0:
136,112,116974,6,0,P|72:168|152:216,1,190,2|0,3:2|3:0,0:0:0:0:
440,312,117630,2,0,B|440:216|440:216|344:216,1,190,2|0,3:2|3:2,0:0:0:0:
224,216,118122,1,2,0:0:0:0:
104,240,118286,6,0,L|280:120,2,190,2|0|0,3:2|3:0|3:0,0:0:0:0:
408,192,119269,1,0,3:0:0:0:
120,56,119597,5,6,3:2:0:0:
72,96,119761,1,2,0:0:0:0:
120,128,119925,1,2,0:0:0:0:
280,136,120089,2,0,B|280:232|280:232|184:232,1,190,2|2,0:0|0:0,0:0:0:0:
88,232,120581,1,2,0:0:0:0:
248,48,120745,6,0,P|384:48|464:168,1,285,2|0,0:0|0:0,0:0:0:0:
184,312,121564,1,2,0:0:0:0:
192,240,121728,1,2,0:0:0:0:
200,168,121892,1,2,0:0:0:0:
432,80,122220,6,0,P|464:208|152:200,1,570,2|2,0:0|0:0,0:0:0:0:
264,192,123368,1,8,3:0:0:0:
304,168,123450,1,8,3:0:0:0:
264,128,123532,6,0,L|169:128,1,95,4|4,3:0|3:0,0:0:0:0:
104,248,123860,2,0,L|104:344,1,95,4|4,3:0|3:0,0:0:0:0:
360,200,124187,2,0,B|456:200|456:200|456:304,1,190,8|0,3:2|0:0,0:0:0:0:
360,200,124679,1,0,0:0:0:0:
96,128,124843,6,0,L|288:128,1,190,6|10,3:2|0:0,0:0:0:0:
128,176,125335,1,2,3:2:0:0:
368,88,125499,2,0,L|368:184,1,95,2|0,0:0|3:2,0:0:0:0:
208,224,125827,2,0,L|312:224,1,95,10|2,0:0|0:0,0:0:0:0:
352,224,126073,1,0,0:0:0:0:
184,320,126155,6,0,L|72:320,1,95,2|2,3:2|3:2,0:0:0:0:
344,24,126483,2,0,L|464:24,1,95,10|2,0:0|3:2,0:0:0:0:
392,64,126728,1,0,0:0:0:0:
224,88,126810,1,2,0:0:0:0:
96,88,126974,1,0,3:0:0:0:
336,192,127138,2,0,L|440:192,1,95,10|0,0:0|0:0,0:0:0:0:
184,288,127466,6,0,L|88:288,1,95,2|0,3:2|0:0,0:0:0:0:
344,72,127794,2,0,L|456:72,1,95,10|0,0:0|3:0,0:0:0:0:
280,192,128122,2,0,L|160:192,1,95,2|0,0:0|3:0,0:0:0:0:
432,288,128450,2,0,L|328:288,1,95,10|2,0:0|0:0,0:0:0:0:
288,288,128696,1,0,0:0:0:0:
120,200,128778,6,0,L|24:200,1,95,2|0,3:2|3:2,0:0:0:0:
272,192,129105,2,0,L|272:80,1,95,10|2,0:0|3:2,0:0:0:0:
216,96,129351,1,0,0:0:0:0:
48,56,129433,2,0,L|48:160,1,95,2|2,0:0|3:2,0:0:0:0:
304,192,129761,2,0,L|400:192,1,95,10|0,0:0|0:0,0:0:0:0:
152,296,130089,6,0,L|56:296,1,95,4|0,3:2|0:0,0:0:0:0:
312,96,130417,1,10,0:0:0:0:
176,96,130581,1,2,3:2:0:0:
40,96,130745,2,0,L|40:208,1,95,2|2,0:0|3:2,0:0:0:0:
304,296,131073,2,0,L|200:296,1,95,10|2,0:0|0:0,0:0:0:0:
256,256,131319,1,0,0:0:0:0:
401,256,131401,6,0,L|496:256,1,95,2|0,3:2|3:0,0:0:0:0:
256,64,131728,2,0,L|368:64,1,95,10|2,0:0|3:2,0:0:0:0:
296,104,131974,1,0,0:0:0:0:
144,200,132056,2,0,L|32:200,1,95,2|0,0:0|3:2,0:0:0:0:
312,192,132384,2,0,L|416:192,1,95,10|2,0:0|0:0,0:0:0:0:
168,40,132712,6,0,L|168:135,1,95,2|0,3:2|0:0,0:0:0:0:
408,136,133040,1,10,0:0:0:0:
168,192,133204,2,0,L|64:192,1,95,2|0,3:2|0:0,0:0:0:0:
232,256,133532,1,2,3:2:0:0:
472,256,133696,2,0,L|472:152,1,95,10|2,0:0|0:0,0:0:0:0:
416,160,133942,1,0,0:0:0:0:
248,48,134024,6,0,L|153:48,1,95,4|0,3:2|3:0,0:0:0:0:
392,96,134351,2,0,L|392:208,1,95,12|0,0:0|3:0,0:0:0:0:
152,128,134679,1,12,0:0:0:0:
264,128,134843,1,8,3:2:0:0:
312,128,134925,1,0,0:0:0:0:
144,192,135007,1,8,3:2:0:0:
96,192,135089,1,8,3:2:0:0:
288,240,135171,1,8,3:2:0:0:
336,240,135253,1,8,3:2:0:0:
152,256,135335,6,0,B|152:352|152:352|248:352,1,190,6|10,3:2|0:0,0:0:0:0:
408,352,135827,1,2,3:2:0:0:
168,40,135991,2,0,L|272:40,1,95,2|0,0:0|3:0,0:0:0:0:
104,88,136319,2,0,L|104:192,1,95,10|2,0:0|0:0,0:0:0:0:
160,184,136564,1,0,0:0:0:0:
312,256,136646,6,0,L|408:256,1,95,2|2,3:2|3:2,0:0:0:0:
152,336,136974,2,0,L|264:336,1,95,10|2,0:0|3:2,0:0:0:0:
296,336,137220,1,0,0:0:0:0:
136,248,137302,2,0,L|24:248,1,95,2|0,0:0|3:2,0:0:0:0:
280,96,137630,2,0,L|184:96,1,95,10|0,0:0|0:0,0:0:0:0:
424,192,137958,6,0,L|328:192,1,95,2|0,3:2|0:0,0:0:0:0:
88,192,138286,1,10,0:0:0:0:
184,264,138450,2,0,L|89:264,1,95,0|2,3:0|0:0,0:0:0:0:
89,264,138778,1,0,3:0:0:0:
328,64,138942,2,0,L|432:64,1,95,10|0,0:0|0:0,0:0:0:0:
368,104,139187,1,0,0:0:0:0:
216,192,139269,6,0,L|120:192,1,95,2|0,3:2|0:0,0:0:0:0:
360,192,139597,2,0,L|360:288,1,95,10|2,0:0|3:2,0:0:0:0:
304,288,139843,1,0,0:0:0:0:
144,72,139925,2,0,L|48:72,1,95,2|2,0:0|3:2,0:0:0:0:
288,144,140253,1,10,0:0:0:0:
128,144,140417,1,0,0:0:0:0:
400,192,140581,6,0,L|400:296,1,95,4|0,3:2|0:0,0:0:0:0:
160,312,140909,1,10,0:0:0:0:
408,312,141073,1,2,3:2:0:0:
160,120,141237,2,0,L|40:120,1,95,2|2,0:0|3:2,0:0:0:0:
304,80,141564,2,0,L|192:80,1,95,10|2,0:0|0:0,0:0:0:0:
256,120,141810,1,0,0:0:0:0:
416,192,141892,6,0,L|416:288,1,95,2|0,3:2|3:0,0:0:0:0:
176,328,142220,2,0,L|304:328,1,95,10|2,0:0|3:2,0:0:0:0:
224,288,142466,1,0,0:0:0:0:
64,296,142548,1,2,0:0:0:0:
64,208,142712,1,2,3:2:0:0:
312,56,142876,2,0,L|408:56,1,95,10|2,0:0|0:0,0:0:0:0:
160,120,143204,6,0,L|40:120,1,95,2|0,3:2|0:0,0:0:0:0:
320,192,143532,1,10,0:0:0:0:
64,192,143696,2,0,L|168:192,2,95,2|2|2,3:2|0:0|3:2,0:0:0:0:
312,272,144187,2,0,L|432:272,1,95,14|0,0:0|0:0,0:0:0:0:
360,312,144433,1,0,0:0:0:0:
192,320,144515,6,0,L|88:320,1,95,2|0,3:2|3:0,0:0:0:0:
336,112,144843,1,10,0:0:0:0:
480,112,145007,1,0,3:0:0:0:
232,256,145171,1,10,3:2:0:0:
472,256,145335,1,10,3:2:0:0:
416,256,145417,1,8,3:2:0:0:
248,192,145499,1,10,0:0:0:0:
200,192,145581,1,8,0:0:0:0:
392,72,145663,1,10,0:0:0:0:
440,72,145745,1,8,0:0:0:0:
240,72,145827,6,0,P|176:120|248:176,1,190,6|10,3:2|0:0,0:0:0:0:
384,256,146319,2,0,L|288:256,2,95,2|2|2,3:2|0:0|3:2,0:0:0:0:
240,304,146810,2,0,L|128:304,1,95,10|0,0:0|0:0,0:0:0:0:
144,248,147056,1,0,0:0:0:0:
320,56,147138,6,0,P|384:112|304:160,1,190,2|10,0:0|0:0,0:0:0:0:
184,192,147630,2,0,L|184:248,1,47.5,2|0,3:2|0:0,0:0:0:0:
264,240,147794,2,0,L|384:240,1,95,0|2,0:0|3:2,0:0:0:0:
208,320,148122,2,0,L|112:320,1,95,10|2,0:0|0:0,0:0:0:0:
360,48,148450,6,0,B|360:144|360:144|264:144,1,190,2|10,3:2|0:0,0:0:0:0:
120,144,148942,1,2,3:2:0:0:
216,144,149105,2,0,L|216:240,1,95,2|2,0:0|3:2,0:0:0:0:
368,216,149433,2,0,L|368:336,1,95,10|0,0:0|0:0,0:0:0:0:
312,312,149679,1,0,0:0:0:0:
144,120,149761,6,0,L|40:120,1,95,2|2,3:2|3:2,0:0:0:0:
200,192,150089,2,0,L|96:192,1,95,10|2,0:0|3:2,0:0:0:0:
344,240,150417,2,0,L|216:240,1,95,2|2,0:0|3:2,0:0:0:0:
400,160,150745,2,0,L|296:160,1,95,10|2,0:0|0:0,0:0:0:0:
48,72,151073,6,0,B|48:168|48:168|152:168,1,190,2|10,3:2|0:0,0:0:0:0:
240,168,151564,1,2,3:2:0:0:
96,216,151728,2,0,L|96:336,1,95,2|2,0:0|3:2,0:0:0:0:
248,320,152056,2,0,L|360:320,1,95,10|0,0:0|0:0,0:0:0:0:
288,272,152302,1,0,0:0:0:0:
144,96,152384,6,0,L|40:96,1,95,2|2,3:2|3:2,0:0:0:0:
200,176,152712,2,0,L|88:176,1,95,10|2,0:0|3:2,0:0:0:0:
104,208,152958,1,0,0:0:0:0:
184,248,153040,2,0,L|184:128,1,95,0|2,0:0|3:2,0:0:0:0:
328,120,153368,2,0,L|432:120,1,95,10|0,0:0|0:0,0:0:0:0:
184,48,153696,6,0,B|90:47|90:47|88:144,1,190,2|10,3:2|0:0,0:0:0:0:
184,136,154187,1,2,3:2:0:0:
456,224,154351,2,0,L|456:128,1,95,2|2,0:0|3:2,0:0:0:0:
312,216,154679,2,0,L|408:216,1,95,10|2,0:0|0:0,0:0:0:0:
352,256,154925,1,0,0:0:0:0:
200,296,155007,6,0,L|104:296,1,95,2|2,3:2|3:2,0:0:0:0:
248,160,155335,2,0,L|344:160,1,95,10|2,0:0|3:2,0:0:0:0:
288,200,155581,1,0,0:0:0:0:
120,184,155663,2,0,L|16:184,1,95,2|2,0:0|3:2,0:0:0:0:
264,88,155991,1,10,0:0:0:0:
120,88,156155,1,2,0:0:0:0:
352,152,156319,6,0,B|448:152|448:152|448:248,1,190,2|10,3:2|0:0,0:0:0:0:
352,248,156810,1,2,3:2:0:0:
208,336,156974,2,0,L|113:336,1,95,2|2,0:0|3:2,0:0:0:0:
256,336,157302,2,0,L|351:336,1,95,10|0,0:0|0:0,0:0:0:0:
304,288,157548,1,0,0:0:0:0:
136,200,157630,6,0,L|16:200,1,95,2|2,3:2|3:2,0:0:0:0:
184,56,157958,2,0,L|280:56,1,95,10|2,0:0|3:2,0:0:0:0:
279,56,158204,1,0,0:0:0:0:
184,112,158286,2,0,L|184:208,1,95,0|2,0:0|3:2,0:0:0:0:
432,208,158614,2,0,L|432:312,1,95,10|0,0:0|0:0,0:0:0:0:
184,296,158942,6,0,L|72:296,1,95,2|2,3:2|0:0,0:0:0:0:
336,208,159269,2,0,L|216:208,1,95,10|2,0:0|3:2,0:0:0:0:
480,112,159597,2,0,L|344:112,1,95,2|2,0:0|3:2,0:0:0:0:
144,72,159925,2,0,L|248:72,1,95,10|2,0:0|0:0,0:0:0:0:
288,72,160171,1,0,0:0:0:0:
448,192,160253,5,2,3:2:0:0:
312,192,160417,1,2,3:2:0:0:
168,192,160581,1,10,0:0:0:0:
312,304,160745,2,0,L|384:304,1,47.5,10|4,0:0|3:0,0:0:0:0:
192,240,160909,1,8,3:0:0:0:
56,240,161073,1,4,3:0:0:0:
296,128,161237,1,10,0:0:0:0:
440,128,161401,1,4,3:0:0:0:
160,112,161564,6,0,L|48:112,1,95,6|0,3:2|0:0,0:0:0:0:
304,48,161892,2,0,L|408:48,2,95,10|0|2,0:0|3:2|0:0,0:0:0:0:
208,48,162384,1,0,3:0:0:0:
456,224,162548,2,0,L|456:120,1,95,10|2,0:0|0:0,0:0:0:0:
400,136,162794,1,0,0:0:0:0:
232,184,162876,6,0,L|136:184,1,95,2|2,3:2|3:2,0:0:0:0:
368,320,163204,2,0,L|472:320,1,95,10|2,0:0|3:2,0:0:0:0:
408,272,163450,1,0,0:0:0:0:
240,240,163532,2,0,L|128:240,1,95,2|2,0:0|3:2,0:0:0:0:
432,144,163860,2,0,L|432:48,1,95,14|2,0:0|0:0,0:0:0:0:
192,48,164187,6,0,B|192:144|192:144|288:144,1,190,6|10,3:2|0:0,0:0:0:0:
384,144,164679,1,2,3:2:0:0:
240,208,164843,2,0,L|240:320,1,95,2|0,0:0|3:2,0:0:0:0:
480,40,165171,2,0,L|480:144,1,95,10|2,0:0|0:0,0:0:0:0:
232,48,165499,6,0,L|112:48,1,95,2|0,3:2|3:2,0:0:0:0:
376,232,165827,2,0,L|472:232,1,95,10|2,0:0|3:2,0:0:0:0:
184,176,166155,2,0,L|120:176,1,47.5,8|8,0:0|0:0,0:0:0:0:
304,176,166319,2,0,L|376:176,1,47.5,8|8,0:0|0:0,0:0:0:0:
152,112,166483,2,0,L|105:112,1,47.5,8|8,0:0|0:0,0:0:0:0:
312,112,166646,2,0,L|360:112,1,47.5,8|8,0:0|0:0,0:0:0:0:
144,320,166810,6,0,L|24:168,2,190,2|2|2,0:0|0:0|0:0,0:0:0:0:
336,320,167794,1,2,0:0:0:0:
48,192,168122,6,0,B|48:96|48:96|144:96,1,190,2|0,0:0|0:0,0:0:0:0:
240,96,168614,1,2,0:0:0:0:
96,192,168778,2,0,P|32:240|96:304,1,190,2|0,0:0|0:0,0:0:0:0:
192,304,169269,1,2,0:0:0:0:
336,224,169433,6,0,L|480:80,2,190,2|2|2,0:0|0:0|0:0,0:0:0:0:
48,32,170417,2,0,P|152:64|40:232,1,380,2|2,0:0|0:0,0:0:0:0:
352,192,171728,1,2,0:0:0:0:
104,192,172056,6,0,P|40:240|112:304,1,190,2|2,0:0|0:0,0:0:0:0:
288,48,172712,2,0,B|88:48,1,190,2|2,0:0|0:0,0:0:0:0:
392,192,173368,1,0,0:0:0:0:
152,192,173696,2,0,L|72:248,2,95,2|2|2,0:0|0:0|0:0,0:0:0:0:
448,64,174351,6,0,L|264:120,2,190,2|0|0,0:0|0:0|0:0,0:0:0:0:
144,192,175335,1,0,0:0:0:0:
336,192,175663,2,0,L|232:192,1,95,2|2,0:0|0:0,0:0:0:0:
480,40,175991,6,0,P|288:192|488:352,1,570,2|2,0:0|0:0,0:0:0:0:
40,48,177302,2,0,L|40:152,1,95,4|0,3:2|3:0,0:0:0:0:
288,72,177630,2,0,L|424:72,1,95,8|0,3:2|3:0,0:0:0:0:
336,112,177876,1,0,0:0:0:0:
152,192,177958,2,0,L|56:192,1,95,8|8,0:0|0:0,0:0:0:0:
112,232,178204,1,8,0:0:0:0:
280,224,178286,2,0,L|360:224,1,47.5,8|8,3:2|3:2,0:0:0:0:
128,304,178450,2,0,L|64:304,1,47.5,8|8,3:2|3:2,0:0:0:0:
256,152,178614,6,0,L|368:152,1,95,6|0,3:2|0:0,0:0:0:0:
104,152,178942,2,0,L|104:248,1,95,12|2,3:2|3:2,0:0:0:0:
344,40,179269,2,0,L|240:40,1,95,2|0,0:0|3:2,0:0:0:0:
408,88,179597,2,0,L|408:192,1,95,10|2,0:0|0:0,0:0:0:0:
352,184,179843,1,0,0:0:0:0:
200,256,179925,6,0,L|104:256,1,95,2|2,3:2|3:2,0:0:0:0:
360,336,180253,2,0,L|248:336,1,95,10|2,0:0|3:2,0:0:0:0:
216,336,180499,1,0,0:0:0:0:
376,248,180581,2,0,L|488:248,1,95,2|2,0:0|3:2,0:0:0:0:
232,96,180909,2,0,L|328:96,1,95,10|0,0:0|0:0,0:0:0:0:
88,192,181237,6,0,L|184:192,1,95,6|0,3:2|0:0,0:0:0:0:
424,192,181564,1,10,0:0:0:0:
328,264,181728,2,0,L|423:264,1,95,0|2,3:0|0:0,0:0:0:0:
423,264,182056,1,0,3:0:0:0:
184,64,182220,2,0,L|80:64,1,95,10|2,0:0|0:0,0:0:0:0:
144,104,182466,1,0,0:0:0:0:
296,192,182548,6,0,L|392:192,1,95,2|0,3:2|3:2,0:0:0:0:
152,192,182876,2,0,L|152:288,1,95,10|2,0:0|3:2,0:0:0:0:
208,288,183122,1,0,0:0:0:0:
368,72,183204,2,0,L|464:72,1,95,2|2,0:0|3:2,0:0:0:0:
224,144,183532,1,10,0:0:0:0:
384,144,183696,1,0,0:0:0:0:
112,192,183860,6,0,L|112:296,1,95,4|0,3:2|0:0,0:0:0:0:
352,312,184187,1,10,0:0:0:0:
104,312,184351,1,2,3:2:0:0:
352,120,184515,2,0,L|472:120,1,95,2|2,0:0|3:2,0:0:0:0:
208,80,184843,2,0,L|320:80,1,95,10|2,0:0|0:0,0:0:0:0:
256,120,185089,1,0,0:0:0:0:
96,192,185171,6,0,L|96:288,1,95,2|0,3:2|3:2,0:0:0:0:
336,328,185499,2,0,L|208:328,1,95,10|2,0:0|3:2,0:0:0:0:
288,288,185745,1,0,0:0:0:0:
448,296,185827,1,2,0:0:0:0:
448,208,185991,1,0,3:2:0:0:
200,56,186155,2,0,L|104:56,1,95,14|0,3:2|0:0,0:0:0:0:
352,120,186483,6,0,L|472:120,1,95,2|0,3:2|0:0,0:0:0:0:
192,192,186810,1,10,0:0:0:0:
448,192,186974,2,0,L|344:192,2,95,2|0|2,3:2|0:0|3:2,0:0:0:0:
200,272,187466,2,0,L|80:272,1,95,10|0,0:0|3:0,0:0:0:0:
152,312,187712,1,0,0:0:0:0:
320,320,187794,6,0,L|424:320,1,95,12|0,3:2|3:0,0:0:0:0:
176,112,188122,1,12,3:2:0:0:
32,112,188286,1,0,3:0:0:0:
280,256,188450,1,4,3:0:0:0:
40,256,188614,1,4,3:0:0:0:
96,256,188696,1,4,3:0:0:0:
264,192,188778,1,8,3:0:0:0:
312,192,188860,1,4,3:0:0:0:
120,72,188942,1,8,3:0:0:0:
72,72,189024,1,8,3:0:0:0:
288,128,189105,5,6,3:2:0:0:
432,192,189269,2,0,L|432:97,1,95,2|8,0:0|0:0,0:0:0:0:
176,240,189597,1,2,3:2:0:0:
320,240,189761,2,0,L|320:144,1,95,2|2,0:0|3:2,0:0:0:0:
152,40,190089,2,0,L|280:40,1,95,10|2,0:0|0:0,0:0:0:0:
192,80,190335,1,0,0:0:0:0:
40,192,190417,6,0,L|40:312,1,95,2|2,3:2|3:2,0:0:0:0:
296,288,190745,2,0,L|416:288,1,95,10|2,0:0|3:2,0:0:0:0:
336,248,190991,1,0,0:0:0:0:
168,248,191073,1,2,0:0:0:0:
40,248,191237,1,2,3:2:0:0:
192,304,191401,2,0,L|97:304,1,95,10|2,0:0|0:0,0:0:0:0:
352,224,191728,6,0,B|352:128|352:128|256:128,1,190,2|10,3:2|0:0,0:0:0:0:
352,128,192220,1,0,3:0:0:0:
192,304,192384,2,0,L|192:209,1,95,2|2,0:0|3:2,0:0:0:0:
432,31,192712,2,0,L|328:31,1,95,10|2,0:0|0:0,0:0:0:0:
288,31,192958,1,0,0:0:0:0:
440,192,193040,6,0,L|440:304,1,95,2|0,3:2|3:2,0:0:0:0:
184,288,193368,2,0,L|64:288,1,95,12|2,3:0|3:2,0:0:0:0:
144,248,193614,1,0,0:0:0:0:
296,352,193696,2,0,L|400:352,1,95,4|0,3:0|3:0,0:0:0:0:
232,288,194024,2,0,L|232:192,1,95,8|2,3:0|0:0,0:0:0:0:
488,192,194351,5,6,0:0:0:0:
256,192,194679,12,2,196646,0:0:0:0:
176,136,198286,6,0,P|112:192|176:248,1,190,6|10,3:2|0:0,0:0:0:0:
416,192,198778,2,0,L|416:304,1,95,2|2,3:2|0:0,0:0:0:0:
320,192,199105,1,0,3:0:0:0:
80,56,199269,2,0,L|184:56,1,95,10|2,0:0|0:0,0:0:0:0:
224,56,199515,1,0,0:0:0:0:
368,112,199597,6,0,L|464:112,1,95,2|2,3:2|3:2,0:0:0:0:
224,264,199925,2,0,L|96:264,1,95,10|2,0:0|3:2,0:0:0:0:
176,224,200171,1,0,0:0:0:0:
320,192,200253,2,0,L|432:192,1,95,2|2,0:0|3:2,0:0:0:0:
256,136,200581,1,10,0:0:0:0:
416,136,200745,1,0,0:0:0:0:
176,312,200909,6,0,L|368:312,1,190,2|10,3:2|0:0,0:0:0:0:
128,56,201401,2,0,L|16:56,2,95,2|2|2,3:2|0:0|3:2,0:0:0:0:
368,144,201892,2,0,L|248:144,1,95,10|0,0:0|0:0,0:0:0:0:
224,144,202138,1,0,0:0:0:0:
80,144,202220,5,2,3:2:0:0:
320,272,202384,1,2,3:2:0:0:
160,256,202548,2,0,L|160:360,1,95,10|2,0:0|3:2,0:0:0:0:
216,352,202794,1,0,0:0:0:0:
360,192,202876,2,0,L|440:192,1,47.5,10|8,0:0|0:0,0:0:0:0:
232,88,203040,2,0,L|176:88,1,47.5,10|8,0:0|0:0,0:0:0:0:
376,56,203204,2,0,L|488:56,1,95,10|10,0:0|0:0,0:0:0:0:
176,192,203532,5,6,3:2:0:0:
256,192,203696,12,2,205827,0:0:0:0:
