osu file format v14

[General]
AudioFilename: audio.mp3
AudioLeadIn: 0
PreviewTime: 67266
Countdown: 0
SampleSet: Soft
StackLeniency: 0.7
Mode: 0
LetterboxInBreaks: 0
EpilepsyWarning: 1
WidescreenStoryboard: 1

[Editor]
Bookmarks: 90470,146693
DistanceSpacing: 1.3
BeatDivisor: 4
GridSize: 8
TimelineZoom: 2.1

[Metadata]
Title:in this unstable world
TitleUnicode:in this unstable world
Artist:Tsushima Yoshiko (CV: Kobayashi Aika)
ArtistUnicode:津島善子 (CV: 小林愛香)
Creator:Noctiam
Version:Normal
Source:ラブライブ!サンシャイン!!
Tags:datenshi yohane 堕天使ヨハネ love live! sunshine!! aqours solo japanese anime school idol project aki hata 畑亜貴 rei kamiya 神谷礼 lantis 2018 full ver
BeatmapID:1821382
BeatmapSetID:723437

[Difficulty]
HPDrainRate:4
CircleSize:3.5
OverallDifficulty:4
ApproachRate:5
SliderMultiplier:1
SliderTickRate:1

[Events]
//Background and Video events
0,0,"BG.jpg",0,0
//Break Periods
2,31173,33020
2,91173,93020
2,116919,123020
2,178595,191720
2,224298,226145
//Storyboard Layer 0 (Background)
//Storyboard Layer 1 (Fail)
//Storyboard Layer 2 (Pass)
//Storyboard Layer 3 (Foreground)
//Storyboard Layer 4 (Overlay)
//Storyboard Sound Samples

[TimingPoints]
4220,468.75,4,2,1,60,1,0
5157,-100,4,2,1,60,0,0
15470,-100,4,2,1,60,0,0
22032,-100,4,2,1,75,0,0
26720,-100,4,2,1,75,0,0
37970,-100,4,2,1,60,0,0
52970,-100,4,2,1,70,0,0
60470,-100,4,2,1,70,0,0
67970,-100,4,1,1,90,0,1
80157,-100,4,2,0,90,0,1
81095,-100,4,1,1,90,0,1
82970,-100,4,1,1,90,0,0
90470,-100,4,2,1,60,0,0
101720,-100,4,2,1,70,0,0
109220,-100,4,2,1,75,0,0
124220,-100,4,2,1,70,0,0
131720,-100,4,1,1,90,0,1
146720,-100,4,2,1,70,0,0
161720,-100,4,1,1,75,0,0
172970,-100,4,2,1,75,0,0
176720,-100,4,2,1,50,0,0
193595,-100,4,2,1,50,0,0
194532,-100,4,1,1,90,0,1
205782,-100,4,2,0,90,0,1
206720,-100,4,1,1,90,0,1
208595,-100,4,1,1,90,0,0
223595,-100,4,2,1,50,0,0
227345,-100,4,2,1,70,0,0

[Colours]
Combo1 : 0,128,192
Combo2 : 192,192,192
Combo3 : 255,128,255
Combo4 : 192,192,192

[HitObjects]
167,60,4220,6,0,P|152:107|152:157,1,100
285,128,5157,2,0,P|377:145|424:240,1,200
163,323,7266,2,0,B|199:329|232:310|232:310|272:358|329:334|329:334|362:316|372:252|318:241|277:209|291:161,1,375
256,192,9141,12,0,15470,0:0:0:0:
49,252,16173,5,0,0:0:0:0:
87,304,16407,2,0,L|189:322,1,100,8|8,0:0|0:0,0:0:0:0:
249,328,17110,1,0,0:0:0:0:
300,287,17345,6,0,P|266:233|213:218,1,100,8|8,0:0|0:0,0:0:0:0:
170,208,18048,1,0,0:0:0:0:
113,175,18282,2,0,P|147:121|200:106,1,100,8|8,0:0|0:0,0:0:0:0:
242,121,18985,1,0,0:0:0:0:
303,98,19220,6,0,L|388:171,1,100,8|8,0:0|0:0,0:0:0:0:
418,214,19923,1,0,0:0:0:0:
441,274,20157,2,0,P|422:314|359:339,1,100,8|8,0:0|0:0,0:0:0:0:
306,326,20860,1,0,0:0:0:0:
269,272,21095,6,0,P|251:208|251:158,1,100,8|8,0:0|0:0,0:0:0:0:
303,137,21798,1,0,0:0:0:0:
373,135,22032,2,0,P|384:171|381:227,2,75,8|8|8,0:0|0:0|0:0,0:0:0:0:
335,81,22970,5,12,0:0:0:0:
208,50,23438,1,8,0:0:0:0:
248,173,23906,1,8,0:0:0:0:
123,135,24375,1,8,0:0:0:0:
169,256,24845,6,0,L|63:247,1,100,8|8,0:0|0:0,0:0:0:0:
157,343,25782,2,0,L|272:351,1,100,8|8,0:0|0:0,0:0:0:0:
321,358,26485,1,0,0:0:0:0:
385,351,26720,6,0,L|379:302,1,50,10|2,0:0|0:0,0:0:0:0:
435,269,27188,2,0,L|428:219,1,50,10|2,0:0|0:0,0:0:0:0:
366,198,27657,2,0,L|361:148,1,50,10|2,0:0|0:0,0:0:0:0:
415,112,28126,2,0,L|408:62,1,50,10|2,0:0|0:0,0:0:0:0:
256,192,28595,12,0,30235,0:0:0:0:
103,142,34220,6,0,L|212:154,1,100,8|8,0:0|0:0,0:0:0:0:
130,261,35157,2,0,L|9:247,1,100,8|8,0:0|0:0,0:0:0:0:
83,130,36095,6,0,L|90:203,1,50,8|0,0:0|0:0,0:0:0:0:
152,177,36563,2,0,L|160:244,1,50,8|0,0:0|0:0,0:0:0:0:
222,218,37032,2,8,L|233:280,1,50
295,267,37501,2,8,L|305:307,4,25
400,342,38438,5,8,0:0:0:0:
464,229,38907,2,0,L|414:212,1,50,2|0,0:0|0:0,0:0:0:0:
360,184,39376,2,0,L|311:166,1,50,8|0,0:0|0:0,0:0:0:0:
252,146,39845,6,0,P|224:187|232:254,1,100,2|8,0:0|0:0,0:0:0:0:
278,353,40782,2,0,L|214:344,1,50,2|0,0:0|0:0,0:0:0:0:
163,340,41251,2,0,P|125:333|100:312,1,50,8|0,0:0|0:0,0:0:0:0:
57,298,41720,6,0,P|34:251|42:198,1,100,2|8,0:0|0:0,0:0:0:0:
86,83,42657,2,0,P|122:101|152:97,1,50,2|0,0:0|0:0,0:0:0:0:
192,121,43126,2,0,P|231:125|258:111,1,50,2|0,0:0|0:0,0:0:0:0:
304,110,43595,5,2,0:0:0:0:
286,238,44063,1,8,0:0:0:0:
209,132,44532,1,2,0:0:0:0:
154,250,45001,1,8,0:0:0:0:
57,163,45470,6,0,P|106:157|161:171,1,100,6|8,0:0|0:0,0:0:0:0:
255,250,46407,2,0,P|292:264|315:265,1,50,2|0,0:0|0:0,0:0:0:0:
359,233,46876,2,0,P|389:217|400:199,1,50,8|0,0:0|0:0,0:0:0:0:
408,140,47345,6,0,P|454:140|474:146,2,50,2|0|8,0:0|0:0|0:0,0:0:0:0:
277,142,48282,2,0,P|248:133|224:112,2,50,2|8|8,0:0|0:0|0:0,0:0:0:0:
370,226,49220,6,0,L|317:333,1,100,2|8,0:0|0:0,0:0:0:0:
206,248,50157,2,0,L|233:193,1,50,2|0,0:0|0:0,0:0:0:0:
286,173,50626,2,0,L|281:111,1,50,2|0,0:0|0:0,0:0:0:0:
287,58,51095,5,10,0:0:0:0:
386,129,51563,1,8,0:0:0:0:
295,222,52032,1,10,0:0:0:0:
384,316,52501,1,8,0:0:0:0:
472,221,52970,6,0,P|422:232|396:291,1,100,6|8,0:0|0:0,0:0:0:0:
365,328,53673,1,0,0:0:0:0:
301,343,53907,2,0,L|187:318,1,100,2|8,0:0|0:0,0:0:0:0:
281,217,54845,6,0,P|331:206|359:152,1,100,2|8,0:0|0:0,0:0:0:0:
335,105,55548,1,0,0:0:0:0:
292,56,55782,2,0,L|177:64,1,100,2|8,0:0|0:0,0:0:0:0:
143,183,56720,6,0,L|34:159,1,100,2|8,0:0|0:0,0:0:0:0:
66,99,57423,1,0,0:0:0:0:
121,65,57657,2,0,P|168:54|230:60,1,100,2|0,0:0|0:0,0:0:0:0:
349,52,58595,6,0,L|391:168,1,100,2|8,0:0|0:0,0:0:0:0:
399,209,59298,1,0,0:0:0:0:
379,270,59532,2,0,P|330:268|294:235,1,100,2|8,0:0|0:0,0:0:0:0:
213,132,60470,6,0,L|43:146,1,150,12|8,0:0|0:0,0:0:0:0:
114,263,61641,2,0,P|165:249|209:206,1,100,8|0,0:0|0:0,0:0:0:0:
263,200,62345,2,0,L|417:222,1,150,8|8,0:0|0:0,0:0:0:0:
353,337,63516,2,0,P|302:323|258:280,1,100,8|0,0:0|0:0,0:0:0:0:
256,227,64220,5,2,0:0:0:0:
256,227,64923,1,0,0:0:0:0:
187,116,65391,2,0,P|143:115|98:88,2,75
123,27,67970,6,0,P|153:89|147:134,1,100,6|8,0:0|0:0,0:0:0:0:
108,167,68673,1,0,0:0:0:0:
56,205,68907,2,0,L|74:324,1,100,2|8,0:0|0:0,0:0:0:0:
129,333,69610,1,0,0:0:0:0:
157,274,69845,6,0,P|206:272|258:301,1,100,2|8,0:0|0:0,0:0:0:0:
303,332,70548,1,0,0:0:0:0:
364,353,70782,2,0,P|408:352|459:314,1,100,2|8,0:0|0:0,0:0:0:0:
455,256,71485,1,0,0:0:0:0:
463,191,71720,6,0,P|427:181|351:203,1,100,2|8,0:0|0:0,0:0:0:0:
304,213,72423,1,0,0:0:0:0:
270,268,72657,2,0,P|228:317|179:320,1,100,2|8,0:0|0:0,0:0:0:0:
137,296,73360,1,0,0:0:0:0:
94,246,73595,6,0,L|81:175,1,50,2|0,0:0|0:0,0:0:0:0:
126,147,74063,2,0,L|158:103,1,50,8|0,0:0|0:0,0:0:0:0:
220,104,74532,2,0,L|289:87,1,50,2|0,0:0|0:0,0:0:0:0:
333,96,75001,2,0,L|384:131,1,50,8|0,0:0|0:0,0:0:0:0:
402,182,75470,6,0,L|295:207,1,100,6|8,0:0|0:0,0:0:0:0:
249,239,76173,1,0,0:0:0:0:
219,297,76407,2,0,L|322:320,1,100,2|8,0:0|0:0,0:0:0:0:
365,276,77110,1,0,0:0:0:0:
429,268,77345,6,0,P|413:326|376:357,1,100,2|8,0:0|0:0,0:0:0:0:
321,335,78048,1,0,0:0:0:0:
255,356,78282,2,0,P|220:320|206:273,1,100,2|8,0:0|0:0,0:0:0:0:
182,216,78985,1,0,0:0:0:0:
187,151,79220,6,0,L|258:164,1,50,2|0,0:0|0:0,0:0:0:0:
282,205,79688,2,0,P|313:210|352:205,1,50,8|0,0:0|0:0,0:0:0:0:
343,273,80157,6,0,L|272:286,1,50,2|0,0:0|0:0,0:0:0:0:
248,327,80625,2,0,P|217:332|178:327,1,50,8|0,0:0|0:0,0:0:0:0:
136,309,81095,6,0,L|61:348,2,75,8|8|8,0:0|0:0|0:0,0:0:0:0:
263,333,82266,1,8,0:0:0:0:
263,333,82501,1,8,0:0:0:0:
324,218,82970,5,6,0:0:0:0:
198,184,83438,2,0,P|149:185|103:140,1,100,8|2,0:0|0:0,0:0:0:0:
75,99,84141,1,0,0:0:0:0:
117,49,84376,2,0,P|152:54|184:69,1,50,8|0,0:0|0:0,0:0:0:0:
228,75,84845,5,2,0:0:0:0:
341,138,85313,2,0,P|291:146|260:187,1,100,8|2,0:0|0:0,0:0:0:0:
302,233,86016,1,0,0:0:0:0:
346,280,86251,2,0,L|400:323,1,50,8|0,0:0|0:0,0:0:0:0:
433,354,86720,5,2,0:0:0:0:
473,230,87188,2,0,L|468:118,1,100,8|2,0:0|0:0,0:0:0:0:
413,95,87891,1,0,0:0:0:0:
349,78,88126,2,0,P|319:71|289:74,1,50,8|0,0:0|0:0,0:0:0:0:
246,108,88595,6,0,L|184:177,1,75,8|8,0:0|0:0,0:0:0:0:
155,214,89180,1,8,0:0:0:0:
131,274,89415,2,0,L|184:346,1,75,8|8,0:0|0:0,0:0:0:0:
238,352,90001,2,0,P|286:360|341:328,1,100,8|0,0:0|0:0,0:0:0:0:
256,192,94220,6,0,L|237:302,1,100,4|0,0:0|0:0,0:0:0:0:
112,321,95157,2,0,L|131:213,1,100
130,92,96095,6,0,L|72:128,1,50
30,149,96563,2,0,L|10:208,1,50
27,259,97032,2,0,L|68:304,1,50
122,274,97501,2,0,L|180:258,1,50
230,235,97970,2,0,P|306:316|300:188,1,300
309,69,99845,6,0,L|200:82,1,100,2|2,0:0|0:0,0:0:0:0:
117,172,100782,2,0,L|216:184,1,100,2|2,0:0|0:0,0:0:0:0:
337,140,101720,6,0,P|444:141|470:238,1,200,2|10,0:0|0:0,0:0:0:0:
438,269,102891,2,0,P|417:307|400:319,1,50
349,327,103360,1,2,0:0:0:0:
349,327,103595,6,0,P|293:271|322:149,1,200,2|8,0:0|0:0,0:0:0:0:
371,137,104766,2,0,P|404:135|432:118,1,50
446,68,105235,1,0,0:0:0:0:
446,68,105470,6,0,B|372:31|312:108|236:67,1,200,2|8,0:0|0:0,0:0:0:0:
187,87,106641,1,0,0:0:0:0:
149,144,106876,2,0,L|129:201,1,50,0|2,0:0|0:0,0:0:0:0:
157,251,107345,5,0,0:0:0:0:
279,293,107813,1,0,0:0:0:0:
394,232,108282,1,0,0:0:0:0:
348,110,108751,2,0,P|383:128|404:153,1,50,8|0,0:0|0:0,0:0:0:0:
429,187,109220,6,0,P|376:194|338:236,1,100,10|0,0:0|0:0,0:0:0:0:
299,272,109923,1,0,0:0:0:0:
244,307,110157,2,0,P|227:283|212:250,1,50
192,204,110626,1,0,0:0:0:0:
242,84,111095,6,0,L|357:91,1,100
393,129,111798,1,0,0:0:0:0:
400,193,112032,2,0,L|391:255,1,50
367,302,112501,1,0,0:0:0:0:
266,219,112970,6,0,P|219:233|192:285,1,100,2|8,0:0|0:0,0:0:0:0:
244,314,113673,1,0,0:0:0:0:
308,318,113907,2,0,L|366:296,1,50
387,243,114376,1,0,0:0:0:0:
334,123,114845,6,0,L|230:113,1,100,2|8,0:0|0:0,0:0:0:0:
169,107,115548,1,0,0:0:0:0:
128,157,115782,2,0,L|154:218,1,50,2|0,0:0|0:0,0:0:0:0:
175,261,116251,2,0,P|165:298|115:348,1,100,8|6,0:0|0:0,0:0:0:0:
457,47,124220,6,0,L|441:165,1,100,2|8,0:0|0:0,0:0:0:0:
399,193,124923,2,0,P|368:183|345:163,1,50
230,60,125391,2,0,L|318:45,2,75,0|0|8,0:0|0:0|0:0,0:0:0:0:
173,92,126329,6,0,L|109:73,1,50
68,45,126798,2,0,L|30:99,1,50
21,148,127266,2,0,P|36:216|74:238,1,100
121,220,127970,6,0,L|232:240,1,100
289,256,128673,2,0,P|327:260|360:255,1,50
383,211,129141,2,0,L|365:134,2,75
433,315,131720,6,0,L|317:286,1,100,6|8,0:0|0:0,0:0:0:0:
271,278,132423,1,0,0:0:0:0:
210,300,132657,2,0,L|140:311,1,50,2|0,0:0|0:0,0:0:0:0:
99,287,133126,1,8,0:0:0:0:
67,230,133360,1,0,0:0:0:0:
59,165,133595,6,0,L|28:60,2,100,2|8|2,0:0|0:0|0:0,0:0:0:0:
102,213,134766,1,0,0:0:0:0:
153,172,135001,2,0,P|147:133|140:115,1,50,8|0,0:0|0:0,0:0:0:0:
118,63,135470,6,0,P|169:46|221:45,1,100,2|8,0:0|0:0,0:0:0:0:
279,55,136173,1,0,0:0:0:0:
326,98,136407,2,0,L|307:166,1,50,2|0,0:0|0:0,0:0:0:0:
355,195,136876,2,0,L|339:257,1,50,8|0,0:0|0:0,0:0:0:0:
379,297,137345,6,0,P|424:278|460:243,2,100,2|8|2,0:0|0:0|0:0,0:0:0:0:
318,320,138516,1,0,0:0:0:0:
255,300,138751,2,0,L|235:236,1,50,8|0,0:0|0:0,0:0:0:0:
261,190,139220,6,4,L|376:164,1,100,6|12,0:0|0:0,0:0:0:0:
400,117,139923,1,0,0:0:0:0:
371,58,140157,2,0,L|304:52,1,50,2|0,0:0|0:0,0:0:0:0:
258,69,140626,2,0,L|203:86,1,50,8|0,0:0|0:0,0:0:0:0:
167,131,141095,6,0,L|58:102,2,100,2|8|2,0:0|0:0|0:0,0:0:0:0:
225,158,142266,2,0,L|293:146,1,50,0|8,0:0|0:0,0:0:0:0:
339,142,142735,1,0,0:0:0:0:
329,206,142970,6,0,P|307:239|251:262,1,100,2|8,0:0|0:0,0:0:0:0:
193,289,143673,1,0,0:0:0:0:
131,269,143907,2,0,L|121:213,1,50,2|0,0:0|0:0,0:0:0:0:
77,172,144376,2,0,L|84:118,1,50,8|0,0:0|0:0,0:0:0:0:
112,63,144845,6,0,P|144:90|159:133,1,75,8|8,0:0|0:0,0:0:0:0:
126,207,145548,2,0,L|13:192,1,100,8|8,0:0|0:0,0:0:0:0:
13,130,146251,1,8,0:0:0:0:
149,91,146720,6,0,L|219:79,2,50,4|0|8,0:0|0:0|0:0,0:0:0:0:
252,169,147657,2,0,L|322:157,2,50,0|0|8,0:0|0:0|0:0,0:0:0:0:
255,299,148595,6,0,L|185:287,2,50,0|0|8,0:0|0:0|0:0,0:0:0:0:
138,356,149532,2,0,L|68:344,2,50,0|0|8,0:0|0:0|0:0,0:0:0:0:
266,332,150470,6,0,L|235:278,2,50,0|0|8,0:0|0:0|0:0,0:0:0:0:
372,256,151407,2,0,L|341:202,2,50,0|0|8,0:0|0:0|0:0,0:0:0:0:
448,150,152345,6,0,L|479:96,2,50,0|0|8,0:0|0:0|0:0,0:0:0:0:
333,87,153282,2,0,L|364:33,2,50,0|0|8,0:0|0:0|0:0,0:0:0:0:
208,47,154220,6,0,P|186:94|196:145,1,100,8|8,0:0|0:0,0:0:0:0:
311,195,155157,2,0,P|333:242|323:293,1,100,8|8,0:0|0:0,0:0:0:0:
213,355,156095,6,0,L|180:246,1,100,8|8,0:0|0:0,0:0:0:0:
65,206,157032,2,0,L|36:110,1,100,8|8,0:0|0:0,0:0:0:0:
160,70,157970,6,0,P|219:79|254:119,1,100,8|8,0:0|0:0,0:0:0:0:
344,191,158907,2,0,P|403:182|438:142,1,100,8|8,0:0|0:0,0:0:0:0:
462,281,159845,6,0,L|400:326,1,75,8|8,0:0|0:0,0:0:0:0:
324,264,160548,2,0,L|254:316,1,75,8|8,0:0|0:0,0:0:0:0:
174,348,161251,1,8,0:0:0:0:
43,345,161720,5,8,0:0:0:0:
131,249,162188,1,8,0:0:0:0:
129,118,162657,1,8,0:0:0:0:
39,23,163126,1,8,0:0:0:0:
42,188,163595,5,8,0:0:0:0:
129,283,164063,1,8,0:0:0:0:
254,315,164532,1,8,0:0:0:0:
370,256,165001,1,8,0:0:0:0:
448,152,165470,5,8,0:0:0:0:
473,279,165938,1,8,0:0:0:0:
366,204,166407,1,8,0:0:0:0:
391,76,166876,1,8,0:0:0:0:
264,45,167345,5,8,0:0:0:0:
147,101,167813,1,8,0:0:0:0:
173,228,168282,1,8,0:0:0:0:
307,252,168751,1,8,0:0:0:0:
369,137,169220,6,0,L|435:125,1,50,8|2,0:0|0:0,0:0:0:0:
481,115,169688,1,8,0:0:0:0:
454,242,170157,2,0,L|388:256,1,50,8|2,0:0|0:0,0:0:0:0:
341,264,170625,1,8,0:0:0:0:
213,236,171095,6,0,P|243:229|275:208,1,50,8|2,0:0|0:0,0:0:0:0:
306,174,171563,1,8,0:0:0:0:
179,143,172032,6,0,P|149:136|117:115,1,50,8|2,0:0|0:0,0:0:0:0:
78,90,172500,1,8,0:0:0:0:
256,192,172970,12,4,176720,0:0:0:0:
436,75,194532,6,0,P|396:63|328:66,1,100,2|8,0:0|0:0,0:0:0:0:
279,92,195235,1,0,0:0:0:0:
259,154,195470,6,0,P|282:187|336:206,1,100,2|8,0:0|0:0,0:0:0:0:
392,171,196173,1,0,0:0:0:0:
455,186,196407,2,0,P|454:244|434:283,1,100,2|8,0:0|0:0,0:0:0:0:
383,320,197110,1,0,0:0:0:0:
321,298,197345,6,0,L|228:360,1,100,2|8,0:0|0:0,0:0:0:0:
190,321,198048,1,0,0:0:0:0:
131,348,198282,2,0,L|68:245,1,100,2|8,0:0|0:0,0:0:0:0:
95,199,198985,1,0,0:0:0:0:
142,154,199220,6,0,L|163:213,1,50,2|0,0:0|0:0,0:0:0:0:
217,173,199688,2,0,L|224:237,1,50,8|0,0:0|0:0,0:0:0:0:
286,210,200157,2,0,L|275:269,1,50,2|0,0:0|0:0,0:0:0:0:
341,256,200626,2,0,L|314:302,1,50,8|0,0:0|0:0,0:0:0:0:
271,347,201095,6,0,L|163:327,1,100,6|8,0:0|0:0,0:0:0:0:
136,274,201798,1,0,0:0:0:0:
111,213,202032,2,0,P|102:165|117:104,1,100,2|8,0:0|0:0,0:0:0:0:
151,64,202735,1,0,0:0:0:0:
214,79,202970,6,0,L|312:64,1,100,2|8,0:0|0:0,0:0:0:0:
375,82,203673,1,0,0:0:0:0:
350,142,203907,2,0,L|251:159,1,100,2|8,0:0|0:0,0:0:0:0:
187,169,204610,1,0,0:0:0:0:
128,196,204845,6,0,P|127:235|136:263,1,50,2|0,0:0|0:0,0:0:0:0:
172,294,205313,2,0,L|218:320,1,50,8|0,0:0|0:0,0:0:0:0:
280,321,205782,6,0,L|323:296,1,50,8|0,0:0|0:0,0:0:0:0:
372,253,206251,2,0,P|375:228|374:203,1,50,8|0,0:0|0:0,0:0:0:0:
335,151,206720,6,0,P|297:143|251:123,2,75,8|8|8,0:0|0:0|0:0,0:0:0:0:
463,134,207891,1,8,0:0:0:0:
463,134,208126,1,8,0:0:0:0:
393,244,208595,5,6,0:0:0:0:
487,332,209063,2,0,L|382:355,1,100,8|2,0:0|0:0,0:0:0:0:
324,358,209766,1,0,0:0:0:0:
261,338,210001,2,0,P|252:306|253:284,1,50,8|0,0:0|0:0,0:0:0:0:
259,224,210470,5,2,0:0:0:0:
140,277,210938,2,0,P|107:243|85:186,1,100,8|2,0:0|0:0,0:0:0:0:
75,130,211641,1,0,0:0:0:0:
88,74,211876,2,0,L|155:89,1,50,8|0,0:0|0:0,0:0:0:0:
201,96,212345,5,6,0:0:0:0:
283,195,212813,2,0,L|177:204,1,100,8|2,0:0|0:0,0:0:0:0:
138,155,213516,1,0,0:0:0:0:
180,105,213751,2,0,P|206:114|246:111,1,50,8|0,0:0|0:0,0:0:0:0:
282,77,214220,5,2,0:0:0:0:
387,151,214688,2,0,L|361:258,1,100,8|2,0:0|0:0,0:0:0:0:
347,311,215391,1,0,0:0:0:0:
401,347,215626,2,0,P|425:327|442:296,1,50,8|0,0:0|0:0,0:0:0:0:
455,249,216095,5,6,0:0:0:0:
335,197,216563,2,0,L|218:223,1,100,8|2,0:0|0:0,0:0:0:0:
173,233,217266,1,0,0:0:0:0:
127,272,217501,2,0,P|137:315|154:332,1,50,8|0,0:0|0:0,0:0:0:0:
195,353,217970,5,2,0:0:0:0:
272,249,218438,2,0,P|266:203|238:151,1,100,8|2,0:0|0:0,0:0:0:0:
208,99,219141,1,0,0:0:0:0:
162,51,219376,2,0,L|91:61,1,50,8|0,0:0|0:0,0:0:0:0:
48,70,219845,5,6,0:0:0:0:
26,198,220313,2,0,L|10:305,1,100,8|2,0:0|0:0,0:0:0:0:
63,335,221016,1,0,0:0:0:0:
117,299,221251,2,0,P|131:272|133:247,1,50,8|0,0:0|0:0,0:0:0:0:
151,190,221720,6,0,L|246:179,1,75,8|0,0:0|0:0,0:0:0:0:
289,190,222305,1,8,0:0:0:0:
278,254,222540,2,0,L|183:271,1,75,8|8,0:0|0:0,0:0:0:0:
179,327,223126,2,0,P|230:349|289:349,1,100,8|0,0:0|0:0,0:0:0:0:
86,325,227345,6,0,L|189:311,1,100,8|8,0:0|0:0,0:0:0:0:
314,319,228282,2,0,L|423:301,1,100,8|8,0:0|0:0,0:0:0:0:
413,172,229220,6,0,P|361:167|308:145,1,100,8|8,0:0|0:0,0:0:0:0:
186,144,230157,2,0,P|134:139|81:117,1,100,8|8,0:0|0:0,0:0:0:0:
43,76,230860,1,8,0:0:0:0:
20,137,231095,6,0,L|13:203,1,50,10|0,0:0|0:0,0:0:0:0:
78,200,231563,2,0,L|71:266,1,50,10|2,0:0|0:0,0:0:0:0:
137,255,232032,2,0,L|130:321,1,50,10|2,0:0|0:0,0:0:0:0:
196,309,232501,2,0,L|192:375,1,50,10|2,0:0|0:0,0:0:0:0:
256,192,232970,12,4,234845,0:0:0:0:
