osu file format v14

[General]
AudioFilename: audio.mp3
AudioLeadIn: 0
PreviewTime: 152191
Countdown: 0
SampleSet: Soft
StackLeniency: 0.7
Mode: 0
LetterboxInBreaks: 0
WidescreenStoryboard: 0

[Editor]
Bookmarks: 8327,32993,90593,109754
DistanceSpacing: 2.3
BeatDivisor: 4
GridSize: 8
TimelineZoom: 2.200006

[Metadata]
Title:Take Me Home, Country Loads (Japanese version)
TitleUnicode:Take Me Home, Country Loads (Japanese version)
Artist:Tsuritsu Zukuri
ArtistUnicode:Tsuritsu Zukuri
Creator:Nyfot
Version:On The Road
Source:
Tags:
BeatmapID:1858272
BeatmapSetID:889060

[Difficulty]
HPDrainRate:7.3
CircleSize:4.5
OverallDifficulty:7
ApproachRate:9.2
SliderMultiplier:1.4
SliderTickRate:1

[Events]
//Background and Video events
0,0,"Anime_Anime_girl_on_the_farm_095138_.jpg",0,0
//Break Periods
2,90793,99623
//Storyboard Layer 0 (Background)
//Storyboard Layer 1 (Fail)
//Storyboard Layer 2 (Pass)
//Storyboard Layer 3 (Foreground)
//Storyboard Sound Samples

[TimingPoints]
8327,652.173913043478,4,2,0,30,1,0
10976,652.173913043478,4,2,0,30,1,0
13543,652.173913043478,4,2,0,30,1,0
16261,652.173913043478,4,2,0,30,1,0
26804,618.556701030928,4,2,0,30,1,0
31752,625,4,2,0,30,1,0
32993,300,4,2,0,40,1,0
39874,300,4,2,0,40,1,0
49774,-133.333333333333,4,2,0,40,0,0
50974,-100,4,2,0,40,0,0
52193,600,4,2,0,30,1,0
52193,-66.6666666666667,4,2,0,30,0,0
71393,300,4,2,0,30,1,0
71393,-100,4,2,0,70,0,1
90593,600,4,2,0,100,1,0
90693,-100,4,2,0,30,0,0
100493,600,4,2,0,30,1,0
102893,-100,4,2,0,40,0,0
105255,600,4,2,0,30,1,0
105293,-100,4,2,0,50,0,0
107393,-100,4,2,0,52,0,0
107580,600,4,2,0,30,1,0
107580,-100,4,2,0,52,0,0
107593,-100,4,2,0,54,0,0
107793,-100,4,2,0,56,0,0
107993,-100,4,2,0,58,0,0
108193,-100,4,2,0,60,0,0
108393,-100,4,2,0,62,0,0
108593,-100,4,2,0,64,0,0
110054,300,4,2,0,75,1,1
112172,300,4,2,0,75,1,1
118191,300,4,2,0,75,1,1
118691,-100,4,2,0,30,0,1
118891,-100,4,2,0,40,0,1
119091,-100,4,2,0,50,0,1
119291,-100,4,2,0,60,0,1
121141,300,4,2,0,75,1,1
125372,-200,4,2,0,75,0,1
125991,-100,4,2,0,75,0,1
128991,-133.333333333333,4,2,0,75,0,0
149391,-30000,4,2,0,75,0,0
151716,-30000,4,2,0,5,0,0
151866,-30000,4,2,0,75,0,0
152391,300,4,2,0,75,1,1
152391,-100,4,2,0,36,0,0
152991,300,4,2,0,75,1,1
152991,-100,4,2,0,75,0,1
170991,-100,4,2,0,17,0,1
171291,-100,4,2,0,33,0,1
171591,-100,4,2,0,48,0,1
171891,-100,4,2,0,62,0,1
172266,-100,4,2,0,75,0,1
172491,-100,4,2,0,75,0,1
178678,300,4,2,0,75,1,1
178678,-100,4,2,0,41,0,1
179278,-100,4,2,0,75,0,1
179859,300,4,2,0,75,1,1
180252,300,4,2,0,75,1,1
180777,300,4,2,0,75,1,1
181189,300,4,2,0,75,1,1
181451,300,4,2,0,75,1,1
181769,300,4,2,0,75,1,1
185369,-100,4,2,0,48,0,1
185669,-100,4,2,0,75,0,1
187791,-100,4,2,0,75,0,0
191294,-100,4,2,0,5,0,0
192569,-500,4,2,0,18,0,0
194369,-200,4,2,0,13,0,0
194969,-133.333333333333,4,2,0,15,0,0
195569,-200,4,2,0,19,0,0
197369,-666.666666666667,4,2,0,18,0,0
200369,-400,4,2,0,13,0,0
201569,-133.333333333333,4,2,0,15,0,0
202169,-285.714285714286,4,2,0,9,0,0
204569,-769.230769230769,4,2,0,8,0,0
206444,-200,4,2,0,15,0,0
208169,-30000,4,2,0,13,0,0

[HitObjects]
118,127,8327,6,0,P|86:202|236:283,1,280
379,160,10976,2,0,P|420:221|282:319,1,280
127,210,13543,2,0,P|100:152|251:64,1,280
359,226,16260,2,0,P|404:164|269:86,1,280
279,307,18870,6,0,P|147:256|203:146,1,280
138,85,21479,6,0,P|269:135|214:246,1,280
374,299,24087,6,0,P|242:248|298:138,1,280
272,81,26804,6,0,B|320:44|336:-31|509:1|542:167|350:212|254:345|254:345|157:215|-81:166|19:2|176:-31|192:44|240:82,1,1120
163,144,32064,1,0,0:0:0:0:
200,283,32377,1,0,0:0:0:0:
293,135,32585,2,0,L|313:147,1,23.3333333333333,2|8,0:0|0:0,0:0:0:0:
157,318,32993,6,0,P|160:268|113:192,1,140,4|8,0:0|0:0,0:0:0:0:
50,293,33593,1,0,0:0:0:0:
304,312,33743,2,0,P|325:305|364:276,1,70,0|8,0:0|0:0,0:0:0:0:
355,66,34193,6,0,P|352:116|399:192,1,140,0|8,0:0|0:0,0:0:0:0:
462,91,34793,1,0,0:0:0:0:
230,97,34980,2,8,P|202:105|181:121,1,52.5
62,88,35393,6,0,P|79:142|125:214,1,140,0|8,0:0|0:0,0:0:0:0:
254,98,35993,1,0,0:0:0:0:
167,297,36180,2,8,P|199:316|216:318,1,52.5
416,321,36593,6,0,P|427:261|408:176,1,140,0|8,0:0|0:0,0:0:0:0:
314,50,37193,1,0,0:0:0:0:
302,270,37380,2,8,P|268:259|251:246,1,52.5
102,218,37793,6,0,P|128:274|191:335,1,140,0|8,0:0|0:0,0:0:0:0:
182,329,38393,6,0,P|181:259|204:193,1,140,0|8,0:0|0:0,0:0:0:0:
204,193,38993,6,0,P|234:256|284:305,1,140,0|8,0:0|0:0,0:0:0:0:
284,305,39593,6,0,P|282:248|289:214,1,81.6666666666667
317,68,39874,1,8,0:0:0:0:
97,122,40174,6,0,P|85:173|99:213,1,96.25,8|0,0:0|0:0,0:0:0:0:
159,299,40474,2,8,P|171:248|166:202,1,96.25,8|0,0:0|0:0,0:0:0:0:
256,93,40774,1,8,0:0:0:0:
415,122,40980,5,8,0:0:0:0:
415,122,41074,2,0,P|427:173|421:202,1,78.75,8|0,0:0|0:0,0:0:0:0:
353,299,41374,2,8,P|335:248|342:206,1,96.25
256,93,41674,1,8,0:0:0:0:
434,304,41880,5,8,0:0:0:0:
434,304,41974,2,8,P|452:258|446:206,1,96.25
235,237,42274,1,8,0:0:0:0:
158,315,42480,1,8,0:0:0:0:
158,315,42574,6,0,P|163:263|114:189,1,140,12|8,0:0|0:0,0:0:0:0:
44,291,43174,1,0,0:0:0:0:
260,189,43380,2,8,P|277:208|282:229,1,43.75
355,66,43774,6,0,P|352:116|399:192,1,140,0|8,0:0|0:0,0:0:0:0:
462,91,44374,1,0,0:0:0:0:
248,197,44580,2,8,P|232:180|225:161,1,43.75
62,88,44974,6,0,P|79:142|125:214,1,140,0|8,0:0|0:0,0:0:0:0:
271,70,45574,1,0,0:0:0:0:
199,280,45780,2,8,P|233:295|246:296,1,43.75
416,321,46174,6,0,P|427:261|408:176,1,140,0|8,0:0|0:0,0:0:0:0:
280,331,46774,1,0,0:0:0:0:
223,111,46980,2,8,P|191:121|178:131,1,43.75
410,166,47374,6,0,P|384:110|321:49,1,140,0|8,0:0|0:0,0:0:0:0:
329,54,47974,6,0,P|330:124|307:190,1,140,0|8,0:0|0:0,0:0:0:0:
307,190,48574,6,0,P|277:127|227:78,1,140,0|8,0:0|0:0,0:0:0:0:
227,78,49174,6,0,P|232:137|217:178,1,96.25,0|8,0:0|0:0,0:0:0:0:
41,105,49474,1,0,0:0:0:0:
74,298,49774,6,0,P|94:327|111:335,1,52.5000020027161,8|0,0:0|0:0,0:0:0:0:
438,86,50074,6,0,P|417:56|404:50,1,52.5000020027161,8|0,0:0|0:0,0:0:0:0:
140,238,50374,6,8,P|160:267|185:276,1,52.5000020027161
372,146,50674,6,8,P|351:116|326:107,1,52.5000020027161,8|0,0:0|0:0,0:0:0:0:
150,58,50974,2,0,P|185:131|243:175,1,140,8|4,0:0|0:0,0:0:0:0:
357,247,51480,1,0,0:0:0:0:
357,247,51574,2,10,P|334:274|275:292,1,96.25
184,290,51874,1,8,0:0:0:0:
341,94,52193,6,0,P|282:76|221:76,1,105.000004005432,8|0,0:0|0:0,0:0:0:0:
165,252,52793,5,8,0:0:0:0:
197,85,53093,1,0,0:0:0:0:
311,197,53393,1,0,0:0:0:0:
136,187,53693,2,2,P|146:233|198:293,1,105.000004005432,2|10,0:0|0:0,0:0:0:0:
368,318,54293,1,0,0:0:0:0:
433,148,54480,5,0,0:0:0:0:
433,148,54593,1,2,0:0:0:0:
272,185,54893,5,0,0:0:0:0:
151,96,55193,2,2,P|114:144|109:213,1,105.000004005432,10|2,0:0|0:0,0:0:0:0:
215,230,55793,1,0,0:0:0:0:
370,183,56093,2,0,P|336:248|293:283,1,105.000004005432,0|8,0:0|0:0,0:0:0:0:
89,262,56693,1,0,0:0:0:0:
168,102,56880,1,0,0:0:0:0:
168,102,56993,1,2,0:0:0:0:
332,158,57255,2,0,B|334:171|341:200|324:281,1,118.125004506111,0|8,0:0|0:0,0:0:0:0:
334,295,58493,5,0,0:0:0:0:
219,145,58793,1,0,0:0:0:0:
177,305,59055,1,0,0:0:0:0:
67,191,59280,1,0,0:0:0:0:
67,191,59393,1,10,0:0:0:0:
343,240,59693,5,0,0:0:0:0:
211,136,59880,1,0,0:0:0:0:
211,136,59993,1,10,0:0:0:0:
373,89,60293,5,0,0:0:0:0:
187,234,60480,1,0,0:0:0:0:
187,234,60593,1,10,0:0:0:0:
368,279,60893,1,0,0:0:0:0:
187,342,61193,1,8,0:0:0:0:
263,133,61493,1,0,0:0:0:0:
64,179,61680,2,0,L|53:223,1,39.3750015020371,8|4,0:0|0:0,0:0:0:0:
241,84,62393,5,10,0:0:0:0:
78,176,63293,5,0,0:0:0:0:
268,178,63593,1,8,0:0:0:0:
146,301,63893,1,0,0:0:0:0:
329,304,64080,1,0,0:0:0:0:
329,304,64193,1,2,0:0:0:0:
207,218,64793,5,8,0:0:0:0:
277,94,65393,2,0,P|223:77|157:75,2,105.000004005432,0|2|8,0:0|0:0|0:0,0:0:0:0:
270,224,66293,1,0,0:0:0:0:
106,167,66480,1,0,0:0:0:0:
106,167,66593,5,10,0:0:0:0:
165,325,66893,2,0,P|236:333|273:323,1,105.000004005432,0|8,0:0|0:0,0:0:0:0:
274,141,67493,2,2,P|322:177|354:244,1,105.000004005432
170,173,68055,1,0,0:0:0:0:
119,325,68280,1,10,0:0:0:0:
119,325,68393,2,2,P|77:273|67:223,1,105.000004005432,10|2,0:0|0:0,0:0:0:0:
91,60,68880,1,10,0:0:0:0:
91,60,68993,1,10,0:0:0:0:
168,214,69293,5,2,0:0:0:0:
335,189,69480,1,10,0:0:0:0:
335,189,69593,2,0,P|347:257|271:318,1,170.625006508827,14|0,0:0|0:0,0:0:0:0:
224,310,70193,1,0,0:0:0:0:
117,219,70493,6,0,P|94:161|114:102,1,105.000004005432,0|8,0:0|0:0,0:0:0:0:
113,88,70893,1,8,0:0:0:0:
122,88,70993,1,8,0:0:0:0:
132,90,71093,1,8,0:0:0:0:
140,93,71193,1,8,0:0:0:0:
148,98,71293,1,8,0:0:0:0:
156,103,71393,1,8,0:0:0:0:
376,188,71693,6,0,P|372:237|282:282,1,140,8|0,0:0|0:0,0:0:0:0:
131,86,72199,1,8,0:0:0:0:
132,86,72293,1,8,0:0:0:0:
95,344,72593,6,0,P|55:333|29:299,1,70,8|0,0:0|0:0,0:0:0:0:
151,162,72893,2,0,P|165:186|203:222,1,70,8|0,0:0|0:0,0:0:0:0:
437,267,73193,1,8,0:0:0:0:
320,94,73399,1,8,0:0:0:0:
320,94,73493,1,8,0:0:0:0:
96,100,73693,5,8,0:0:0:0:
96,100,73793,2,0,P|95:141|112:171,1,70,8|0,0:0|0:0,0:0:0:0:
241,342,74093,2,0,P|204:340|178:315,1,70,8|0,0:0|0:0,0:0:0:0:
409,328,74393,2,0,P|421:306|410:263,1,70,8|0,0:0|0:0,0:0:0:0:
245,146,74693,6,0,P|272:177|304:183,1,70,0|2,0:0|0:0,0:0:0:0:
306,72,74993,1,8,0:0:0:0:
149,278,75199,1,8,0:0:0:0:
149,278,75293,1,8,0:0:0:0:
417,104,75493,5,8,0:0:0:0:
417,104,75593,2,0,P|423:147|405:187,1,70,8|0,0:0|0:0,0:0:0:0:
325,339,75893,2,0,P|274:336|243:314,1,70,8|0,0:0|0:0,0:0:0:0:
232,131,76193,2,0,P|190:148|163:168,1,70,8|0,0:0|0:0,0:0:0:0:
35,245,76493,1,12,0:0:0:0:
294,172,76793,6,0,P|318:225|310:253,1,70,8|0,0:0|0:0,0:0:0:0:
175,327,77093,1,12,0:0:0:0:
142,119,77393,2,0,P|151:75|176:54,1,70,8|0,0:0|0:0,0:0:0:0:
406,86,77693,1,12,0:0:0:0:
262,277,77993,5,8,0:0:0:0:
33,203,78199,1,8,0:0:0:0:
33,203,78293,2,0,P|62:166|86:145,1,70,8|0,0:0|0:0,0:0:0:0:
401,215,78593,2,0,P|370:152|357:144,1,70,8|0,0:0|0:0,0:0:0:0:
226,351,78893,2,0,P|207:310|204:276,1,70,8|0,0:0|0:0,0:0:0:0:
281,99,79193,2,0,P|221:91|193:102,1,70,8|0,0:0|0:0,0:0:0:0:
82,278,79493,2,0,P|94:313|112:349,1,70,8|0,0:0|0:0,0:0:0:0:
356,341,79793,2,0,P|374:308|380:267,1,70,8|0,0:0|0:0,0:0:0:0:
230,86,80093,1,8,0:0:0:0:
159,292,80299,5,12,0:0:0:0:
159,292,80393,2,0,P|130:273|105:236,1,70,12|0,0:0|0:0,0:0:0:0:
370,195,80693,1,12,0:0:0:0:
301,30,80899,1,12,0:0:0:0:
301,30,80993,2,0,P|255:47|234:67,1,70,8|0,0:0|0:0,0:0:0:0:
149,228,81293,6,0,P|195:255|218:258,1,70,12|0,0:0|0:0,0:0:0:0:
430,266,81593,2,0,P|423:305|408:335,1,70,8|0,0:0|0:0,0:0:0:0:
150,347,81893,2,0,P|97:338|83:317,1,70,12|0,0:0|0:0,0:0:0:0:
108,162,82193,2,0,P|105:127|120:96,1,70,8|0,0:0|0:0,0:0:0:0:
302,135,82493,2,0,P|304:170|294:204,1,70,12|0,0:0|0:0,0:0:0:0:
101,236,82793,1,8,0:0:0:0:
268,33,82999,5,12,0:0:0:0:
268,33,83093,2,0,P|294:63|309:105,1,70,12|0,0:0|0:0,0:0:0:0:
258,270,83393,2,0,P|311:288|333:288,1,70,8|0,0:0|0:0,0:0:0:0:
471,200,83693,2,0,P|480:166|480:132,1,70,12|0,0:0|0:0,0:0:0:0:
173,89,83993,2,0,P|194:51|225:33,1,70,8|0,0:0|0:0,0:0:0:0:
337,178,84293,2,0,P|366:214|381:251,1,70,12|0,0:0|0:0,0:0:0:0:
188,324,84593,1,8,0:0:0:0:
265,115,84799,1,12,0:0:0:0:
265,115,84893,1,12,0:0:0:0:
52,48,85193,6,8,P|111:28|137:22,1,70,8|0,0:0|0:0,0:0:0:0:
356,48,85493,1,12,0:0:0:0:
114,209,85793,6,8,P|157:256|179:260,1,70,0|0,0:0|0:0,0:0:0:0:
481,229,86093,2,0,P|453:278|422:287,1,70,8|0,0:0|0:0,0:0:0:0:
131,38,86393,6,0,P|199:47|220:61,1,70,8|0,0:0|0:0,0:0:0:0:
418,335,86693,2,0,P|360:346|331:348,1,70,8|0,0:0|0:0,0:0:0:0:
120,316,86993,2,0,P|88:185|215:180,1,280,4|10,0:0|0:0,0:0:0:0:
227,201,87693,1,10,0:0:0:0:
240,245,87793,1,10,0:0:0:0:
272,279,87893,1,10,0:0:0:0:
315,294,87993,1,10,0:0:0:0:
361,288,88093,1,10,0:0:0:0:
399,262,88193,1,10,0:0:0:0:
51,59,88493,6,2,P|41:115|52:142,1,70,10|2,0:0|0:0,0:0:0:0:
198,45,88793,1,6,0:0:0:0:
339,184,89093,2,2,P|347:220|336:256,1,70,10|2,0:0|0:0,0:0:0:0:
176,123,89393,1,6,0:0:0:0:
167,279,89692,2,2,B|171:281|205:300|233:299,1,70,10|2,0:0|0:0,0:0:0:0:
361,185,89993,2,2,P|336:152|299:138,1,70,14|2,0:0|0:0,0:0:0:0:
92,142,90293,2,10,P|125:142|158:126,1,70
266,39,90593,1,12,0:0:0:0:
225,297,100193,5,4,0:0:0:0:
99,155,100493,5,10,0:0:0:0:
108,133,100593,1,10,0:0:0:0:
124,116,100693,1,10,0:0:0:0:
144,105,100793,1,10,0:0:0:0:
277,147,101093,5,10,0:0:0:0:
286,168,101193,1,10,0:0:0:0:
289,191,101293,1,10,0:0:0:0:
287,214,101393,1,10,0:0:0:0:
102,266,101693,5,10,0:0:0:0:
117,283,101793,1,10,0:0:0:0:
135,298,101893,1,10,0:0:0:0:
155,310,101993,1,10,0:0:0:0:
176,320,102093,1,10,0:0:0:0:
198,327,102193,1,10,0:0:0:0:
221,331,102293,1,10,0:0:0:0:
244,332,102393,1,10,0:0:0:0:
268,331,102493,1,10,0:0:0:0:
291,326,102593,1,10,0:0:0:0:
181,89,102893,5,10,0:0:0:0:
203,82,102993,1,10,0:0:0:0:
226,79,103093,1,10,0:0:0:0:
249,80,103193,1,10,0:0:0:0:
416,187,103493,5,10,0:0:0:0:
419,210,103593,1,10,0:0:0:0:
418,233,103693,1,10,0:0:0:0:
412,255,103793,1,10,0:0:0:0:
172,259,104093,5,10,0:0:0:0:
149,251,104193,1,10,0:0:0:0:
129,240,104293,1,10,0:0:0:0:
111,225,104393,1,10,0:0:0:0:
97,206,104493,1,10,0:0:0:0:
87,185,104593,1,10,0:0:0:0:
80,163,104693,1,10,0:0:0:0:
79,140,104793,1,10,0:0:0:0:
82,117,104893,1,10,0:0:0:0:
89,95,104993,1,10,0:0:0:0:
251,195,105255,5,10,0:0:0:0:
255,217,105355,1,10,0:0:0:0:
263,239,105455,1,10,0:0:0:0:
275,259,105555,1,10,0:0:0:0:
443,115,105855,5,10,0:0:0:0:
424,100,105955,1,10,0:0:0:0:
404,89,106055,1,10,0:0:0:0:
382,81,106155,1,10,0:0:0:0:
187,100,106455,5,10,0:0:0:0:
169,115,106555,1,10,0:0:0:0:
154,133,106655,1,10,0:0:0:0:
141,152,106755,1,10,0:0:0:0:
131,173,106855,1,10,0:0:0:0:
124,196,106955,1,10,0:0:0:0:
120,219,107055,1,10,0:0:0:0:
119,242,107155,1,10,0:0:0:0:
121,265,107255,1,10,0:0:0:0:
127,288,107355,1,10,0:0:0:0:
226,330,107580,5,8,0:0:0:0:
349,275,107780,1,8,0:0:0:0:
380,144,107980,1,8,0:0:0:0:
293,40,108180,1,8,0:0:0:0:
158,48,108380,1,8,0:0:0:0:
84,160,108580,1,12,0:0:0:0:
384,158,109180,5,10,0:0:0:0:
384,192,109280,1,10,0:0:0:0:
376,226,109380,1,10,0:0:0:0:
361,258,109480,1,10,0:0:0:0:
338,284,109580,1,10,0:0:0:0:
309,304,109680,1,10,0:0:0:0:
277,317,109780,1,14,0:0:0:0:
87,156,110054,6,0,P|125:124|192:117,1,105,8|0,0:0|0:0,0:0:0:0:
361,118,110354,1,0,0:0:0:0:
205,275,110654,2,0,P|159:258|144:202,1,105,8|0,0:0|0:0,0:0:0:0:
217,73,110954,1,0,0:0:0:0:
370,191,111254,2,0,P|366:241|326:283,1,105,8|0,0:0|0:0,0:0:0:0:
206,163,111554,1,0,0:0:0:0:
68,298,111754,1,8,0:0:0:0:
68,298,111854,1,8,0:0:0:0:
139,78,112054,5,8,0:0:0:0:
139,78,112172,2,0,P|103:87|85:113,1,70,8|0,0:0|0:0,0:0:0:0:
188,312,112472,2,0,P|222:289|236:265,1,70,8|0,0:0|0:0,0:0:0:0:
379,81,112772,2,0,P|332:88|306:100,1,70,8|0,0:0|0:0,0:0:0:0:
318,287,113072,2,0,P|373:303|403:295,1,70,8|0,0:0|0:0,0:0:0:0:
156,170,113372,1,8,0:0:0:0:
394,173,113572,1,8,0:0:0:0:
394,173,113672,1,8,0:0:0:0:
179,59,113872,5,8,0:0:0:0:
179,59,113972,1,8,0:0:0:0:
296,266,114172,1,8,0:0:0:0:
296,266,114272,1,8,0:0:0:0:
121,163,114472,5,8,0:0:0:0:
121,163,114572,2,0,P|115:204|125:236,1,70,8|0,0:0|0:0,0:0:0:0:
377,111,114872,2,0,P|351:96|291:89,1,70,12|0,0:0|0:0,0:0:0:0:
115,298,115172,2,0,P|142:320|176:329,1,70,8|0,0:0|0:0,0:0:0:0:
338,207,115472,2,0,P|306:176|275:161,1,70,12|0,0:0|0:0,0:0:0:0:
66,100,115772,2,0,P|97:127|136:135,1,70,8|0,0:0|0:0,0:0:0:0:
91,196,116072,2,0,P|127:215|164:219,1,70,12|0,0:0|0:0,0:0:0:0:
137,285,116372,2,0,P|177:301|230:298,1,93.3333333333333,8|0,0:0|0:0,0:0:0:0:
226,298,116672,1,12,0:0:0:0:
337,93,116860,5,12,0:0:0:0:
337,93,116972,2,0,P|376:137|386:162,1,70,8|0,0:0|0:0,0:0:0:0:
179,93,117272,2,0,P|140:137|130:162,1,70,12|0,0:0|0:0,0:0:0:0:
370,93,117572,2,0,P|409:137|419:162,1,70,8|0,0:0|0:0,0:0:0:0:
142,93,117872,2,0,P|103:137|93:162,1,70,12|0,0:0|0:0,0:0:0:0:
351,266,118191,1,8,0:0:0:0:
119,246,118391,5,12,0:0:0:0:
119,246,118491,2,0,P|132:284|169:322,1,93.3333333333333,8|0,0:0|0:0,0:0:0:0:
204,343,118791,1,8,0:0:0:0:
246,361,118891,1,8,0:0:0:0:
292,365,118991,1,8,0:0:0:0:
337,354,119091,1,8,0:0:0:0:
376,328,119191,1,8,0:0:0:0:
403,290,119291,1,8,0:0:0:0:
417,246,119391,1,12,0:0:0:0:
139,234,119591,5,8,0:0:0:0:
139,234,119691,2,0,P|127:204|124:159,1,70,8|0,0:0|0:0,0:0:0:0:
391,117,119991,2,0,P|346:93|309:92,1,70,12|0,0:0|0:0,0:0:0:0:
186,315,120291,2,0,P|234:325|271:319,1,70,8|0,0:0|0:0,0:0:0:0:
139,105,120591,2,0,P|188:89|222:87,1,70,12|0,0:0|0:0,0:0:0:0:
432,243,120891,2,0,P|399:281|372:284,1,70,8|0,0:0|0:0,0:0:0:0:
136,233,121141,1,12,0:0:0:0:
359,74,121341,1,8,0:0:0:0:
359,74,121441,1,12,0:0:0:0:
113,62,121641,5,8,0:0:0:0:
113,62,121741,2,0,P|106:110|111:135,1,70,12|0,0:0|0:0,0:0:0:0:
359,147,122091,2,0,P|369:185|368:228,1,70,8|0,0:0|0:0,0:0:0:0:
133,248,122391,2,0,P|140:294|155:328,1,70,12|0,0:0|0:0,0:0:0:0:
318,327,122691,2,0,P|379:311|400:296,1,70,8|0,0:0|0:0,0:0:0:0:
305,81,122991,5,12,0:0:0:0:
106,172,123191,1,8,0:0:0:0:
106,172,123291,1,12,0:0:0:0:
321,291,123491,1,8,0:0:0:0:
321,291,123591,1,12,0:0:0:0:
184,62,123791,1,8,0:0:0:0:
184,62,123891,1,12,0:0:0:0:
132,275,124091,5,8,0:0:0:0:
132,275,124191,2,0,P|178:291|211:293,1,70,12|0,0:0|0:0,0:0:0:0:
426,206,124491,2,0,P|431:159|421:118,1,70,8|0,0:0|0:0,0:0:0:0:
42,75,124791,2,0,P|57:132|75:152,1,70,8|0,0:0|0:0,0:0:0:0:
325,368,125091,2,0,P|358:351|385:327,1,70,8|0,0:0|0:0,0:0:0:0:
379,0,125391,2,8,P|297:-3|233:17,1,140,12|8,0:0|0:0,0:0:0:0:
212,36,126091,5,8,0:0:0:0:
198,79,126191,1,8,0:0:0:0:
210,124,126291,1,8,0:0:0:0:
226,168,126391,1,8,0:0:0:0:
225,214,126491,1,8,0:0:0:0:
204,255,126591,1,12,0:0:0:0:
75,119,126791,5,8,0:0:0:0:
75,119,126891,2,0,P|63:160|71:200,1,70,8|0,0:0|0:0,0:0:0:0:
146,302,127191,1,8,0:0:0:0:
286,190,127391,1,8,0:0:0:0:
286,190,127491,2,0,P|289:243|305:260,1,70,8|0,0:0|0:0,0:0:0:0:
407,237,127791,2,0,P|418:204|406:157,1,70,8|0,0:0|0:0,0:0:0:0:
277,84,128091,2,0,P|308:79|351:84,1,70,8|0,0:0|0:0,0:0:0:0:
500,230,128391,2,0,P|495:192|471:133,1,93.3333333333333,8|12,0:0|0:0,0:0:0:0:
137,169,128991,6,0,P|165:235|199:257,1,105.000004005432,8|0,0:0|0:0,0:0:0:0:
345,208,129591,1,0,0:0:0:0:
345,208,129891,1,0,0:0:0:0:
164,79,130191,6,0,P|175:132|210:186,1,105.000004005432,8|0,0:0|0:0,0:0:0:0:
335,82,130791,1,0,0:0:0:0:
335,82,131072,1,0,0:0:0:0:
402,238,131391,6,8,P|354:264|296:276,1,105.000004005432,8|0,0:0|0:0,0:0:0:0:
240,131,131991,1,0,0:0:0:0:
240,131,132272,1,0,0:0:0:0:
98,239,132591,6,0,P|165:277|201:288,1,105.000004005432,8|0,0:0|0:0,0:0:0:0:
337,173,133191,1,0,0:0:0:0:
337,173,133472,1,0,0:0:0:0:
436,295,133791,6,0,P|386:327|332:337,1,105.000004005432,8|0,0:0|0:0,0:0:0:0:
205,224,134391,1,0,0:0:0:0:
205,224,134672,1,0,0:0:0:0:
424,215,134991,6,0,P|411:161|389:116,1,105.000004005432,8|0,0:0|0:0,0:0:0:0:
216,103,135591,1,0,0:0:0:0:
216,103,135872,1,0,0:0:0:0:
108,224,136191,6,0,P|84:189|70:123,1,105.000004005432,8|0,0:0|0:0,0:0:0:0:
299,197,136791,1,0,0:0:0:0:
299,197,137091,1,0,0:0:0:0:
217,42,137391,1,0,0:0:0:0:
217,42,137691,1,0,0:0:0:0:
377,199,137991,1,0,0:0:0:0:
377,199,138291,1,0,0:0:0:0:
162,157,138591,6,0,P|165:219|189:261,1,105.000004005432,8|0,0:0|0:0,0:0:0:0:
372,268,139191,1,0,0:0:0:0:
372,268,139472,1,0,0:0:0:0:
258,348,139791,6,0,P|211:326|168:282,1,105.000004005432,8|0,0:0|0:0,0:0:0:0:
279,151,140391,1,0,0:0:0:0:
279,151,140672,1,0,0:0:0:0:
462,103,140991,6,0,P|474:162|477:210,1,105.000004005432,8|0,0:0|0:0,0:0:0:0:
254,229,141591,1,0,0:0:0:0:
254,229,141872,1,0,0:0:0:0:
84,90,142191,6,0,P|67:140|74:198,1,105.000004005432,8|0,0:0|0:0,0:0:0:0:
264,80,142791,1,0,0:0:0:0:
264,80,143072,1,0,0:0:0:0:
401,232,143391,6,0,P|342:253|296:256,1,105.000004005432,8|0,0:0|0:0,0:0:0:0:
141,146,143991,2,0,P|145:210|175:245,1,105.000004005432,8|0,0:0|0:0,0:0:0:0:
270,113,144591,2,0,P|331:116|379:133,1,105.000004005432,8|0,0:0|0:0,0:0:0:0:
438,297,145191,2,0,P|380:314|329:317,1,105.000004005432,8|0,0:0|0:0,0:0:0:0:
125,255,145791,6,0,P|156:211|205:179,1,105.000004005432,8|0,0:0|0:0,0:0:0:0:
342,78,146391,2,0,P|376:106|403:167,1,105.000004005432,8|0,0:0|0:0,0:0:0:0:
235,302,146991,2,0,P|308:324|358:325,1,105.000004005432,8|0,0:0|0:0,0:0:0:0:
212,22,147591,2,0,P|162:39|123:73,1,105.000004005432,8|0,0:0|0:0,0:0:0:0:
0,272,148191,6,0,P|28:312|52:323,1,52.5000020027161,8|0,0:0|0:0,0:0:0:0:
461,269,148491,2,0,P|475:247|478:222,1,52.5000020027161,8|0,0:0|0:0,0:0:0:0:
121,10,148791,2,0,P|96:19|76:35,1,52.5000020027161,8|0,0:0|0:0,0:0:0:0:
192,369,149091,2,0,B|231:362|231:362|243:357,1,52.5000020027161,8|0,0:0|0:0,0:0:0:0:
357,19,149391,2,0,P|411:53|434:95,1,112,8|0,0:0|0:0,0:0:0:0:
118,181,152391,5,0,0:0:0:0:
118,181,152491,1,0,0:0:0:0:
118,181,152591,1,0,0:0:0:0:
118,181,152691,1,0,0:0:0:0:
118,181,152791,1,0,0:0:0:0:
118,181,152891,1,0,0:0:0:0:
118,181,152991,1,0,0:0:0:0:
421,88,153197,5,0,0:0:0:0:
421,88,153291,2,0,P|441:152|444:234,1,140,8|0,0:0|0:0,0:0:0:0:
269,155,153797,1,0,0:0:0:0:
269,155,153891,2,0,P|277:213|309:292,1,140,8|0,0:0|0:0,0:0:0:0:
91,88,154397,1,0,0:0:0:0:
91,88,154491,2,0,P|84:164|97:229,1,140,8|0,0:0|0:0,0:0:0:0:
321,157,154997,1,8,0:0:0:0:
321,157,155091,1,8,0:0:0:0:
467,318,155297,5,8,0:0:0:0:
467,318,155391,2,0,P|410:337|395:341,1,70,8|0,0:0|0:0,0:0:0:0:
89,256,155691,2,0,P|88:215|92:187,1,70,8|0,0:0|0:0,0:0:0:0:
366,158,155991,2,0,P|360:209|352:230,1,70,8|0,0:0|0:0,0:0:0:0:
151,94,156291,2,0,P|195:73|216:62,1,70,8|0,0:0|0:0,0:0:0:0:
348,267,156591,1,8,0:0:0:0:
124,299,156797,1,8,0:0:0:0:
124,299,156872,1,8,0:0:0:0:
312,174,157097,1,8,0:0:0:0:
312,174,157191,1,8,0:0:0:0:
146,62,157397,1,8,0:0:0:0:
146,62,157491,1,8,0:0:0:0:
398,99,157697,5,8,0:0:0:0:
398,99,157791,2,0,P|405:150|401:173,1,70,8|0,0:0|0:0,0:0:0:0:
225,293,158091,2,0,P|266:303|295:305,1,70,8|0,0:0|0:0,0:0:0:0:
249,114,158391,2,0,P|214:133|190:151,1,70,8|0,0:0|0:0,0:0:0:0:
53,314,158691,2,0,P|41:277|54:246,1,70,8|0,0:0|0:0,0:0:0:0:
146,68,158991,2,0,P|147:109|154:144,1,70,8|0,0:0|0:0,0:0:0:0:
273,340,159291,2,0,P|286:307|285:270,1,70,8|0,0:0|0:0,0:0:0:0:
300,41,159591,1,8,0:0:0:0:
152,239,159797,1,8,0:0:0:0:
152,239,159891,1,8,0:0:0:0:
421,130,160116,5,8,0:0:0:0:
421,130,160191,2,0,P|426:163|429:203,1,70,8|0,0:0|0:0,0:0:0:0:
108,54,160491,2,0,P|133:40|171:32,1,61.25,8|0,0:0|0:0,0:0:0:0:
359,311,160791,2,0,P|332:326|293:330,1,70,8|0,0:0|0:0,0:0:0:0:
306,27,161091,2,0,P|297:53|271:93,1,70,8|0,0:0|0:0,0:0:0:0:
75,250,161391,2,0,P|87:278|119:305,1,70,8|0,0:0|0:0,0:0:0:0:
397,243,161691,1,8,0:0:0:0:
187,160,161897,1,8,0:0:0:0:
187,160,161991,1,8,0:0:0:0:
399,75,162197,1,8,0:0:0:0:
399,75,162291,1,8,0:0:0:0:
226,326,162516,5,8,0:0:0:0:
226,326,162591,2,0,P|276:318|295:303,1,70,8|0,0:0|0:0,0:0:0:0:
118,95,162891,2,0,P|113:139|121:181,1,70,8|0,0:0|0:0,0:0:0:0:
293,247,163191,1,8,0:0:0:0:
78,303,163397,1,0,0:0:0:0:
78,303,163491,1,8,0:0:0:0:
188,100,163697,5,8,0:0:0:0:
188,100,163791,2,0,P|242:109|279:122,1,70,8|0,0:0|0:0,0:0:0:0:
414,316,164091,2,0,P|429:282|432:237,1,70,8|0,0:0|0:0,0:0:0:0:
154,168,164391,1,8,0:0:0:0:
301,343,164597,1,8,0:0:0:0:
301,343,164691,1,8,0:0:0:0:
56,237,164897,5,8,0:0:0:0:
56,237,164991,2,0,P|66:284|85:305,1,70,8|0,0:0|0:0,0:0:0:0:
195,57,165291,2,0,P|140:85|133:110,1,70,8|0,0:0|0:0,0:0:0:0:
241,298,165591,2,0,P|279:273|286:242,1,70,8|0,0:0|0:0,0:0:0:0:
328,61,165891,2,0,P|371:86|383:118,1,70,8|0,0:0|0:0,0:0:0:0:
122,333,166191,1,8,0:0:0:0:
208,80,166397,1,8,0:0:0:0:
208,80,166491,1,8,0:0:0:0:
473,151,166697,5,8,0:0:0:0:
473,151,166791,2,0,P|471:204|467:235,1,70,8|0,0:0|0:0,0:0:0:0:
262,326,167091,1,8,0:0:0:0:
96,283,167297,5,8,0:0:0:0:
96,283,167391,2,0,P|78:243|72:202,1,70,8|0,0:0|0:0,0:0:0:0:
152,246,167691,2,0,P|140:211|136:164,1,70,8|0,0:0|0:0,0:0:0:0:
212,209,167991,2,0,P|203:163|202:125,1,70,8|0,0:0|0:0,0:0:0:0:
276,177,168291,2,0,P|268:132|269:93,1,70,8|0,0:0|0:0,0:0:0:0:
436,172,168591,2,0,P|436:231|395:315,1,140,8|0,0:0|0:0,0:0:0:0:
137,293,169191,1,8,0:0:0:0:
297,120,169397,1,8,0:0:0:0:
297,120,169491,1,8,0:0:0:0:
98,140,169697,5,8,0:0:0:0:
98,140,169791,2,0,P|138:210|193:245,1,140,8|0,0:0|0:0,0:0:0:0:
186,242,170241,1,0,0:0:0:0:
291,56,170391,5,8,0:0:0:0:
385,287,170597,1,8,0:0:0:0:
385,287,170691,1,8,0:0:0:0:
170,321,170991,5,8,0:0:0:0:
136,313,171066,1,8,0:0:0:0:
114,286,171141,1,8,0:0:0:0:
112,252,171216,1,8,0:0:0:0:
130,223,171291,1,8,0:0:0:0:
163,212,171366,1,8,0:0:0:0:
196,221,171441,1,8,0:0:0:0:
226,242,171516,1,8,0:0:0:0:
247,269,171591,5,8,0:0:0:0:
277,287,171666,1,8,0:0:0:0:
311,292,171741,1,8,0:0:0:0:
345,283,171816,1,8,0:0:0:0:
373,263,171891,5,8,0:0:0:0:
393,234,171966,1,8,0:0:0:0:
399,200,172041,1,8,0:0:0:0:
384,169,172116,1,8,0:0:0:0:
354,152,172191,1,8,0:0:0:0:
155,89,172397,5,0,0:0:0:0:
155,89,172491,2,0,P|144:142|158:234,1,140,8|0,0:0|0:0,0:0:0:0:
291,158,172997,1,0,0:0:0:0:
291,158,173091,2,0,P|275:225|288:303,1,140,8|0,0:0|0:0,0:0:0:0:
421,60,173597,1,0,0:0:0:0:
421,60,173691,2,0,P|432:113|418:205,1,140,8|0,0:0|0:0,0:0:0:0:
201,305,174197,5,8,0:0:0:0:
201,305,174291,2,0,P|166:298|119:243,1,105,8|0,0:0|0:0,0:0:0:0:
194,34,174591,2,0,P|234:41|265:76,1,70,8|0,0:0|0:0,0:0:0:0:
339,356,174891,2,0,P|399:330|413:298,1,70,8|0,0:0|0:0,0:0:0:0:
440,68,175191,2,0,P|396:57|353:57,1,70,8|0,0:0|0:0,0:0:0:0:
87,146,175491,2,0,P|82:188|92:219,1,70,8|0,0:0|0:0,0:0:0:0:
375,281,175791,5,8,0:0:0:0:
232,97,175997,1,8,0:0:0:0:
237,97,176091,1,8,0:0:0:0:
119,307,176391,1,8,0:0:0:0:
363,199,176597,1,8,0:0:0:0:
363,199,176691,1,8,0:0:0:0:
132,103,176897,5,8,0:0:0:0:
132,103,176991,2,0,P|139:153|160:195,1,70,8|0,0:0|0:0,0:0:0:0:
373,308,177291,2,0,P|335:328|281:332,1,70,8|0,0:0|0:0,0:0:0:0:
52,281,177591,2,0,P|49:227|63:198,1,70,8|0,0:0|0:0,0:0:0:0:
272,71,177891,2,0,P|307:109|329:143,1,70,8|0,0:0|0:0,0:0:0:0:
211,342,178191,2,0,P|262:341|287:328,1,70,8|0,0:0|0:0,0:0:0:0:
137,134,178491,1,8,0:0:0:0:
317,258,178678,1,8,0:0:0:0:
347,273,178753,1,8,0:0:0:0:
380,263,178828,1,8,0:0:0:0:
396,233,178903,1,8,0:0:0:0:
387,200,178978,1,8,0:0:0:0:
358,183,179053,1,8,0:0:0:0:
133,302,179259,5,0,0:0:0:0:
133,302,179353,2,0,P|117:261|173:112,1,210
170,113,179859,2,0,P|202:175|211:247,1,140
248,267,180253,2,0,P|276:247|300:87,1,210
300,87,180778,2,0,P|229:92|142:137,1,166.25
145,134,181190,2,0,P|173:178|218:201,1,96.25
210,199,181453,2,0,P|215:242|260:288,1,105
304,277,181771,6,0,P|322:210|298:145,1,140,8|0,0:0|0:0,0:0:0:0:
233,326,182369,2,8,P|174:304|139:257,1,105
119,215,182669,1,0,0:0:0:0:
254,47,182969,2,8,P|295:87|317:145,1,105
325,197,183269,1,0,0:0:0:0:
413,111,183569,1,8,0:0:0:0:
164,174,183775,1,8,0:0:0:0:
164,174,183869,1,8,0:0:0:0:
362,273,184075,1,8,0:0:0:0:
362,273,184169,2,0,P|286:303|218:295,1,140,8|0,0:0|0:0,0:0:0:0:
136,99,184769,2,0,P|196:83|277:96,1,140,8|0,0:0|0:0,0:0:0:0:
66,261,185369,5,8,0:0:0:0:
84,290,185444,1,8,0:0:0:0:
111,312,185519,1,8,0:0:0:0:
144,322,185594,1,8,0:0:0:0:
179,319,185669,2,0,P|257:279|275:208,1,140,8|0,0:0|0:0,0:0:0:0:
166,91,186175,1,8,0:0:0:0:
166,91,186269,1,8,0:0:0:0:
329,54,186569,6,0,P|364:111|387:197,1,140,8|0,0:0|0:0,0:0:0:0:
171,215,187094,1,8,0:0:0:0:
171,215,187169,1,8,0:0:0:0:
352,266,187375,1,8,0:0:0:0:
352,266,187469,1,8,0:0:0:0:
211,74,187769,1,12,0:0:0:0:
256,192,188969,12,0,191369,0:0:0:0:
30,263,192569,6,0,P|65:289|109:347,1,112
167,308,194369,2,0,P|149:280|94:225,1,105
124,162,194969,2,0,P|161:192|240:291,1,157.500006008148
278,228,195569,2,0,P|240:175|175:118,1,140
482,280,196769,6,0,P|436:302|407:353,1,105
359,296,197369,2,0,P|377:266|415:234,1,83.9999974365235
209,41,200369,2,0,P|246:79|291:36,1,122.5
318,123,201569,2,0,P|253:145|167:109,1,157.500006008148
152,179,202169,2,0,P|250:211|341:186,1,195.999994018555
383,232,203969,6,0,P|369:268|335:288,1,73.4999977569581
129,232,204569,2,0,P|143:268|173:286,1,72.7999995556641
282,329,206444,2,0,P|322:291|328:239,1,105
328,243,206969,2,0,L|168:242,1,157.5
171,242,207719,2,0,P|176:185|208:163,1,87.5
196,167,208169,2,0,P|239:190|324:159,1,140
