osu file format v14

[General]
AudioFilename: audio.mp3
AudioLeadIn: 0
PreviewTime: 930
Countdown: 0
SampleSet: Normal
StackLeniency: 0.5
Mode: 2
LetterboxInBreaks: 0
WidescreenStoryboard: 1

[Editor]
Bookmarks: 54248
DistanceSpacing: 2.1
BeatDivisor: 3
GridSize: 4
TimelineZoom: 1.4

[Metadata]
Title:Watame no Komoriuta
TitleUnicode:わための子守唄
Artist:Tsunomaki Watame
ArtistUnicode:角巻わため
Creator:Secre
Version:Salad
Source:
Tags:chickenbible mithia vtuber virtual youtuber Lullaby sheep idol ホロライブプロダクション Hololive Production holo 4th gen fourth generation Japanese pop jpop j-pop chill soft
BeatmapID:2833660
BeatmapSetID:1369914

[Difficulty]
HPDrainRate:3
CircleSize:3.6
OverallDifficulty:6.7
ApproachRate:6.7
SliderMultiplier:2.3
SliderTickRate:1.5

[Events]
//Background and Video events
0,0,"watame did nothing wrong.. pekora though.jpg",0,0
Video,0,"Watame's Lullaby.mp4"
//Break Periods
2,55327,56909
//Storyboard Layer 0 (Background)
//Storyboard Layer 1 (Fail)
//Storyboard Layer 2 (Pass)
//Storyboard Layer 3 (Foreground)
//Storyboard Layer 4 (Overlay)
//Storyboard Sound Samples

[TimingPoints]
582,545.454545454546,4,1,1,50,1,0
1127,-100,4,1,1,50,0,0
2763,-83.3333333333333,4,1,1,50,0,0
10399,-100,4,1,1,50,0,0
11490,-90.9090909090909,4,1,1,60,0,0
18581,-90.9090909090909,4,1,1,40,0,0
19127,-90.9090909090909,4,1,1,20,0,0
19490,-90.9090909090909,4,1,1,60,0,0
20217,-83.3333333333333,4,1,1,60,0,0
27854,-100,4,1,1,50,0,0
28945,-90.9090909090909,4,1,1,60,0,0
35491,-90.9090909090909,4,1,1,30,0,0
36036,-90.9090909090909,4,1,1,60,0,0
36582,-90.9090909090909,4,1,1,30,0,0
37672,-83.3333333333333,4,1,1,30,0,0
38036,-83.3333333333333,4,1,1,60,0,0
50763,-90.9090909090909,4,1,1,60,0,0
51854,-100,4,1,1,50,0,0
52945,-111.111111111111,4,1,1,40,0,0
54036,-166.666666666667,4,1,1,35,0,0
54582,-166.666666666667,4,1,1,10,0,0
57854,-100,4,1,1,50,0,0
59490,-83.3333333333333,4,1,1,60,0,0
67127,-100,4,1,1,50,0,0
68217,-90.9090909090909,4,1,1,60,0,0
74763,-117.647058823529,4,1,1,45,0,0
75854,-117.647058823529,4,1,1,5,0,0

[Colours]
Combo1 : 240,149,94
Combo2 : 225,191,74
Combo3 : 201,201,201
Combo4 : 255,81,81

[HitObjects]
444,248,1127,6,0,L|174:266,2,230,2|0|2,0:0|0:0|0:0,0:0:0:0:
123,281,2763,6,0,P|60:192|155:139,1,183.999994384766,2|0,0:0|0:0,0:0:0:0:
187,144,3309,2,0,L|401:145,1,183.999994384766,2|0,0:0|0:0,0:0:0:0:
281,216,3854,1,8,0:0:0:0:
281,216,4218,1,0,0:0:0:0:
199,218,4400,2,0,P|141:139|213:91,1,183.999994384766,10|0,0:0|0:0,0:0:0:0:
368,172,4945,6,0,P|428:100|329:96,1,183.999994384766,2|0,0:0|0:0,0:0:0:0:
276,72,5491,2,0,L|81:76,1,183.999994384766,2|0,0:0|0:0,0:0:0:0:
178,152,6036,1,8,0:0:0:0:
178,152,6400,1,0,0:0:0:0:
264,153,6582,2,0,P|324:74|241:48,1,183.999994384766,10|0,0:0|0:0,0:0:0:0:
97,110,7127,6,0,P|34:38|109:-2,1,183.999994384766,2|0,0:0|0:0,0:0:0:0:
179,49,7672,2,0,L|397:53,1,183.999994384766,2|0,0:0|0:0,0:0:0:0:
267,119,8218,1,8,0:0:0:0:
267,119,8582,1,0,0:0:0:0:
267,119,8763,2,0,L|469:115,1,183.999994384766,10|0,0:0|0:0,0:0:0:0:
278,226,9309,6,0,P|193:166|327:62,1,275.999991577149,2|8,0:0|0:0,0:0:0:0:
486,257,10400,2,0,L|495:14,1,230,10|10,0:0|0:0,0:0:0:0:
100,212,11491,6,0,P|18:162|125:66,1,253.000007720947,2|8,0:0|0:0,0:0:0:0:
312,157,12582,2,0,L|57:158,1,253.000007720947,2|10,0:0|0:0,0:0:0:0:
223,257,13491,1,0,0:0:0:0:
302,254,13672,6,0,P|391:172|284:157,1,253.000007720947,2|10,0:0|0:0,0:0:0:0:
80,196,14763,2,0,L|71:-65,1,253.000007720947,2|10,0:0|0:0,0:0:0:0:
434,74,15854,6,0,P|508:133|393:215,1,253.000007720947,2|8,0:0|0:0,0:0:0:0:
261,167,16763,1,0,0:0:0:0:
341,167,16945,2,0,P|396:101|319:48,1,168.666671813965,2|0,0:0|0:0,0:0:0:0:
277,53,17491,2,0,L|55:54,1,168.666671813965,10|0,0:0|0:0,0:0:0:0:
195,152,18036,5,2,0:0:0:0:
394,154,18582,1,8,0:0:0:0:
168,137,19127,1,8,0:0:0:0:
168,137,19491,1,0,0:0:0:0:
252,147,19672,2,0,P|310:83|225:49,1,168.666671813965,10|0,0:0|0:0,0:0:0:0:
84,143,20218,6,0,P|21:67|104:18,1,183.999994384766,2|0,0:0|0:0,0:0:0:0:
161,64,20763,2,0,L|367:68,1,183.999994384766,2|0,0:0|0:0,0:0:0:0:
252,140,21309,1,8,0:0:0:0:
390,137,21672,1,0,0:0:0:0:
478,172,21854,2,0,P|473:79|361:57,1,183.999994384766,10|0,0:0|0:0,0:0:0:0:
216,118,22400,6,0,P|166:30|255:0,1,183.999994384766,2|0,0:0|0:0,0:0:0:0:
310,67,22945,2,0,L|499:60,1,183.999994384766,2|0,0:0|0:0,0:0:0:0:
402,139,23491,1,8,0:0:0:0:
236,127,23854,1,0,0:0:0:0:
327,155,24036,2,0,P|385:77|297:41,1,183.999994384766,10|0,0:0|0:0,0:0:0:0:
165,153,24582,6,0,L|151:-43,1,183.999994384766,10|0,0:0|0:0,0:0:0:0:
243,55,25127,2,0,L|435:57,1,183.999994384766,2|0,0:0|0:0,0:0:0:0:
336,142,25672,2,0,L|152:147,1,183.999994384766,10|0,0:0|0:0,0:0:0:0:
243,221,26218,2,0,L|252:16,1,183.999994384766,2|0,0:0|0:0,0:0:0:0:
83,175,26763,6,0,P|8:107|112:-28,1,275.999991577149,8|8,0:0|0:0,0:0:0:0:
298,142,27854,2,0,L|29:148,1,230,10|10,0:0|0:0,0:0:0:0:
436,271,28945,6,0,P|492:187|353:48,1,253.000007720947,2|0,0:0|0:0,0:0:0:0:
211,172,30036,2,0,L|474:170,1,253.000007720947,10|2,0:0|0:0,0:0:0:0:
307,77,30945,1,0,0:0:0:0:
147,175,31127,6,0,P|99:98|162:65,1,168.666671813965,10|0,0:0|0:0,0:0:0:0:
233,63,31672,1,10,0:0:0:0:
376,91,32036,1,0,0:0:0:0:
294,147,32218,2,0,P|237:94|308:34,1,168.666671813965,10|0,0:0|0:0,0:0:0:0:
371,39,32763,2,0,P|432:95|353:121,1,168.666671813965,2|8,0:0|0:0,0:0:0:0:
221,264,33309,6,0,P|153:203|260:100,1,253.000007720947,10|2,0:0|0:0,0:0:0:0:
386,118,34218,1,8,0:0:0:0:
312,136,34400,2,0,L|87:141,1,168.666671813965,10|0,0:0|0:0,0:0:0:0:
224,216,34945,2,0,P|270:137|201:129,1,168.666671813965,2|0,0:0|0:0,0:0:0:0:
64,142,35491,5,6,0:0:0:0:
64,142,35854,1,0,0:0:0:0:
151,143,36036,1,10,0:0:0:0:
151,143,36400,1,0,3:0:0:0:
319,147,36582,5,0,3:0:0:0:
402,151,36763,1,0,0:0:0:0:
319,147,36945,1,0,3:0:0:0:
158,87,37127,1,0,3:0:0:0:
75,91,37308,1,0,3:0:0:0:
158,87,37490,1,0,3:0:0:0:
335,241,37672,6,0,P|390:144|306:119,1,183.999994384766,14|0,0:0|0:0,0:0:0:0:
260,163,38218,2,0,P|205:66|289:41,1,183.999994384766,2|0,0:0|0:0,0:0:0:0:
417,172,38763,2,0,L|419:-31,1,183.999994384766,10|0,0:0|0:0,0:0:0:0:
321,47,39309,2,0,L|316:248,1,183.999994384766,2|0,0:0|0:0,0:0:0:0:
491,276,39854,6,0,P|488:174|389:144,1,183.999994384766,10|0,0:0|0:0,0:0:0:0:
330,128,40400,1,2,0:0:0:0:
90,189,40945,2,0,L|316:191,1,183.999994384766,10|0,0:0|0:0,0:0:0:0:
181,137,41491,2,0,P|129:57|206:13,1,183.999994384766,2|0,0:0|3:0,0:0:0:0:
369,194,42036,6,0,P|446:121|343:2,1,275.999991577149,10|0,0:0|0:0,0:0:0:0:
91,174,43127,2,0,L|388:166,1,275.999991577149,10|10,0:0|0:0,0:0:0:0:
97,249,44218,6,0,P|35:109|134:21,1,275.999991577149,10|8,0:0|0:0,0:0:0:0:
341,165,45309,1,10,0:0:0:0:
258,164,45491,1,0,0:0:0:0:
171,165,45672,1,0,3:0:0:0:
258,164,45854,1,10,0:0:0:0:
341,165,46036,1,0,3:0:0:0:
258,164,46218,1,0,3:0:0:0:
82,236,46400,6,0,L|73:132,1,91.9999971923829,10|2,0:0|0:0,0:0:0:0:
164,133,46763,2,0,P|251:194|144:298,1,275.999991577149,2|0,0:0|3:0,0:0:0:0:
77,276,47491,2,0,L|68:64,1,183.999994384766,10|0,0:0|0:0,0:0:0:0:
159,81,48036,1,2,0:0:0:0:
323,112,48400,1,0,3:0:0:0:
148,225,48582,6,0,L|136:127,1,91.9999971923829,10|2,0:0|0:0,0:0:0:0:
227,116,48945,1,2,0:0:0:0:
317,197,49127,2,0,P|378:128|264:101,1,183.999994384766,2|0,0:0|3:0,0:0:0:0:
148,159,49672,2,0,L|35:157,2,91.9999971923829,10|2|2,0:0|0:0|0:0,0:0:0:0:
241,232,50218,2,0,L|436:235,1,183.999994384766,2|0,0:0|3:0,0:0:0:0:
255,177,50763,6,0,P|179:123|284:36,1,253.000007720947,10|0,0:0|0:0,0:0:0:0:
475,185,51854,2,0,L|171:182,1,230,10|0,0:0|0:0,0:0:0:0:
116,107,52763,1,0,3:0:0:0:
302,206,52945,5,10,0:0:0:0:
256,192,53309,12,0,55127,0:0:0:0:
68,248,57854,6,0,L|338:266,2,230,2|0|2,0:0|0:0|0:0,0:0:0:0:
389,281,59490,6,0,P|452:192|357:139,1,183.999994384766,2|0,0:0|0:0,0:0:0:0:
325,144,60036,2,0,L|111:145,1,183.999994384766,2|0,0:0|0:0,0:0:0:0:
231,216,60581,1,8,0:0:0:0:
231,216,60945,1,0,0:0:0:0:
313,218,61127,2,0,P|371:139|299:91,1,183.999994384766,10|0,0:0|0:0,0:0:0:0:
144,172,61672,6,0,P|84:100|183:96,1,183.999994384766,2|0,0:0|0:0,0:0:0:0:
236,72,62218,2,0,L|431:76,1,183.999994384766,2|0,0:0|0:0,0:0:0:0:
334,152,62763,1,8,0:0:0:0:
334,152,63127,1,0,0:0:0:0:
248,153,63309,2,0,P|188:74|271:48,1,183.999994384766,10|0,0:0|0:0,0:0:0:0:
415,110,63854,6,0,P|478:38|403:-2,1,183.999994384766,2|0,0:0|0:0,0:0:0:0:
333,49,64399,2,0,L|115:53,1,183.999994384766,2|0,0:0|0:0,0:0:0:0:
245,119,64945,1,8,0:0:0:0:
245,119,65309,1,0,0:0:0:0:
245,119,65490,2,0,L|43:115,1,183.999994384766,10|0,0:0|0:0,0:0:0:0:
234,226,66036,6,0,P|319:166|185:62,1,275.999991577149,2|8,0:0|0:0,0:0:0:0:
26,257,67127,2,0,L|17:14,1,230,10|10,0:0|0:0,0:0:0:0:
412,212,68218,6,0,P|494:162|387:66,1,253.000007720947,2|8,0:0|0:0,0:0:0:0:
200,157,69309,2,0,L|455:158,1,253.000007720947,2|10,0:0|0:0,0:0:0:0:
289,257,70218,1,0,0:0:0:0:
210,254,70399,6,0,P|121:172|228:157,1,253.000007720947,2|8,0:0|0:0,0:0:0:0:
432,196,71490,2,0,L|441:-65,1,253.000007720947,2|10,0:0|0:0,0:0:0:0:
68,235,72582,6,0,P|21:157|80:115,1,168.666671813965,2|0,0:0|0:0,0:0:0:0:
160,145,73127,2,0,L|351:147,1,168.666671813965,10|0,0:0|0:0,0:0:0:0:
241,256,73672,2,0,L|227:54,1,168.666671813965,2|0,0:0|0:0,0:0:0:0:
321,108,74218,2,0,L|326:-69,1,168.666671813965,10|0,0:0|0:0,0:0:0:0:
161,96,74763,5,6,0:0:0:0:
256,192,75127,12,0,76945,0:0:0:0:
