osu file format v14

[General]
AudioFilename: audio.ogg
AudioLeadIn: 0
PreviewTime: 945
Countdown: 0
SampleSet: Normal
StackLeniency: 0.5
Mode: 1
LetterboxInBreaks: 0
WidescreenStoryboard: 1

[Editor]
Bookmarks: 54248
DistanceSpacing: 2.1
BeatDivisor: 3
GridSize: 16
TimelineZoom: 1.4

[Metadata]
Title:Watame no Komoriuta
TitleUnicode:わための子守唄
Artist:Tsunomaki Watame
ArtistUnicode:角巻わため
Creator:Secre
Version:Kantan
Source:
Tags:chickenbible Bastian Jorkseljund vtuber virtual youtuber Lullaby sheep idol ホロライブプロダクション Hololive Production holo 4th gen fourth generation Japanese pop jpop j-pop chill soft バーチャル ユーチューバー 4期生
BeatmapID:2898795
BeatmapSetID:1405692

[Difficulty]
HPDrainRate:9
CircleSize:4
OverallDifficulty:3
ApproachRate:9
SliderMultiplier:1.4
SliderTickRate:3

[Events]
//Background and Video events
0,0,"watame did nothing wrong.. pekora though.jpg",0,50
Video,0,"Watame's Lullaby.mp4"
//Break Periods
//Storyboard Layer 0 (Background)
//Storyboard Layer 1 (Fail)
//Storyboard Layer 2 (Pass)
//Storyboard Layer 3 (Foreground)
//Storyboard Layer 4 (Overlay)
//Storyboard Sound Samples

[TimingPoints]
582,545.454545454546,4,1,0,50,1,0
20217,-100,4,1,0,60,0,0
35491,-100,4,1,0,30,0,0
37672,-100,4,1,0,60,0,0
51854,-100,4,1,0,50,0,0
53127,-100,4,1,0,20,0,0
57854,-100,4,1,0,50,0,0
59490,-100,4,1,0,60,0,0
74763,-100,4,1,0,45,0,0
75854,-100,4,1,0,25,0,0
76945,-100,4,1,0,5,0,0

[Colours]
Combo1 : 240,149,94
Combo2 : 225,191,74
Combo3 : 201,201,201
Combo4 : 255,81,81

[HitObjects]
144,192,1127,5,0,0:0:0:0:
368,192,2218,1,2,0:0:0:0:
144,192,2763,5,0,0:0:0:0:
144,192,3309,5,0,0:0:0:0:
368,192,4400,1,2,0:0:0:0:
144,192,4945,5,0,0:0:0:0:
144,192,5491,5,0,0:0:0:0:
368,192,6582,1,0,0:0:0:0:
368,192,7127,1,2,0:0:0:0:
368,192,7672,1,2,0:0:0:0:
144,192,8763,5,0,0:0:0:0:
368,192,9309,1,2,0:0:0:0:
368,192,10400,5,2,0:0:0:0:
144,192,10945,1,0,0:0:0:0:
368,192,11491,1,2,0:0:0:0:
144,192,12582,5,0,0:0:0:0:
144,192,13127,5,0,0:0:0:0:
144,192,13672,5,0,0:0:0:0:
144,192,14763,5,0,0:0:0:0:
144,192,15309,5,0,0:0:0:0:
368,192,15854,1,2,0:0:0:0:
144,192,16400,5,0,0:0:0:0:
144,192,16945,5,2,0:0:0:0:
144,192,17491,5,2,0:0:0:0:
144,192,18036,5,0,0:0:0:0:
144,192,20218,5,0,0:0:0:0:
368,192,20763,1,2,0:0:0:0:
144,192,21309,5,0,0:0:0:0:
144,192,22400,5,0,0:0:0:0:
368,192,22945,1,2,0:0:0:0:
144,192,23491,5,0,0:0:0:0:
368,192,24582,1,2,0:0:0:0:
368,192,25127,1,2,0:0:0:0:
144,192,25672,5,0,0:0:0:0:
368,192,26218,1,2,0:0:0:0:
144,192,26763,5,0,0:0:0:0:
144,192,27854,5,0,0:0:0:0:
144,192,28400,5,0,0:0:0:0:
368,192,28945,1,2,0:0:0:0:
144,192,30036,5,0,0:0:0:0:
144,192,30582,5,0,0:0:0:0:
144,192,31127,5,0,0:0:0:0:
144,192,32218,5,0,0:0:0:0:
144,192,32763,5,0,0:0:0:0:
368,192,33309,1,2,0:0:0:0:
368,192,33854,1,2,0:0:0:0:
144,192,34400,5,0,0:0:0:0:
144,192,34945,5,0,0:0:0:0:
368,192,35491,1,2,0:0:0:0:
368,192,37672,1,2,0:0:0:0:
144,192,38218,5,0,0:0:0:0:
368,192,38763,1,2,0:0:0:0:
144,192,39309,5,0,0:0:0:0:
368,192,39854,1,2,0:0:0:0:
368,192,40400,1,2,0:0:0:0:
144,192,40945,5,0,0:0:0:0:
144,192,41491,5,0,0:0:0:0:
368,192,42036,1,2,0:0:0:0:
144,192,43127,5,0,0:0:0:0:
144,192,43672,5,0,0:0:0:0:
368,192,44218,1,2,0:0:0:0:
368,192,45309,1,2,0:0:0:0:
144,192,46400,5,0,0:0:0:0:
144,192,46945,5,0,0:0:0:0:
368,192,47491,1,2,0:0:0:0:
368,192,48036,1,2,0:0:0:0:
144,192,48582,5,0,0:0:0:0:
144,192,49127,5,0,0:0:0:0:
368,192,49673,1,2,0:0:0:0:
368,192,50218,1,2,0:0:0:0:
144,192,50763,5,0,0:0:0:0:
144,192,51854,5,0,0:0:0:0:
255,45,52945,1,2,0:0:0:0:
256,192,53127,12,0,55127,0:0:0:0:
144,192,57854,5,0,0:0:0:0:
368,192,58945,1,0,0:0:0:0:
144,192,59490,5,2,0:0:0:0:
144,192,60036,5,0,0:0:0:0:
368,192,61127,1,0,0:0:0:0:
144,192,61672,5,2,0:0:0:0:
144,192,62218,5,0,0:0:0:0:
368,192,63309,1,0,0:0:0:0:
368,192,63854,5,2,0:0:0:0:
368,192,64399,1,2,0:0:0:0:
144,192,65491,5,0,0:0:0:0:
368,192,66036,1,2,0:0:0:0:
368,192,67127,5,2,0:0:0:0:
144,192,67672,1,0,0:0:0:0:
368,192,68218,5,2,0:0:0:0:
144,192,69309,5,0,0:0:0:0:
144,192,69854,5,0,0:0:0:0:
144,192,70399,5,0,0:0:0:0:
144,192,71490,5,0,0:0:0:0:
144,192,72036,5,0,0:0:0:0:
368,192,72581,1,2,0:0:0:0:
144,192,73127,5,2,0:0:0:0:
144,192,73672,5,0,0:0:0:0:
144,192,74218,5,0,0:0:0:0:
368,192,74763,1,2,0:0:0:0:
256,192,74945,12,0,76945,0:0:0:0:
