osu file format v14

[General]
AudioFilename: audio.mp3
AudioLeadIn: 0
PreviewTime: 930
Countdown: 0
SampleSet: Normal
StackLeniency: 0.5
Mode: 2
LetterboxInBreaks: 0
WidescreenStoryboard: 1

[Editor]
Bookmarks: 54248
DistanceSpacing: 2.1
BeatDivisor: 3
GridSize: 4
TimelineZoom: 1.4

[Metadata]
Title:Watame no Komoriuta
TitleUnicode:わための子守唄
Artist:Tsunomaki Watame
ArtistUnicode:角巻わため
Creator:Secre
Version:Cup
Source:
Tags:chickenbible mithia vtuber virtual youtuber Lullaby sheep idol ホロライブプロダクション Hololive Production holo 4th gen fourth generation Japanese pop jpop j-pop chill soft
BeatmapID:2833798
BeatmapSetID:1369914

[Difficulty]
HPDrainRate:2
CircleSize:3
OverallDifficulty:5.7
ApproachRate:5.7
SliderMultiplier:2.1
SliderTickRate:1.5

[Events]
//Background and Video events
0,0,"watame did nothing wrong.. pekora though.jpg",0,0
Video,0,"Watame's Lullaby.mp4"
//Break Periods
2,55327,56759
//Storyboard Layer 0 (Background)
//Storyboard Layer 1 (Fail)
//Storyboard Layer 2 (Pass)
//Storyboard Layer 3 (Foreground)
//Storyboard Layer 4 (Overlay)
//Storyboard Sound Samples

[TimingPoints]
582,545.454545454546,4,1,1,50,1,0
1127,-100,4,1,1,50,0,0
2763,-83.3333333333333,4,1,1,50,0,0
10399,-100,4,1,1,50,0,0
11490,-90.9090909090909,4,1,1,60,0,0
18581,-90.9090909090909,4,1,1,40,0,0
19127,-90.9090909090909,4,1,1,20,0,0
19490,-90.9090909090909,4,1,1,60,0,0
20217,-83.3333333333333,4,1,1,60,0,0
27854,-100,4,1,1,50,0,0
28945,-90.9090909090909,4,1,1,60,0,0
35491,-90.9090909090909,4,1,1,30,0,0
36036,-90.9090909090909,4,1,1,60,0,0
36582,-90.9090909090909,4,1,1,30,0,0
37672,-83.3333333333333,4,1,1,30,0,0
38036,-83.3333333333333,4,1,1,60,0,0
50763,-90.9090909090909,4,1,1,60,0,0
51854,-100,4,1,1,50,0,0
52945,-111.111111111111,4,1,1,40,0,0
54036,-166.666666666667,4,1,1,35,0,0
54582,-166.666666666667,4,1,1,10,0,0
57854,-100,4,1,1,50,0,0
59490,-83.3333333333333,4,1,1,60,0,0
67127,-100,4,1,1,50,0,0
68217,-90.9090909090909,4,1,1,60,0,0
74763,-117.647058823529,4,1,1,45,0,0
75854,-117.647058823529,4,1,1,5,0,0

[Colours]
Combo1 : 240,149,94
Combo2 : 225,191,74
Combo3 : 201,201,201
Combo4 : 255,81,81

[HitObjects]
146,239,1127,6,0,L|381:237,2,210,2|0|2,0:0|0:0|0:0,0:0:0:0:
363,228,2763,6,0,L|372:25,1,167.999994873047,2|0,0:0|0:0,0:0:0:0:
274,114,3309,2,0,L|264:-62,1,167.999994873047,2|0,0:0|0:0,0:0:0:0:
456,98,4218,1,0,0:0:0:0:
374,146,4400,2,0,L|187:146,1,167.999994873047,10|0,0:0|0:0,0:0:0:0:
294,241,4945,6,0,P|340:159|282:109,1,167.999994873047,2|0,0:0|0:0,0:0:0:0:
208,185,5491,2,0,P|162:103|220:53,1,167.999994873047,2|0,0:0|0:0,0:0:0:0:
425,158,6400,1,0,0:0:0:0:
348,183,6582,2,0,L|148:184,1,167.999994873047,10|0,0:0|0:0,0:0:0:0:
268,141,7127,6,0,L|277:-33,1,167.999994873047,2|0,0:0|0:0,0:0:0:0:
186,79,7672,2,0,L|179:265,1,167.999994873047,2|0,0:0|0:0,0:0:0:0:
402,219,8582,1,0,0:0:0:0:
483,227,8763,2,0,L|486:27,1,167.999994873047,10|0,0:0|0:0,0:0:0:0:
406,60,9309,6,0,P|323:98|441:164,1,251.999992309571,2|8,0:0|0:0,0:0:0:0:
226,208,10400,2,0,L|2:204,1,210,10|10,0:0|0:0,0:0:0:0:
287,197,11491,6,0,P|364:126|256:74,1,231.000007049561,2|8,0:0|0:0,0:0:0:0:
76,165,12582,2,0,L|346:164,1,231.000007049561,2|10,0:0|0:0,0:0:0:0:
162,204,13491,1,0,0:0:0:0:
83,202,13672,6,0,P|39:152|103:88,1,154.000004699707,2|0,0:0|0:0,0:0:0:0:
351,210,14763,2,0,L|77:219,1,231.000007049561,2|10,0:0|0:0,0:0:0:0:
379,315,15854,6,0,P|446:264|367:168,1,231.000007049561,2|8,0:0|0:0,0:0:0:0:
228,161,16763,1,0,0:0:0:0:
156,163,16945,2,0,P|112:90|176:62,1,154.000004699707,2|0,0:0|0:0,0:0:0:0:
224,80,17491,2,0,L|406:84,1,154.000004699707,10|0,0:0|0:0,0:0:0:0:
297,149,18036,5,2,0:0:0:0:
111,135,18582,1,8,0:0:0:0:
322,103,19127,1,8,0:0:0:0:
177,221,19491,1,0,0:0:0:0:
101,176,19672,2,0,L|90:-1,1,154.000004699707,10|0,0:0|0:0,0:0:0:0:
176,58,20218,6,0,L|361:65,1,167.999994873047,2|0,0:0|0:0,0:0:0:0:
262,158,20763,2,0,L|73:165,1,167.999994873047,2|0,0:0|0:0,0:0:0:0:
184,241,21309,1,8,0:0:0:0:
407,257,21854,2,0,P|461:182|391:160,1,167.999994873047,10|0,0:0|0:0,0:0:0:0:
333,142,22400,6,0,L|135:143,1,167.999994873047,2|0,0:0|0:0,0:0:0:0:
250,223,22945,2,0,L|426:218,1,167.999994873047,2|0,0:0|0:0,0:0:0:0:
336,144,23491,1,8,0:0:0:0:
110,172,24036,2,0,L|88:-11,1,167.999994873047,10|0,0:0|0:0,0:0:0:0:
179,78,24582,6,0,L|402:74,1,167.999994873047,10|0,0:0|0:0,0:0:0:0:
260,152,25127,2,0,L|81:153,1,167.999994873047,2|0,0:0|0:0,0:0:0:0:
176,245,25672,2,0,P|222:169|166:151,1,167.999994873047,10|0,0:0|0:0,0:0:0:0:
91,179,26218,2,0,P|38:119|124:89,1,167.999994873047,2|0,0:0|0:0,0:0:0:0:
175,78,26763,5,8,0:0:0:0:
363,110,27309,1,8,0:0:0:0:
136,225,27854,2,0,L|114:-3,1,210,10|10,0:0|0:0,0:0:0:0:
392,94,28945,6,0,P|469:148|369:227,1,231.000007049561,2|0,0:0|0:0,0:0:0:0:
193,206,30036,2,0,L|447:213,1,231.000007049561,10|2,0:0|0:0,0:0:0:0:
293,118,30945,1,0,0:0:0:0:
216,151,31127,6,0,P|171:78|233:46,1,154.000004699707,10|0,0:0|0:0,0:0:0:0:
285,50,31672,1,10,0:0:0:0:
413,90,32036,1,0,0:0:0:0:
346,172,32218,2,0,L|51:163,1,231.000007049561,10|2,0:0|0:0,0:0:0:0:
390,320,33309,6,0,P|472:275|360:208,1,231.000007049561,10|2,0:0|0:0,0:0:0:0:
273,160,34218,1,8,0:0:0:0:
196,155,34400,2,0,P|161:83|226:49,1,154.000004699707,10|0,0:0|0:0,0:0:0:0:
279,91,34945,2,0,L|459:88,1,154.000004699707,2|0,0:0|0:0,0:0:0:0:
360,183,35491,5,6,0:0:0:0:
360,183,35854,1,0,0:0:0:0:
284,186,36036,1,10,0:0:0:0:
284,186,36400,1,0,3:0:0:0:
212,185,36582,5,0,3:0:0:0:
212,185,36945,1,0,3:0:0:0:
135,188,37127,1,0,3:0:0:0:
269,252,37491,1,0,3:0:0:0:
342,177,37672,6,0,P|353:98|267:68,1,167.999994873047,14|0,0:0|0:0,0:0:0:0:
206,95,38218,2,0,P|157:17|234:-10,1,167.999994873047,2|0,0:0|0:0,0:0:0:0:
284,32,38763,1,10,0:0:0:0:
438,70,39127,1,0,0:0:0:0:
366,135,39309,2,0,L|196:132,1,167.999994873047,2|0,0:0|0:0,0:0:0:0:
280,223,39854,6,0,P|374:223|467:224,1,167.999994873047,10|0,0:0|0:0,0:0:0:0:
365,159,40400,1,2,0:0:0:0:
140,178,40945,2,0,P|52:131|42:52,1,167.999994873047,10|0,0:0|0:0,0:0:0:0:
121,67,41491,1,2,0:0:0:0:
282,62,41854,1,0,3:0:0:0:
366,72,42036,6,0,P|442:118|336:216,1,251.999992309571,10|0,0:0|0:0,0:0:0:0:
153,253,43127,2,0,L|426:245,1,251.999992309571,10|10,0:0|0:0,0:0:0:0:
122,166,44218,6,0,P|43:101|143:42,1,251.999992309571,10|8,0:0|0:0,0:0:0:0:
342,190,45309,2,0,L|353:-36,1,167.999994873047,10|0,0:0|3:0,0:0:0:0:
266,75,45854,2,0,L|256:259,1,167.999994873047,10|0,0:0|3:0,0:0:0:0:
344,248,46400,6,0,L|349:148,1,83.9999974365235,10|2,0:0|0:0,0:0:0:0:
266,169,46763,2,0,P|189:243|269:343,1,251.999992309571,2|0,0:0|3:0,0:0:0:0:
344,305,47491,1,10,0:0:0:0:
195,213,47854,2,0,L|178:102,1,83.9999974365235,0|2,0:0|0:0,0:0:0:0:
332,101,48400,1,0,3:0:0:0:
413,105,48582,6,0,L|420:191,1,83.9999974365235,10|2,0:0|0:0,0:0:0:0:
341,203,48945,1,2,0:0:0:0:
259,204,49127,2,0,P|213:117|289:89,1,167.999994873047,2|0,0:0|3:0,0:0:0:0:
337,93,49672,2,0,L|447:95,2,83.9999974365235,10|2|2,0:0|0:0|0:0,0:0:0:0:
257,89,50218,1,2,0:0:0:0:
55,216,50763,6,0,L|322:218,1,231.000007049561,10|0,0:0|0:0,0:0:0:0:
70,289,51854,2,0,P|10:226|122:153,1,210,10|0,0:0|0:0,0:0:0:0:
314,174,52945,5,10,0:0:0:0:
256,192,53309,12,0,55127,0:0:0:0:
366,239,57854,6,0,L|131:237,2,210,2|0|2,0:0|0:0|0:0,0:0:0:0:
149,228,59490,6,0,L|140:25,1,167.999994873047,2|0,0:0|0:0,0:0:0:0:
238,114,60036,2,0,L|248:-62,1,167.999994873047,2|0,0:0|0:0,0:0:0:0:
56,98,60945,1,0,0:0:0:0:
138,146,61127,2,0,L|325:146,1,167.999994873047,10|0,0:0|0:0,0:0:0:0:
218,241,61672,6,0,P|172:159|230:109,1,167.999994873047,2|0,0:0|0:0,0:0:0:0:
304,185,62218,2,0,P|350:103|292:53,1,167.999994873047,2|0,0:0|0:0,0:0:0:0:
87,158,63127,1,0,0:0:0:0:
164,183,63309,2,0,L|364:184,1,167.999994873047,10|0,0:0|0:0,0:0:0:0:
244,141,63854,6,0,L|235:-33,1,167.999994873047,2|0,0:0|0:0,0:0:0:0:
326,79,64399,2,0,L|333:265,1,167.999994873047,2|0,0:0|0:0,0:0:0:0:
110,219,65309,1,0,0:0:0:0:
29,227,65490,2,0,L|26:27,1,167.999994873047,10|0,0:0|0:0,0:0:0:0:
106,60,66036,6,0,P|189:98|71:164,1,251.999992309571,2|8,0:0|0:0,0:0:0:0:
286,208,67127,2,0,L|510:204,1,210,10|10,0:0|0:0,0:0:0:0:
225,197,68218,6,0,P|148:126|256:74,1,231.000007049561,2|8,0:0|0:0,0:0:0:0:
436,165,69309,2,0,L|166:164,1,231.000007049561,2|10,0:0|0:0,0:0:0:0:
350,204,70218,1,0,0:0:0:0:
429,202,70399,6,0,P|473:152|409:88,1,154.000004699707,2|0,0:0|0:0,0:0:0:0:
161,210,71490,2,0,L|435:219,1,231.000007049561,2|10,0:0|0:0,0:0:0:0:
127,273,72582,6,0,P|85:191|126:165,1,154.000004699707,2|0,0:0|0:0,0:0:0:0:
201,179,73127,2,0,L|366:172,1,154.000004699707,10|0,0:0|0:0,0:0:0:0:
283,265,73672,1,2,0:0:0:0:
149,188,74036,1,0,0:0:0:0:
225,162,74218,2,0,L|404:159,1,154.000004699707,10|0,0:0|0:0,0:0:0:0:
311,246,74763,5,6,0:0:0:0:
256,192,75127,12,0,76945,0:0:0:0:
