osu file format v14

[General]
AudioFilename: audio.mp3
AudioLeadIn: 0
PreviewTime: 930
Countdown: 0
SampleSet: Normal
StackLeniency: 0.5
Mode: 0
LetterboxInBreaks: 0
WidescreenStoryboard: 1

[Editor]
Bookmarks: 54248
DistanceSpacing: 1.16
BeatDivisor: 3
GridSize: 8
TimelineZoom: 1

[Metadata]
Title:Watame no Komoriuta
TitleUnicode:わための子守唄
Artist:Tsunomaki Watame
ArtistUnicode:角巻わため
Creator:Mithia
Version:Easy
Source:
Tags:vtuber virtual youtuber Lullaby sheep idol ホロライブプロダクション Hololive Production Japanese pop jpop j-pop chill soft BirbSMB My Angel Miko Rushia
BeatmapID:2698415
BeatmapSetID:1300945

[Difficulty]
HPDrainRate:3
CircleSize:3
OverallDifficulty:3
ApproachRate:3
SliderMultiplier:1
SliderTickRate:1

[Events]
//Background and Video events
0,0,"83251199_p0.jpg",0,0
Video,0,"Watame's Lullaby.mp4"
//Break Periods
2,54582,56414
//Storyboard Layer 0 (Background)
//Storyboard Layer 1 (Fail)
//Storyboard Layer 2 (Pass)
//Storyboard Layer 3 (Foreground)
//Storyboard Layer 4 (Overlay)
//Storyboard Sound Samples

[TimingPoints]
582,545.454545454546,4,1,1,50,1,0
1127,-100,4,1,1,50,0,0
10399,-100,4,1,1,50,0,0
11490,-100,4,1,1,60,0,0
18581,-100,4,1,1,40,0,0
19127,-100,4,1,1,20,0,0
19490,-100,4,1,1,60,0,0
20217,-100,4,1,1,60,0,0
27854,-100,4,1,1,50,0,0
28945,-100,4,1,1,60,0,0
35491,-100,4,1,1,30,0,0
36036,-100,4,1,1,60,0,0
37672,-100,4,1,1,30,0,0
38036,-100,4,1,1,60,0,0
38218,-100,4,1,1,60,0,0
50763,-100,4,1,1,60,0,0
51854,-100,4,1,1,50,0,0
52945,-100,4,1,1,40,0,0
54036,-100,4,1,1,35,0,0
54582,-100,4,1,1,10,0,0
57854,-100,4,1,1,50,0,0
59490,-100,4,1,1,60,0,0
67127,-100,4,1,1,50,0,0
68217,-100,4,1,1,60,0,0
74763,-100,4,1,1,45,0,0
75854,-100,4,1,1,20,0,0

[Colours]
Combo1 : 240,149,94
Combo2 : 225,191,74
Combo3 : 225,225,225
Combo4 : 255,81,81

[HitObjects]
53,67,1127,6,0,P|101:52|159:68,2,100,2|0|2,0:0|0:0|0:0,0:0:0:0:
106,169,2763,5,2,0:0:0:0:
209,221,3309,1,2,0:0:0:0:
281,130,3854,2,0,B|300:118|300:118|342:105|391:114,1,100,8|10,0:0|0:0,0:0:0:0:
400,225,4945,1,2,0:0:0:0:
302,287,5491,1,2,0:0:0:0:
209,221,6036,2,0,B|190:209|190:209|148:196|113:202,1,100,8|10,0:0|0:0,0:0:0:0:
100,318,7127,5,2,0:0:0:0:
210,353,7672,1,2,0:0:0:0:
302,287,8218,2,0,B|313:255|313:255|311:200|297:165,1,100,8|10,0:0|0:0,0:0:0:0:
213,117,9309,1,2,0:0:0:0:
213,117,10400,1,10,0:0:0:0:
430,35,11491,6,0,B|420:73|420:73|437:137|437:137|423:189|441:248,1,200,2|2,0:0|0:0,0:0:0:0:
462,343,13127,1,10,0:0:0:0:
355,297,13672,2,0,B|323:287|323:287|292:283|227:297,1,100,2|10,0:0|0:0,0:0:0:0:
148,334,14763,2,0,B|116:344|116:344|85:347|20:334,1,100,2|10,0:0|0:0,0:0:0:0:
106,237,15854,6,0,B|138:141|138:141|110:33,2,200,2|2|2,0:0|0:0|0:0,0:0:0:0:
49,339,18582,1,8,0:0:0:0:
10,229,19127,1,8,0:0:0:0:
253,193,20218,5,2,0:0:0:0:
333,276,20763,1,2,0:0:0:0:
403,183,21309,2,0,P|433:176|518:181,1,100,8|10,0:0|0:0,0:0:0:0:
463,68,22400,1,2,0:0:0:0:
364,6,22945,1,2,0:0:0:0:
284,90,23491,2,0,P|253:83|169:88,1,100,8|10,0:0|0:0,0:0:0:0:
71,109,24582,6,0,B|58:136|58:136|51:177|62:216,1,100,10|2,0:0|0:0,0:0:0:0:
157,268,25672,2,0,B|169:240|169:240|176:199|165:160,1,100,10|2,0:0|0:0,0:0:0:0:
59,205,26763,1,8,0:0:0:0:
59,205,27854,1,10,0:0:0:0:
264,96,28945,6,0,B|290:48|290:48|335:110|314:187,1,200,2|10,0:0|0:0,0:0:0:0:
284,298,30582,1,2,0:0:0:0:
387,350,31127,2,0,P|436:340|487:350,1,100,10|10,0:0|0:0,0:0:0:0:
480,233,32218,2,0,P|431:223|380:233,1,100,10|2,0:0|0:0,0:0:0:0:
284,298,33309,5,10,0:0:0:0:
186,361,33854,2,0,B|156:373|156:373|59:363,1,100,2|10,0:0|0:0,0:0:0:0:
13,277,34945,2,0,B|43:265|43:265|140:275,1,100,2|6,0:0|0:0,0:0:0:0:
136,100,37672,6,0,P|182:116|232:111,1,100,14|2,0:0|0:0,0:0:0:0:
319,34,38763,2,0,P|365:17|415:22,1,100,10|2,0:0|0:0,0:0:0:0:
451,132,39854,1,10,0:0:0:0:
509,232,40400,1,2,0:0:0:0:
410,293,40945,1,10,0:0:0:0:
347,194,41491,1,2,0:0:0:0:
247,252,42036,6,0,B|207:240|207:240|110:259|110:259|12:241,1,200,10|10,0:0|0:0,0:0:0:0:
126,159,43672,1,10,0:0:0:0:
35,90,44218,1,10,0:0:0:0:
145,55,44763,2,0,B|167:48|167:48|219:57|261:54,1,100,8|10,0:0|0:0,0:0:0:0:
359,57,45854,1,10,0:0:0:0:
308,161,46400,2,0,B|293:190|293:190|289:232|300:285,1,100,10|2,0:0|0:0,0:0:0:0:
330,367,47491,5,10,0:0:0:0:
421,153,48582,1,10,0:0:0:0:
421,153,49672,1,10,0:0:0:0:
196,173,50763,6,0,B|154:168|98:190|98:190|48:171|0:180,2,200,10|10|10,0:0|0:0|0:0,0:0:0:0:
256,288,57854,6,0,P|302:279|356:292,2,100,2|0|2,0:0|0:0|0:0,0:0:0:0:
153,343,59491,5,2,0:0:0:0:
61,272,60036,1,2,0:0:0:0:
146,193,60582,2,0,B|134:170|134:170|127:135|145:80,1,100,8|10,0:0|0:0,0:0:0:0:
234,28,61672,1,2,0:0:0:0:
341,71,62218,1,2,0:0:0:0:
452,38,62763,2,0,B|463:60|463:60|470:95|453:151,1,100,8|10,0:0|0:0,0:0:0:0:
379,220,63854,5,2,0:0:0:0:
272,174,64400,1,2,0:0:0:0:
183,248,64945,2,0,B|159:253|159:253|128:245|96:247|96:247|59:255,1,100,8|10,0:0|0:0,0:0:0:0:
34,354,66036,1,2,0:0:0:0:
34,354,67127,1,10,0:0:0:0:
18,122,68218,6,0,B|67:106|103:123|103:123|141:119|141:119|178:140|213:129,1,200,2|2,0:0|0:0,0:0:0:0:
328,122,69854,1,10,0:0:0:0:
426,59,70400,2,0,P|435:151|432:177,1,100,2|8,0:0|0:0,0:0:0:0:
328,122,71491,2,0,P|318:171|319:220,1,100,2|10,0:0|0:0,0:0:0:0:
348,334,72582,5,2,0:0:0:0:
232,333,73127,2,0,B|209:334|181:326|181:326|156:335|115:332,2,100,10|2|10,0:0|0:0|0:0,0:0:0:0:
348,334,74763,1,6,0:0:0:0:
