osu file format v14

[General]
AudioFilename: audio.mp3
AudioLeadIn: 0
PreviewTime: 9665
Countdown: 0
SampleSet: Normal
StackLeniency: 0.7
Mode: 1
LetterboxInBreaks: 0
WidescreenStoryboard: 1

[Editor]
DistanceSpacing: 0.8
BeatDivisor: 4
GridSize: 32
TimelineZoom: 1.4

[Metadata]
Title:Watame Rap
TitleUnicode:わためラップ
Artist:Tsunomaki Watame
ArtistUnicode:角巻わため
Creator:Jaltzu
Version:Muzukashii
Source:
Tags:japanese rock nu-metal metal guitar vtuber virtual youtuber yt 4期生 ホロライブプロダクション 4th generation hololive production sheep クソザコ回線でも 投稿ならできる even with a shitty small fry connection can upload
BeatmapID:2347509
BeatmapSetID:1123379

[Difficulty]
HPDrainRate:6
CircleSize:2
OverallDifficulty:4
ApproachRate:0
SliderMultiplier:1.4
SliderTickRate:1

[Events]
//Background and Video events
0,0,"watame.jpg",0,65
//Break Periods
//Storyboard Layer 0 (Background)
//Storyboard Layer 1 (Fail)
//Storyboard Layer 2 (Pass)
//Storyboard Layer 3 (Foreground)
//Storyboard Layer 4 (Overlay)
//Storyboard Sound Samples

[TimingPoints]
2045,483.870967741935,4,1,0,70,1,0
8557,-105.263157894737,4,1,0,60,0,0
9766,-100,4,1,0,70,0,0
25250,-100,4,1,0,60,0,0
25996,-105.263157894737,4,1,0,60,0,0
39182,-104.166666666667,4,1,0,60,0,0
39303,-103.092783505155,4,1,0,60,0,0
39544,-101.010101010101,4,1,0,60,0,0
39786,-99.009900990099,4,1,0,60,0,0
39907,-98.0392156862745,4,1,0,60,0,0
40028,-97.0873786407767,4,1,0,60,0,0
40270,-95.2380952380952,4,1,0,60,0,0
40754,-95.2380952380952,4,1,0,70,0,1
56238,-95.2380952380952,4,1,0,70,0,0
56702,-94.3396226415094,4,1,0,60,0,0
56964,-96.1538461538461,4,1,0,60,0,0
57206,-98.0392156862745,4,1,0,60,0,0
57327,-99.009900990099,4,1,0,60,0,0
57448,-100,4,1,0,60,0,0
62024,-111.111111111111,4,1,0,50,0,0

[HitObjects]
256,192,2045,5,4,0:0:0:0:
256,192,2528,1,8,0:0:0:0:
256,192,2770,1,0,0:0:0:0:
256,192,3012,1,0,0:0:0:0:
256,192,3133,1,0,0:0:0:0:
256,192,3254,1,0,0:0:0:0:
256,192,3496,1,8,0:0:0:0:
256,192,3980,1,0,0:0:0:0:
256,192,4464,1,8,0:0:0:0:
256,192,4706,1,0,0:0:0:0:
256,192,4948,1,8,0:0:0:0:
256,192,5069,1,8,0:0:0:0:
256,192,5190,1,8,0:0:0:0:
256,192,5432,1,8,0:0:0:0:
256,192,5915,1,0,0:0:0:0:
256,192,6399,1,8,0:0:0:0:
256,192,6641,1,0,0:0:0:0:
256,192,6883,1,0,0:0:0:0:
256,192,7004,1,0,0:0:0:0:
256,192,7125,1,0,0:0:0:0:
256,192,7367,1,8,0:0:0:0:
256,192,7851,1,12,0:0:0:0:
256,192,8577,1,8,0:0:0:0:
256,192,9061,1,0,0:0:0:0:
256,192,9303,1,8,0:0:0:0:
256,192,9786,5,4,0:0:0:0:
256,192,10270,1,8,0:0:0:0:
256,192,10512,1,0,0:0:0:0:
256,192,10633,1,0,0:0:0:0:
256,192,10754,1,0,0:0:0:0:
256,192,10996,1,0,0:0:0:0:
256,192,11238,1,8,0:0:0:0:
256,192,11722,1,0,0:0:0:0:
256,192,11843,1,0,0:0:0:0:
256,192,11964,1,0,0:0:0:0:
256,192,12206,1,8,0:0:0:0:
256,192,12448,1,0,0:0:0:0:
256,192,12690,1,0,0:0:0:0:
256,192,12932,1,0,0:0:0:0:
256,192,13174,1,8,0:0:0:0:
256,192,13657,1,0,0:0:0:0:
256,192,13899,1,8,0:0:0:0:
256,192,14020,1,8,0:0:0:0:
256,192,14141,1,8,0:0:0:0:
256,192,14383,1,0,0:0:0:0:
256,192,14625,1,0,0:0:0:0:
256,192,14867,1,8,0:0:0:0:
256,192,15109,1,8,0:0:0:0:
256,192,15593,1,0,0:0:0:0:
256,192,16077,1,8,0:0:0:0:
256,192,16561,1,0,0:0:0:0:
256,192,16803,1,0,0:0:0:0:
256,192,17044,1,8,0:0:0:0:
256,192,17165,1,0,0:0:0:0:
256,192,17528,1,12,0:0:0:0:
256,192,18012,1,8,0:0:0:0:
256,192,18133,1,8,0:0:0:0:
256,192,18254,1,8,0:0:0:0:
256,192,18496,1,0,0:0:0:0:
256,192,18738,1,8,0:0:0:0:
256,192,18980,1,8,0:0:0:0:
256,192,19464,1,0,0:0:0:0:
256,192,19706,1,8,0:0:0:0:
256,192,19827,1,8,0:0:0:0:
256,192,19948,1,8,0:0:0:0:
256,192,20190,1,0,0:0:0:0:
256,192,20432,1,8,0:0:0:0:
256,192,20915,1,8,0:0:0:0:
256,192,21399,1,8,0:0:0:0:
256,192,21520,1,8,0:0:0:0:
256,192,21641,1,8,0:0:0:0:
256,192,21883,1,0,0:0:0:0:
256,192,22125,1,0,0:0:0:0:
256,192,22367,1,8,0:0:0:0:
256,192,22851,1,8,0:0:0:0:
256,192,23093,1,0,0:0:0:0:
256,192,23335,1,0,0:0:0:0:
256,192,23456,1,0,0:0:0:0:
256,192,23819,1,0,0:0:0:0:
256,192,24061,1,12,0:0:0:0:
256,192,24303,1,0,0:0:0:0:
256,192,24424,1,0,0:0:0:0:
256,192,24544,1,0,0:0:0:0:
256,192,24786,1,8,0:0:0:0:
256,192,24907,1,8,0:0:0:0:
256,192,25028,1,8,0:0:0:0:
256,192,25270,5,0,0:0:0:0:
256,192,25996,1,0,0:0:0:0:
256,192,26238,1,8,0:0:0:0:
256,192,26480,1,0,0:0:0:0:
256,192,26722,1,0,0:0:0:0:
256,192,26964,1,8,0:0:0:0:
256,192,27206,1,0,0:0:0:0:
256,192,27569,1,0,0:0:0:0:
256,192,27690,1,8,0:0:0:0:
256,192,27932,1,0,0:0:0:0:
256,192,28415,1,0,0:0:0:0:
256,192,28657,1,8,0:0:0:0:
256,192,28778,1,8,0:0:0:0:
256,192,29141,1,8,0:0:0:0:
256,192,29383,1,0,0:0:0:0:
256,192,29625,1,0,0:0:0:0:
256,192,29867,1,8,0:0:0:0:
256,192,30109,1,0,0:0:0:0:
256,192,30230,1,0,0:0:0:0:
256,192,30351,1,0,0:0:0:0:
256,192,30593,1,0,0:0:0:0:
256,192,31077,1,0,0:0:0:0:
256,192,31319,1,8,0:0:0:0:
256,192,31561,1,8,0:0:0:0:
256,192,31803,1,0,0:0:0:0:
256,192,32044,1,8,0:0:0:0:
256,192,32165,1,8,0:0:0:0:
256,192,32286,1,8,0:0:0:0:
256,192,32528,1,8,0:0:0:0:
256,192,32649,1,8,0:0:0:0:
256,192,33012,1,0,0:0:0:0:
256,192,33254,1,8,0:0:0:0:
256,192,33496,1,0,0:0:0:0:
256,192,33617,1,0,0:0:0:0:
256,192,33738,1,0,0:0:0:0:
256,192,33980,1,8,0:0:0:0:
256,192,34464,1,8,0:0:0:0:
256,192,34706,1,8,0:0:0:0:
256,192,34827,1,8,0:0:0:0:
256,192,34948,1,8,0:0:0:0:
256,192,35190,1,0,0:0:0:0:
256,192,35432,1,0,0:0:0:0:
256,192,35553,1,0,0:0:0:0:
256,192,35674,1,0,0:0:0:0:
256,192,35915,1,0,0:0:0:0:
256,192,36399,1,8,0:0:0:0:
256,192,36520,1,8,0:0:0:0:
256,192,36883,1,12,0:0:0:0:
256,192,37125,1,0,0:0:0:0:
256,192,37367,1,0,0:0:0:0:
256,192,37609,1,8,0:0:0:0:
256,192,37851,1,0,0:0:0:0:
256,192,38093,1,8,0:0:0:0:
256,192,38214,1,8,0:0:0:0:
256,192,38335,1,8,0:0:0:0:
256,192,38577,1,0,0:0:0:0:
256,192,38819,1,0,0:0:0:0:
256,192,39061,1,8,0:0:0:0:
256,192,39182,1,8,0:0:0:0:
256,192,39303,1,8,0:0:0:0:
256,192,39544,1,0,0:0:0:0:
256,192,39786,1,8,0:0:0:0:
256,192,39907,1,8,0:0:0:0:
256,192,40028,1,8,0:0:0:0:
256,192,40270,1,12,0:0:0:0:
256,192,40754,5,4,0:0:0:0:
256,192,41238,1,8,0:0:0:0:
256,192,41480,1,0,0:0:0:0:
256,192,41601,1,0,0:0:0:0:
256,192,41722,1,0,0:0:0:0:
256,192,42085,1,8,0:0:0:0:
256,192,42206,1,0,0:0:0:0:
256,192,42448,1,8,0:0:0:0:
256,192,42690,1,0,0:0:0:0:
256,192,42932,1,0,0:0:0:0:
256,192,43053,1,0,0:0:0:0:
256,192,43174,1,0,0:0:0:0:
256,192,43415,1,8,0:0:0:0:
256,192,43657,1,0,0:0:0:0:
256,192,43778,1,0,0:0:0:0:
256,192,43899,1,0,0:0:0:0:
256,192,44141,1,8,0:0:0:0:
256,192,44625,1,0,0:0:0:0:
256,192,44867,1,0,0:0:0:0:
256,192,45109,1,8,0:0:0:0:
256,192,45351,1,0,0:0:0:0:
256,192,45593,1,8,0:0:0:0:
256,192,45714,1,8,0:0:0:0:
256,192,45835,1,8,0:0:0:0:
256,192,46077,1,8,0:0:0:0:
256,192,46561,1,0,0:0:0:0:
256,192,46803,1,8,0:0:0:0:
256,192,46924,1,8,0:0:0:0:
256,192,47044,1,8,0:0:0:0:
256,192,47286,1,0,0:0:0:0:
256,192,47528,1,8,0:0:0:0:
256,192,47770,1,0,0:0:0:0:
256,192,47891,1,0,0:0:0:0:
256,192,48012,1,0,0:0:0:0:
256,192,48496,1,0,0:0:0:0:
256,192,48980,1,8,0:0:0:0:
256,192,49222,1,0,0:0:0:0:
256,192,49343,1,0,0:0:0:0:
256,192,49464,1,0,0:0:0:0:
256,192,49827,1,0,0:0:0:0:
256,192,49948,1,8,0:0:0:0:
256,192,50190,1,8,0:0:0:0:
256,192,50432,1,0,0:0:0:0:
256,192,50674,1,8,0:0:0:0:
256,192,50794,1,8,0:0:0:0:
256,192,50915,1,8,0:0:0:0:
256,192,51157,1,8,0:0:0:0:
256,192,51399,1,0,0:0:0:0:
256,192,51520,1,0,0:0:0:0:
256,192,51641,1,0,0:0:0:0:
256,192,51883,1,8,0:0:0:0:
256,192,52367,1,0,0:0:0:0:
256,192,52609,1,0,0:0:0:0:
256,192,52730,1,0,0:0:0:0:
256,192,52851,1,0,0:0:0:0:
256,192,53093,1,0,0:0:0:0:
256,192,53335,1,8,0:0:0:0:
256,192,53456,1,8,0:0:0:0:
256,192,53577,1,8,0:0:0:0:
256,192,53819,1,0,0:0:0:0:
256,192,54061,1,8,0:0:0:0:
256,192,54303,1,0,0:0:0:0:
256,192,54665,1,8,0:0:0:0:
256,192,55028,1,8,0:0:0:0:
256,192,55270,1,0,0:0:0:0:
256,192,55391,1,0,0:0:0:0:
256,192,55512,1,0,0:0:0:0:
256,192,55754,1,8,0:0:0:0:
256,192,55875,1,8,0:0:0:0:
256,192,55996,1,8,0:0:0:0:
256,192,56238,5,4,0:0:0:0:
256,192,56722,1,8,0:0:0:0:
256,192,56964,1,0,0:0:0:0:
256,192,57206,1,0,0:0:0:0:
256,192,57327,1,0,0:0:0:0:
256,192,57448,1,0,0:0:0:0:
256,192,57690,1,8,0:0:0:0:
256,192,58174,1,0,0:0:0:0:
256,192,58657,1,8,0:0:0:0:
256,192,58899,1,0,0:0:0:0:
256,192,59141,1,8,0:0:0:0:
256,192,59262,1,8,0:0:0:0:
256,192,59383,1,8,0:0:0:0:
256,192,59625,1,8,0:0:0:0:
256,192,60109,1,0,0:0:0:0:
256,192,60593,1,8,0:0:0:0:
256,192,60835,1,0,0:0:0:0:
256,192,61077,1,0,0:0:0:0:
256,192,61198,1,0,0:0:0:0:
256,192,61319,1,0,0:0:0:0:
256,192,61561,1,8,0:0:0:0:
256,192,62044,1,0,0:0:0:0:
256,192,62407,1,8,0:0:0:0:
256,192,62770,1,0,0:0:0:0:
256,192,63254,1,0,0:0:0:0:
256,192,63496,1,8,0:0:0:0:
256,192,63617,1,8,0:0:0:0:
256,192,63738,1,8,0:0:0:0:
