osu file format v14

[General]
AudioFilename: audio.mp3
AudioLeadIn: 0
PreviewTime: 9665
Countdown: 0
SampleSet: Normal
StackLeniency: 0.7
Mode: 1
LetterboxInBreaks: 0
WidescreenStoryboard: 1

[Editor]
DistanceSpacing: 0.8
BeatDivisor: 4
GridSize: 32
TimelineZoom: 1.4

[Metadata]
Title:Watame Rap
TitleUnicode:わためラップ
Artist:Tsunomaki Watame
ArtistUnicode:角巻わため
Creator:Jaltzu
Version:Kantan
Source:
Tags:japanese rock nu-metal metal guitar vtuber virtual youtuber yt 4期生 ホロライブプロダクション 4th generation hololive production sheep クソザコ回線でも 投稿ならできる even with a shitty small fry connection can upload
BeatmapID:2347508
BeatmapSetID:1123379

[Difficulty]
HPDrainRate:8
CircleSize:2
OverallDifficulty:2
ApproachRate:0
SliderMultiplier:1.4
SliderTickRate:1

[Events]
//Background and Video events
0,0,"watame.jpg",0,65
//Break Periods
//Storyboard Layer 0 (Background)
//Storyboard Layer 1 (Fail)
//Storyboard Layer 2 (Pass)
//Storyboard Layer 3 (Foreground)
//Storyboard Layer 4 (Overlay)
//Storyboard Sound Samples

[TimingPoints]
2045,483.870967741935,4,1,0,70,1,0
9283,-100,4,1,0,60,0,0
9766,-100,4,1,0,70,0,0
25250,-100,4,1,0,60,0,0
40754,-100,4,1,0,70,0,1
56238,-100,4,1,0,60,0,0
62024,-100,4,1,0,50,0,0

[HitObjects]
256,192,2045,5,4,0:0:0:0:
256,192,3012,1,0,0:0:0:0:
256,192,3496,1,8,0:0:0:0:
256,192,3980,1,0,0:0:0:0:
256,192,4948,1,8,0:0:0:0:
256,192,5432,1,8,0:0:0:0:
256,192,5915,1,0,0:0:0:0:
256,192,6883,1,0,0:0:0:0:
256,192,7367,1,8,0:0:0:0:
256,192,7851,1,12,0:0:0:0:
256,192,9303,1,8,0:0:0:0:
256,192,9786,5,4,0:0:0:0:
256,192,10754,1,0,0:0:0:0:
256,192,11238,1,8,0:0:0:0:
256,192,11722,1,0,0:0:0:0:
256,192,12690,1,8,0:0:0:0:
256,192,13174,1,8,0:0:0:0:
256,192,13657,1,0,0:0:0:0:
256,192,14625,1,0,0:0:0:0:
256,192,15109,1,8,0:0:0:0:
256,192,15593,1,0,0:0:0:0:
256,192,17044,1,0,0:0:0:0:
256,192,17528,1,12,0:0:0:0:
256,192,18012,1,8,0:0:0:0:
256,192,18496,1,0,0:0:0:0:
256,192,19464,1,0,0:0:0:0:
256,192,19948,1,8,0:0:0:0:
256,192,20432,1,0,0:0:0:0:
256,192,21399,1,0,0:0:0:0:
256,192,22367,1,8,0:0:0:0:
256,192,22851,1,0,0:0:0:0:
256,192,23335,1,0,0:0:0:0:
256,192,24061,1,12,0:0:0:0:
256,192,24786,1,8,0:0:0:0:
256,192,25270,5,0,0:0:0:0:
256,192,26722,1,8,0:0:0:0:
256,192,27206,1,0,0:0:0:0:
256,192,27932,1,8,0:0:0:0:
256,192,29141,1,8,0:0:0:0:
256,192,30109,1,0,0:0:0:0:
256,192,30593,1,8,0:0:0:0:
256,192,31077,1,0,0:0:0:0:
256,192,32044,1,8,0:0:0:0:
256,192,32528,1,8,0:0:0:0:
256,192,33012,1,0,0:0:0:0:
256,192,33980,1,0,0:0:0:0:
256,192,34948,1,8,0:0:0:0:
256,192,35432,1,8,0:0:0:0:
256,192,36883,1,12,0:0:0:0:
256,192,37367,1,0,0:0:0:0:
256,192,37851,1,8,0:0:0:0:
256,192,38335,1,8,0:0:0:0:
256,192,38819,1,0,0:0:0:0:
256,192,39786,1,8,0:0:0:0:
256,192,40270,1,12,0:0:0:0:
256,192,40754,5,4,0:0:0:0:
256,192,41722,1,8,0:0:0:0:
256,192,42206,1,8,0:0:0:0:
256,192,42690,1,0,0:0:0:0:
256,192,43657,1,0,0:0:0:0:
256,192,44141,1,8,0:0:0:0:
256,192,44625,1,0,0:0:0:0:
256,192,45109,1,0,0:0:0:0:
256,192,45593,1,8,0:0:0:0:
256,192,46561,1,8,0:0:0:0:
256,192,47044,1,0,0:0:0:0:
256,192,47528,1,8,0:0:0:0:
256,192,48012,1,8,0:0:0:0:
256,192,48496,1,0,0:0:0:0:
256,192,49464,1,0,0:0:0:0:
256,192,49948,1,8,0:0:0:0:
256,192,50432,1,0,0:0:0:0:
256,192,50915,1,8,0:0:0:0:
256,192,51399,1,8,0:0:0:0:
256,192,52367,1,0,0:0:0:0:
256,192,52851,1,0,0:0:0:0:
256,192,53335,1,8,0:0:0:0:
256,192,53819,1,0,0:0:0:0:
256,192,54303,1,8,0:0:0:0:
256,192,55270,1,0,0:0:0:0:
256,192,55754,1,8,0:0:0:0:
256,192,56238,5,4,0:0:0:0:
256,192,57690,1,8,0:0:0:0:
256,192,58174,1,0,0:0:0:0:
256,192,59141,1,8,0:0:0:0:
256,192,59625,1,8,0:0:0:0:
256,192,60109,1,0,0:0:0:0:
256,192,61561,1,8,0:0:0:0:
256,192,62044,1,0,0:0:0:0:
256,192,63496,1,8,0:0:0:0:
