osu file format v14

[General]
AudioFilename: Tsunku - White Ghost (Gens) [Music].mp3
AudioLeadIn: 0
PreviewTime: 3906
Countdown: 0
SampleSet: None
StackLeniency: 0.7
Mode: 0
LetterboxInBreaks: 1
WidescreenStoryboard: 0

[Editor]
Bookmarks: 3906,11906,18906,28823,34948,56906
DistanceSpacing: 0.8
BeatDivisor: 3
GridSize: 4
TimelineZoom: 1

[Metadata]
Title:White Ghost
TitleUnicode:
Artist:Tsunku
ArtistUnicode:
Creator:Gens
Version:Hard
Source:
Tags:
BeatmapID:1897154
BeatmapSetID:909112

[Difficulty]
HPDrainRate:5
CircleSize:4
OverallDifficulty:5
ApproachRate:8
SliderMultiplier:2.2
SliderTickRate:1

[Events]
//Background and Video events
0,0,"Tsunku - White Ghost (Gens) [Background].png",0,0
//Break Periods
//Storyboard Layer 0 (Background)
//Storyboard Layer 1 (Fail)
//Storyboard Layer 2 (Pass)
//Storyboard Layer 3 (Foreground)
//Storyboard Sound Samples

[TimingPoints]
73,500,4,2,0,55,1,0
12073,375,4,2,0,60,1,0
15073,500,4,2,0,55,1,0
23073,750,4,2,0,50,1,0
29073,375,4,2,0,60,1,0
35073,750,4,2,0,50,1,0
53073,500,4,2,0,55,1,0

[HitObjects]
392,112,4406,5,0,0:0:0:0:
460,80,4573,1,2,0:0:0:0:
256,88,4906,1,0,0:0:0:0:
256,12,5073,1,2,0:0:0:0:
120,112,5406,1,0,0:0:0:0:
52,80,5573,1,2,0:0:0:0:
176,232,5906,2,0,B|104:256,1,73.3333333333333,0|2,0:0|0:0,0:0:0:0:
336,232,6406,2,0,B|408:256,1,73.3333333333333,0|2,0:0|0:0,0:0:0:0:
256,144,6906,2,4,B|256:368,2,220,4|4|0,0:0|0:0|0:0,0:0:0:0:
408,312,8406,5,2,0:0:0:0:
408,312,8573,1,2,0:0:0:0:
104,312,8906,1,0,0:0:0:0:
104,312,9073,1,2,0:0:0:0:
136,120,9406,1,0,0:0:0:0:
184,64,9573,2,0,P|256:52|328:64,1,146.666666666667,8|0,0:0|0:0,0:0:0:0:
376,120,10073,2,0,P|332:218|234:261,1,220,4|8,0:0|0:0,0:0:0:0:
446,139,10906,2,0,P|383:268|253:331,1,293.333333333333,4|8,0:0|0:0,0:0:0:0:
148,192,11906,1,2,0:0:0:0:
148,192,12073,1,4,1:0:0:0:
176,48,12323,5,0,0:0:0:0:
176,48,12448,1,2,0:0:0:0:
336,48,12698,1,0,0:0:0:0:
336,48,12823,1,2,0:0:0:0:
448,112,13073,2,0,B|512:144,1,73.3333333333333,0|2,0:0|0:0,0:0:0:0:
256,192,13448,2,0,B|256:264,1,73.3333333333333,0|2,0:0|0:0,0:0:0:0:
64,112,13823,2,0,B|0:144,1,73.3333333333333,0|2,0:0|0:0,0:0:0:0:
152,312,14198,2,4,P|255:343|360:312,2,220,4|4|0,0:0|0:0|0:0,0:0:0:0:
96,260,15073,5,2,0:0:0:0:
340,68,15406,1,0,0:0:0:0:
296,128,15573,2,0,P|256:208|216:128,1,220,2|4,0:0|0:0,0:0:0:0:
376,192,16406,1,0,0:0:0:0:
376,192,16573,1,8,0:0:0:0:
256,280,16906,1,4,0:0:0:0:
80,104,17573,6,0,B|192:200,1,146.666666666667
152,264,18073,2,0,B|41:169,1,146.666666666667,2|0,0:0|0:0,0:0:0:0:
0,232,18573,2,0,B|112:328,1,146.666666666667,2|2,0:0|0:0,0:0:0:0:
112,328,19073,1,4,1:0:0:0:
400,192,19406,5,0,0:0:0:0:
476,192,19573,1,2,0:0:0:0:
256,120,19906,2,0,B|256:48,1,73.3333333333333,0|2,0:0|0:0,0:0:0:0:
112,192,20406,5,0,0:0:0:0:
36,192,20573,1,2,0:0:0:0:
256,264,20906,2,0,B|256:336,1,73.3333333333333,0|2,0:0|0:0,0:0:0:0:
256,192,21406,1,0,0:0:0:0:
256,192,21573,1,2,0:0:0:0:
366,30,21906,6,4,B|146:30,2,220,4|4|0,0:0|0:0|0:0,0:0:0:0:
256,112,23073,1,4,1:0:0:0:
176,336,23573,5,0,0:0:0:0:
176,336,23823,1,2,0:0:0:0:
336,336,24323,1,0,0:0:0:0:
336,336,24573,1,2,0:0:0:0:
448,272,25073,2,0,B|512:240,1,73.3333333333333,0|2,0:0|0:0,0:0:0:0:
256,192,25823,2,0,B|256:120,1,73.3333333333333,0|4,0:0|0:0,0:0:0:0:
0,239,26823,1,8,0:0:0:0:
120,192,27323,2,0,P|256:50|392:192,1,440,4|2,0:0|0:0,0:0:0:0:
256,304,29073,5,4,1:0:0:0:
472,260,29323,1,0,0:0:0:0:
472,260,29448,2,0,P|403:276|351:228,1,146.666666666667,2|0,0:0|0:0,0:0:0:0:
320,160,29823,2,0,P|256:130|192:160,1,146.666666666667,2|0,0:0|0:0,0:0:0:0:
160,228,30198,2,0,P|108:276|40:260,1,146.666666666667,2|0,0:0|0:0,0:0:0:0:
7,191,30573,2,0,P|22:121|79:78,1,146.666666666667,4|0,0:0|0:0,0:0:0:0:
79,78,30948,1,8,0:0:0:0:
256,192,31198,2,0,P|220:293|122:337,2,220,4|4|0,0:0|0:0|0:0,0:0:0:0:
184,112,32073,6,0,B|256:136|256:88|328:112,1,146.666666666667,2|0,0:0|0:0,0:0:0:0:
327,111,32448,1,2,0:0:0:0:
328,272,32823,2,0,B|256:248|256:296|184:272,1,146.666666666667,4|0,0:0|0:0,0:0:0:0:
184,272,33198,1,8,0:0:0:0:
171,124,33448,2,0,P|256:57|362:72,1,220,4|0,0:0|0:0,0:0:0:0:
432,104,33948,6,0,B|320:200,1,146.666666666667
360,264,34323,2,0,B|471:169,1,146.666666666667,2|0,0:0|0:0,0:0:0:0:
512,232,34698,2,0,B|400:328,1,146.666666666667,2|2,0:0|0:0,0:0:0:0:
400,328,35073,1,4,1:0:0:0:
256,192,35573,5,0,0:0:0:0:
216,328,35823,2,0,P|151:297|120:228,1,146.666666666667,2|0,0:0|0:0,0:0:0:0:
120,152,36573,2,0,P|151:86|216:56,1,146.666666666667,2|0,0:0|0:0,0:0:0:0:
296,56,37323,2,0,P|360:86|391:152,1,146.666666666667,2|0,0:0|0:0,0:0:0:0:
391,231,38073,2,0,P|360:297|296:327,1,146.666666666667,4|0,0:0|0:0,0:0:0:0:
448,336,38823,1,8,0:0:0:0:
64,336,39323,1,4,0:0:0:0:
116,192,40073,2,2,B|256:124|256:260|396:192,1,293.333333333333,2|0,0:0|0:0,0:0:0:0:
256,32,41573,5,0,0:0:0:0:
200,88,41823,2,0,B|48:88,1,146.666666666667,2|0,0:0|0:0,0:0:0:0:
88,160,42573,2,0,B|240:160,1,146.666666666667,2|0,0:0|0:0,0:0:0:0:
312,160,43323,2,0,B|464:160,1,146.666666666667,8|0,0:0|0:0,0:0:0:0:
428,232,44073,2,0,B|208:232,1,220,4|8,0:0|0:0,0:0:0:0:
36,304,45323,2,0,B|476:304,1,440,4|2,0:0|0:0,0:0:0:0:
496,192,47073,5,0,0:0:0:0:
40,260,47573,1,0,0:0:0:0:
40,260,47823,2,0,P|108:276|160:228,1,146.666666666667,2|0,0:0|0:0,0:0:0:0:
192,160,48573,2,0,P|256:130|320:160,1,146.666666666667,2|0,0:0|0:0,0:0:0:0:
351,228,49323,2,0,P|403:276|472:260,1,146.666666666667,2|0,0:0|0:0,0:0:0:0:
504,191,50073,2,0,P|489:121|432:78,1,146.666666666667,4|0,0:0|0:0,0:0:0:0:
433,78,50823,1,8,0:0:0:0:
256,192,51323,2,0,P|292:293|390:337,2,220,4|4|0,0:0|0:0|0:0,0:0:0:0:
64,127,53073,6,0,P|99:64|164:32,1,146.666666666667,2|0,0:0|0:0,0:0:0:0:
163,32,53573,1,2,0:0:0:0:
447,256,54073,2,0,P|412:319|348:352,1,146.666666666667,4|0,0:0|0:0,0:0:0:0:
349,352,54573,1,8,0:0:0:0:
256,192,54906,1,4,0:0:0:0:
256,192,55073,12,4,57073,1:0:0:0:
