osu file format v14

[General]
AudioFilename: Lockstep.mp3
AudioLeadIn: 0
PreviewTime: 29723
Countdown: 0
SampleSet: Normal
StackLeniency: 0.7
Mode: 1
LetterboxInBreaks: 0
WidescreenStoryboard: 0

[Editor]
Bookmarks: 6390,12316,18242,24168,29723,36020,41945,47871,53797,59723,65649,71390,77501
DistanceSpacing: 0.9
BeatDivisor: 4
GridSize: 32
TimelineZoom: 1.7

[Metadata]
Title:Lockstep
TitleUnicode:Lockstep
Artist:Tsunku
ArtistUnicode:つんく♂
Creator:Jaltzu
Version:Inner Oni
Source:リズム天国ゴールド
Tags:instrumental video game rhythm heaven paradise world tengoku gold ウラオモテ uraomote nintendo ds nds mitsuo terada tnx music recordings
BeatmapID:799462
BeatmapSetID:108791

[Difficulty]
HPDrainRate:5
CircleSize:4
OverallDifficulty:6
ApproachRate:5
SliderMultiplier:1.4
SliderTickRate:1

[Events]
//Background and Video events
0,0,"lockstepedit.png",0,0
//Break Periods
//Storyboard Layer 0 (Background)
//Storyboard Layer 1 (Fail)
//Storyboard Layer 2 (Pass)
//Storyboard Layer 3 (Foreground)
//Storyboard Layer 4 (Overlay)
//Storyboard Sound Samples

[TimingPoints]
464,370.37037037037,4,1,0,60,1,0
5536,-99.0099009900991,4,1,0,62,0,0
5629,-98.0392156862745,4,1,0,64,0,0
5721,-97.0873786407766,4,1,0,66,0,0
5814,-96.153846153846,4,1,0,68,0,0
5906,-95.2380952380954,4,1,0,70,0,0
5999,-94.3396226415097,4,1,0,72,0,0
6092,-93.4579439252339,4,1,0,74,0,0
6184,-92.5925925925929,4,1,0,76,0,0
6277,-91.743119266055,4,1,0,78,0,0
6369,-90.9090909090909,4,1,0,80,0,0
41945,-90.9090909090909,4,1,0,80,0,1
53797,-90.9090909090909,4,1,0,80,0,0
83777,-90.9090909090909,4,1,0,75,0,0
84147,-90.9090909090909,4,1,0,70,0,0
84518,-90.9090909090909,4,1,0,65,0,0
84888,-90.9090909090909,4,1,0,60,0,0
85258,-90.9090909090909,4,1,0,55,0,0
85629,-90.9090909090909,4,1,0,50,0,0
85999,-90.9090909090909,4,1,0,45,0,0
86369,-90.9090909090909,4,1,0,40,0,0

[HitObjects]
256,192,464,5,8,0:0:0:0:
256,192,649,1,8,0:0:0:0:
256,192,741,1,0,0:0:0:0:
256,192,834,1,0,0:0:0:0:
256,192,1019,1,8,0:0:0:0:
256,192,1204,1,8,0:0:0:0:
256,192,1297,1,0,0:0:0:0:
256,192,1389,1,8,0:0:0:0:
256,192,1575,1,8,0:0:0:0:
256,192,1760,1,0,0:0:0:0:
256,192,1852,1,0,0:0:0:0:
256,192,1945,1,8,0:0:0:0:
256,192,2130,1,8,0:0:0:0:
256,192,2223,1,8,0:0:0:0:
256,192,2315,1,0,0:0:0:0:
256,192,2501,1,8,0:0:0:0:
256,192,2686,1,8,0:0:0:0:
256,192,2778,1,0,0:0:0:0:
256,192,2871,1,8,0:0:0:0:
256,192,3056,1,8,0:0:0:0:
256,192,3241,1,0,0:0:0:0:
256,192,3334,1,0,0:0:0:0:
256,192,3426,1,8,0:0:0:0:
256,192,3612,1,0,0:0:0:0:
256,192,3704,1,8,0:0:0:0:
256,192,3797,1,0,0:0:0:0:
256,192,3982,1,8,0:0:0:0:
256,192,4167,1,8,0:0:0:0:
256,192,4260,1,0,0:0:0:0:
256,192,4352,1,8,0:0:0:0:
256,192,4538,1,8,0:0:0:0:
256,192,4723,1,0,0:0:0:0:
256,192,4815,1,0,0:0:0:0:
256,192,4908,1,8,0:0:0:0:
256,192,5093,1,8,0:0:0:0:
256,192,5186,1,0,0:0:0:0:
256,192,5278,1,0,0:0:0:0:
256,192,5463,1,8,0:0:0:0:
256,192,5556,1,0,0:0:0:0:
256,192,5649,1,8,0:0:0:0:
256,192,5741,1,0,0:0:0:0:
256,192,5834,1,8,0:0:0:0:
256,192,5926,1,8,0:0:0:0:
256,192,6019,1,0,0:0:0:0:
256,192,6112,1,0,0:0:0:0:
256,192,6204,1,8,0:0:0:0:
256,192,6297,1,8,0:0:0:0:
256,192,6389,5,0,0:0:0:0:
256,192,6760,1,8,0:0:0:0:
256,192,7038,1,8,0:0:0:0:
256,192,7130,1,0,0:0:0:0:
256,192,7315,1,0,0:0:0:0:
256,192,7501,1,8,0:0:0:0:
256,192,7686,1,0,0:0:0:0:
256,192,7778,1,8,0:0:0:0:
256,192,7871,1,0,0:0:0:0:
256,192,8241,1,8,0:0:0:0:
256,192,8519,1,8,0:0:0:0:
256,192,8612,1,0,0:0:0:0:
256,192,8797,1,0,0:0:0:0:
256,192,8982,1,8,0:0:0:0:
256,192,9167,1,8,0:0:0:0:
256,192,9260,1,0,0:0:0:0:
256,192,9352,1,0,0:0:0:0:
256,192,9723,1,8,0:0:0:0:
256,192,9908,1,8,0:0:0:0:
256,192,10001,1,8,0:0:0:0:
256,192,10093,1,0,0:0:0:0:
256,192,10278,1,0,0:0:0:0:
256,192,10463,1,8,0:0:0:0:
256,192,10649,1,0,0:0:0:0:
256,192,10741,1,0,0:0:0:0:
256,192,10834,1,0,0:0:0:0:
256,192,11204,1,8,0:0:0:0:
256,192,11482,1,8,0:0:0:0:
256,192,11575,1,0,0:0:0:0:
256,192,11760,1,0,0:0:0:0:
256,192,11945,1,8,0:0:0:0:
256,192,12130,1,12,0:0:0:0:
256,192,12315,1,0,0:0:0:0:
256,192,12501,1,8,0:0:0:0:
256,192,12686,1,0,0:0:0:0:
256,192,12871,1,8,0:0:0:0:
256,192,13056,1,0,0:0:0:0:
256,192,13241,1,8,0:0:0:0:
256,192,13334,1,0,0:0:0:0:
256,192,13426,1,8,0:0:0:0:
256,192,13612,1,8,0:0:0:0:
256,192,13797,1,0,0:0:0:0:
256,192,13982,1,8,0:0:0:0:
256,192,14167,1,0,0:0:0:0:
256,192,14352,1,8,0:0:0:0:
256,192,14538,1,0,0:0:0:0:
256,192,14723,1,8,0:0:0:0:
256,192,14908,1,0,0:0:0:0:
256,192,15093,1,8,0:0:0:0:
256,192,15278,1,0,0:0:0:0:
256,192,15463,1,8,0:0:0:0:
256,192,15649,1,8,0:0:0:0:
256,192,15834,1,8,0:0:0:0:
256,192,15926,1,8,0:0:0:0:
256,192,16019,1,0,0:0:0:0:
256,192,16204,1,8,0:0:0:0:
256,192,16389,1,8,0:0:0:0:
256,192,16575,1,0,0:0:0:0:
256,192,16760,1,0,0:0:0:0:
256,192,16945,1,8,0:0:0:0:
256,192,17130,1,0,0:0:0:0:
256,192,17315,1,8,0:0:0:0:
256,192,17501,1,0,0:0:0:0:
256,192,17686,1,0,0:0:0:0:
256,192,17871,1,8,0:0:0:0:
256,192,18056,1,8,0:0:0:0:
256,192,18241,1,0,0:0:0:0:
256,192,18612,1,8,0:0:0:0:
256,192,18889,1,8,0:0:0:0:
256,192,18982,1,0,0:0:0:0:
256,192,19167,1,0,0:0:0:0:
256,192,19352,1,8,0:0:0:0:
256,192,19538,1,8,0:0:0:0:
256,192,19630,1,0,0:0:0:0:
256,192,19723,1,0,0:0:0:0:
256,192,20093,1,8,0:0:0:0:
256,192,20371,1,8,0:0:0:0:
256,192,20463,1,0,0:0:0:0:
256,192,20649,1,0,0:0:0:0:
256,192,20834,1,8,0:0:0:0:
256,192,21019,1,0,0:0:0:0:
256,192,21112,1,8,0:0:0:0:
256,192,21204,1,0,0:0:0:0:
256,192,21575,1,8,0:0:0:0:
256,192,21760,1,8,0:0:0:0:
256,192,21852,1,8,0:0:0:0:
256,192,21945,1,0,0:0:0:0:
256,192,22130,1,0,0:0:0:0:
256,192,22315,1,8,0:0:0:0:
256,192,22501,1,0,0:0:0:0:
256,192,22686,1,0,0:0:0:0:
256,192,23056,1,8,0:0:0:0:
256,192,23334,1,8,0:0:0:0:
256,192,23426,1,0,0:0:0:0:
256,192,23612,1,0,0:0:0:0:
256,192,23797,1,8,0:0:0:0:
256,192,23982,1,12,0:0:0:0:
256,192,24167,1,0,0:0:0:0:
256,192,24352,1,8,0:0:0:0:
256,192,24538,1,0,0:0:0:0:
256,192,24723,1,8,0:0:0:0:
256,192,24908,1,0,0:0:0:0:
256,192,25093,1,8,0:0:0:0:
256,192,25186,1,0,0:0:0:0:
256,192,25278,1,8,0:0:0:0:
256,192,25463,1,8,0:0:0:0:
256,192,25649,1,0,0:0:0:0:
256,192,25834,1,8,0:0:0:0:
256,192,26019,1,0,0:0:0:0:
256,192,26204,1,8,0:0:0:0:
256,192,26389,1,0,0:0:0:0:
256,192,26575,1,8,0:0:0:0:
256,192,26760,1,0,0:0:0:0:
256,192,26945,1,8,0:0:0:0:
256,192,27130,1,0,0:0:0:0:
256,192,27315,1,8,0:0:0:0:
256,192,27501,1,8,0:0:0:0:
256,192,27686,1,8,0:0:0:0:
256,192,27778,1,0,0:0:0:0:
256,192,27871,1,8,0:0:0:0:
256,192,28056,1,0,0:0:0:0:
256,192,28241,1,0,0:0:0:0:
256,192,28426,1,8,0:0:0:0:
256,192,28612,1,0,0:0:0:0:
256,192,28797,1,8,0:0:0:0:
256,192,28982,1,0,0:0:0:0:
256,192,29167,1,8,0:0:0:0:
256,192,29352,1,0,0:0:0:0:
256,192,29538,1,8,0:0:0:0:
240,192,29723,5,0,0:0:0:0:
240,192,29815,1,0,0:0:0:0:
240,192,29908,1,8,0:0:0:0:
240,192,30001,1,0,0:0:0:0:
240,192,30093,1,8,0:0:0:0:
240,192,30186,1,8,0:0:0:0:
240,192,30278,1,0,0:0:0:0:
240,192,30371,1,8,0:0:0:0:
240,192,30463,1,0,0:0:0:0:
256,192,30649,1,8,0:0:0:0:
256,192,30834,1,0,0:0:0:0:
256,192,31019,1,8,0:0:0:0:
256,192,31204,1,8,0:0:0:0:
256,192,31575,1,0,0:0:0:0:
256,192,31667,1,0,0:0:0:0:
256,192,31852,1,0,0:0:0:0:
256,192,31945,1,8,0:0:0:0:
256,192,32130,1,8,0:0:0:0:
256,192,32315,1,0,0:0:0:0:
256,192,32501,1,8,0:0:0:0:
256,192,32686,1,0,0:0:0:0:
256,192,32871,1,12,0:0:0:0:
256,192,33056,1,0,0:0:0:0:
256,192,33149,1,0,0:0:0:0:
256,192,33241,1,8,0:0:0:0:
256,192,33334,1,0,0:0:0:0:
256,192,33426,1,8,0:0:0:0:
256,192,33612,1,8,0:0:0:0:
256,192,33797,1,0,0:0:0:0:
256,192,33982,1,8,0:0:0:0:
256,192,34075,1,0,0:0:0:0:
256,192,34167,1,8,0:0:0:0:
256,192,34260,1,0,0:0:0:0:
256,192,34352,1,8,0:0:0:0:
256,192,34538,1,8,0:0:0:0:
256,192,34630,1,0,0:0:0:0:
256,192,34723,1,8,0:0:0:0:
256,192,34815,1,8,0:0:0:0:
256,192,34908,1,0,0:0:0:0:
256,192,35093,1,8,0:0:0:0:
256,192,35278,1,8,0:0:0:0:
256,192,35649,1,0,0:0:0:0:
256,192,36019,1,0,0:0:0:0:
256,192,36112,1,8,0:0:0:0:
256,192,36204,1,0,0:0:0:0:
256,192,36297,1,0,0:0:0:0:
256,192,36389,1,8,0:0:0:0:
256,192,36575,1,0,0:0:0:0:
256,192,36760,1,0,0:0:0:0:
256,192,36945,1,8,0:0:0:0:
256,192,37130,1,8,0:0:0:0:
256,192,37501,1,0,0:0:0:0:
256,192,37593,1,0,0:0:0:0:
256,192,37778,1,0,0:0:0:0:
256,192,37871,1,8,0:0:0:0:
256,192,38056,1,8,0:0:0:0:
256,192,38241,1,0,0:0:0:0:
256,192,38426,1,8,0:0:0:0:
256,192,38612,1,0,0:0:0:0:
256,192,38797,1,12,0:0:0:0:
256,192,38982,1,0,0:0:0:0:
256,192,39075,1,0,0:0:0:0:
256,192,39167,1,8,0:0:0:0:
256,192,39260,1,0,0:0:0:0:
256,192,39352,1,8,0:0:0:0:
256,192,39538,1,8,0:0:0:0:
256,192,39723,1,0,0:0:0:0:
256,192,39815,1,0,0:0:0:0:
256,192,39908,1,8,0:0:0:0:
256,192,40001,1,0,0:0:0:0:
256,192,40093,1,8,0:0:0:0:
256,192,40186,1,8,0:0:0:0:
256,192,40278,1,0,0:0:0:0:
256,192,40371,1,8,0:0:0:0:
256,192,40463,1,8,0:0:0:0:
256,192,40556,1,0,0:0:0:0:
256,192,40649,1,8,0:0:0:0:
256,192,40741,1,0,0:0:0:0:
256,192,40834,1,8,0:0:0:0:
256,192,41019,1,8,0:0:0:0:
256,192,41204,1,8,0:0:0:0:
256,192,41575,1,0,0:0:0:0:
256,192,41945,5,4,0:0:0:0:
256,192,42223,1,8,0:0:0:0:
256,192,42315,1,0,0:0:0:0:
256,192,42501,1,8,0:0:0:0:
256,192,42686,1,8,0:0:0:0:
256,192,42778,1,0,0:0:0:0:
256,192,42871,1,8,0:0:0:0:
256,192,42963,1,0,0:0:0:0:
256,192,43056,1,8,0:0:0:0:
256,192,43241,1,12,0:0:0:0:
256,192,43426,1,0,0:0:0:0:
256,192,43612,1,8,0:0:0:0:
256,192,43797,1,0,0:0:0:0:
256,192,43889,1,0,0:0:0:0:
256,192,43982,1,8,0:0:0:0:
256,192,44167,1,0,0:0:0:0:
256,192,44352,1,8,0:0:0:0:
256,192,44538,1,0,0:0:0:0:
256,192,44723,1,8,0:0:0:0:
256,192,44908,1,4,0:0:0:0:
256,192,45186,1,0,0:0:0:0:
256,192,45278,1,8,0:0:0:0:
256,192,45463,1,0,0:0:0:0:
256,192,45556,1,8,0:0:0:0:
256,192,45649,1,8,0:0:0:0:
256,192,45741,1,0,0:0:0:0:
256,192,45834,1,8,0:0:0:0:
256,192,46019,1,8,0:0:0:0:
256,192,46204,1,12,0:0:0:0:
256,192,46389,1,0,0:0:0:0:
256,192,46575,1,8,0:0:0:0:
256,192,46667,1,0,0:0:0:0:
256,192,46760,1,8,0:0:0:0:
256,192,46852,1,8,0:0:0:0:
256,192,46945,1,0,0:0:0:0:
256,192,47038,1,0,0:0:0:0:
256,192,47130,1,8,0:0:0:0:
256,192,47223,1,0,0:0:0:0:
256,192,47315,1,8,0:0:0:0:
256,192,47408,1,8,0:0:0:0:
256,192,47501,1,0,0:0:0:0:
256,192,47686,1,8,0:0:0:0:
256,192,47871,1,12,0:0:0:0:
256,192,48612,1,8,0:0:0:0:
256,192,48704,1,0,0:0:0:0:
256,192,48797,1,8,0:0:0:0:
256,192,48889,1,0,0:0:0:0:
256,192,48982,1,8,0:0:0:0:
256,192,49167,1,12,0:0:0:0:
256,192,49352,1,0,0:0:0:0:
256,192,49538,1,8,0:0:0:0:
256,192,49723,1,0,0:0:0:0:
256,192,49815,1,0,0:0:0:0:
256,192,49908,1,8,0:0:0:0:
256,192,50093,1,0,0:0:0:0:
256,192,50278,1,8,0:0:0:0:
256,192,50463,1,0,0:0:0:0:
256,192,50649,1,8,0:0:0:0:
256,192,50834,1,0,0:0:0:0:
256,192,51019,1,8,0:0:0:0:
256,192,51112,1,8,0:0:0:0:
256,192,51204,1,0,0:0:0:0:
256,176,51297,1,0,0:0:0:0:
256,192,51389,1,8,0:0:0:0:
256,192,51575,1,0,0:0:0:0:
256,192,51760,1,8,0:0:0:0:
256,192,51945,1,0,0:0:0:0:
256,192,52130,1,8,0:0:0:0:
256,192,52315,1,8,0:0:0:0:
256,192,52408,1,0,0:0:0:0:
256,192,52501,1,0,0:0:0:0:
256,192,52593,1,8,0:0:0:0:
256,192,52686,1,8,0:0:0:0:
256,192,52778,1,0,0:0:0:0:
256,192,52871,1,0,0:0:0:0:
256,192,52963,1,8,0:0:0:0:
256,192,53056,1,8,0:0:0:0:
256,192,53149,1,0,0:0:0:0:
256,192,53241,1,0,0:0:0:0:
256,192,53334,1,8,0:0:0:0:
256,192,53426,1,8,0:0:0:0:
256,192,53519,1,0,0:0:0:0:
256,192,53612,1,8,0:0:0:0:
256,192,53704,1,8,0:0:0:0:
256,192,53797,5,0,0:0:0:0:
256,192,54167,1,8,0:0:0:0:
256,192,54445,1,8,0:0:0:0:
256,192,54538,1,0,0:0:0:0:
256,192,54723,1,0,0:0:0:0:
256,192,54908,1,8,0:0:0:0:
256,192,55278,1,0,0:0:0:0:
256,192,55649,1,8,0:0:0:0:
256,192,55926,1,8,0:0:0:0:
256,192,56019,1,0,0:0:0:0:
256,192,56204,1,0,0:0:0:0:
256,192,56389,1,8,0:0:0:0:
256,192,56575,1,12,0:0:0:0:
256,192,56760,1,0,0:0:0:0:
256,192,56945,1,8,0:0:0:0:
256,192,57130,1,0,0:0:0:0:
256,192,57315,1,8,0:0:0:0:
256,192,57501,1,0,0:0:0:0:
256,192,57686,1,8,0:0:0:0:
256,192,57871,1,0,0:0:0:0:
256,192,58056,1,8,0:0:0:0:
256,192,58241,1,0,0:0:0:0:
256,192,58426,1,8,0:0:0:0:
256,192,58612,1,0,0:0:0:0:
256,192,58797,1,8,0:0:0:0:
256,192,58982,1,8,0:0:0:0:
256,192,59352,1,8,0:0:0:0:
256,192,59723,1,0,0:0:0:0:
256,192,60093,1,8,0:0:0:0:
256,192,60371,1,8,0:0:0:0:
256,192,60463,1,0,0:0:0:0:
256,192,60649,1,0,0:0:0:0:
256,192,60834,1,8,0:0:0:0:
256,192,61204,1,0,0:0:0:0:
256,192,61575,1,8,0:0:0:0:
256,192,61852,1,8,0:0:0:0:
256,192,61945,1,0,0:0:0:0:
256,192,62130,1,0,0:0:0:0:
256,192,62315,1,8,0:0:0:0:
256,192,62501,1,12,0:0:0:0:
256,192,62686,1,0,0:0:0:0:
256,192,62871,1,8,0:0:0:0:
256,192,63056,1,0,0:0:0:0:
256,192,63241,1,8,0:0:0:0:
256,192,63426,1,0,0:0:0:0:
256,192,63612,1,8,0:0:0:0:
256,192,63797,1,0,0:0:0:0:
256,192,63982,1,8,0:0:0:0:
256,192,64167,1,0,0:0:0:0:
256,192,64352,1,8,0:0:0:0:
256,192,64538,1,0,0:0:0:0:
256,192,64723,1,8,0:0:0:0:
256,192,64908,1,8,0:0:0:0:
256,192,65001,1,0,0:0:0:0:
256,192,65093,1,0,0:0:0:0:
256,192,65186,1,0,0:0:0:0:
256,192,65278,1,8,0:0:0:0:
256,192,65371,1,0,0:0:0:0:
256,192,65463,1,8,0:0:0:0:
256,192,65556,1,8,0:0:0:0:
256,192,65649,5,0,0:0:0:0:
256,192,66019,1,8,0:0:0:0:
256,192,66297,1,8,0:0:0:0:
256,192,66389,1,0,0:0:0:0:
256,192,66575,1,0,0:0:0:0:
256,192,66760,1,8,0:0:0:0:
256,192,66945,1,8,0:0:0:0:
256,192,67130,1,0,0:0:0:0:
256,192,67501,1,8,0:0:0:0:
256,192,67686,1,0,0:0:0:0:
256,192,67778,1,0,0:0:0:0:
256,192,67871,1,8,0:0:0:0:
256,192,68056,1,0,0:0:0:0:
256,192,68241,1,8,0:0:0:0:
256,192,68426,1,8,0:0:0:0:
256,192,68519,1,8,0:0:0:0:
256,192,68612,1,0,0:0:0:0:
256,192,68982,1,8,0:0:0:0:
256,192,69260,1,8,0:0:0:0:
256,192,69352,1,0,0:0:0:0:
256,192,69538,1,0,0:0:0:0:
256,192,69723,1,8,0:0:0:0:
256,192,69908,1,0,0:0:0:0:
256,192,70093,1,0,0:0:0:0:
256,192,70463,1,8,0:0:0:0:
256,192,70649,1,0,0:0:0:0:
256,192,70741,1,8,0:0:0:0:
256,192,70834,1,0,0:0:0:0:
256,192,71019,1,0,0:0:0:0:
256,192,71204,1,8,0:0:0:0:
256,192,71389,1,12,0:0:0:0:
256,192,71575,1,0,0:0:0:0:
256,192,71760,1,8,0:0:0:0:
256,192,71945,1,0,0:0:0:0:
256,192,72130,1,8,0:0:0:0:
256,192,72315,1,0,0:0:0:0:
256,192,72501,1,8,0:0:0:0:
256,192,72686,1,0,0:0:0:0:
256,192,72871,1,8,0:0:0:0:
256,192,72963,1,8,0:0:0:0:
256,192,73056,1,0,0:0:0:0:
256,192,73241,1,8,0:0:0:0:
256,192,73426,1,0,0:0:0:0:
256,192,73612,1,8,0:0:0:0:
256,192,73797,1,0,0:0:0:0:
256,192,73889,1,0,0:0:0:0:
256,192,73982,1,8,0:0:0:0:
256,192,74167,1,8,0:0:0:0:
256,192,74260,1,8,0:0:0:0:
256,192,74352,1,0,0:0:0:0:
256,192,74538,1,0,0:0:0:0:
256,192,74723,1,8,0:0:0:0:
256,192,74908,1,0,0:0:0:0:
256,192,75093,1,8,0:0:0:0:
256,192,75278,1,0,0:0:0:0:
256,192,75463,1,8,0:0:0:0:
256,192,75649,1,0,0:0:0:0:
256,192,75834,1,8,0:0:0:0:
256,192,75926,1,8,0:0:0:0:
256,192,76019,1,0,0:0:0:0:
256,192,76204,1,8,0:0:0:0:
256,192,76389,1,0,0:0:0:0:
256,192,76575,1,8,0:0:0:0:
256,192,76760,1,8,0:0:0:0:
256,192,76852,1,0,0:0:0:0:
256,192,76945,1,8,0:0:0:0:
256,192,77038,1,8,0:0:0:0:
256,192,77130,1,8,0:0:0:0:
256,192,77223,1,0,0:0:0:0:
256,192,77315,1,8,0:0:0:0:
256,192,77408,1,8,0:0:0:0:
256,192,77501,1,0,0:0:0:0:
256,192,77871,1,8,0:0:0:0:
256,192,78149,1,8,0:0:0:0:
256,192,78241,1,0,0:0:0:0:
256,192,78426,1,0,0:0:0:0:
256,192,78612,1,8,0:0:0:0:
256,192,78797,1,0,0:0:0:0:
256,192,78982,1,0,0:0:0:0:
256,192,79352,1,8,0:0:0:0:
256,192,79630,1,8,0:0:0:0:
256,192,79723,1,0,0:0:0:0:
256,192,79908,1,0,0:0:0:0:
256,192,80093,1,8,0:0:0:0:
256,192,80278,1,0,0:0:0:0:
256,192,80371,1,8,0:0:0:0:
256,192,80463,1,0,0:0:0:0:
256,192,80834,1,8,0:0:0:0:
256,192,81112,1,8,0:0:0:0:
256,192,81204,1,0,0:0:0:0:
256,192,81389,1,0,0:0:0:0:
256,192,81575,1,8,0:0:0:0:
256,192,81760,1,0,0:0:0:0:
256,192,81945,1,0,0:0:0:0:
256,192,82315,1,8,0:0:0:0:
256,192,82593,1,8,0:0:0:0:
256,192,82686,1,0,0:0:0:0:
256,192,82871,1,0,0:0:0:0:
256,192,83056,1,8,0:0:0:0:
256,192,83241,1,0,0:0:0:0:
256,192,83334,1,8,0:0:0:0:
256,192,83426,1,0,0:0:0:0:
256,192,83797,12,0,86389,0:0:0:0:
