osu file format v14

[General]
AudioFilename: Lockstep.mp3
AudioLeadIn: 0
PreviewTime: 29723
Countdown: 0
SampleSet: Normal
StackLeniency: 0.7
Mode: 1
LetterboxInBreaks: 0
WidescreenStoryboard: 0

[Editor]
Bookmarks: 6390,12316,18242,24168,30094,36020,41945,47871,53797,59723,65649,71575,77501
DistanceSpacing: 1
BeatDivisor: 4
GridSize: 16
TimelineZoom: 1.1

[Metadata]
Title:Lockstep
TitleUnicode:Lockstep
Artist:Tsunku
ArtistUnicode:つんく♂
Creator:Jaltzu
Version:Futsuu
Source:リズム天国ゴールド
Tags:instrumental video game rhythm heaven paradise world tengoku gold ウラオモテ uraomote nintendo ds nds mitsuo terada tnx music recordings
BeatmapID:799461
BeatmapSetID:108791

[Difficulty]
HPDrainRate:7
CircleSize:4
OverallDifficulty:4
ApproachRate:3
SliderMultiplier:1.4
SliderTickRate:1

[Events]
//Background and Video events
0,0,"lockstepedit.png",0,0
//Break Periods
//Storyboard Layer 0 (Background)
//Storyboard Layer 1 (Fail)
//Storyboard Layer 2 (Pass)
//Storyboard Layer 3 (Foreground)
//Storyboard Layer 4 (Overlay)
//Storyboard Sound Samples

[TimingPoints]
464,370.37037037037,4,1,0,60,1,0
5624,-100,4,1,0,64,0,0
5995,-100,4,1,0,72,0,0
6365,-100,4,1,0,80,0,0
41945,-100,4,1,0,80,0,1
53797,-100,4,1,0,80,0,0
83772,-100,4,1,0,75,0,0
84142,-100,4,1,0,70,0,0
84513,-100,4,1,0,65,0,0
84883,-100,4,1,0,60,0,0
85253,-100,4,1,0,55,0,0
85624,-100,4,1,0,50,0,0
85994,-100,4,1,0,45,0,0
86364,-100,4,1,0,40,0,0

[HitObjects]
256,192,464,5,0,0:0:0:0:
256,192,834,1,8,0:0:0:0:
256,192,1204,1,0,0:0:0:0:
256,192,1389,1,0,0:0:0:0:
256,192,1575,1,8,0:0:0:0:
256,192,1945,1,8,0:0:0:0:
256,192,2315,1,0,0:0:0:0:
256,192,2686,1,8,0:0:0:0:
256,192,2871,1,0,0:0:0:0:
256,192,3056,1,8,0:0:0:0:
256,192,3426,1,0,0:0:0:0:
256,192,3797,1,8,0:0:0:0:
256,192,4167,1,0,0:0:0:0:
256,192,4352,1,0,0:0:0:0:
256,192,4538,1,8,0:0:0:0:
256,192,4908,1,8,0:0:0:0:
256,192,5278,1,0,0:0:0:0:
256,192,5649,1,0,0:0:0:0:
256,192,5834,1,0,0:0:0:0:
256,192,6019,1,8,0:0:0:0:
256,192,6204,1,8,0:0:0:0:
256,192,6389,5,0,0:0:0:0:
256,192,7130,1,0,0:0:0:0:
256,192,7501,1,8,0:0:0:0:
256,192,7871,1,0,0:0:0:0:
256,192,8241,1,8,0:0:0:0:
256,192,8982,1,8,0:0:0:0:
256,192,9167,1,8,0:0:0:0:
256,192,9352,1,0,0:0:0:0:
256,192,9908,1,8,0:0:0:0:
256,192,10278,1,0,0:0:0:0:
256,192,10463,1,8,0:0:0:0:
256,192,10834,1,0,0:0:0:0:
256,192,11575,1,0,0:0:0:0:
256,192,12130,1,12,0:0:0:0:
256,192,12501,1,8,0:0:0:0:
256,192,12871,1,8,0:0:0:0:
256,192,13241,1,8,0:0:0:0:
256,192,13426,1,0,0:0:0:0:
256,192,13612,1,8,0:0:0:0:
256,192,13982,1,8,0:0:0:0:
256,192,14352,1,8,0:0:0:0:
256,192,14538,1,0,0:0:0:0:
256,192,14908,1,8,0:0:0:0:
256,192,15278,1,0,0:0:0:0:
256,192,16019,1,0,0:0:0:0:
256,192,16389,1,8,0:0:0:0:
256,192,16575,1,0,0:0:0:0:
256,192,16945,1,8,0:0:0:0:
256,192,17315,1,8,0:0:0:0:
256,192,17501,1,0,0:0:0:0:
256,192,17871,1,8,0:0:0:0:
256,192,18241,5,0,0:0:0:0:
256,192,18982,1,0,0:0:0:0:
256,192,19352,1,8,0:0:0:0:
256,192,19723,1,0,0:0:0:0:
256,192,20093,1,8,0:0:0:0:
256,192,20834,1,8,0:0:0:0:
256,192,21019,1,0,0:0:0:0:
256,192,21204,1,0,0:0:0:0:
256,192,21760,1,8,0:0:0:0:
256,192,22130,1,0,0:0:0:0:
256,192,22315,1,8,0:0:0:0:
256,192,22686,1,0,0:0:0:0:
256,192,23426,1,0,0:0:0:0:
256,192,23982,1,12,0:1:0:0:
256,192,24352,1,8,0:0:0:0:
256,192,24723,1,8,0:0:0:0:
256,192,25093,1,8,0:0:0:0:
256,192,25278,1,0,0:0:0:0:
256,192,25463,1,8,0:0:0:0:
256,192,25834,1,8,0:0:0:0:
256,192,26204,1,8,0:0:0:0:
256,192,26389,1,0,0:0:0:0:
256,192,26760,1,8,0:0:0:0:
256,192,27130,1,0,0:0:0:0:
256,192,27686,1,0,0:0:0:0:
256,192,27871,1,0,0:0:0:0:
256,192,28241,1,8,0:0:0:0:
256,192,28426,1,0,0:0:0:0:
256,192,28797,1,8,0:0:0:0:
256,192,29167,1,8,0:0:0:0:
256,192,29352,1,0,0:0:0:0:
256,192,30093,5,0,0:0:0:0:
256,192,30278,1,0,0:0:0:0:
256,192,30463,1,8,0:0:0:0:
256,192,30649,1,8,0:0:0:0:
256,192,30834,1,0,0:0:0:0:
256,192,31204,1,8,0:0:0:0:
256,192,31575,1,0,0:0:0:0:
256,192,31945,1,8,0:0:0:0:
256,192,32315,1,0,0:0:0:0:
256,192,33056,1,0,0:0:0:0:
256,192,33426,1,8,0:0:0:0:
256,192,33612,1,8,0:0:0:0:
256,192,33797,1,0,0:0:0:0:
256,192,34167,1,8,0:0:0:0:
256,192,34538,1,8,0:0:0:0:
256,192,34723,1,8,0:0:0:0:
256,192,34908,1,0,0:0:0:0:
256,192,35093,1,8,0:0:0:0:
256,192,35278,1,8,0:0:0:0:
256,192,36019,1,0,0:0:0:0:
256,192,36204,1,0,0:0:0:0:
256,192,36389,1,8,0:0:0:0:
256,192,36575,1,0,0:0:0:0:
256,192,36760,1,0,0:0:0:0:
256,192,37130,1,8,0:0:0:0:
256,192,37501,1,0,0:0:0:0:
256,192,37871,1,8,0:0:0:0:
256,192,38241,1,0,0:0:0:0:
256,192,38982,1,0,0:0:0:0:
256,192,39167,1,0,0:0:0:0:
256,192,39352,1,8,0:0:0:0:
256,192,39723,1,8,0:0:0:0:
256,192,39908,1,0,0:0:0:0:
256,192,40093,1,8,0:0:0:0:
256,192,40278,1,8,0:0:0:0:
256,192,40463,1,0,0:0:0:0:
256,192,40649,1,0,0:0:0:0:
256,192,40834,1,8,0:0:0:0:
256,192,41204,1,8,0:0:0:0:
256,192,41945,5,4,0:0:0:0:
256,192,42686,1,8,0:0:0:0:
256,192,42871,1,8,0:0:0:0:
256,192,43056,1,0,0:0:0:0:
256,192,43241,1,12,0:0:0:0:
256,192,43612,1,8,0:0:0:0:
256,192,43982,1,8,0:0:0:0:
256,192,44352,1,8,0:0:0:0:
256,192,44538,1,0,0:0:0:0:
256,192,44908,1,4,0:0:0:0:
272,192,45278,1,8,0:0:0:0:
256,192,45649,1,8,0:0:0:0:
256,192,45834,1,0,0:0:0:0:
272,192,46019,1,0,0:0:0:0:
272,192,46204,1,12,0:0:0:0:
256,192,46575,1,8,0:0:0:0:
272,192,46760,1,0,0:0:0:0:
272,192,46945,1,0,0:0:0:0:
272,192,47130,1,8,0:0:0:0:
256,192,47315,1,8,0:0:0:0:
272,192,47501,1,0,0:0:0:0:
256,192,47871,1,12,0:0:0:0:
256,192,48612,1,8,0:0:0:0:
256,192,48797,1,8,0:0:0:0:
272,192,48982,1,0,0:0:0:0:
272,192,49167,1,12,0:0:0:0:
256,192,49538,1,8,0:0:0:0:
256,192,49908,1,8,0:0:0:0:
256,192,50278,1,8,0:0:0:0:
256,192,50463,1,0,0:0:0:0:
256,192,50834,1,0,0:0:0:0:
256,192,51019,1,8,0:0:0:0:
256,192,51204,1,0,0:0:0:0:
256,192,51389,1,0,0:0:0:0:
256,192,51575,1,8,0:0:0:0:
256,192,51760,1,0,0:0:0:0:
256,192,51945,1,8,0:0:0:0:
256,192,52315,1,0,0:0:0:0:
256,192,52501,1,0,0:0:0:0:
256,192,52686,1,8,0:0:0:0:
256,192,52871,1,8,0:0:0:0:
256,192,53056,1,0,0:0:0:0:
256,192,53241,1,0,0:0:0:0:
256,192,53426,1,8,0:0:0:0:
256,192,53797,5,4,0:0:0:0:
256,192,54538,1,0,0:0:0:0:
256,192,54908,1,8,0:0:0:0:
256,192,55278,1,0,0:0:0:0:
256,192,56019,1,0,0:0:0:0:
256,192,56575,1,12,0:0:0:0:
256,192,56945,1,8,0:0:0:0:
256,192,57315,1,8,0:0:0:0:
256,192,57686,1,8,0:0:0:0:
256,192,58056,1,8,0:0:0:0:
256,192,58426,1,8,0:0:0:0:
256,192,58612,1,0,0:0:0:0:
256,192,58982,1,8,0:0:0:0:
256,192,59352,1,8,0:0:0:0:
256,192,59723,1,0,0:0:0:0:
256,192,60463,1,0,0:0:0:0:
256,192,60834,1,8,0:0:0:0:
256,192,61204,1,0,0:0:0:0:
256,192,61945,1,8,0:0:0:0:
256,192,62501,1,12,0:0:0:0:
256,192,62871,1,8,0:0:0:0:
256,192,63241,1,8,0:0:0:0:
256,192,63612,1,8,0:0:0:0:
256,192,63982,1,8,0:0:0:0:
256,192,64352,1,8,0:0:0:0:
256,192,64538,1,0,0:0:0:0:
256,192,64908,1,0,0:0:0:0:
256,192,65093,1,0,0:0:0:0:
256,192,65278,1,8,0:0:0:0:
256,192,65463,1,8,0:0:0:0:
256,192,65649,5,0,0:0:0:0:
256,192,66389,1,0,0:0:0:0:
256,192,66760,1,8,0:0:0:0:
256,192,67130,1,0,0:0:0:0:
256,192,67871,1,8,0:0:0:0:
256,192,68612,1,8,0:0:0:0:
256,192,69352,1,8,0:0:0:0:
256,192,69723,1,8,0:0:0:0:
256,192,70093,1,0,0:0:0:0:
256,192,70834,1,0,0:0:0:0:
256,192,71389,1,12,0:0:0:0:
256,192,71760,1,8,0:0:0:0:
256,192,72130,1,8,0:0:0:0:
256,192,72501,1,8,0:0:0:0:
256,192,72686,1,0,0:0:0:0:
256,192,73056,1,0,0:0:0:0:
256,192,73241,1,8,0:0:0:0:
256,192,73426,1,0,0:0:0:0:
256,192,73612,1,8,0:0:0:0:
256,192,73982,1,8,0:0:0:0:
256,192,74167,1,0,0:0:0:0:
256,192,74538,1,0,0:0:0:0:
256,192,75278,1,8,0:0:0:0:
256,192,75649,1,0,0:0:0:0:
256,192,75834,1,0,0:0:0:0:
256,192,76019,1,8,0:0:0:0:
256,192,76389,1,0,0:0:0:0:
256,192,76760,1,8,0:0:0:0:
256,192,76945,1,8,0:0:0:0:
256,192,77130,1,8,0:0:0:0:
256,192,77315,1,8,0:0:0:0:
256,192,77501,5,0,0:0:0:0:
256,192,78241,1,0,0:0:0:0:
256,192,78612,1,8,0:0:0:0:
256,192,78982,1,0,0:0:0:0:
256,192,79723,1,8,0:0:0:0:
256,192,80093,1,8,0:0:0:0:
256,192,80278,1,8,0:0:0:0:
256,192,80463,1,0,0:0:0:0:
256,192,81204,1,0,0:0:0:0:
256,192,81575,1,8,0:0:0:0:
256,192,81945,1,0,0:0:0:0:
256,192,82686,1,0,0:0:0:0:
256,192,83056,1,8,0:0:0:0:
256,192,83241,1,8,0:0:0:0:
256,192,83426,1,0,0:0:0:0:
256,192,83797,12,0,86389,0:0:0:0:
