osu file format v14

[General]
AudioFilename: audio.mp3
AudioLeadIn: 0
PreviewTime: 62742
Countdown: 0
SampleSet: Soft
StackLeniency: 0.5
Mode: 0
LetterboxInBreaks: 0
WidescreenStoryboard: 0

[Editor]
Bookmarks: 171015
DistanceSpacing: 0.5
BeatDivisor: 4
GridSize: 8
TimelineZoom: 2.2

[Metadata]
Title:Golden Hours
TitleUnicode:Golden Hours
Artist:Tsumugi Wenders (CV: Iwai Emiri)
ArtistUnicode:紬ヴェンダース(CV: 岩井映美里)
Creator:Garden
Version:Special
Source:Summer Pockets
Tags:buki irotuk サマーポケッツ サマポケ Character songs Sing! NanosizeMir Key Sounds Label visual art's visualarts novel vn japanese video game galgame j-pop jpop
BeatmapID:2848888
BeatmapSetID:1378712

[Difficulty]
HPDrainRate:5
CircleSize:4
OverallDifficulty:8
ApproachRate:9.3
SliderMultiplier:0.899999999999999
SliderTickRate:1

[Events]
//Background and Video events
0,0,"BG.jpg",0,0
//Break Periods
2,14669,19643
2,217170,226234
//Storyboard Layer 0 (Background)
//Storyboard Layer 1 (Fail)
//Storyboard Layer 2 (Pass)
//Storyboard Layer 3 (Foreground)
//Storyboard Layer 4 (Overlay)
//Storyboard Sound Samples

[TimingPoints]
970,272.727272727273,6,2,1,50,1,0
4447,-100,6,2,1,5,0,0
4515,-100,6,2,1,50,0,0
6629,-100,6,2,1,5,0,0
6697,-100,6,2,1,50,0,0
9151,-62.5,6,2,1,60,0,0
14060,-200,6,2,1,70,0,0
14470,-200,6,2,1,50,0,0
20197,-62.5,6,2,1,60,0,0
20606,-71.4285714285714,6,2,1,60,0,0
31242,-55.5555555555556,6,2,1,60,0,0
31515,-71.4285714285714,6,2,1,60,0,0
31788,-100,6,2,1,60,0,0
32060,-71.4285714285714,6,2,1,60,0,0
32470,-71.4285714285714,6,2,1,50,0,0
33697,-55.5555555555556,6,2,1,60,0,0
39424,-45.4545454545455,6,2,1,60,0,0
39697,-55.5555555555556,6,2,1,60,0,0
46788,-45.4545454545455,6,2,1,60,0,0
47197,-55.5555555555556,6,2,1,60,0,0
48424,-45.4545454545455,6,2,1,60,0,0
48833,-55.5555555555556,6,2,1,60,0,0
51697,-45.4545454545455,6,2,1,60,0,0
52242,-55.5555555555556,6,2,1,60,0,0
52515,-45.4545454545455,6,2,1,60,0,0
53333,-55.5555555555556,6,2,1,60,0,0
59879,-133.333333333333,6,2,1,60,0,0
62606,-55.5555555555556,6,2,1,40,0,0
62879,-125,6,2,1,60,0,0
63151,-45.4545454545455,6,2,1,75,0,1
63697,-125,6,2,1,75,0,1
63970,-41.6666666666667,6,2,1,75,0,1
64515,-45.4545454545455,6,2,1,75,0,1
70242,-125,6,2,1,75,0,1
70515,-45.4545454545455,6,2,1,75,0,1
71879,-125,6,2,1,75,0,1
72151,-45.4545454545455,6,2,1,75,0,1
72697,-125,6,2,1,75,0,1
72970,-45.4545454545455,6,2,1,75,0,1
74606,-71.4285714285714,6,2,1,75,0,1
74879,-62.5,6,2,1,75,0,1
75151,-55.5555555555556,6,2,1,75,0,1
75424,-45.4545454545455,6,2,1,75,0,1
75970,-45.4545454545455,6,2,1,75,0,0
76242,-41.6666666666667,6,2,1,75,0,1
76788,-125,6,2,1,75,0,1
77060,-45.4545454545455,6,2,1,75,0,1
82515,-125,6,2,1,75,0,1
83606,-45.4545454545455,6,2,1,75,0,1
88515,-125,6,2,1,60,0,0
89333,-125,6,2,1,50,0,0
91788,-125,6,2,1,60,0,0
92333,-83.3333333333333,6,2,1,60,0,0
101060,-100,6,2,1,60,0,0
101333,-125,6,2,1,60,0,0
102970,-83.3333333333333,6,2,1,60,0,0
105151,-166.666666666667,6,2,1,60,0,0
105424,-166.666666666667,6,2,1,40,0,0
105697,-83.3333333333333,6,2,1,50,0,0
112242,-62.5,6,2,1,50,0,0
112788,-100,6,2,1,50,0,0
113060,-62.5,6,2,1,50,0,0
113606,-100,6,2,1,50,0,0
113879,-62.5,6,2,1,50,0,0
114288,-62.5,6,2,1,40,0,0
114697,-62.5,6,2,1,50,0,0
114970,-62.5,6,2,1,60,0,0
115242,-83.3333333333333,6,2,1,60,0,0
115788,-62.5,6,2,1,60,0,0
116333,-83.3333333333333,6,2,1,60,0,0
116606,-62.5,6,2,1,60,0,0
118788,-55.5555555555556,6,2,1,60,0,0
128060,-71.4285714285714,6,2,1,60,0,0
128333,-100,6,2,1,60,0,0
128606,-55.5555555555556,6,2,1,60,0,0
131879,-45.4545454545455,6,2,1,60,0,0
132288,-55.5555555555556,6,2,1,60,0,0
133515,-45.4545454545455,6,2,1,60,0,0
133924,-55.5555555555556,6,2,1,60,0,0
135970,-125,6,2,1,60,0,0
136788,-45.4545454545455,6,2,1,60,0,0
138424,-55.5555555555556,6,2,1,60,0,0
144970,-133.333333333333,6,2,1,60,0,0
147697,-133.333333333333,6,2,1,40,0,0
147970,-125,6,2,1,60,0,0
148242,-45.4545454545455,6,2,1,75,0,1
148788,-125,6,2,1,75,0,1
149060,-45.4545454545455,6,2,1,75,0,1
149879,-41.6666666666667,6,2,1,75,0,1
150424,-45.4545454545455,6,2,1,75,0,1
155333,-125,6,2,1,75,0,1
155606,-45.4545454545455,6,2,1,75,0,1
156970,-125,6,2,1,75,0,1
157242,-45.4545454545455,6,2,1,75,0,1
159697,-71.4285714285714,6,2,1,75,0,1
159970,-62.5,6,2,1,75,0,1
160242,-55.5555555555556,6,2,1,75,0,1
160515,-45.4545454545455,6,2,1,75,0,1
161060,-45.4545454545455,6,2,1,75,0,0
161333,-45.4545454545455,6,2,1,75,0,1
165970,-62.5,6,2,1,75,0,1
166788,-45.4545454545455,6,2,1,75,0,1
167060,-125,6,2,1,75,0,1
168697,-45.4545454545455,6,2,1,75,0,1
172970,-45.4545454545455,6,2,1,5,0,1
173060,-45.4545454545455,6,2,1,75,0,1
173606,-83.3333333333333,6,2,1,60,0,0
174424,-125,6,2,1,50,0,0
176060,-100,6,2,1,60,0,0
181720,-100,6,2,1,5,0,0
181788,-100,6,2,1,60,0,0
182606,-83.3333333333333,6,2,1,60,0,0
182810,-100,6,2,1,5,0,0
182879,-100,6,2,1,60,0,0
183424,-66.6666666666667,6,2,1,60,0,0
184242,-55.5555555555556,6,2,1,70,0,0
185060,-43.4782608695652,6,2,1,70,0,0
185879,-47.6190476190476,6,2,1,70,0,0
188333,-43.4782608695652,6,2,1,70,0,0
189151,-47.6190476190476,6,2,1,70,0,0
189970,-62.5,6,2,1,70,0,0
190242,-47.6190476190476,6,2,1,70,0,0
190515,-38.4615384615385,6,2,1,70,0,0
190788,-47.6190476190476,6,2,1,70,0,0
194060,-41.6666666666667,6,2,1,70,0,0
194265,-41.6666666666667,6,2,1,5,0,0
194333,-50,6,2,1,70,0,0
194606,-45.4545454545455,6,2,1,70,0,0
194879,-43.4782608695652,6,2,1,70,0,0
195083,-43.4782608695652,6,2,1,5,0,0
195151,-52.6315789473684,6,2,1,70,0,0
195697,-45.4545454545455,6,2,1,70,0,0
198151,-31.25,6,2,1,70,0,0
198356,-31.25,6,2,1,5,0,0
198424,-38.4615384615385,6,2,1,70,0,0
198629,-38.4615384615385,6,2,1,5,0,0
198697,-50,6,2,1,70,0,0
198901,-50,6,2,1,5,0,0
198970,-66.6666666666667,6,2,1,60,0,0
199788,-55.5555555555556,6,2,1,60,0,0
204151,-50,6,2,1,60,0,0
204424,-45.4545454545455,6,2,1,60,0,0
204697,-41.6666666666667,6,2,1,60,0,0
205242,-66.6666666666667,6,2,1,60,0,0
205447,-66.6666666666667,6,2,1,5,0,0
205515,-50,6,2,1,60,0,0
208174,-50,6,2,1,5,0,0
208242,-100,6,2,1,60,0,0
208788,-50,6,2,1,60,0,0
212060,-40,6,2,1,60,0,0
212265,-40,6,2,1,5,0,0
212333,-66.6666666666667,6,2,1,60,0,0
212879,-40,6,2,1,60,0,0
213060,-40,6,2,1,5,0,0
213151,-40,6,2,1,60,0,0
213424,-66.6666666666667,6,2,1,60,0,0
213765,-50,6,2,1,40,0,0
226788,-100,6,2,1,60,0,0
230367,-100,6,2,1,30,0,0
230879,-100,6,2,1,60,0,0
231356,-100,6,2,1,5,0,0
231424,-125,6,2,1,60,0,0
231697,-45.4545454545455,6,2,1,75,0,1
232242,-125,6,2,1,75,0,1
232515,-45.4545454545455,6,2,1,75,0,1
237151,-41.6666666666667,6,2,1,75,0,1
237424,-50,6,2,1,75,0,1
238242,-45.4545454545455,6,2,1,75,0,1
238788,-125,6,2,1,75,0,1
239060,-45.4545454545455,6,2,1,75,0,1
240424,-125,6,2,1,75,0,1
240697,-45.4545454545455,6,2,1,75,0,1
241242,-125,6,2,1,75,0,1
241515,-45.4545454545455,6,2,1,75,0,1
242333,-41.6666666666667,6,2,1,75,0,1
243151,-71.4285714285714,6,2,1,75,0,1
243424,-62.5,6,2,1,75,0,1
243697,-55.5555555555556,6,2,1,75,0,1
244515,-55.5555555555556,6,2,1,75,0,0
244788,-41.6666666666667,6,2,1,75,0,1
245333,-125,6,2,1,75,0,1
245606,-41.6666666666667,6,2,1,75,0,1
246151,-83.3333333333333,6,2,1,75,0,1
246424,-45.4545454545455,6,2,1,75,0,1
251060,-125,6,2,1,75,0,1
252151,-45.4545454545455,6,2,1,75,0,1
253379,-125,6,2,1,75,0,1
253788,-45.4545454545455,6,2,1,75,0,1
255424,-41.6666666666667,6,2,1,75,0,1
256242,-45.4545454545455,6,2,1,75,0,1
258697,-55.5555555555556,6,2,1,75,0,1
258970,-47.6190476190476,6,2,1,75,0,1
259242,-41.6666666666667,6,2,1,75,0,1
259515,-50,6,2,1,75,0,1
259924,-50,6,2,1,75,0,1
259992,-50,6,2,1,5,0,1
260060,-50,6,2,1,75,0,1
260333,-50,6,2,1,60,0,0
261015,-66.6666666666667,6,2,1,10,0,0
261151,-66.6666666666667,6,2,1,60,0,0
261970,272.727272727273,6,2,1,60,1,0
262651,-100,6,2,1,10,0,0
262788,-100,6,2,1,60,0,0
263606,-80,6,2,1,60,0,0
264151,-66.6666666666667,6,2,1,60,0,0
265788,-57.1428571428571,6,2,1,60,0,0
266879,-100,6,2,1,60,0,0
267697,-100,6,2,1,20,0,0
268515,-100,6,2,1,60,0,0
272060,-100,6,2,1,60,0,0
274174,-100,6,2,1,5,0,0
274242,-100,6,2,1,60,0,0
275060,-66.6666666666667,6,2,1,60,0,0
275265,-66.6666666666667,6,2,1,5,0,0
275333,-66.6666666666667,6,2,1,60,0,0
275879,-100,6,2,1,60,0,0
276697,-62.5,6,2,1,60,0,0
279151,292.682926829268,6,2,1,60,1,0
279151,-62.5,6,2,1,60,0,0
279443,-55.5555555555556,6,2,1,60,0,0
279736,-62.5,6,2,1,50,0,0
280029,333.333333333333,6,2,1,60,1,0
280029,-66.6666666666667,6,2,1,60,0,0
280362,352.941176470588,6,2,1,60,1,0
280362,-71.4285714285714,6,2,1,60,0,0
280714,375,6,2,1,60,1,0
280714,-76.9230769230769,6,2,1,60,0,0
281089,400,6,2,1,50,1,0
281389,-100,6,2,1,5,0,0
281489,422.535211267606,6,2,1,50,1,0
281805,-100,6,2,1,5,0,0
281911,500,6,2,1,50,1,0
282286,-100,6,2,1,5,0,0
282411,500,6,2,1,60,1,0
282411,-144.927536231884,6,2,1,60,0,0
282536,-144.927536231884,6,2,1,5,0,0

[Colours]
Combo1 : 254,223,129
Combo2 : 255,169,128
Combo3 : 191,255,128

[HitObjects]
85,225,970,5,4,1:2:0:0:
300,276,1242,1,2,0:0:0:0:
296,294,1333,1,2,0:0:0:0:
281,304,1424,1,2,0:0:0:0:
263,302,1515,1,2,0:0:0:0:
237,218,1788,5,2,0:0:0:0:
356,372,2060,1,2,0:0:0:0:
446,101,2333,1,2,0:0:0:0:
386,41,2606,2,0,L|379:-4,1,45,2|0,0:0|0:0,0:0:0:0:
374,58,2879,1,2,0:0:0:0:
311,134,3151,5,2,0:0:0:0:
165,71,3288,1,0,0:0:0:0:
245,28,3424,1,2,0:0:0:0:
259,44,3560,1,0,0:0:0:0:
258,66,3697,1,0,0:0:0:0:
149,160,3833,5,2,0:0:0:0:
211,212,3970,1,8,1:3:0:0:
165,241,4106,1,4,0:3:0:0:
182,261,4242,2,0,L|169:347,1,67.5,12|0,0:0|0:0,0:0:0:0:
254,351,4515,5,2,0:0:0:0:
270,357,4606,1,2,0:0:0:0:
287,354,4697,1,2,0:0:0:0:
301,343,4788,1,2,0:0:0:0:
309,327,4879,1,0,0:0:0:0:
308,308,4970,1,0,0:0:0:0:
258,310,5060,5,2,1:2:0:0:
487,205,5333,1,8,0:3:0:0:
54,133,5606,1,4,0:3:0:0:
253,16,5879,2,0,P|276:70|264:119,1,89.9999999999999,12|2,0:0|0:0,0:0:0:0:
259,109,6333,5,2,0:0:0:0:
245,118,6424,2,0,P|231:145|232:184,1,67.5,2|0,0:0|0:0,0:0:0:0:
280,278,6697,6,0,P|289:246|310:225,1,45,2|0,1:2|0:0,0:0:0:0:
55,207,6970,2,0,P|48:173|30:159,1,45,0|0,1:0|0:0,0:0:0:0:
465,100,7242,2,0,P|470:69|487:48,1,45,0|0,1:0|0:0,0:0:0:0:
225,11,7515,6,0,L|242:115,1,89.9999999999999,4|2,1:2|0:0,0:0:0:0:
249,126,7879,1,2,0:0:0:0:
237,124,7970,1,2,0:0:0:0:
225,122,8060,1,2,0:0:0:0:
433,267,8333,5,10,0:0:0:0:
368,317,8470,2,0,L|364:339,2,22.5,0|0|0,3:0|3:0|1:0,0:0:0:0:
306,252,8742,5,0,1:0:0:0:
243,303,8879,1,2,1:2:0:0:
200,270,9015,1,0,1:0:0:0:
179,287,9151,2,0,L|97:297,1,72,12|0,0:0|0:0,0:0:0:0:
164,40,9424,5,2,0:0:0:0:
221,103,9560,1,2,0:0:0:0:
214,159,9697,1,2,0:0:0:0:
192,179,9833,1,2,0:0:0:0:
112,153,9970,6,0,P|155:163|182:222,1,72,10|0,0:0|0:0,0:0:0:0:
381,359,10242,2,0,P|424:349|451:290,1,72,2|0,0:0|0:0,0:0:0:0:
220,233,10515,5,2,0:0:0:0:
231,228,10651,1,0,0:0:0:0:
261,251,10788,2,0,L|238:353,1,72,10|0,0:0|0:0,0:0:0:0:
9,314,11060,5,2,0:0:0:0:
80,363,11197,1,2,0:0:0:0:
134,344,11333,1,2,0:0:0:0:
147,318,11470,1,2,0:0:0:0:
96,249,11606,5,10,0:0:0:0:
81,253,11697,1,2,0:0:0:0:
67,248,11788,1,2,0:0:0:0:
59,236,11879,1,2,0:0:0:0:
106,166,12015,5,0,0:0:0:0:
183,129,12151,1,8,0:0:0:0:
258,171,12288,1,2,0:0:0:0:
267,256,12424,5,10,0:0:0:0:
398,149,12560,1,2,0:0:0:0:
341,202,12697,1,2,0:0:0:0:
345,216,12788,1,2,0:0:0:0:
356,226,12879,1,2,0:0:0:0:
372,226,12970,1,2,0:0:0:0:
398,149,13106,1,2,0:0:0:0:
294,62,13242,6,0,L|209:52,1,72,10|0,0:0|0:0,0:0:0:0:
14,193,13515,2,0,P|58:171|116:196,1,72,2|0,1:2|0:0,0:0:0:0:
278,279,13788,2,0,P|220:257|175:286,1,72,2|0,1:2|0:0,0:0:0:0:
15,363,14060,2,0,L|89:353,1,67.4999999999999,4|0,1:2|1:0,0:0:0:0:
114,161,20197,6,0,L|80:172,2,36,0|0|0,3:0|3:0|1:0,0:0:0:0:
161,242,20470,1,0,1:0:0:0:
174,229,20606,2,0,B|164:280|164:280|176:304|176:304|163:372,1,125.999996154785,12|0,0:0|0:0,0:0:0:0:
258,258,21015,2,0,P|299:241|343:270,1,62.9999980773926,0|0,1:0|0:0,0:0:0:0:
488,243,21288,1,2,0:0:0:0:
500,231,21424,2,0,P|459:185|399:198,2,125.999996154785,10|8|2,0:0|0:0|1:2,0:0:0:0:
330,147,22242,6,0,P|325:115|315:86,1,62.9999980773926,10|0,0:0|0:0,0:0:0:0:
228,128,22515,1,0,0:0:0:0:
228,128,22651,2,0,L|154:115,2,62.9999980773926,2|2|0,1:2|0:0|0:0,0:0:0:0:
96,250,23060,2,0,B|63:256|63:256|42:235,1,62.9999980773926,10|0,0:0|0:0,0:0:0:0:
38,221,23333,2,0,B|70:214|70:214|91:235,1,62.9999980773926,10|0,0:0|0:0,0:0:0:0:
229,370,23606,6,0,L|214:304,1,62.9999980773926,2|0,1:2|0:0,0:0:0:0:
210,290,23879,2,0,B|263:297|263:297|288:279|288:279|342:286,1,125.999996154785,10|0,0:0|0:0,0:0:0:0:
415,233,24288,2,0,L|484:223,1,62.9999980773926,0|0,1:0|0:0,0:0:0:0:
228,136,24560,1,2,0:0:0:0:
238,121,24697,2,0,P|299:112|336:162,2,125.999996154785,10|8|2,0:0|0:0|1:2,0:0:0:0:
120,270,25515,2,0,P|117:238|107:209,1,62.9999980773926,10|0,0:0|0:0,0:0:0:0:
118,196,25788,6,0,P|128:228|130:273,1,62.9999980773926,2|0,0:0|1:0,0:0:0:0:
310,323,26060,2,0,B|258:288|258:288|198:310,1,125.999996154785,2|10,0:0|0:0,0:0:0:0:
196,322,26470,1,2,0:0:0:0:
194,334,26606,1,10,0:0:0:0:
435,206,26879,5,2,1:2:0:0:
432,193,27015,1,2,0:0:0:0:
429,180,27151,2,0,L|450:72,2,62.9999980773926,10|0|2,0:0|0:0|0:0,0:0:0:0:
351,224,27560,2,0,L|363:285,1,62.9999980773926,0|0,1:0|0:0,0:0:0:0:
264,258,27833,5,2,0:0:0:0:
264,258,27970,2,0,B|220:250|220:250|193:268|193:268|124:256,2,125.999996154785,10|8|2,0:0|0:0|1:2,0:0:0:0:
55,89,28788,6,0,P|112:40|182:80,1,125.999996154785,10|0,0:0|0:0,0:0:0:0:
228,100,29197,2,0,L|318:111,1,62.9999980773926,2|0,1:2|0:0,0:0:0:0:
471,96,29470,5,2,0:0:0:0:
471,96,29606,2,0,P|462:55|442:28,1,62.9999980773926,10|0,0:0|0:0,0:0:0:0:
378,146,29879,2,0,P|362:173|357:204,1,62.9999980773926,10|0,0:0|0:0,0:0:0:0:
468,336,30151,6,0,L|394:322,1,62.9999980773926,2|0,1:2|0:0,0:0:0:0:
271,224,30424,2,0,P|185:242|184:311,1,125.999996154785,10|0,0:0|0:0,0:0:0:0:
103,223,30833,2,0,L|23:211,2,62.9999980773926,2|2|0,1:2|0:0|0:0,0:0:0:0:
87,12,31242,6,0,P|59:41|46:79,1,80.9999975280763,10|0,0:0|0:0,0:0:0:0:
157,148,31515,2,0,P|146:119|148:88,1,62.9999980773926,10|0,0:0|0:0,0:0:0:0:
249,111,31788,2,0,P|289:143|315:144,1,45,2|0,1:2|0:0,0:0:0:0:
325,64,32060,6,0,B|373:56|373:56|389:29|389:29|463:15,1,125.999996154785,10|12,0:0|0:0,0:0:0:0:
449,111,32470,1,2,3:2:0:0:
449,111,32538,1,2,3:2:0:0:
449,111,32606,2,0,P|469:137|476:164,2,41.9999987182618,12|4|4,3:0|3:0|3:0,0:0:0:0:
378,197,32879,2,0,P|361:224|355:252,2,41.9999987182618,10|4|4,3:0|3:0|3:0,0:0:0:0:
483,267,33151,5,2,3:2:0:0:
494,275,33242,1,2,3:2:0:0:
500,290,33333,1,2,3:2:0:0:
422,320,33424,1,12,3:3:0:0:
13,337,33697,6,0,P|104:277|159:335,1,161.999995056153,12|0,0:0|0:0,0:0:0:0:
121,195,34106,2,0,P|99:168|57:165,1,80.9999975280763,0|0,1:0|0:0,0:0:0:0:
207,235,34379,1,2,0:0:0:0:
207,235,34515,2,0,B|287:196|291:271|366:239,2,161.999995056153,10|8|0,0:0|0:0|1:0,0:0:0:0:
427,21,35333,6,0,P|472:100|380:142,1,161.999995056153,10|0,0:0|0:0,0:0:0:0:
478,217,35742,2,0,B|487:252|487:252|480:266|480:266|495:315,1,80.9999975280763,2|0,1:2|0:0,0:0:0:0:
266,148,36015,5,2,0:0:0:0:
260,133,36151,2,0,B|274:134|295:116|295:116|302:137|319:151,1,80.9999975280763,10|0,0:0|0:0,0:0:0:0:
200,243,36424,2,0,B|195:230|169:220|169:220|184:204|187:182,1,80.9999975280763,10|0,0:0|0:0,0:0:0:0:
329,238,36697,2,0,B|321:249|326:276|326:276|304:271|284:280,1,80.9999975280763,2|0,1:2|0:0,0:0:0:0:
28,87,36970,6,0,B|93:99|93:99|126:79|126:79|236:100,1,161.999995056153,10|0,0:0|0:0,0:0:0:0:
109,127,37379,1,0,1:0:0:0:
90,153,37515,1,2,0:0:0:0:
96,184,37651,1,0,0:0:0:0:
116,205,37788,2,0,L|168:214,2,40.4999987640381,10|2|2,0:0|0:0|0:0,0:0:0:0:
0,340,38060,6,0,P|39:276|114:296,1,161.999995056153,10|2,0:0|1:2,0:0:0:0:
158,360,38470,1,2,0:0:0:0:
253,273,38606,2,0,B|295:311|279:371|279:371|303:336|348:315,1,161.999995056153,10|0,0:0|0:0,0:0:0:0:
382,281,39015,2,0,P|417:277|450:346,1,80.9999975280763,2|0,1:2|0:0,0:0:0:0:
395,363,39288,5,2,0:0:0:0:
250,149,39424,2,0,B|272:90|272:90|278:138,1,99.0000030212403,10|0,0:0|0:0,0:0:0:0:
301,211,39697,2,0,P|226:230|173:173,1,161.999995056153,10|2,0:0|1:2,0:0:0:0:
177,134,40106,5,0,1:0:0:0:
184,119,40242,2,0,L|69:141,1,80.9999975280763,10|0,0:0|0:0,0:0:0:0:
23,237,40515,1,2,0:0:0:0:
33,249,40651,1,0,1:0:0:0:
36,264,40788,2,0,P|83:260|120:321,1,80.9999975280763,2|0,0:0|0:0,0:0:0:0:
230,366,41060,2,0,P|334:369|354:297,2,161.999995056153,10|8|0,0:0|0:0|1:0,0:0:0:0:
358,314,41742,5,2,0:0:0:0:
441,345,41879,2,0,B|429:272|429:272|403:246|403:246|392:180,1,161.999995056153,10|0,0:0|0:0,0:0:0:0:
485,196,42288,2,0,P|491:156|470:122,1,80.9999975280763,2|0,1:2|0:0,0:0:0:0:
280,22,42560,5,2,0:0:0:0:
280,22,42697,2,0,P|246:67|254:136,1,80.9999975280763,10|0,0:0|0:0,0:0:0:0:
346,214,42970,2,0,P|324:162|260:134,1,80.9999975280763,10|0,0:0|0:0,0:0:0:0:
147,173,43242,2,0,P|202:179|258:138,1,80.9999975280763,2|0,1:2|0:0,0:0:0:0:
312,363,43515,6,0,P|293:277|191:294,1,161.999995056153,10|0,0:0|0:0,0:0:0:0:
215,272,43924,1,0,1:0:0:0:
143,321,44060,2,0,L|37:304,1,80.9999975280763,2|0,0:0|0:0,0:0:0:0:
22,144,44333,2,0,B|81:129|81:129|116:155|116:155|204:133,1,161.999995056153,10|8,0:0|0:0,0:0:0:0:
286,85,44742,1,2,0:0:0:0:
295,71,44879,2,0,P|295:31|271:0,1,80.9999975280763,2|0,1:2|0:0,0:0:0:0:
369,183,45151,6,0,P|441:203|478:138,1,161.999995056153,10|2,0:0|0:0,0:0:0:0:
361,168,45560,1,0,1:0:0:0:
358,151,45697,1,2,0:0:0:0:
363,135,45833,1,0,1:0:0:0:
413,5,45970,6,0,P|431:59|423:113,1,80.9999975280763,12|0,0:0|0:0,0:0:0:0:
279,228,46242,2,0,P|261:174|269:120,1,80.9999975280763,12|0,0:0|0:0,0:0:0:0:
67,334,46515,2,0,P|127:329|137:249,1,80.9999975280763,12|0,0:0|0:0,0:0:0:0:
0,143,46788,6,0,P|102:202|64:273,1,198.000006042481,12|2,0:0|0:0,0:0:0:0:
219,297,47197,2,0,B|254:305|254:305|263:318|263:318|313:327,2,80.9999975280763,0|2|0,1:0|0:0|0:0,0:0:0:0:
360,377,47606,6,0,P|394:320|388:271,1,80.9999975280763,10|0,0:0|0:0,0:0:0:0:
287,210,47879,2,0,P|253:153|259:104,1,80.9999975280763,10|0,0:0|0:0,0:0:0:0:
474,37,48151,2,0,B|501:20|501:20|483:65,1,80.9999975280763,2|0,1:2|0:0,0:0:0:0:
404,76,48424,2,0,B|307:127|300:14|193:74,1,198.000006042481,12|2,0:0|0:0,0:0:0:0:
68,185,48833,2,0,P|33:150|-26:142,2,80.9999975280763,0|2|0,1:0|0:0|0:0,0:0:0:0:
238,245,49242,2,0,B|196:235|196:235|134:284,1,80.9999975280763,10|0,0:0|0:0,0:0:0:0:
10,306,49515,2,0,P|41:330|81:330,1,80.9999975280763,10|0,0:0|0:0,0:0:0:0:
388,279,49788,5,2,1:2:0:0:
382,263,49924,1,2,0:0:0:0:
311,300,50060,2,0,P|361:361|452:321,1,161.999995056153,10|10,0:0|0:0,0:0:0:0:
504,198,50470,1,0,1:0:0:0:
504,198,50606,2,0,L|490:108,1,80.9999975280763,2|0,0:0|0:0,0:0:0:0:
399,144,50879,6,0,L|333:130,2,53.9999983520508,10|8|8,0:0|0:0|0:0,0:0:0:0:
479,103,51151,2,0,L|491:183,1,80.9999975280763,4|0,1:2|0:0,0:0:0:0:
349,241,51424,6,0,P|304:252|276:304,1,80.9999975280763,12|0,0:3|0:0,0:0:0:0:
414,349,51697,2,0,P|372:270|268:318,1,198.000006042481,4|0,1:2|0:0,0:0:0:0:
137,177,52106,1,2,1:2:0:0:
137,177,52242,2,0,P|116:124|70:110,1,80.9999975280763,10|0,0:0|0:0,0:0:0:0:
54,181,52515,6,0,B|182:252|208:109|348:182,1,297.000009063721,12|0,0:0|0:0,0:0:0:0:
423,165,53060,1,0,1:0:0:0:
412,137,53197,1,0,1:0:0:0:
326,192,53333,6,0,B|319:244|319:244|337:281|337:281|326:356,1,161.999995056153,12|2,0:0|0:0,0:0:0:0:
251,295,53742,2,0,P|192:267|142:303,1,80.9999975280763,0|0,1:0|0:0,0:0:0:0:
40,330,54015,1,2,0:0:0:0:
49,343,54151,2,0,B|89:348|89:348|118:321,1,80.9999975280763,10|0,0:0|0:0,0:0:0:0:
216,178,54424,6,0,P|208:136|177:84,1,80.9999975280763,10|0,0:0|0:0,0:0:0:0:
39,199,54697,2,0,P|68:172|108:172,1,80.9999975280763,2|0,1:2|0:0,0:0:0:0:
399,124,54970,2,0,P|351:53|262:100,1,161.999995056153,10|2,0:0|0:0,0:0:0:0:
340,185,55379,1,0,1:0:0:0:
340,185,55515,2,0,P|322:221|315:261,1,80.9999975280763,2|0,0:0|0:0,0:0:0:0:
452,342,55788,2,0,L|346:323,1,80.9999975280763,10|0,0:0|0:0,0:0:0:0:
122,352,56060,6,0,P|188:277|240:303,1,161.999995056153,10|2,0:0|1:2,0:0:0:0:
241,307,56470,1,2,1:2:0:0:
150,264,56606,2,0,P|136:200|231:216,1,161.999995056153,12|2,0:0|0:0,0:0:0:0:
380,172,57015,1,0,1:0:0:0:
373,157,57151,2,0,L|271:146,1,80.9999975280763,2|0,0:0|0:0,0:0:0:0:
150,71,57424,2,0,P|241:77|255:-19,1,161.999995056153,10|10,0:0|0:0,0:0:0:0:
254,14,57833,1,2,0:0:0:0:
344,72,57970,2,0,L|424:80,1,80.9999975280763,2|0,1:2|0:0,0:0:0:0:
219,195,58242,6,0,B|161:209|161:209|143:240|143:240|64:259,1,161.999995056153,10|2,0:0|0:0,0:0:0:0:
88,169,58651,2,0,P|92:120|114:83,1,80.9999975280763,0|0,1:0|0:0,0:0:0:0:
238,274,58924,1,2,0:0:0:0:
222,282,59060,2,0,P|239:318|241:358,1,80.9999975280763,12|0,0:0|0:0,0:0:0:0:
429,226,59333,1,2,1:2:0:0:
422,217,59424,1,0,1:0:0:0:
412,212,59515,1,0,1:0:0:0:
401,212,59606,1,12,0:3:0:0:
267,119,59879,6,0,P|297:105|330:98,1,67.5000025749207,12|2,0:0|0:0,0:0:0:0:
256,192,60220,12,12,61515,0:0:0:0:
303,177,62606,5,4,0:3:0:0:
152,172,62879,2,0,L|208:156,1,36,12|0,1:3|0:0,0:0:0:0:
374,201,63151,2,0,P|329:103|236:142,1,198.000006042481,12|2,0:0|0:0,0:0:0:0:
323,310,63560,1,0,1:0:0:0:
323,310,63697,2,0,L|267:294,1,36,2|0,0:0|0:0,0:0:0:0:
64,365,63970,2,0,B|118:315|105:243|105:243|124:315|227:347,1,215.999993408203,10|8,0:0|0:0,0:0:0:0:
444,143,64379,5,2,0:0:0:0:
498,200,64515,2,0,B|461:194|461:194|449:178|449:178|388:168,1,99.0000030212403,2|0,1:2|0:0,0:0:0:0:
165,90,64788,2,0,P|208:2|308:51,1,198.000006042481,10|2,0:0|0:0,0:0:0:0:
309,185,65197,1,0,1:0:0:0:
320,174,65333,2,0,P|279:132|211:176,1,99.0000030212403,2|0,0:0|0:0,0:0:0:0:
4,290,65606,2,0,B|89:333|117:234|214:299,2,198.000006042481,10|10|2,0:0|0:0|1:2,0:0:0:0:
477,44,66424,6,0,P|451:126|328:88,1,198.000006042481,10|0,0:0|0:0,0:0:0:0:
293,67,66833,2,0,B|255:59|255:59|247:42|247:42|182:28,1,99.0000030212403,0|0,1:0|0:0,0:0:0:0:
27,148,67106,1,2,0:0:0:0:
27,148,67242,2,0,B|78:112|78:112|160:143,1,99.0000030212403,10|0,0:0|0:0,0:0:0:0:
259,222,67515,2,0,B|286:240|286:240|268:159,1,99.0000030212403,10|0,0:0|0:0,0:0:0:0:
113,275,67788,2,0,B|106:312|106:312|117:330|117:330|109:381,1,99.0000030212403,2|0,1:2|0:0,0:0:0:0:
462,357,68060,6,0,P|414:278|307:335,1,198.000006042481,10|2,0:0|0:0,0:0:0:0:
384,354,68470,1,0,1:0:0:0:
488,223,68606,2,0,P|424:224|407:278,1,99.0000030212403,2|0,0:0|0:0,0:0:0:0:
224,355,68879,2,0,B|193:327|193:327|252:343,1,99.0000030212403,10|0,0:0|0:0,0:0:0:0:
161,168,69151,5,10,0:0:0:0:
280,234,69288,1,0,1:0:0:0:
264,245,69424,2,0,B|288:196|288:196|252:155,1,99.0000030212402,2|0,1:2|1:0,0:0:0:0:
161,168,69697,2,0,B|279:171|223:104|344:112,1,198.00000604248,12|2,0:0|0:0,0:0:0:0:
460,176,70106,1,0,1:0:0:0:
428,95,70242,2,0,L|422:48,1,36,2|0,0:0|0:0,0:0:0:0:
460,176,70515,6,0,B|466:237|466:237|490:257|490:257|496:325|496:325|456:278,2,198.000006042481,10|8|2,0:0|0:0|1:2,0:0:0:0:
64,249,71333,6,0,P|139:158|209:198,1,198.000006042481,10|2,0:0|0:0,0:0:0:0:
143,238,71742,1,0,1:0:0:0:
142,127,71879,2,0,L|147:70,1,36,2|0,0:0|0:0,0:0:0:0:
143,238,72151,2,0,B|138:280|138:280|148:296|148:296|143:355,1,99.0000030212403,10|0,0:0|0:0,0:0:0:0:
434,343,72424,2,0,P|396:307|314:350,1,99.0000030212403,10|0,0:0|0:0,0:0:0:0:
236,362,72697,2,0,L|271:356,1,36,2|0,1:2|0:0,0:0:0:0:
475,159,72970,6,0,B|414:148|414:148|460:185,1,99.0000030212403,12|0,0:0|0:0,0:0:0:0:
359,234,73242,1,2,0:0:0:0:
365,215,73379,1,0,1:0:0:0:
335,142,73515,2,0,B|294:145|294:145|277:158|277:158|211:162,1,99.0000030212403,2|0,0:0|0:0,0:0:0:0:
90,35,73788,6,0,P|134:44|144:142,1,99.0000030212403,12|0,0:0|0:0,0:0:0:0:
141,301,74060,1,2,0:0:0:0:
90,238,74197,1,0,1:0:0:0:
90,238,74333,2,0,B|149:213|149:213|216:252,1,99.0000030212403,2|0,1:2|0:0,0:0:0:0:
276,119,74606,6,0,P|265:73|246:49,1,62.9999980773926,12|0,0:0|0:0,0:0:0:0:
361,219,74879,2,0,P|406:232|441:226,1,72,2|0,1:2|0:0,0:0:0:0:
224,240,75151,2,0,P|189:272|177:308,1,80.9999975280763,2|0,1:2|0:0,0:0:0:0:
278,134,75424,5,2,1:2:0:0:
228,195,75560,1,8,0:0:0:0:
259,245,75697,1,2,1:2:0:0:
298,241,75833,1,8,0:0:0:0:
308,224,75970,1,2,1:2:0:0:
300,209,76106,1,0,1:0:0:0:
340,313,76242,6,0,B|381:300|394:246|394:246|382:329|420:365,1,215.999993408203,12|2,0:0|0:0,0:0:0:0:
256,328,76651,1,0,1:0:0:0:
256,328,76788,2,0,L|197:338,1,36,2|0,0:0|0:0,0:0:0:0:
6,309,77060,2,0,P|88:281|103:401,1,198.000006042481,10|8,0:0|0:0,0:0:0:0:
11,325,77470,1,2,0:0:0:0:
75,267,77606,2,0,P|70:199|-1:175,1,99.0000030212403,2|0,1:2|0:0,0:0:0:0:
162,27,77879,6,0,P|134:127|258:124,1,198.000006042481,10|2,0:0|0:0,0:0:0:0:
286,126,78288,1,0,1:0:0:0:
295,119,78424,2,0,B|339:126|339:126|357:113|357:113|426:124,1,99.0000030212403,2|0,0:0|0:0,0:0:0:0:
165,271,78697,2,0,B|104:249|104:249|54:279,1,99.0000030212403,10|0,0:0|0:0,0:0:0:0:
346,361,78970,5,4,1:3:0:0:
412,305,79106,1,4,1:3:0:0:
487,349,79242,1,2,1:2:0:0:
197,343,79515,6,0,P|256:251|347:317,1,198.000006042481,10|2,0:0|0:0,0:0:0:0:
385,202,79924,2,0,B|424:208|424:208|441:227|441:227|502:236,1,99.0000030212403,0|0,1:0|0:0,0:0:0:0:
233,154,80197,1,2,0:0:0:0:
242,165,80333,2,0,P|290:161|323:125,1,99.0000030212403,10|0,0:0|0:0,0:0:0:0:
118,9,80606,5,2,1:2:0:0:
109,26,80742,1,2,1:2:0:0:
131,58,80879,1,10,0:0:0:0:
100,119,81015,1,10,0:0:0:0:
142,185,81151,1,2,1:2:0:0:
76,242,81424,6,0,L|56:297,3,49.5000015106202,2|0|0|0,3:2|3:0|3:0|3:0,0:0:0:0:
142,185,81697,2,0,B|206:165|206:165|263:206,1,99.0000030212403,12|0,0:0|0:0,0:0:0:0:
479,316,81970,2,0,B|378:337|389:243|295:261,1,198.000006042481,12|0,0:0|0:0,0:0:0:0:
438,69,82515,6,0,P|443:52|453:37,1,36,10|0,0:0|0:0,0:0:0:0:
343,82,82788,1,12,0:0:0:0:
362,103,82924,1,2,0:0:0:0:
368,130,83060,1,0,0:0:0:0:
347,181,83197,5,0,1:0:0:0:
320,191,83333,2,0,P|295:193|274:182,1,36,2|0,0:0|0:0,0:0:0:0:
84,328,83606,2,0,P|134:245|241:296,2,198.000006042481,10|10|2,0:0|0:0|1:2,0:0:0:0:
230,277,84288,5,2,0:0:0:0:
276,344,84424,2,0,B|320:351|320:351|334:367|334:367|392:376,1,99.0000030212403,10|0,0:0|0:0,0:0:0:0:
503,233,84697,1,2,0:0:0:0:
492,222,84833,2,0,P|440:214|395:274,1,99.0000030212403,0|0,1:0|0:0,0:0:0:0:
227,173,85106,1,2,0:0:0:0:
227,173,85242,2,0,P|309:186|329:47,2,198.000006042481,10|8|2,0:0|0:0|1:2,0:0:0:0:
147,103,85924,5,0,1:0:0:0:
132,89,86060,2,0,B|88:120|18:111|18:111|80:117|125:168,1,198.000006042481,10|2,0:0|0:0,0:0:0:0:
140,214,86470,2,0,P|104:254|134:337,2,99.0000030212403,0|2|0,1:0|0:0|0:0,0:0:0:0:
473,324,86879,6,0,B|422:360|422:360|340:329,1,99.0000030212403,12|0,0:0|0:0,0:0:0:0:
227,311,87151,2,0,B|197:294|197:294|223:376,1,99.0000030212403,12|0,0:0|0:0,0:0:0:0:
338,210,87424,2,0,B|345:173|345:173|334:155|334:155|342:104,1,99.0000030212403,4|0,1:2|0:0,0:0:0:0:
409,55,87697,2,0,B|466:79|466:79|391:97,1,99.0000030212403,12|0,0:0|0:0,0:0:0:0:
212,51,87970,6,0,L|139:69,2,66.0000020141602,0|0|0,1:0|1:0|1:0,0:0:0:0:
284,97,88242,1,12,0:3:0:0:
300,125,88333,1,4,0:3:0:0:
294,157,88424,1,4,0:3:0:0:
269,179,88515,2,0,B|248:195|229:209|229:209|281:226|327:245,1,144,12|0,0:0|0:0,0:0:0:0:
138,327,89333,6,0,P|126:290|89:261,2,72,2|2|0,0:0|0:0|0:0,0:0:0:0:
317,241,90151,2,0,P|329:203|366:174,2,72,2|2|0,0:0|0:0|0:0,0:0:0:0:
229,80,90970,5,2,0:0:0:0:
145,36,91242,1,10,0:0:0:0:
82,106,91515,1,10,0:0:0:0:
236,68,91788,5,10,0:0:0:0:
130,216,92333,6,0,L|175:209,3,26.9999991760254,2|0|0|0,0:0|3:0|3:0|3:0,0:0:0:0:
236,217,92606,2,0,L|112:239,1,107.999996704102,12|0,0:0|0:0,0:0:0:0:
170,93,93151,6,0,P|191:119|195:151,1,53.9999983520508,2|0,0:0|0:0,0:0:0:0:
11,331,93424,2,0,B|79:305|79:305|140:349,1,107.999996704102,2|0,1:2|0:0,0:0:0:0:
32,270,93970,6,0,P|11:296|7:328,1,53.9999983520508,2|0,0:0|0:0,0:0:0:0:
188,359,94242,2,0,L|315:346,2,107.999996704102,10|2|0,0:0|0:0|0:0,0:0:0:0:
356,290,95060,1,2,1:2:0:0:
356,290,95606,6,0,P|376:247|361:207,1,53.9999983520508,2|0,0:0|0:0,0:0:0:0:
482,381,95879,2,0,B|415:354|415:354|366:382,1,107.999996704102,10|0,0:0|0:0,0:0:0:0:
206,203,96424,6,0,L|219:271,1,53.9999983520508,2|0,0:0|0:0,0:0:0:0:
78,361,96697,2,0,P|132:363|162:286,1,107.999996704102,2|0,1:2|0:0,0:0:0:0:
71,153,97242,1,2,0:0:0:0:
71,153,97515,6,0,L|153:138,1,53.9999983520508,10|0,0:0|0:0,0:0:0:0:
204,127,97788,2,0,L|286:112,1,53.9999983520508,2|0,0:0|0:0,0:0:0:0:
337,103,98060,2,0,L|392:91,2,35.9999989013672,2|2|2,0:0|0:0|0:0,0:0:0:0:
329,88,98333,6,0,L|318:178,1,53.9999983520508,2|0,1:2|0:0,0:0:0:0:
442,212,98606,2,0,L|453:302,1,53.9999983520508,2|0,0:0|0:0,0:0:0:0:
302,297,98879,2,0,L|291:387,1,53.9999983520508,2|0,0:0|0:0,0:0:0:0:
237,246,99151,6,0,B|194:256|194:256|183:273|183:273|122:286,1,107.999996704102,10|0,0:0|0:0,0:0:0:0:
68,384,99697,2,0,L|76:323,1,53.9999983520508,2|0,0:0|0:0,0:0:0:0:
40,159,99970,2,0,P|110:173|125:248,1,107.999996704102,2|0,1:2|0:0,0:0:0:0:
186,119,100515,6,0,L|266:101,1,53.9999983520508,2|0,0:0|0:0,0:0:0:0:
321,42,100788,6,0,P|347:79|349:124,1,53.9999983520508,10|0,0:0|0:0,0:0:0:0:
439,152,101060,2,0,P|431:196|409:221,1,45,2|0,0:0|0:0,0:0:0:0:
473,278,101333,2,0,P|436:304|422:305,1,36,2|0,0:0|0:0,0:0:0:0:
365,353,101606,5,2,1:2:0:0:
353,307,101742,1,2,0:0:0:0:
312,282,101879,1,10,0:0:0:0:
266,292,102015,1,2,0:0:0:0:
189,336,102151,5,10,0:0:0:0:
184,322,102288,1,2,1:2:0:0:
180,308,102424,2,0,L|123:298,2,36,10|0|0,0:0|3:0|0:0,0:0:0:0:
82,152,102970,6,0,L|30:165,1,53.9999983520508,2|0,0:0|0:0,0:0:0:0:
150,86,103242,2,0,B|196:92|196:92|209:110|209:110|264:116,1,107.999996704102,2|0,1:2|0:0,0:0:0:0:
471,93,103788,6,0,P|448:125|445:154,1,53.9999983520508,2|0,0:0|0:0,0:0:0:0:
336,159,104060,2,0,P|377:227|343:286,2,107.999996704102,10|2|2,0:0|0:0|0:0,0:0:0:0:
183,337,104879,5,2,1:2:0:0:
245,283,105151,2,0,L|306:291,1,53.9999983520508,10|0,0:0|0:0,0:0:0:0:
450,339,105697,6,0,L|439:258,1,53.9999983520508,2|0,0:0|0:0,0:0:0:0:
353,221,105970,2,0,L|360:167,1,53.9999983520508,2|0,0:0|0:0,0:0:0:0:
452,74,106242,2,0,B|471:88|471:88|413:97,2,53.9999983520508,2|0|0,0:0|0:0|0:0,0:0:0:0:
369,43,106651,2,0,B|329:49|329:49|314:66|314:66|246:76,1,107.999996704102,2|0,0:0|0:0,0:0:0:0:
32,344,107060,6,0,L|41:290,1,53.9999983520508,2|0,0:0|0:0,0:0:0:0:
35,276,107333,2,0,B|88:260|88:260|131:289,1,107.999996704102,2|0,0:0|0:0,0:0:0:0:
277,363,107742,1,2,0:0:0:0:
353,349,107879,2,0,L|423:337,1,53.9999983520508,2|0,0:0|0:0,0:0:0:0:
464,278,108151,5,2,0:0:0:0:
440,194,108424,1,2,0:0:0:0:
459,182,108697,1,2,0:0:0:0:
483,98,108970,5,2,0:0:0:0:
379,135,109242,1,2,0:0:0:0:
138,365,109788,5,2,0:0:0:0:
34,328,110060,1,2,0:0:0:0:
285,42,110606,6,0,L|298:120,1,53.9999983520508,2|0,0:0|0:0,0:0:0:0:
229,147,110879,5,2,0:0:0:0:
224,168,111015,1,2,0:0:0:0:
302,206,111151,5,2,0:0:0:0:
307,227,111288,1,2,0:0:0:0:
225,254,111424,6,0,L|180:267,2,26.9999991760254,2|2|0,0:0|0:0|0:0,0:0:0:0:
293,310,111697,5,2,0:0:0:0:
237,370,111833,1,2,0:0:0:0:
306,324,111970,2,0,L|384:337,1,53.9999983520508,2|0,3:2|0:0,0:0:0:0:
18,366,112242,6,0,P|62:303|144:363,1,144,10|0,0:0|0:0,0:0:0:0:
377,210,112788,6,0,L|370:165,1,45,2|0,0:0|0:0,0:0:0:0:
496,279,113060,2,0,B|445:268|445:268|424:237|424:237|342:218,1,144,10|0,0:0|0:0,0:0:0:0:
90,132,113606,6,0,L|83:177,1,45,2|0,0:0|0:0,0:0:0:0:
2,263,113879,2,0,P|69:308|150:273,1,144,10|0,0:0|0:0,0:0:0:0:
175,226,114288,1,2,3:2:0:0:
179,175,114424,1,2,1:2:0:0:
157,220,114560,1,2,3:2:0:0:
236,288,114697,5,2,1:2:0:0:
257,285,114833,1,2,3:2:0:0:
337,277,114970,5,2,1:2:0:0:
358,274,115106,1,2,3:2:0:0:
417,207,115242,6,0,P|412:176|403:150,1,53.9999983520508,2|0,1:2|0:0,0:0:0:0:
330,353,115515,2,0,P|335:322|344:296,1,53.9999983520508,0|0,1:0|0:0,0:0:0:0:
251,38,115788,2,0,P|328:30|349:134,1,144,12|0,0:0|0:0,0:0:0:0:
52,199,116333,6,0,L|0:187,1,53.9999983520508,2|0,1:2|0:0,0:0:0:0:
118,264,116606,2,0,B|179:252|179:252|205:269|205:269|285:253,1,144,12|0,0:0|0:0,0:0:0:0:
444,38,117151,6,0,P|427:69|420:131,1,72,10|0,0:0|0:0,0:0:0:0:
334,165,117424,5,2,0:0:0:0:
326,142,117560,1,4,0:3:0:0:
241,107,117697,5,2,0:0:0:0:
249,84,117833,1,2,0:0:0:0:
172,164,117970,5,2,1:2:0:0:
185,204,118106,1,2,0:0:0:0:
108,246,118242,5,2,1:2:0:0:
89,308,118379,1,2,0:0:0:0:
166,360,118515,5,2,1:2:0:0:
230,301,118651,1,2,0:0:0:0:
305,348,118788,2,0,B|385:387|389:312|464:344,1,161.999995056153,4|0,1:2|0:0,0:0:0:0:
372,203,119197,1,2,1:2:0:0:
372,203,119333,2,0,P|338:217|324:289,1,80.9999975280763,2|0,0:0|0:0,0:0:0:0:
466,246,119606,2,0,B|453:179|453:179|467:154|467:154|453:73,2,161.999995056153,10|8|0,0:0|0:0|1:0,0:0:0:0:
75,137,120424,6,0,P|111:77|208:96,1,161.999995056153,10|0,0:0|0:0,0:0:0:0:
269,126,120833,2,0,L|374:111,1,80.9999975280763,2|0,1:2|0:0,0:0:0:0:
157,215,121106,5,2,0:0:0:0:
151,200,121242,2,0,B|165:201|186:183|186:183|193:204|210:218,1,80.9999975280763,10|0,0:0|0:0,0:0:0:0:
91,310,121515,2,0,B|86:297|60:287|60:287|75:271|78:249,1,80.9999975280763,10|0,0:0|0:0,0:0:0:0:
220,305,121788,2,0,B|212:316|217:343|217:343|195:338|175:347,1,80.9999975280763,2|0,1:2|0:0,0:0:0:0:
422,240,122060,6,0,P|347:176|277:258,1,161.999995056153,10|0,0:0|0:0,0:0:0:0:
327,272,122470,2,0,B|350:301|350:301|345:258,1,80.9999975280763,2|0,1:2|0:0,0:0:0:0:
423,46,122742,1,2,0:0:0:0:
423,46,122879,2,0,L|313:65,1,80.9999975280763,10|0,0:0|0:0,0:0:0:0:
228,142,123151,2,0,L|118:123,1,80.9999975280763,10|0,0:0|0:0,0:0:0:0:
81,73,123424,2,0,B|71:31|71:31|119:77,1,80.9999975280763,2|0,1:2|0:0,0:0:0:0:
383,297,123697,5,10,0:0:0:0:
480,258,123833,1,2,0:0:0:0:
377,274,123970,1,2,3:2:0:0:
43,371,124242,6,0,B|48:336|48:336|60:324|60:324|68:275,1,80.9999975280763,2|0,0:0|0:0,0:0:0:0:
248,24,124515,5,10,0:0:0:0:
173,54,124651,1,2,0:0:0:0:
254,46,124788,1,10,0:2:0:0:
46,174,125060,5,2,1:2:0:0:
41,158,125197,1,0,1:0:0:0:
37,142,125333,2,0,P|112:129|150:195,1,161.999995056153,10|0,0:0|0:0,0:0:0:0:
15,320,125742,1,0,1:0:0:0:
5,307,125879,2,0,L|111:290,1,80.9999975280763,2|0,0:0|0:0,0:0:0:0:
339,359,126151,6,0,B|298:371|298:371|240:325,1,80.9999975280763,10|0,0:0|0:0,0:0:0:0:
403,212,126424,2,0,P|441:204|477:222,1,80.9999975280763,10|0,0:0|0:0,0:0:0:0:
292,106,126697,2,0,B|285:73|285:73|292:57|292:57|281:3,1,80.9999975280763,0|0,1:0|0:0,0:0:0:0:
109,213,126970,2,0,P|145:147|232:170,1,161.999995056153,10|0,0:0|0:0,0:0:0:0:
231,170,127379,1,2,1:2:0:0:
122,230,127515,2,0,B|115:263|115:263|122:279|122:279|111:333,1,80.9999975280763,2|0,0:0|0:0,0:0:0:0:
376,374,127788,6,0,P|409:321|401:271,1,80.9999975280763,10|0,0:0|0:0,0:0:0:0:
467,210,128060,2,0,P|450:170|398:139,1,62.9999980773926,10|0,0:0|0:0,0:0:0:0:
441,72,128333,2,0,P|400:54|369:67,1,45,2|0,1:2|0:0,0:0:0:0:
55,150,128606,6,0,B|108:137|152:176|152:176|121:143|120:101,1,161.999995056153,10|0,0:0|0:0,0:0:0:0:
121,110,129015,1,2,1:2:0:0:
83,236,129151,1,2,0:0:0:0:
281,69,129424,6,0,P|237:73|203:114,1,80.9999975280763,12|0,0:0|3:0,0:0:0:0:
83,236,129697,1,0,3:0:0:0:
96,245,129833,1,2,3:2:0:0:
110,329,129970,1,2,1:2:0:0:
99,335,130106,1,0,1:0:0:0:
185,341,130242,6,0,L|245:351,3,40.4999987640381,10|0|0|0,0:0|3:0|3:0|3:0,0:0:0:0:
270,259,130515,2,0,L|330:249,3,40.4999987640381,10|0|0|0,0:0|3:0|3:0|3:0,0:0:0:0:
371,336,130788,2,0,L|431:346,3,40.4999987640381,10|0|0|0,0:0|3:0|3:0|3:0,0:0:0:0:
475,288,131060,6,0,P|457:223|430:203,1,80.9999975280763,12|0,0:0|0:0,0:0:0:0:
437,125,131333,2,0,P|402:95|355:115,1,80.9999975280763,12|0,0:0|0:0,0:0:0:0:
287,60,131606,2,0,P|241:63|243:111,1,80.9999975280763,12|0,0:0|0:0,0:0:0:0:
176,280,131879,6,0,P|190:175|109:156,1,198.000006042481,12|0,0:0|0:0,0:0:0:0:
162,289,132288,2,0,P|220:282|241:325,2,80.9999975280763,0|2|0,1:0|0:0|0:0,0:0:0:0:
67,217,132697,6,0,B|17:200|17:200|74:191,1,80.9999975280763,10|0,0:0|0:0,0:0:0:0:
299,232,132970,2,0,B|349:249|349:249|291:259,1,80.9999975280763,10|0,0:0|0:0,0:0:0:0:
145,75,133242,2,0,P|181:54|245:76,1,80.9999975280763,2|0,1:2|0:0,0:0:0:0:
349,58,133515,2,0,B|243:100|245:-4|136:58,1,198.000006042481,10|0,0:0|0:0,0:0:0:0:
29,202,133924,6,0,P|82:193|115:138,2,80.9999975280763,2|2|0,1:2|0:0|0:0,0:0:0:0:
2,356,134333,2,0,B|36:329|36:329|111:350,1,80.9999975280763,10|0,0:0|0:0,0:0:0:0:
243,259,134606,2,0,P|192:259|153:200,1,80.9999975280763,10|0,0:0|0:0,0:0:0:0:
316,129,134879,1,2,1:2:0:0:
322,143,135015,1,2,0:0:0:0:
328,157,135151,2,0,B|320:216|320:216|331:242|331:242|317:340,1,161.999995056153,10|2,0:0|0:0,0:0:0:0:
482,225,135560,2,0,P|447:204|408:208,1,80.9999975280763,0|0,1:2|0:0,0:0:0:0:
186,248,135833,5,2,0:0:0:0:
225,352,135970,2,0,L|233:287,1,36,10|0,0:0|0:0,0:0:0:0:
244,303,136242,2,0,L|239:338,1,36,10|0,0:0|0:0,0:0:0:0:
50,364,136515,5,2,1:2:0:0:
132,334,136651,1,0,1:0:0:0:
34,351,136788,2,0,P|35:246|126:270,1,198.000006042481,4|0,1:2|0:0,0:0:0:0:
115,262,137197,1,2,1:2:0:0:
30,209,137333,2,0,P|36:156|88:155,1,99.0000030212403,10|0,0:0|0:0,0:0:0:0:
444,211,137606,6,0,B|316:286|300:108|152:193,1,297.000009063721,12|0,0:0|0:0,0:0:0:0:
86,154,138151,1,0,1:0:0:0:
258,341,138424,6,0,P|295:306|279:240,1,80.9999975280763,12|0,0:0|0:0,0:0:0:0:
240,345,138697,1,2,0:0:0:0:
370,234,138833,2,0,P|340:145|243:154,1,161.999995056153,0|0,1:0|0:0,0:0:0:0:
212,183,139242,6,0,B|164:167|164:167|232:156,1,80.9999975280763,10|0,0:0|0:0,0:0:0:0:
352,87,139515,2,0,B|400:103|400:103|332:114,1,80.9999975280763,10|0,0:0|0:0,0:0:0:0:
106,94,139788,2,0,B|112:60|112:60|124:52|124:52|132:11,1,80.9999975280763,2|0,1:2|0:0,0:0:0:0:
118,267,140060,6,0,P|83:180|6:188,1,161.999995056153,10|2,0:0|0:0,0:0:0:0:
24,292,140470,1,0,1:0:0:0:
24,292,140606,2,0,B|30:326|30:326|42:334|42:334|50:375,1,80.9999975280763,2|0,0:0|0:0,0:0:0:0:
227,333,140879,2,0,B|195:359|195:359|196:312,1,80.9999975280763,10|0,0:0|0:0,0:0:0:0:
252,253,141151,2,0,B|321:264|321:264|338:286|338:286|424:299,1,161.999995056153,12|2,0:0|1:2,0:0:0:0:
483,188,141560,5,2,1:2:0:0:
493,202,141697,2,0,P|456:111|366:160,1,161.999995056153,12|0,0:0|0:0,0:0:0:0:
326,146,142106,2,0,L|240:130,2,80.9999975280763,0|2|0,1:0|0:0|0:0,0:0:0:0:
300,327,142515,2,0,P|337:236|427:285,1,161.999995056153,10|10,0:0|0:0,0:0:0:0:
399,247,142924,1,2,0:0:0:0:
309,342,143060,2,0,B|275:346|275:346|266:358|266:358|206:366,1,80.9999975280763,2|0,1:2|0:0,0:0:0:0:
49,222,143333,6,0,P|65:128|119:42,1,161.999995056153,10|0,0:0|0:0,0:0:0:0:
177,216,143742,2,0,P|197:256|202:320,1,80.9999975280763,0|0,1:0|0:0,0:0:0:0:
307,188,144015,1,2,0:0:0:0:
297,174,144151,2,0,P|304:134|323:98,1,80.9999975280763,12|0,0:0|0:0,0:0:0:0:
445,239,144424,1,2,1:2:0:0:
456,249,144515,1,0,1:0:0:0:
463,263,144606,1,0,1:0:0:0:
466,278,144697,1,12,0:3:0:0:
309,342,144970,6,0,P|276:352|246:366,1,67.5000025749207,12|2,0:0|0:0,0:0:0:0:
256,192,145310,12,12,146606,0:0:0:0:
270,238,147697,5,4,0:3:0:0:
107,241,147970,2,0,P|125:239|143:244,1,36,12|0,1:3|0:0,0:0:0:0:
287,330,148242,2,0,B|184:339|200:247|90:259,1,198.000006042481,12|2,0:0|0:0,0:0:0:0:
36,172,148651,5,0,1:0:0:0:
22,185,148788,2,0,L|36:132,1,36,2|0,0:0|0:0,0:0:0:0:
297,75,149060,2,0,P|243:0|154:24,1,198.000006042481,10|8,0:0|0:0,0:0:0:0:
347,196,149470,1,2,0:0:0:0:
447,169,149606,2,0,B|411:177|411:177|392:168|392:168|326:185,1,99.0000030212403,2|0,1:2|0:0,0:0:0:0:
100,361,149879,6,0,B|154:311|141:239|141:239|160:311|263:343,1,215.999993408203,10|2,0:0|0:0,0:0:0:0:
418,351,150288,1,0,1:0:0:0:
422,339,150424,2,0,B|389:320|389:320|332:344,1,99.0000030212402,2|0,0:0|0:0,0:0:0:0:
58,183,150697,2,0,P|146:212|203:138,2,198.000006042481,10|10|2,0:0|0:0|1:2,0:0:0:0:
498,375,151515,6,0,P|441:301|353:330,1,198.000006042481,10|0,0:0|0:0,0:0:0:0:
270,315,151924,2,0,P|221:311|213:384,1,99.0000030212403,0|0,1:0|0:0,0:0:0:0:
48,359,152197,5,2,0:0:0:0:
117,302,152333,2,0,B|110:260|110:260|118:246|118:246|109:191,1,99.0000030212403,10|0,0:0|0:0,0:0:0:0:
21,20,152606,2,0,B|-12:50|-12:50|76:29,1,99.0000030212403,10|0,0:0|0:0,0:0:0:0:
239,113,152879,2,0,B|272:83|272:83|184:104,1,99.0000030212403,2|0,1:2|0:0,0:0:0:0:
40,284,153151,6,0,P|97:358|185:329,1,198.000006042481,10|2,0:0|0:0,0:0:0:0:
256,280,153560,2,0,B|234:222|234:222|229:291,1,99.0000030212403,0|2,1:0|0:0,0:0:0:0:
315,381,153833,1,0,0:0:0:0:
373,319,153970,2,0,B|414:314|414:314|426:300|426:300|492:292,1,99.0000030212403,10|0,0:0|0:0,0:0:0:0:
287,157,154242,2,0,B|333:140|333:140|372:169,1,99.0000030212403,10|0,0:0|3:0,0:0:0:0:
171,325,154515,2,0,P|124:337|83:312,1,99.0000030212403,2|0,1:2|0:0,0:0:0:0:
83,29,154788,6,0,P|199:36|195:155,1,198.000006042481,12|2,0:0|0:0,0:0:0:0:
57,235,155197,1,0,1:0:0:0:
48,154,155333,2,0,L|40:88,1,36,2|0,0:0|0:0,0:0:0:0:
148,206,155606,2,0,B|246:241|248:136|355:183,2,198.000006042481,10|8|2,0:0|0:0|1:2,0:0:0:0:
483,348,156424,6,0,P|450:276|333:355,1,198.000006042481,10|2,0:0|0:0,0:0:0:0:
406,343,156833,1,0,1:0:0:0:
450,249,156970,2,0,L|444:213,1,36,2|0,0:0|0:0,0:0:0:0:
385,145,157242,2,0,B|391:103|391:103|404:90|404:90|415:31,1,99.0000030212403,10|0,0:0|0:0,0:0:0:0:
180,93,157515,2,0,P|227:58|289:93,1,99.0000030212403,10|0,0:0|0:0,0:0:0:0:
188,271,157788,5,2,1:2:0:0:
181,261,157924,1,2,0:0:0:0:
116,306,158060,2,0,L|-14:323,1,99.0000030212403,12|0,0:0|0:0,0:0:0:0:
126,177,158333,5,2,0:0:0:0:
230,223,158470,2,0,B|193:270|193:270|193:231,1,99.0000030212402,0|2,1:0|0:0,0:0:0:0:
117,187,158742,5,2,0:0:0:0:
291,52,158879,2,0,B|298:91|298:91|290:111|290:111|297:149,1,99.0000030212403,12|0,0:0|0:0,0:0:0:0:
472,304,159151,5,2,0:0:0:0:
396,224,159288,1,0,1:0:0:0:
393,232,159424,1,2,1:2:0:0:
388,242,159560,1,0,3:2:0:0:
425,146,159697,6,0,L|486:132,1,62.9999980773926,12|0,0:0|0:0,0:0:0:0:
280,272,159970,2,0,L|358:288,1,72,2|0,1:2|0:0,0:0:0:0:
142,132,160242,2,0,L|225:115,1,80.9999975280763,2|0,1:2|0:0,0:0:0:0:
33,354,160515,5,2,1:2:0:0:
59,259,160651,1,8,0:0:0:0:
130,222,160788,1,2,1:2:0:0:
186,240,160924,1,8,0:0:0:0:
209,272,161060,1,2,1:2:0:0:
211,291,161197,1,0,1:0:0:0:
129,358,161333,6,0,P|223:282|268:380,1,198.000006042481,12|2,0:0|0:0,0:0:0:0:
360,328,161742,2,0,B|387:357|387:357|373:261,1,99.0000030212403,0|2,1:0|0:0,0:0:0:0:
391,109,162015,1,0,0:0:0:0:
475,182,162151,2,0,B|374:203|385:109|291:127,1,198.000006042481,10|8,0:0|0:0,0:0:0:0:
198,47,162560,5,2,0:0:0:0:
96,94,162697,2,0,P|169:61|212:84,1,99.0000030212403,2|0,1:2|0:0,0:0:0:0:
392,329,162970,6,0,P|364:247|239:316,1,198.000006042481,10|2,0:0|0:0,0:0:0:0:
469,217,163379,2,0,P|421:213|387:247,1,99.0000030212403,0|2,1:0|0:0,0:0:0:0:
195,297,163651,1,0,0:0:0:0:
195,297,163788,2,0,L|67:275,1,99.0000030212403,10|0,0:0|0:0,0:0:0:0:
7,11,164060,5,4,1:3:0:0:
68,75,164197,1,4,1:3:0:0:
153,41,164333,1,2,1:2:0:0:
335,325,164606,6,0,P|432:336|400:202,1,198.000006042481,10|2,0:0|0:0,0:0:0:0:
336,160,165015,2,0,P|383:204|412:178,1,99.0000030212403,0|0,1:0|0:0,0:0:0:0:
286,22,165288,1,2,0:0:0:0:
270,15,165424,2,0,B|233:22|233:22|220:36|220:36|147:51,1,99.0000030212403,10|0,0:0|0:0,0:0:0:0:
41,192,165697,6,0,P|79:169|123:177,2,66.0000020141602,2|0|0,1:2|1:0|1:0,0:0:0:0:
99,261,165970,2,0,P|136:269|162:295,2,48,10|8|4,0:0|0:3|0:3,0:0:0:0:
71,344,166242,1,2,1:2:0:0:
71,344,166515,2,0,P|94:365|101:382,3,36,2|0|0|0,3:2|3:0|3:0|3:0,0:0:0:0:
185,349,166788,6,0,L|326:329,1,99.0000030212403,12|0,0:0|0:0,0:0:0:0:
368,347,167060,2,0,B|408:310|408:310|353:286,1,108,12|0,0:0|0:0,0:0:0:0:
364,104,167606,6,0,L|378:55,1,36,10|0,0:0|0:0,0:0:0:0:
182,165,167879,1,12,0:0:0:0:
205,148,168015,1,2,0:0:0:0:
232,146,168151,1,0,0:0:0:0:
284,164,168288,5,0,1:0:0:0:
273,179,168424,2,0,P|262:201|265:225,1,36,2|0,0:0|0:0,0:0:0:0:
205,281,168697,2,0,B|107:316|105:211|-2:258,2,198.000006042481,10|10|2,0:0|0:0|1:2,0:0:0:0:
408,350,169379,5,2,0:0:0:0:
468,289,169515,2,0,B|494:257|494:257|402:289,1,99.0000030212403,10|0,0:0|0:0,0:0:0:0:
262,213,169788,1,2,0:0:0:0:
273,202,169924,2,0,P|325:194|361:257,1,99.0000030212403,0|0,1:0|0:0,0:0:0:0:
496,53,170197,1,2,0:0:0:0:
496,53,170333,2,0,P|442:128|352:104,2,198.000006042481,10|8|2,0:0|0:0|1:2,0:0:0:0:
280,49,171015,5,0,1:0:0:0:
289,32,171151,2,0,B|233:46|203:0|203:0|204:55|141:86,1,198.00000604248,10|2,0:0|0:0,0:0:0:0:
74,131,171560,2,0,B|40:98|40:98|40:93|40:93|71:40,2,99.0000030212402,0|2|0,1:0|0:0|0:0,0:0:0:0:
250,141,171970,6,0,P|288:174|288:222,1,99.0000030212402,12|0,0:0|0:0,0:0:0:0:
42,320,172242,2,0,B|60:294|60:294|127:279,1,99.0000030212402,12|0,0:0|0:0,0:0:0:0:
264,311,172515,2,0,B|239:341|239:341|213:259,1,99.0000030212402,4|0,1:2|0:0,0:0:0:0:
370,147,172788,2,0,B|422:163|422:163|434:183|434:183|485:199,1,132.00000402832,12|0,0:0|0:0,0:0:0:0:
509,105,173060,5,0,1:0:0:0:
495,60,173151,1,0,1:0:0:0:
453,40,173242,1,0,1:0:0:0:
408,53,173333,5,12,0:3:0:0:
413,78,173424,1,4,0:3:0:0:
436,89,173515,1,4,0:3:0:0:
441,64,173606,6,0,B|371:40|326:98|361:94|328:158|242:136,1,215.999993408203,12|0,0:0|0:0,0:0:0:0:
93,62,174424,6,0,P|97:33|131:-5,2,71.9999999999999,2|2|0,0:0|0:0|0:0,0:0:0:0:
256,138,175242,2,0,P|270:174|305:196,2,71.9999999999999,2|2|0,0:0|0:0|0:0,0:0:0:0:
441,64,176060,5,4,1:2:0:0:
335,284,176333,1,2,0:0:0:0:
352,282,176424,1,2,0:0:0:0:
368,274,176515,1,2,0:0:0:0:
375,257,176606,1,2,0:0:0:0:
296,193,176879,5,2,0:0:0:0:
176,377,177151,1,2,0:0:0:0:
21,248,177424,1,2,0:0:0:0:
214,297,177697,2,0,L|165:289,1,45,2|0,0:0|0:0,0:0:0:0:
228,286,177970,1,2,0:0:0:0:
9,144,178242,5,2,0:0:0:0:
159,71,178379,1,0,0:0:0:0:
76,24,178515,1,2,0:0:0:0:
62,40,178651,1,0,0:0:0:0:
63,62,178788,1,0,0:0:0:0:
106,141,178924,5,2,0:0:0:0:
251,66,179060,1,8,1:3:0:0:
207,204,179197,1,4,0:3:0:0:
192,197,179333,2,0,L|202:153,1,45,12|0,0:0|0:0,0:0:0:0:
398,32,179606,5,2,0:0:0:0:
382,26,179697,1,2,0:0:0:0:
365,29,179788,1,2,0:0:0:0:
351,40,179879,1,2,0:0:0:0:
343,56,179970,1,0,0:0:0:0:
344,75,180060,1,0,0:0:0:0:
389,73,180151,5,2,1:2:0:0:
201,153,180424,1,8,0:3:0:0:
512,236,180697,1,4,0:3:0:0:
231,362,180970,2,0,P|229:317|250:278,1,90,12|2,0:0|0:0,0:0:0:0:
263,270,181424,5,2,0:0:0:0:
276,263,181515,2,0,P|295:230|289:187,1,67.4999999999999,2|0,0:0|0:0,0:0:0:0:
343,101,181788,6,0,P|353:138|375:160,1,45,2|0,1:2|0:0,0:0:0:0:
117,231,182060,2,0,P|110:265|92:279,1,45,2|0,1:2|0:0,0:0:0:0:
500,307,182333,2,0,P|505:338|522:359,1,45,2|0,1:2|0:0,0:0:0:0:
250,278,182606,6,0,L|343:257,1,80.9999975280762,4|0,1:2|0:0,0:0:0:0:
407,243,182879,1,2,0:0:0:0:
410,231,182970,1,2,0:0:0:0:
412,219,183060,1,2,0:0:0:0:
414,207,183151,2,0,L|478:193,1,45,2|0,0:0|0:0,0:0:0:0:
507,19,183424,6,0,L|496:66,2,45.0000017166138,10|0|0,0:0|1:0|1:0,0:0:0:0:
410,78,183697,2,0,L|399:125,2,45.0000017166138,2|0|0,1:2|1:0|1:0,0:0:0:0:
329,34,183970,5,12,0:3:0:0:
293,27,184060,1,4,0:3:0:0:
262,45,184151,1,4,0:3:0:0:
241,83,184242,6,0,B|224:128|261:171|264:147|310:160|293:241,1,161.999995056152,12|0,0:0|0:0,0:0:0:0:
215,274,184651,2,0,B|174:269|174:269|200:238,1,80.9999975280762,10|0,0:0|0:0,0:0:0:0:
295,222,184924,1,2,0:0:0:0:
140,380,185060,6,0,P|208:307|308:317,1,207.000003948212,2|0,1:2|0:0,0:0:0:0:
424,197,185470,1,2,0:0:0:0:
499,276,185606,1,10,0:0:0:0:
472,357,185742,2,0,L|409:369,1,51.7500009870529,2|0,3:2|3:0,0:0:0:0:
391,370,185879,5,10,0:0:0:0:
389,342,186015,1,2,0:0:0:0:
402,318,186151,1,2,0:0:0:0:
500,250,186288,2,0,P|511:157|433:111,1,188.999994232178,10|0,0:0|0:0,0:0:0:0:
234,55,186697,5,2,1:2:0:0:
255,145,186833,1,2,0:0:0:0:
347,130,186970,1,10,0:0:0:0:
368,220,187106,2,0,B|315:237|266:199|291:192|253:151|173:189,1,188.999994232178,2|0,0:0|3:0,0:0:0:0:
175,196,187447,5,0,3:0:0:0:
175,196,187515,2,0,B|143:231|143:231|166:287,1,94.4999971160888,10|0,0:0|0:0,0:0:0:0:
69,153,187788,1,2,0:0:0:0:
82,140,187924,2,0,B|50:121|7:125|7:125|57:115|114:51,1,188.999994232178,10|2,0:0|0:0,0:0:0:0:
301,25,188333,6,0,B|251:51|251:51|239:137|239:137|215:144|188:188,1,207.000003948212,2|2,1:2|0:0,0:0:0:0:
142,255,188742,1,2,0:0:0:0:
33,237,188879,2,0,B|86:217|86:217|124:243,1,103.500001974106,10|0,0:0|3:0,0:0:0:0:
142,255,189083,5,0,3:0:0:0:
142,255,189151,2,0,P|153:311|224:332,1,94.4999971160888,10|0,0:0|0:0,0:0:0:0:
331,234,189424,1,2,0:0:0:0:
341,247,189560,2,0,B|346:273|369:301|369:301|305:267|232:263,1,188.999994232178,10|2,0:0|0:0,0:0:0:0:
305,112,189970,6,0,P|284:141|283:176,1,71.9999999999999,4|2,1:2|0:0,0:0:0:0:
150,22,190242,2,0,P|171:66|231:84,1,94.4999971160888,12|2,0:0|0:0,0:0:0:0:
510,86,190515,2,0,P|473:41|413:40,1,116.999994644165,12|2,0:0|0:0,0:0:0:0:
198,179,190788,2,0,P|325:140|399:136,1,188.999994232178,12|2,0:0|0:0,0:0:0:0:
499,264,191197,5,10,0:0:0:0:
475,169,191333,1,2,0:0:0:0:
422,330,191470,1,0,0:0:0:0:
398,235,191606,1,2,1:2:0:0:
398,235,191879,5,10,0:0:0:0:
319,305,192015,1,2,0:0:0:0:
499,264,192151,1,2,0:0:0:0:
422,330,192288,1,0,3:0:0:0:
419,321,192356,1,0,3:0:0:0:
416,312,192424,2,0,B|386:251|419:201|437:220|477:194|449:114,1,188.999994232178,10|2,0:0|0:0,0:0:0:0:
398,52,192833,5,10,0:0:0:0:
350,145,192970,1,2,0:0:0:0:
406,36,193106,1,0,0:0:0:0:
296,59,193242,5,2,1:2:0:0:
456,140,193379,1,2,0:0:0:0:
301,147,193515,5,10,0:0:0:0:
380,187,193651,1,2,0:0:0:0:
225,191,193788,5,10,0:0:0:0:
385,272,193924,1,2,0:0:0:0:
236,374,194060,6,0,B|222:320|262:291|269:307|298:286|300:236,1,161.999995056152,10|0,0:0|0:0,0:0:0:0:
301,223,194333,2,0,P|269:192|225:191,1,89.9999999999999,10|2,0:0|0:0,0:0:0:0:
0,195,194606,2,0,B|12:223|12:223|75:160,1,99.0000030212402,10|2,0:0|0:0,0:0:0:0:
86,27,194879,6,0,P|108:97|181:109,1,155.250002961159,2|0,1:2|0:0,0:0:0:0:
196,100,195151,2,0,B|229:72|229:72|293:81,1,85.4999977169037,10|2,0:0|0:0,0:0:0:0:
511,43,195424,2,0,B|481:49|481:49|464:131,1,85.4999977169037,10|2,0:0|0:0,0:0:0:0:
290,193,195697,6,0,P|297:97|390:74,1,198.00000604248,4|0,1:2|1:0,0:0:0:0:
493,190,196106,1,0,1:0:0:0:
489,209,196242,1,0,1:0:0:0:
486,230,196379,1,0,1:0:0:0:
304,308,196515,6,0,P|311:212|404:189,1,198.00000604248,12|0,0:0|1:0,0:0:0:0:
504,345,196924,1,0,1:0:0:0:
406,279,197060,1,2,1:2:0:0:
397,186,197197,1,0,1:0:0:0:
451,118,197333,5,12,0:0:0:0:
459,89,197470,1,0,1:0:0:0:
445,62,197606,1,2,1:2:0:0:
420,46,197742,5,2,1:2:0:0:
363,109,197879,1,0,1:0:0:0:
397,186,198015,1,2,1:2:0:0:
486,195,198151,2,0,P|388:149|273:136,1,216,12|0,0:0|0:0,0:0:0:0:
170,152,198424,6,0,B|203:154|230:131|230:131|284:189|196:252,1,175.499991966248,12|0,0:0|0:0,0:0:0:0:
95,302,198697,2,0,B|61:293|32:299|32:299|26:259|66:227,1,135,12|0,0:0|0:0,0:0:0:0:
138,232,198970,5,12,0:0:0:0:
252,337,199242,5,2,0:0:0:0:
267,347,199379,2,0,P|299:339|331:327,1,67.5000025749207,0|0,1:0|0:0,0:0:0:0:
444,373,199651,1,2,0:0:0:0:
512,279,199788,2,0,P|454:287|441:399,1,161.999995056152,10|10,0:0|0:0,0:0:0:0:
370,240,200197,1,2,0:0:0:0:
385,229,200333,2,0,P|378:175|362:131,1,80.9999975280762,10|0,0:0|3:0,0:0:0:0:
486,46,200606,6,0,B|404:28|368:85|392:90|355:146|277:134,1,242.999992584228,10|0,0:0|1:0,0:0:0:0:
268,126,201151,2,0,L|295:49,1,80.9999975280762,2|0,0:0|0:0,0:0:0:0:
8,116,201424,5,10,0:0:0:0:
90,139,201697,1,10,0:0:0:0:
172,162,201970,1,2,1:2:0:0:
31,344,202242,6,0,B|24:331|-1:322|-1:322|13:305|17:283,1,80.9999975280763,10|0,0:0|0:0,0:0:0:0:
147,332,202515,1,2,0:0:0:0:
156,340,202651,2,0,B|147:350|151:378|151:378|130:373|109:381,1,80.9999975280763,2|0,1:2|0:0,0:0:0:0:
82,242,202924,1,2,0:0:0:0:
87,231,203060,2,0,B|100:232|121:214|121:214|128:236|145:248,1,80.9999975280763,10|0,0:2|0:0,0:0:0:0:
362,316,203333,6,0,P|277:316|250:396,1,161.999995056152,10|10,0:0|0:0,0:0:0:0:
378,326,203742,1,0,1:0:0:0:
275,286,203879,6,0,P|253:250|265:203,1,80.9999975280762,2|0,1:2|0:0,0:0:0:0:
475,97,204151,2,0,P|477:146|427:192,1,89.9999999999999,10|0,0:0|0:0,0:0:0:0:
169,88,204424,2,0,B|229:88|200:117|264:121,1,99.0000030212402,10|0,0:0|0:0,0:0:0:0:
384,123,204697,2,0,P|293:125|334:44,1,215.999993408203,10|0,0:0|0:0,0:0:0:0:
331,44,205242,6,0,P|380:38|411:0,1,101.250003862381,2|0,0:0|0:0,0:0:0:0:
399,0,205515,2,0,B|296:-15|342:67|218:50,1,180,12|0,0:0|0:0,0:0:0:0:
74,207,205924,1,0,1:0:0:0:
64,221,206060,2,0,P|38:192|51:123,1,89.9999999999999,2|0,0:0|0:0,0:0:0:0:
160,0,206333,5,10,0:0:0:0:
145,79,206606,1,10,0:0:0:0:
130,158,206879,1,2,1:2:0:0:
267,366,207151,6,0,B|169:354|155:294|153:224|213:198|279:240|248:298,1,270,10|0,0:0|1:0,0:0:0:0:
167,329,207697,2,0,B|129:336|129:336|124:344|124:344|65:359,1,89.9999999999999,2|0,0:0|0:0,0:0:0:0:
286,365,207970,2,0,B|335:353|335:353|346:336|346:336|419:317,1,135,10|0,0:0|0:0,0:0:0:0:
424,326,208242,2,0,P|454:294|449:251,1,89.9999999999999,10|2,0:0|1:2,0:0:0:0:
512,71,208788,6,0,P|431:79|387:168,1,180,10|2,0:0|0:0,0:0:0:0:
391,174,209197,2,0,B|435:162|435:162|448:165|448:165|496:154,2,89.9999999999999,0|2|0,1:0|0:0|0:0,0:0:0:0:
149,258,209606,2,0,P|105:253|73:222,1,89.9999999999999,10|0,0:0|0:0,0:0:0:0:
235,301,209879,2,0,P|252:341|241:384,1,89.9999999999999,10|0,0:0|0:0,0:0:0:0:
233,208,210151,2,0,P|259:172|301:160,1,89.9999999999999,2|0,1:2|0:0,0:0:0:0:
79,0,210424,6,0,B|73:59|113:87|112:72|156:93|145:156,1,180,10|2,0:0|0:0,0:0:0:0:
253,35,210833,2,0,B|220:4|220:4|175:11,1,89.9999999999999,0|2,1:0|0:0,0:0:0:0:
78,208,211106,1,2,0:0:0:0:
73,222,211242,2,0,B|105:252|105:252|150:245,1,89.9999999999999,10|2,0:0|0:0,0:0:0:0:
268,126,211515,5,10,0:0:0:0:
233,208,211651,1,0,1:0:0:0:
356,125,211788,5,2,1:2:0:0:
292,274,211924,1,0,1:2:0:0:
494,306,212060,6,0,P|462:230|383:211,1,168.75,12|0,0:0|0:0,0:0:0:0:
365,219,212333,2,0,L|379:295,1,67.5000025749207,2|0,0:0|0:0,0:0:0:0:
304,340,212606,2,0,L|291:273,1,67.5000025749207,12|0,0:3|0:0,0:0:0:0:
128,172,212879,6,0,P|49:153|18:78,1,168.75,12|0,0:0|0:0,0:0:0:0:
65,6,213151,1,8,0:3:0:0:
84,16,213242,1,4,0:3:0:0:
96,34,213333,1,4,0:3:0:0:
99,52,213424,2,0,L|181:33,1,67.5000025749207,4|8,0:3|0:0,0:0:0:0:
256,192,213697,5,12,0:0:0:0:
256,192,213765,12,2,216970,0:0:0:0:
201,282,226788,6,0,P|165:308|120:308,2,89.9999999999999,10|2|2,0:0|0:0|0:0,0:0:0:0:
311,102,227606,2,0,P|346:75|391:75,2,89.9999999999999,10|2|2,0:0|0:0|0:0,0:0:0:0:
158,156,228424,5,10,0:0:0:0:
256,192,228697,5,10,0:0:0:0:
354,228,228970,5,10,0:0:0:0:
154,141,229242,5,2,1:2:0:0:
158,156,229379,1,8,0:0:0:0:
252,177,229515,5,2,1:2:0:0:
256,192,229651,1,8,0:0:0:0:
350,213,229788,5,2,1:2:0:0:
354,228,229924,1,0,1:0:0:0:
219,364,230333,6,0,L|215:348,14,11.25,2|0|0|0|0|0|0|0|0|0|0|0|0|0|0,0:0|0:0|0:0|0:0|0:0|0:0|0:0|0:0|0:0|0:0|0:0|0:0|0:0|0:0|0:0,0:0:0:0:
268,282,230879,2,0,P|210:331|133:323,1,157.5,12|0,0:0|0:0,0:0:0:0:
121,311,231424,6,0,L|111:267,1,36,12|0,1:3|0:0,0:0:0:0:
9,123,231697,2,0,B|85:153|85:153|103:184|103:184|178:210,1,198.00000604248,12|2,0:0|0:0,0:0:0:0:
409,139,232106,1,0,1:0:0:0:
393,135,232242,2,0,L|348:148,1,36,2|0,0:0|0:0,0:0:0:0:
238,295,232515,6,0,B|258:242|316:231|316:231|268:210|265:159,1,198.00000604248,10|8,0:0|0:0,0:0:0:0:
149,90,232924,1,2,0:0:0:0:
196,10,233060,2,0,B|189:50|189:50|173:62|173:62|167:99,1,99.0000030212402,2|0,1:2|0:0,0:0:0:0:
358,144,233333,6,0,P|448:159|492:58,1,198.00000604248,10|2,0:0|0:0,0:0:0:0:
409,249,233742,1,0,1:0:0:0:
426,260,233879,2,0,P|394:296|397:344,1,99.0000030212402,2|0,0:0|0:0,0:0:0:0:
145,307,234151,2,0,B|257:308|213:230|328:237,2,198.00000604248,10|10|2,0:0|0:0|1:2,0:0:0:0:
11,34,234970,6,0,P|120:47|128:140,1,198.00000604248,10|0,0:0|0:0,0:0:0:0:
22,193,235379,2,0,B|30:152|30:152|47:144|47:144|55:106,1,99.0000030212403,0|0,1:0|0:0,0:0:0:0:
299,34,235651,1,2,0:0:0:0:
301,49,235788,2,0,B|250:13|250:13|168:44,1,99.0000030212403,10|0,0:0|0:0,0:0:0:0:
421,215,236060,2,0,P|479:193|498:144,1,99.0000030212402,10|0,0:0|0:0,0:0:0:0:
325,133,236333,2,0,B|332:170|332:170|321:188|321:188|329:239,1,99.0000030212403,2|0,1:2|0:0,0:0:0:0:
98,384,236606,6,0,P|148:303|242:306,1,198.00000604248,10|2,0:0|0:0,0:0:0:0:
64,245,237015,1,0,1:0:0:0:
48,253,237151,2,0,B|22:266|22:266|58:164,1,107.999996704102,2|0,0:0|0:0,0:0:0:0:
215,25,237424,2,0,P|221:72|193:111,1,89.9999999999999,10|0,0:0|0:0,0:0:0:0:
18,92,237697,5,10,0:0:0:0:
147,182,237833,1,0,1:0:0:0:
279,148,237970,1,2,1:2:0:0:
363,175,238106,1,0,1:0:0:0:
390,150,238242,6,0,B|326:137|292:186|317:188|287:245|208:228,1,198.00000604248,12|2,0:0|0:0,0:0:0:0:
476,202,238651,1,0,1:0:0:0:
410,277,238788,2,0,L|400:311,1,36,2|0,0:0|0:0,0:0:0:0:
476,202,239060,6,0,B|512:53|512:53|457:3,2,198.00000604248,10|8|2,0:0|0:0|1:2,0:0:0:0:
220,26,239879,6,0,P|311:10|362:95,1,198.00000604248,10|2,0:0|0:0,0:0:0:0:
144,80,240288,1,0,1:0:0:0:
130,71,240424,2,0,L|121:24,1,36,2|0,0:0|0:0,0:0:0:0:
279,93,240697,2,0,B|287:134|287:134|279:151|279:151|285:188,1,99.0000030212403,10|0,0:0|0:0,0:0:0:0:
497,312,240970,2,0,P|463:277|414:276,1,99.0000030212402,10|0,0:0|0:0,0:0:0:0:
273,279,241242,2,0,L|312:287,1,36,2|0,1:2|0:0,0:0:0:0:
63,379,241515,6,0,B|38:318|38:318|98:344,1,99.0000030212402,12|0,0:0|0:0,0:0:0:0:
101,172,241788,1,2,0:0:0:0:
107,191,241924,1,0,1:0:0:0:
159,293,242060,2,0,B|167:256|167:256|180:245|180:245|190:202,1,99.0000030212402,2|0,0:0|0:0,0:0:0:0:
265,0,242333,6,0,P|312:21|324:72,1,107.999996704102,12|0,0:0|0:0,0:0:0:0:
471,198,242606,1,2,0:0:0:0:
446,195,242742,1,0,1:0:0:0:
265,144,242879,2,0,B|295:169|295:169|383:144,1,107.999996704102,2|0,1:2|0:0,0:0:0:0:
178,351,243151,6,0,P|167:305|148:281,1,62.9999980773926,12|0,0:0|0:0,0:0:0:0:
5,235,243424,2,0,P|50:248|85:242,1,72,2|0,1:2|0:0,0:0:0:0:
166,92,243697,2,0,P|131:124|119:160,1,80.9999975280763,2|0,1:2|0:0,0:0:0:0:
326,194,243970,5,2,1:2:0:0:
265,144,244106,1,8,0:0:0:0:
215,175,244242,1,2,1:2:0:0:
219,214,244379,1,8,0:0:0:0:
236,224,244515,1,2,1:2:0:0:
251,216,244651,1,0,1:0:0:0:
417,195,244788,6,0,B|430:236|484:249|484:249|401:237|365:275,1,215.999993408203,12|2,0:0|0:0,0:0:0:0:
503,157,245196,1,0,1:0:0:0:
503,157,245333,2,0,L|513:110,1,36,2|0,0:0|0:0,0:0:0:0:
331,37,245606,2,0,P|235:17|217:113,1,215.999993408203,10|8,0:0|0:0,0:0:0:0:
356,129,246015,1,2,0:0:0:0:
365,115,246151,2,0,L|304:127,1,53.9999999999999,2|0,1:2|0:0,0:0:0:0:
47,213,246424,6,0,B|36:154|74:114|80:139|119:103|105:34,1,198.00000604248,10|2,0:0|0:0,0:0:0:0:
164,184,246833,1,0,1:0:0:0:
149,197,246970,2,0,B|158:240|158:240|150:250|150:250|161:299,1,99.0000030212402,2|0,0:0|0:0,0:0:0:0:
494,240,247242,2,0,P|461:203|414:195,1,99.0000030212402,10|0,0:0|0:0,0:0:0:0:
196,384,247515,5,4,1:3:0:0:
264,327,247651,1,4,1:3:0:0:
246,239,247788,1,2,1:2:0:0:
346,57,248060,6,0,P|437:43|474:127,1,198.000006042481,10|2,0:0|0:0,0:0:0:0:
414,195,248470,2,0,B|420:234|420:234|439:251|439:251|443:284,1,99.0000030212403,0|0,1:0|0:0,0:0:0:0:
259,308,248742,1,2,0:0:0:0:
183,366,248879,2,0,P|231:362|264:326,1,99.0000030212403,10|0,0:0|0:0,0:0:0:0:
323,241,249151,5,2,1:2:0:0:
301,229,249288,1,2,1:2:0:0:
299,191,249424,1,10,0:0:0:0:
222,147,249560,1,10,0:0:0:0:
265,52,249697,1,2,1:2:0:0:
93,0,249970,6,0,L|109:46,3,49.5000015106202,2|0|0|0,3:2|3:0|3:0|3:0,0:0:0:0:
191,1,250242,2,0,P|239:12|266:58,1,99.0000030212402,12|0,0:0|0:0,0:0:0:0:
47,208,250515,2,0,B|114:223|143:176|123:175|161:127|228:148,1,198.00000604248,12|0,0:0|0:0,0:0:0:0:
494,352,251060,6,0,P|504:366|509:384,1,36,10|0,0:0|0:0,0:0:0:0:
395,348,251333,1,12,0:0:0:0:
414,327,251470,1,2,0:0:0:0:
420,300,251606,1,0,0:0:0:0:
393,253,251742,5,0,1:0:0:0:
404,230,251879,2,0,P|419:221|437:217,1,36,2|0,0:0|0:0,0:0:0:0:
264,51,252151,2,0,P|345:96|329:188,2,198.000006042481,10|10|2,0:0|0:0|1:2,0:0:0:0:
314,203,252833,5,2,0:0:0:0:
225,187,252970,2,0,B|184:200|184:200|180:212|180:212|136:226,1,99.0000030212402,10|0,0:0|0:0,0:0:0:0:
81,78,253242,1,2,0:0:0:0:
0,160,253379,2,0,L|11:111,1,36,0|0,1:0|0:0,0:0:0:0:
185,311,253651,1,2,0:0:0:0:
185,311,253788,2,0,P|101:320|56:204,2,198.00000604248,10|8|2,0:0|0:0|1:2,0:0:0:0:
367,369,254470,5,0,1:0:0:0:
380,355,254606,2,0,B|339:334|332:286|332:286|314:365|243:375,1,198.00000604248,10|2,0:0|0:0,0:0:0:0:
435,270,255015,2,0,P|468:235|472:186,2,99.0000030212403,0|2|0,1:0|0:0|0:0,0:0:0:0:
183,16,255424,6,0,B|238:53|238:53|280:39,1,107.999996704102,12|0,0:0|0:0,0:0:0:0:
504,41,255697,2,0,B|481:15|481:15|469:88,1,107.999996704102,12|0,0:0|0:0,0:0:0:0:
365,169,255970,2,0,B|373:123|373:123|365:114|365:114|377:61,1,107.999996704102,4|0,1:2|0:0,0:0:0:0:
139,227,256242,6,0,P|230:238|274:151,1,198.00000604248,12|2,0:0|0:0,0:0:0:0:
124,211,256651,2,0,B|82:219|82:219|73:229|73:229|30:236,1,99.0000030212402,2|0,1:2|0:0,0:0:0:0:
162,102,256924,1,2,0:0:0:0:
0,51,257060,6,0,B|64:41|100:85|76:87|109:132|175:118,1,198.00000604248,12|0,0:0|1:0,0:0:0:0:
343,0,257470,1,0,1:0:0:0:
281,63,257606,1,2,1:2:0:0:
317,143,257742,1,0,1:0:0:0:
486,207,257879,6,0,P|472:113|383:80,1,198.00000604248,12|2,0:0|0:0,0:0:0:0:
301,240,258288,2,0,B|348:230|348:230|353:221|353:221|392:212,1,99.0000030212402,0|2,1:0|0:0,0:0:0:0:
259,335,258560,1,2,0:0:0:0:
249,319,258697,6,0,P|210:330|185:361,1,80.9999975280762,10|0,0:0|0:0,0:0:0:0:
203,165,258970,2,0,P|174:202|171:249,1,94.4999971160888,10|0,0:0|0:0,0:0:0:0:
20,87,259242,2,0,P|34:138|77:167,1,107.999996704102,2|0,1:2|0:0,0:0:0:0:
301,240,259515,5,2,1:2:0:0:
323,231,259606,1,4,0:3:0:0:
337,212,259697,1,4,0:3:0:0:
339,188,259788,1,12,0:3:0:0:
508,171,259924,6,0,P|485:161|471:138,1,45,2|0,0:0|0:0,0:0:0:0:
405,70,260060,5,12,0:3:0:0:
383,61,260151,1,4,0:3:0:0:
369,42,260242,1,4,0:3:0:0:
367,18,260333,2,0,B|423:-28|469:-10|508:36|522:110|471:139|446:138|401:153|402:179|392:215|449:258|447:240|485:239|507:287|463:340,1,449.999999999999,12|0,0:0|0:0,0:0:0:0:
297,384,261151,5,2,0:0:0:0:
318,304,261424,5,2,0:0:0:0:
339,224,261697,5,2,0:0:0:0:
324,216,261788,2,0,L|262:229,1,45.0000017166138,0|0,3:0|3:0,0:0:0:0:
230,302,261970,2,0,P|126:283|117:178,1,225,2|0,1:2|0:0,0:0:0:0:
130,165,262788,6,0,B|121:128|121:128|126:116|126:116|117:74,2,89.9999999999999,2|2|2,1:2|0:0|0:0,0:0:0:0:
46,21,263606,2,0,B|144:19|105:75|215:65,1,168.75,2|0,1:2|0:0,0:0:0:0:
208,85,264151,2,0,L|286:66,1,67.5000025749207,2|0,0:0|0:0,0:0:0:0:
384,23,264424,5,10,0:0:0:0:
379,42,264560,1,2,0:0:0:0:
398,63,264697,5,2,3:2:0:0:
374,139,264833,1,2,3:2:0:0:
453,173,264970,5,2,1:2:0:0:
397,263,265106,1,2,1:2:0:0:
475,371,265242,6,0,P|411:295|313:285,1,202.500007724762,4|2,1:2|0:0,0:0:0:0:
290,292,265788,2,0,B|302:316|302:316|277:382,1,78.7500007510184,2|0,0:0|0:0,0:0:0:0:
81,291,266060,5,4,1:2:0:0:
167,252,266197,1,2,3:2:0:0:
254,217,266333,5,2,1:2:0:0:
135,171,266470,1,2,1:2:0:0:
17,126,266606,2,0,B|-4:117|-4:117|71:85,1,78.7500007510184,2|0,1:2|0:0,0:0:0:0:
181,91,266879,6,0,P|73:98|139:11,1,270,4|0,1:2|0:0,0:0:0:0:
366,332,268515,5,4,1:2:0:0:
104,261,268788,1,2,0:0:0:0:
108,243,268879,1,2,0:0:0:0:
123,233,268970,1,2,0:0:0:0:
141,235,269060,1,2,0:0:0:0:
176,314,269333,5,2,0:0:0:0:
33,162,269606,1,2,0:0:0:0:
226,38,269879,1,2,0:0:0:0:
128,6,270151,2,0,L|135:51,1,45,2|0,0:0|0:0,0:0:0:0:
112,1,270424,1,2,0:0:0:0:
261,156,270697,5,2,0:0:0:0:
407,93,270833,1,0,0:0:0:0:
327,50,270970,1,2,0:0:0:0:
313,66,271106,1,0,0:0:0:0:
314,88,271242,1,0,0:0:0:0:
446,176,271379,5,2,0:0:0:0:
300,239,271515,1,8,1:3:0:0:
352,167,271651,1,4,0:3:0:0:
359,181,271788,2,0,L|383:237,1,45,12|0,0:0|0:0,0:0:0:0:
263,363,272060,5,2,0:0:0:0:
247,369,272151,1,2,0:0:0:0:
230,366,272242,1,2,0:0:0:0:
216,355,272333,1,2,0:0:0:0:
208,339,272424,1,0,0:0:0:0:
209,320,272515,1,0,0:0:0:0:
254,319,272606,5,2,1:2:0:0:
32,268,272879,1,8,0:3:0:0:
446,176,273151,1,4,0:3:0:0:
205,8,273424,2,0,P|184:47|185:91,1,89.9999999999999,12|2,0:0|0:0,0:0:0:0:
201,104,273879,5,2,0:0:0:0:
215,113,273970,2,0,P|229:140|228:179,1,67.5,2|0,0:0|0:0,0:0:0:0:
173,247,274242,6,0,P|195:251|214:262,1,45,2|0,1:2|0:0,0:0:0:0:
309,80,274515,2,0,P|343:73|357:55,1,45,0|0,1:0|0:0,0:0:0:0:
396,336,274788,2,0,P|418:337|438:347,1,45,0|0,1:0|0:0,0:0:0:0:
512,173,275060,6,0,P|461:181|401:198,1,101.250003862381,4|0,1:2|0:0,0:0:0:0:
336,167,275333,1,2,0:0:0:0:
334,179,275424,1,2,0:0:0:0:
332,191,275515,1,2,0:0:0:0:
330,203,275606,1,2,0:0:0:0:
50,372,275879,5,10,0:0:0:0:
100,307,276015,2,0,L|122:303,2,22.5,0|0|0,3:0|3:0|1:0,0:0:0:0:
21,248,276288,5,0,1:0:0:0:
93,192,276424,1,2,1:2:0:0:
61,154,276560,1,0,1:0:0:0:
78,135,276697,2,0,L|91:50,1,71.9999999999999,12|0,0:0|0:0,0:0:0:0:
327,63,276970,5,2,0:0:0:0:
264,120,277106,1,2,0:0:0:0:
208,113,277242,1,2,0:0:0:0:
188,91,277379,1,2,0:0:0:0:
214,11,277515,6,0,P|208:46|184:72,1,72,10|0,0:0|0:0,0:0:0:0:
385,164,277788,2,0,P|420:158|446:134,1,72,2|0,0:0|0:0,0:0:0:0:
322,300,278060,5,2,0:0:0:0:
309,304,278197,1,0,0:0:0:0:
282,279,278333,2,0,L|305:177,1,72,10|0,0:0|0:0,0:0:0:0:
92,250,278606,5,2,0:0:0:0:
63,331,278742,1,2,0:0:0:0:
95,378,278879,1,2,0:0:0:0:
123,384,279015,1,2,0:0:0:0:
167,299,279151,5,10,0:0:0:0:
93,228,279297,1,2,0:0:0:0:
180,138,279443,2,0,B|219:106|219:106|182:211,1,161.999995056152,2|10,0:0|0:0,0:0:0:0:
182,211,280029,6,0,P|220:219|245:258,1,67.5000025749207,12|0,0:0|0:0,0:0:0:0:
323,232,280362,2,0,P|335:268|312:311,1,62.9999980773926,10|0,0:0|0:0,0:0:0:0:
391,350,280714,2,0,P|365:378|322:380,1,58.4999973220826,10|0,0:0|0:0,0:0:0:0:
415,263,281089,6,0,P|431:233|459:216,1,67.4999999999999,12|0,0:0|0:0,0:0:0:0:
397,165,281489,2,0,P|430:168|456:188,1,67.4999999999999,12|0,0:0|0:0,0:0:0:0:
498,110,281911,2,0,P|486:141|462:164,1,67.4999999999999,12|0,0:0|0:0,0:0:0:0:
456,188,282411,6,0,B|420:126|357:139|383:142|289:171|285:41|360:16|411:58|411:58|425:14|463:-2|507:-2|542:47|529:92|492:117|491:91|446:118|465:177,1,558.900000852813,12|0,0:0|0:0,0:0:0:0:
