osu file format v14

[General]
AudioFilename: audio.mp3
AudioLeadIn: 0
PreviewTime: 142271
Countdown: 0
SampleSet: Soft
StackLeniency: 0.5
Mode: 0
LetterboxInBreaks: 0
EpilepsyWarning: 1
WidescreenStoryboard: 1

[Editor]
Bookmarks: 113309,128079,172386
DistanceSpacing: 1.9
BeatDivisor: 4
GridSize: 32
TimelineZoom: 2

[Metadata]
Title:Origami Monogatari
TitleUnicode:折紙物語
Artist:Tsumugi Shiraishi (CV: Saki Minami)
ArtistUnicode:白石 紬 (CV: 南 早紀)
Creator:TsumugiP
Version:Meep's Hard
Source:アイドルマスター ミリオンライブ!
Tags:japanese video game origami story シアターデイズ ミリシタ idolmaster idol master idolm@ster m@ster million live! theater days the@ter mltd pop imas im@s jpop j-pop idols アイマス ミリマス anime 765PRO 765プロ 765 Production _Meep_
BeatmapID:3580013
BeatmapSetID:1698347

[Difficulty]
HPDrainRate:5
CircleSize:3.5
OverallDifficulty:6
ApproachRate:7
SliderMultiplier:1.6
SliderTickRate:1

[Events]
//Background and Video events
0,0,"bg.jpg",0,0
//Break Periods
2,202120,207459
//Storyboard Layer 0 (Background)
Sprite,Background,Centre,"bg.jpg",320,240 S,0,0,,0.4444444 F,0,0,7617,0,0.7 F,7,7617,7963,0.7,0.1 F,0,7963,8540,0.1,0.7 F,7,61156,61617,0.7,0.1 F,0,61617,62194,0.1,0.7 F,0,63463,64155,1,0.75 F,0,65309,66001,1,0.75 F,0,67156,67848,1,0.75 F,0,69002,69694,1,0.75 F,0,70848,71540,1,0.75 F,0,72694,73386,1,0.75 F,0,73617,74309,1,0.75 F,0,74540,75232,1,0.75 F,0,76386,77078,1,0.75 F,0,78233,78925,1,0.75 F,0,80079,80771,1,0.75 F,0,81002,81694,1,0.75 F,0,81925,82617,1,0.75 F,0,83771,84463,1,0.75 F,0,85617,86309,1,0.75 F,0,87463,88155,1,0.75 F,0,88386,89078,1,0.75 F,0,89309,90001,1,0.75 F,0,90002,90694,1,0.75 F,7,142386,142848,0.7,0.1 F,0,142848,143425,0.1,0.7 F,0,144694,145386,1,0.75 F,0,146540,147232,1,0.75 F,0,148386,149078,1,0.75 F,0,150233,150925,1,0.75 F,0,152079,152771,1,0.75 F,0,153925,154617,1,0.75 F,0,154848,155540,1,0.75 F,0,155771,156463,1,0.75 F,0,157617,158309,1,0.75 F,0,159463,160155,1,0.75 F,0,161309,162001,1,0.75 F,0,162233,162925,1,0.75 F,0,163156,163848,1,0.75 F,0,165002,165694,1,0.75 F,0,166848,167540,1,0.75 F,0,168694,169386,1,0.75 F,0,169617,170309,1,0.75 F,0,170540,171232,1,0.75 F,0,172386,173078,1,0.75 F,0,174233,174925,1,0.75 F,0,176079,176771,1,0.75 F,0,177925,178617,1,0.75 F,0,179771,180463,1,0.75 F,0,181617,182309,1,0.75 F,0,183463,184155,1,0.75 F,0,185309,186001,1,0.75 F,7,216233,216694,0.7,0.1 F,0,216694,217271,0.1,0.7 F,0,218540,219232,1,0.75 F,0,220386,221078,1,0.75 F,0,221309,222001,1,0.75 F,0,222233,222925,1,0.75 F,0,224079,224771,1,0.75 F,0,225925,226617,1,0.75 F,0,227771,228463,1,0.75 F,0,228694,229386,1,0.75 F,0,229617,230309,1,0.75 F,0,230309,231001,1,0.75 F,0,231463,232155,1,0.75 F,0,233309,234001,1,0.75 F,0,235156,235848,1,0.75 F,0,237002,237694,1,0.75 F,0,238848,239540,1,0.75 F,0,240694,241386,1,0.75 F,0,242540,243232,1,0.75 F,0,243463,244155,1,0.75 F,0,244386,245078,1,0.75 F,16,246233,255463,0.7,0
Sprite,Background,Centre,"sb\white.jpg",320,240 F,0,8079,8771,0.8,0 F,0,61617,62309,0.8,0 F,0,142848,143540,0.8,0 F,0,216694,217386,0.8,0
//Storyboard Layer 1 (Fail)
//Storyboard Layer 2 (Pass)
//Storyboard Layer 3 (Foreground)
Sprite,Foreground,Centre,"sb\glow.png",0,0 C,0,252920,,231,220,248 M,0,252920,253035,375,253,373.8431,233.0881 F,2,252920,255996,1,0 S,2,252920,255996,0.5,0.1 M,0,253035,253150,373.8431,233.0881,367.1932,214.3094 M,0,253150,253266,367.1932,214.3094,354.9657,198.5986 M,0,253266,253381,354.9657,198.5986,338.2904,187.7204 M,0,253381,253496,338.2904,187.7204,319.0165,182.7128 M,0,253496,253612,319.0165,182.7128,299.1494,184.0453 M,0,253612,253727,299.1494,184.0453,280.8012,191.7587 M,0,253727,253843,280.8012,191.7587,266.141,205.2129 M,0,253843,253958,266.141,205.2129,256.864,222.8246 M,0,253958,254073,256.864,222.8246,253.585,242.4761 M,0,254073,254189,253.585,242.4761,255.9914,262.2691 M,0,254189,254304,255.9914,262.2691,263.4361,280.7734 M,0,254304,254420,263.4361,280.7734,273.4416,298.0696 M,0,254420,254535,273.4416,298.0696,281.0212,316.5603 M,0,254535,254650,281.0212,316.5603,285.9223,335.933 M,0,254650,254766,285.9223,335.933,288.0539,355.8031 M,0,254766,254881,288.0539,355.8031,287.5362,375.7831 M,0,254881,254996,287.5362,375.7831,284.6437,395.5622
Sprite,Foreground,Centre,"sb\tsumugi_cutout.png",320,240 S,0,0,,0.4444444 F,0,0,7617,0,0.75 F,7,7617,7963,0.75,0.1 F,0,7963,8540,0.1,0.75 F,7,61156,61617,0.75,0.1 F,0,61617,62194,0.1,0.75 F,7,142386,142848,0.75,0.1 F,0,142848,143425,0.1,0.75 F,7,216233,216694,0.75,0.1 F,0,216694,217271,0.1,0.75 F,0,217271,246233,0.9 F,16,246233,255463,0.7,0
Sprite,Foreground,Centre,"sb\flower_glow.png",0,0 M,0,0,,363,160 F,0,0,,0 S,0,0,,0.7 F,0,694,1386,1,0 F,0,4386,5078,1,0 F,0,6233,6925,1,0 F,0,8079,8771,1,0 F,0,9925,10617,1,0 F,0,11771,12463,1,0 F,0,13617,14309,1,0 F,0,15463,16155,1,0 F,0,22848,23540,1,0 F,0,30223,30915,1,0 F,0,33925,34617,1,0 F,0,37617,38309,1,0 F,0,41309,42001,1,0 F,0,42233,42925,1,0 F,0,43156,43848,1,0 F,0,45002,45694,1,0 F,0,46617,47309,1,0 F,0,48694,49386,1,0 F,0,50079,50771,1,0 F,0,52386,53078,1,0 F,0,53771,54463,1,0 F,0,56079,56771,1,0 F,0,57925,58617,1,0 F,0,61617,62309,1,0 F,0,63463,64155,1,0 F,0,65309,66001,1,0 F,0,67156,67848,1,0 F,0,69002,69694,1,0 F,0,70848,71540,1,0 F,0,72694,73386,1,0 F,0,73617,74309,1,0 F,0,74540,75232,1,0 F,0,76386,77078,1,0 F,0,78233,78925,1,0 F,0,80079,80771,1,0 F,0,81002,81694,1,0 F,0,81925,82617,1,0 F,0,83771,84463,1,0 F,0,85617,86309,1,0 F,0,87463,88155,1,0 F,0,88386,89078,1,0 F,0,89309,90001,1,0 F,0,90002,90694,1,0 F,0,91155,91847,1,0 F,0,94848,95540,1,0 F,0,96694,97386,1,0 F,0,97386,98078,1,0 F,0,98540,99232,1,0 F,0,102233,102925,1,0 F,0,105925,106617,1,0 F,0,109617,110309,1,0 F,0,110540,111232,1,0 F,0,113309,114001,1,0 F,0,117002,117694,1,0 F,0,120694,121386,1,0 F,0,124386,125078,1,0 F,0,125309,126001,1,0 F,0,126925,127617,1,0 F,0,128079,128771,1,0 F,0,131771,132463,1,0 F,0,133156,133848,1,0 F,0,135463,136155,1,0 F,0,136848,137540,1,0 F,0,142848,143540,1,0 F,0,144694,145386,1,0 F,0,146540,147232,1,0 F,0,148386,149078,1,0 F,0,150233,150925,1,0 F,0,152079,152771,1,0 F,0,153925,154617,1,0 F,0,154848,155540,1,0 F,0,155771,156463,1,0 F,0,157617,158309,1,0 F,0,159463,160155,1,0 F,0,161309,162001,1,0 F,0,162233,162925,1,0 F,0,163156,163848,1,0 F,0,165002,165694,1,0 F,0,166848,167540,1,0 F,0,168694,169386,1,0 F,0,169617,170309,1,0 F,0,170540,171232,1,0 F,0,172386,173078,1,0 F,0,174233,174925,1,0 F,0,176079,176771,1,0 F,0,177925,178617,1,0 F,0,179771,180463,1,0 F,0,181617,182309,1,0 F,0,183463,184155,1,0 F,0,185309,186001,1,0 F,0,187156,187848,1,0 F,0,189002,189694,1,0 F,0,190848,191540,1,0 F,0,192694,193386,1,0 F,0,194540,195232,1,0 F,0,196386,197078,1,0 F,0,198233,198925,1,0 F,0,199156,199848,1,0 F,0,200079,200771,1,0 F,0,200771,201463,1,0 F,0,201925,202617,1,0 F,0,209309,210001,1,0 F,0,213002,213694,1,0 F,0,216694,217386,1,0 F,0,218540,219232,1,0 F,0,220386,221078,1,0 F,0,221309,222001,1,0 F,0,222233,222925,1,0 F,0,224079,224771,1,0 F,0,225925,226617,1,0 F,0,227771,228463,1,0 F,0,228694,229386,1,0 F,0,229617,230309,1,0 F,0,231002,231694,1,0 F,0,233309,234001,1,0 F,0,235156,235848,1,0 F,0,237002,237694,1,0 F,0,238848,239540,1,0 F,0,240694,241386,1,0 F,0,242540,243232,1,0 F,0,243463,244155,1,0 F,0,244386,245078,1,0 F,0,246233,246925,1,0 M,0,252463,,0,0
Sprite,Foreground,CentreRight,"sb\particle.png",0,0 L,0,72 F,1,0,700,0,1 M,0,0,3501,586.0593,281.4641,-108.4955,368.6059 F,2,2801,3501,1,0 S,0,0,,0.75 R,0,0,,3.1215 C,0,0,,233,223,253
Sprite,Foreground,CentreRight,"sb\particle.png",0,0 L,700,72 F,1,0,700,0,1 M,0,0,3501,738.9648,158.6769,38.97144,155.6129 F,2,2801,3501,1,0 S,0,700,,0.75 R,0,700,,3.25069 C,0,700,,225,210,253
Sprite,Foreground,CentreRight,"sb\particle.png",0,0 L,1400,72 F,1,0,700,0,1 M,0,0,3501,350.1328,-4.150599,-296.8216,263.1509 F,2,2801,3501,1,0 S,0,1400,,0.75 R,0,1400,,2.854505 C,0,1400,,210,189,251
Sprite,Foreground,CentreRight,"sb\particle.png",0,0 L,2100,72 F,1,0,700,0,1 M,0,0,3501,766.2413,-69.80337,73.08582,27.84708 F,2,2801,3501,1,0 S,0,2100,,0.75 R,0,2100,,3.106355 C,0,2100,,229,216,254
Sprite,Foreground,CentreRight,"sb\particle.png",0,0 L,2801,72 F,1,0,700,0,1 M,0,0,3501,722.4974,261.231,187.0323,712.0938 F,2,2801,3501,1,0 S,0,2801,,0.75 R,0,2801,,2.54648 C,0,2801,,254,254,254
Sprite,Foreground,BottomCentre,"sb\lyrics\004d.png",278.2,0 S,0,0,,0.15 F,0,0,250,0,1 MY,22,0,3694,410,420 F,0,3444,3694,1,0
Sprite,Foreground,BottomCentre,"sb\lyrics\0061.png",293.5,0 S,0,0,,0.15 F,0,0,250,0,1 MY,22,0,3694,409,420 F,0,3444,3694,1,0
Sprite,Foreground,BottomCentre,"sb\lyrics\0070.png",308.8,0 S,0,0,,0.15 F,0,0,250,0,1 MY,22,0,3694,408,420 F,0,3444,3694,1,0
Sprite,Foreground,BottomCentre,"sb\lyrics\005f.png",339.4,0 S,0,0,,0.15 F,0,0,250,0,1 MY,22,0,3694,410,420 F,0,3444,3694,1,0
Sprite,Foreground,BottomCentre,"sb\lyrics\004d.png",354.7,0 S,0,0,,0.15 F,0,0,250,0,1 MY,22,0,3694,410,420 F,0,3444,3694,1,0
Sprite,Foreground,BottomCentre,"sb\lyrics\0065.png",370,0 S,0,0,,0.15 F,0,0,250,0,1 MY,22,0,3694,409,420 F,0,3444,3694,1,0
Sprite,Foreground,BottomCentre,"sb\lyrics\0065.png",385.3,0 S,0,0,,0.15 F,0,0,250,0,1 MY,22,0,3694,406,420 F,0,3444,3694,1,0
Sprite,Foreground,BottomCentre,"sb\lyrics\0070.png",400.6,0 S,0,0,,0.15 F,0,0,250,0,1 MY,22,0,3694,409,420 F,0,3444,3694,1,0
Sprite,Foreground,BottomCentre,"sb\lyrics\005f.png",415.9,0 S,0,0,,0.15 F,0,0,250,0,1 MY,22,0,3694,409,420 F,0,3444,3694,1,0
Sprite,Foreground,BottomCentre,"sb\lyrics\0053.png",39.52,0 S,0,4386,,0.15 F,0,4386,4636,0,1 MY,22,4386,6002,406,420 F,0,5752,6002,1,0
Sprite,Foreground,BottomCentre,"sb\lyrics\0074.png",54.82,0 S,0,4386,,0.15 F,0,4386,4636,0,1 MY,22,4386,6002,406,420 F,0,5752,6002,1,0
Sprite,Foreground,BottomCentre,"sb\lyrics\006f.png",70.12,0 S,0,4386,,0.15 F,0,4386,4636,0,1 MY,22,4386,6002,407,420 F,0,5752,6002,1,0
Sprite,Foreground,BottomCentre,"sb\lyrics\0072.png",85.42,0 S,0,4386,,0.15 F,0,4386,4636,0,1 MY,22,4386,6002,407,420 F,0,5752,6002,1,0
Sprite,Foreground,BottomCentre,"sb\lyrics\0079.png",100.72,0 S,0,4386,,0.15 F,0,4386,4636,0,1 MY,22,4386,6002,406,420 F,0,5752,6002,1,0
Sprite,Foreground,BottomCentre,"sb\lyrics\0062.png",116.02,0 S,0,4386,,0.15 F,0,4386,4636,0,1 MY,22,4386,6002,409,420 F,0,5752,6002,1,0
Sprite,Foreground,BottomCentre,"sb\lyrics\006f.png",131.32,0 S,0,4386,,0.15 F,0,4386,4636,0,1 MY,22,4386,6002,410,420 F,0,5752,6002,1,0
Sprite,Foreground,BottomCentre,"sb\lyrics\0061.png",146.62,0 S,0,4386,,0.15 F,0,4386,4636,0,1 MY,22,4386,6002,408,420 F,0,5752,6002,1,0
Sprite,Foreground,BottomCentre,"sb\lyrics\0072.png",161.92,0 S,0,4386,,0.15 F,0,4386,4636,0,1 MY,22,4386,6002,406,420 F,0,5752,6002,1,0
Sprite,Foreground,BottomCentre,"sb\lyrics\0064.png",177.22,0 S,0,4386,,0.15 F,0,4386,4636,0,1 MY,22,4386,6002,407,420 F,0,5752,6002,1,0
Sprite,Foreground,BottomCentre,"sb\lyrics\0061.png",207.82,0 S,0,4386,,0.15 F,0,4386,4636,0,1 MY,22,4386,6002,408,420 F,0,5752,6002,1,0
Sprite,Foreground,BottomCentre,"sb\lyrics\006e.png",223.12,0 S,0,4386,,0.15 F,0,4386,4636,0,1 MY,22,4386,6002,408,420 F,0,5752,6002,1,0
Sprite,Foreground,BottomCentre,"sb\lyrics\0064.png",238.42,0 S,0,4386,,0.15 F,0,4386,4636,0,1 MY,22,4386,6002,406,420 F,0,5752,6002,1,0
Sprite,Foreground,BottomCentre,"sb\lyrics\0048.png",269.02,0 S,0,4386,,0.15 F,0,4386,4636,0,1 MY,22,4386,6002,407,420 F,0,5752,6002,1,0
Sprite,Foreground,BottomCentre,"sb\lyrics\0069.png",284.32,0 S,0,4386,,0.15 F,0,4386,4636,0,1 MY,22,4386,6002,410,420 F,0,5752,6002,1,0
Sprite,Foreground,BottomCentre,"sb\lyrics\0074.png",299.62,0 S,0,4386,,0.15 F,0,4386,4636,0,1 MY,22,4386,6002,407,420 F,0,5752,6002,1,0
Sprite,Foreground,BottomCentre,"sb\lyrics\0073.png",314.92,0 S,0,4386,,0.15 F,0,4386,4636,0,1 MY,22,4386,6002,410,420 F,0,5752,6002,1,0
Sprite,Foreground,BottomCentre,"sb\lyrics\006f.png",330.22,0 S,0,4386,,0.15 F,0,4386,4636,0,1 MY,22,4386,6002,410,420 F,0,5752,6002,1,0
Sprite,Foreground,BottomCentre,"sb\lyrics\0075.png",345.52,0 S,0,4386,,0.15 F,0,4386,4636,0,1 MY,22,4386,6002,409,420 F,0,5752,6002,1,0
Sprite,Foreground,BottomCentre,"sb\lyrics\006e.png",360.82,0 S,0,4386,,0.15 F,0,4386,4636,0,1 MY,22,4386,6002,408,420 F,0,5752,6002,1,0
Sprite,Foreground,BottomCentre,"sb\lyrics\0064.png",376.12,0 S,0,4386,,0.15 F,0,4386,4636,0,1 MY,22,4386,6002,410,420 F,0,5752,6002,1,0
Sprite,Foreground,BottomCentre,"sb\lyrics\0073.png",391.42,0 S,0,4386,,0.15 F,0,4386,4636,0,1 MY,22,4386,6002,410,420 F,0,5752,6002,1,0
Sprite,Foreground,BottomCentre,"sb\lyrics\0062.png",422.02,0 S,0,4386,,0.15 F,0,4386,4636,0,1 MY,22,4386,6002,407,420 F,0,5752,6002,1,0
Sprite,Foreground,BottomCentre,"sb\lyrics\0079.png",437.32,0 S,0,4386,,0.15 F,0,4386,4636,0,1 MY,22,4386,6002,407,420 F,0,5752,6002,1,0
Sprite,Foreground,BottomCentre,"sb\lyrics\0054.png",467.92,0 S,0,4386,,0.15 F,0,4386,4636,0,1 MY,22,4386,6002,406,420 F,0,5752,6002,1,0
Sprite,Foreground,BottomCentre,"sb\lyrics\0073.png",483.22,0 S,0,4386,,0.15 F,0,4386,4636,0,1 MY,22,4386,6002,410,420 F,0,5752,6002,1,0
Sprite,Foreground,BottomCentre,"sb\lyrics\0075.png",498.52,0 S,0,4386,,0.15 F,0,4386,4636,0,1 MY,22,4386,6002,406,420 F,0,5752,6002,1,0
Sprite,Foreground,BottomCentre,"sb\lyrics\006d.png",513.82,0 S,0,4386,,0.15 F,0,4386,4636,0,1 MY,22,4386,6002,407,420 F,0,5752,6002,1,0
Sprite,Foreground,BottomCentre,"sb\lyrics\0075.png",529.12,0 S,0,4386,,0.15 F,0,4386,4636,0,1 MY,22,4386,6002,409,420 F,0,5752,6002,1,0
Sprite,Foreground,BottomCentre,"sb\lyrics\0067.png",544.42,0 S,0,4386,,0.15 F,0,4386,4636,0,1 MY,22,4386,6002,410,420 F,0,5752,6002,1,0
Sprite,Foreground,BottomCentre,"sb\lyrics\0069.png",559.72,0 S,0,4386,,0.15 F,0,4386,4636,0,1 MY,22,4386,6002,410,420 F,0,5752,6002,1,0
Sprite,Foreground,BottomCentre,"sb\lyrics\0050.png",575.02,0 S,0,4386,,0.15 F,0,4386,4636,0,1 MY,22,4386,6002,406,420 F,0,5752,6002,1,0
Sprite,Foreground,BottomCentre,"sb\lyrics\56db.png",296.92,0 S,0,15348,,0.15 F,0,15348,15598,0,1 MY,22,15348,18002,406,420 F,0,17752,18002,1,0
Sprite,Foreground,BottomCentre,"sb\lyrics\89d2.png",327.37,0 S,0,15348,,0.15 F,0,15348,15598,0,1 MY,22,15348,18002,409,420 F,0,17752,18002,1,0
Sprite,Foreground,BottomCentre,"sb\lyrics\56db.png",357.82,0 S,0,15348,,0.15 F,0,15348,15598,0,1 MY,22,15348,18002,410,420 F,0,17752,18002,1,0
Sprite,Foreground,BottomCentre,"sb\lyrics\9762.png",388.27,0 S,0,15348,,0.15 F,0,15348,15598,0,1 MY,22,15348,18002,410,420 F,0,17752,18002,1,0
Sprite,Foreground,BottomCentre,"sb\lyrics\6c42.png",223.84,0 S,0,18117,,0.15 F,0,18117,18367,0,1 MY,22,18117,22502,409,420 F,0,22252,22502,1,0
Sprite,Foreground,BottomCentre,"sb\lyrics\3081.png",254.29,0 S,0,18117,,0.15 F,0,18117,18367,0,1 MY,22,18117,22502,410,420 F,0,22252,22502,1,0
Sprite,Foreground,BottomCentre,"sb\lyrics\3089.png",284.74,0 S,0,18117,,0.15 F,0,18117,18367,0,1 MY,22,18117,22502,407,420 F,0,22252,22502,1,0
Sprite,Foreground,BottomCentre,"sb\lyrics\308c.png",315.19,0 S,0,18117,,0.15 F,0,18117,18367,0,1 MY,22,18117,22502,406,420 F,0,22252,22502,1,0
Sprite,Foreground,BottomCentre,"sb\lyrics\308b.png",345.64,0 S,0,18117,,0.15 F,0,18117,18367,0,1 MY,22,18117,22502,407,420 F,0,22252,22502,1,0
Sprite,Foreground,BottomCentre,"sb\lyrics\5834.png",376.09,0 S,0,18117,,0.15 F,0,18117,18367,0,1 MY,22,18117,22502,409,420 F,0,22252,22502,1,0
Sprite,Foreground,BottomCentre,"sb\lyrics\9762.png",406.54,0 S,0,18117,,0.15 F,0,18117,18367,0,1 MY,22,18117,22502,410,420 F,0,22252,22502,1,0
Sprite,Foreground,BottomCentre,"sb\lyrics\306f.png",436.99,0 S,0,18117,,0.15 F,0,18117,18367,0,1 MY,22,18117,22502,408,420 F,0,22252,22502,1,0
Sprite,Foreground,BottomCentre,"sb\lyrics\5176.png",278.65,0 S,0,22617,,0.15 F,0,22617,22867,0,1 MY,22,22617,25271,409,420 F,0,25021,25271,1,0
Sprite,Foreground,BottomCentre,"sb\lyrics\51e6.png",309.1,0 S,0,22617,,0.15 F,0,22617,22867,0,1 MY,22,22617,25271,410,420 F,0,25021,25271,1,0
Sprite,Foreground,BottomCentre,"sb\lyrics\306f.png",339.55,0 S,0,22617,,0.15 F,0,22617,22867,0,1 MY,22,22617,25271,406,420 F,0,25021,25271,1,0
Sprite,Foreground,BottomCentre,"sb\lyrics\5176.png",370,0 S,0,22617,,0.15 F,0,22617,22867,0,1 MY,22,22617,25271,410,420 F,0,25021,25271,1,0
Sprite,Foreground,BottomCentre,"sb\lyrics\308c.png",400.45,0 S,0,22617,,0.15 F,0,22617,22867,0,1 MY,22,22617,25271,408,420 F,0,25021,25271,1,0
Sprite,Foreground,BottomCentre,"sb\lyrics\305d.png",205.57,0 S,0,25386,,0.15 F,0,25386,25636,0,1 MY,22,25386,28963,407,420 F,0,28713,28963,1,0
Sprite,Foreground,BottomCentre,"sb\lyrics\306e.png",236.02,0 S,0,25386,,0.15 F,0,25386,25636,0,1 MY,22,25386,28963,407,420 F,0,28713,28963,1,0
Sprite,Foreground,BottomCentre,"sb\lyrics\307e.png",266.47,0 S,0,25386,,0.15 F,0,25386,25636,0,1 MY,22,25386,28963,410,420 F,0,28713,28963,1,0
Sprite,Foreground,BottomCentre,"sb\lyrics\307e.png",296.92,0 S,0,25386,,0.15 F,0,25386,25636,0,1 MY,22,25386,28963,407,420 F,0,28713,28963,1,0
Sprite,Foreground,BottomCentre,"sb\lyrics\3067.png",327.37,0 S,0,25386,,0.15 F,0,25386,25636,0,1 MY,22,25386,28963,410,420 F,0,28713,28963,1,0
Sprite,Foreground,BottomCentre,"sb\lyrics\826f.png",357.82,0 S,0,25386,,0.15 F,0,25386,25636,0,1 MY,22,25386,28963,410,420 F,0,28713,28963,1,0
Sprite,Foreground,BottomCentre,"sb\lyrics\304b.png",388.27,0 S,0,25386,,0.15 F,0,25386,25636,0,1 MY,22,25386,28963,409,420 F,0,28713,28963,1,0
Sprite,Foreground,BottomCentre,"sb\lyrics\3063.png",418.72,0 S,0,25386,,0.15 F,0,25386,25636,0,1 MY,22,25386,28963,407,420 F,0,28713,28963,1,0
Sprite,Foreground,BottomCentre,"sb\lyrics\305f.png",449.17,0 S,0,25386,,0.15 F,0,25386,25636,0,1 MY,22,25386,28963,407,420 F,0,28713,28963,1,0
Sprite,Foreground,BottomCentre,"sb\lyrics\900f.png",315.19,0 S,0,30117,,0.15 F,0,30117,30367,0,1 MY,22,30117,32540,410,420 F,0,32290,32540,1,0
Sprite,Foreground,BottomCentre,"sb\lyrics\660e.png",345.64,0 S,0,30117,,0.15 F,0,30117,30367,0,1 MY,22,30117,32540,408,420 F,0,32290,32540,1,0
Sprite,Foreground,BottomCentre,"sb\lyrics\306b.png",376.09,0 S,0,30117,,0.15 F,0,30117,30367,0,1 MY,22,30117,32540,407,420 F,0,32290,32540,1,0
Sprite,Foreground,BottomCentre,"sb\lyrics\604b.png",205.57,0 S,0,32886,,0.15 F,0,32886,33136,0,1 MY,22,32886,36694,406,420 F,0,36444,36694,1,0
Sprite,Foreground,BottomCentre,"sb\lyrics\7126.png",236.02,0 S,0,32886,,0.15 F,0,32886,33136,0,1 MY,22,32886,36694,410,420 F,0,36444,36694,1,0
Sprite,Foreground,BottomCentre,"sb\lyrics\304c.png",266.47,0 S,0,32886,,0.15 F,0,32886,33136,0,1 MY,22,32886,36694,406,420 F,0,36444,36694,1,0
Sprite,Foreground,BottomCentre,"sb\lyrics\308c.png",296.92,0 S,0,32886,,0.15 F,0,32886,33136,0,1 MY,22,32886,36694,410,420 F,0,36444,36694,1,0
Sprite,Foreground,BottomCentre,"sb\lyrics\3066.png",327.37,0 S,0,32886,,0.15 F,0,32886,33136,0,1 MY,22,32886,36694,409,420 F,0,36444,36694,1,0
Sprite,Foreground,BottomCentre,"sb\lyrics\3044.png",357.82,0 S,0,32886,,0.15 F,0,32886,33136,0,1 MY,22,32886,36694,410,420 F,0,36444,36694,1,0
Sprite,Foreground,BottomCentre,"sb\lyrics\305f.png",388.27,0 S,0,32886,,0.15 F,0,32886,33136,0,1 MY,22,32886,36694,409,420 F,0,36444,36694,1,0
Sprite,Foreground,BottomCentre,"sb\lyrics\306e.png",418.72,0 S,0,32886,,0.15 F,0,32886,33136,0,1 MY,22,32886,36694,408,420 F,0,36444,36694,1,0
Sprite,Foreground,BottomCentre,"sb\lyrics\306d.png",449.17,0 S,0,32886,,0.15 F,0,32886,33136,0,1 MY,22,32886,36694,407,420 F,0,36444,36694,1,0
Sprite,Foreground,BottomCentre,"sb\lyrics\6697.png",315.19,0 S,0,37617,,0.15 F,0,37617,37867,0,1 MY,22,37617,39809,409,420 F,0,39559,39809,1,0
Sprite,Foreground,BottomCentre,"sb\lyrics\95c7.png",345.64,0 S,0,37617,,0.15 F,0,37617,37867,0,1 MY,22,37617,39809,406,420 F,0,39559,39809,1,0
Sprite,Foreground,BottomCentre,"sb\lyrics\306b.png",376.09,0 S,0,37617,,0.15 F,0,37617,37867,0,1 MY,22,37617,39809,406,420 F,0,39559,39809,1,0
Sprite,Foreground,BottomCentre,"sb\lyrics\307b.png",196.39,0 S,0,40271,,0.15 F,0,40271,40521,0,1 MY,22,40271,43156,410,420 F,0,42906,43156,1,0
Sprite,Foreground,BottomCentre,"sb\lyrics\308d.png",226.84,0 S,0,40271,,0.15 F,0,40271,40521,0,1 MY,22,40271,43156,408,420 F,0,42906,43156,1,0
Sprite,Foreground,BottomCentre,"sb\lyrics\308a.png",257.29,0 S,0,40271,,0.15 F,0,40271,40521,0,1 MY,22,40271,43156,407,420 F,0,42906,43156,1,0
Sprite,Foreground,BottomCentre,"sb\lyrics\6eb6.png",303.04,0 S,0,40271,,0.15 F,0,40271,40521,0,1 MY,22,40271,43156,406,420 F,0,42906,43156,1,0
Sprite,Foreground,BottomCentre,"sb\lyrics\3051.png",333.49,0 S,0,40271,,0.15 F,0,40271,40521,0,1 MY,22,40271,43156,407,420 F,0,42906,43156,1,0
Sprite,Foreground,BottomCentre,"sb\lyrics\308b.png",363.94,0 S,0,40271,,0.15 F,0,40271,40521,0,1 MY,22,40271,43156,408,420 F,0,42906,43156,1,0
Sprite,Foreground,BottomCentre,"sb\lyrics\3055.png",394.39,0 S,0,40271,,0.15 F,0,40271,40521,0,1 MY,22,40271,43156,408,420 F,0,42906,43156,1,0
Sprite,Foreground,BottomCentre,"sb\lyrics\307e.png",424.84,0 S,0,40271,,0.15 F,0,40271,40521,0,1 MY,22,40271,43156,410,420 F,0,42906,43156,1,0
Sprite,Foreground,BottomCentre,"sb\lyrics\306b.png",455.29,0 S,0,40271,,0.15 F,0,40271,40521,0,1 MY,22,40271,43156,408,420 F,0,42906,43156,1,0
Sprite,Foreground,BottomCentre,"sb\lyrics\67d4.png",260.38,0 S,0,43617,,0.15 F,0,43617,43867,0,1 MY,22,43617,46963,408,420 F,0,46713,46963,1,0
Sprite,Foreground,BottomCentre,"sb\lyrics\3089.png",290.83,0 S,0,43617,,0.15 F,0,43617,43867,0,1 MY,22,43617,46963,409,420 F,0,46713,46963,1,0
Sprite,Foreground,BottomCentre,"sb\lyrics\304b.png",321.28,0 S,0,43617,,0.15 F,0,43617,43867,0,1 MY,22,43617,46963,410,420 F,0,46713,46963,1,0
Sprite,Foreground,BottomCentre,"sb\lyrics\306a.png",351.73,0 S,0,43617,,0.15 F,0,43617,43867,0,1 MY,22,43617,46963,409,420 F,0,46713,46963,1,0
Sprite,Foreground,BottomCentre,"sb\lyrics\6307.png",382.18,0 S,0,43617,,0.15 F,0,43617,43867,0,1 MY,22,43617,46963,406,420 F,0,46713,46963,1,0
Sprite,Foreground,BottomCentre,"sb\lyrics\5148.png",412.63,0 S,0,43617,,0.15 F,0,43617,43867,0,1 MY,22,43617,46963,410,420 F,0,46713,46963,1,0
Sprite,Foreground,BottomCentre,"sb\lyrics\305a.png",223.84,0 S,0,47309,,0.15 F,0,47309,47559,0,1 MY,22,47309,51117,408,420 F,0,50867,51117,1,0
Sprite,Foreground,BottomCentre,"sb\lyrics\3063.png",254.29,0 S,0,47309,,0.15 F,0,47309,47559,0,1 MY,22,47309,51117,409,420 F,0,50867,51117,1,0
Sprite,Foreground,BottomCentre,"sb\lyrics\3068.png",284.74,0 S,0,47309,,0.15 F,0,47309,47559,0,1 MY,22,47309,51117,410,420 F,0,50867,51117,1,0
Sprite,Foreground,BottomCentre,"sb\lyrics\899a.png",315.19,0 S,0,47309,,0.15 F,0,47309,47559,0,1 MY,22,47309,51117,407,420 F,0,50867,51117,1,0
Sprite,Foreground,BottomCentre,"sb\lyrics\3048.png",345.64,0 S,0,47309,,0.15 F,0,47309,47559,0,1 MY,22,47309,51117,407,420 F,0,50867,51117,1,0
Sprite,Foreground,BottomCentre,"sb\lyrics\3066.png",376.09,0 S,0,47309,,0.15 F,0,47309,47559,0,1 MY,22,47309,51117,408,420 F,0,50867,51117,1,0
Sprite,Foreground,BottomCentre,"sb\lyrics\3044.png",406.54,0 S,0,47309,,0.15 F,0,47309,47559,0,1 MY,22,47309,51117,408,420 F,0,50867,51117,1,0
Sprite,Foreground,BottomCentre,"sb\lyrics\308b.png",436.99,0 S,0,47309,,0.15 F,0,47309,47559,0,1 MY,22,47309,51117,406,420 F,0,50867,51117,1,0
Sprite,Foreground,BottomCentre,"sb\lyrics\7dda.png",223.84,0 S,0,51463,,0.15 F,0,51463,51713,0,1 MY,22,51463,54694,409,420 F,0,54444,54694,1,0
Sprite,Foreground,BottomCentre,"sb\lyrics\3092.png",254.29,0 S,0,51463,,0.15 F,0,51463,51713,0,1 MY,22,51463,54694,406,420 F,0,54444,54694,1,0
Sprite,Foreground,BottomCentre,"sb\lyrics\306a.png",284.74,0 S,0,51463,,0.15 F,0,51463,51713,0,1 MY,22,51463,54694,408,420 F,0,54444,54694,1,0
Sprite,Foreground,BottomCentre,"sb\lyrics\305e.png",315.19,0 S,0,51463,,0.15 F,0,51463,51713,0,1 MY,22,51463,54694,410,420 F,0,54444,54694,1,0
Sprite,Foreground,BottomCentre,"sb\lyrics\308b.png",345.64,0 S,0,51463,,0.15 F,0,51463,51713,0,1 MY,22,51463,54694,409,420 F,0,54444,54694,1,0
Sprite,Foreground,BottomCentre,"sb\lyrics\3088.png",376.09,0 S,0,51463,,0.15 F,0,51463,51713,0,1 MY,22,51463,54694,408,420 F,0,54444,54694,1,0
Sprite,Foreground,BottomCentre,"sb\lyrics\3046.png",406.54,0 S,0,51463,,0.15 F,0,51463,51713,0,1 MY,22,51463,54694,410,420 F,0,54444,54694,1,0
Sprite,Foreground,BottomCentre,"sb\lyrics\306b.png",436.99,0 S,0,51463,,0.15 F,0,51463,51713,0,1 MY,22,51463,54694,410,420 F,0,54444,54694,1,0
Sprite,Foreground,BottomCentre,"sb\lyrics\3042.png",232.93,0 S,0,55156,,0.15 F,0,55156,55406,0,1 MY,22,55156,59886,410,420 F,0,59636,59886,1,0
Sprite,Foreground,BottomCentre,"sb\lyrics\306e.png",263.38,0 S,0,55156,,0.15 F,0,55156,55406,0,1 MY,22,55156,59886,406,420 F,0,59636,59886,1,0
Sprite,Foreground,BottomCentre,"sb\lyrics\65e5.png",293.83,0 S,0,55156,,0.15 F,0,55156,55406,0,1 MY,22,55156,59886,407,420 F,0,59636,59886,1,0
Sprite,Foreground,BottomCentre,"sb\lyrics\5fc3.png",339.58,0 S,0,55156,,0.15 F,0,55156,55406,0,1 MY,22,55156,59886,409,420 F,0,59636,59886,1,0
Sprite,Foreground,BottomCentre,"sb\lyrics\958b.png",370.03,0 S,0,55156,,0.15 F,0,55156,55406,0,1 MY,22,55156,59886,410,420 F,0,59636,59886,1,0
Sprite,Foreground,BottomCentre,"sb\lyrics\3044.png",400.48,0 S,0,55156,,0.15 F,0,55156,55406,0,1 MY,22,55156,59886,406,420 F,0,59636,59886,1,0
Sprite,Foreground,BottomCentre,"sb\lyrics\305f.png",430.93,0 S,0,55156,,0.15 F,0,55156,55406,0,1 MY,22,55156,59886,409,420 F,0,59636,59886,1,0
Sprite,Foreground,BottomCentre,"sb\lyrics\91cd.png",242.11,0 S,0,61040,,0.15 F,0,61040,61290,0,1 MY,22,61040,64386,407,420 F,0,64136,64386,1,0
Sprite,Foreground,BottomCentre,"sb\lyrics\306d.png",272.56,0 S,0,61040,,0.15 F,0,61040,61290,0,1 MY,22,61040,64386,408,420 F,0,64136,64386,1,0
Sprite,Foreground,BottomCentre,"sb\lyrics\4e0a.png",303.01,0 S,0,61040,,0.15 F,0,61040,61290,0,1 MY,22,61040,64386,406,420 F,0,64136,64386,1,0
Sprite,Foreground,BottomCentre,"sb\lyrics\3052.png",333.46,0 S,0,61040,,0.15 F,0,61040,61290,0,1 MY,22,61040,64386,407,420 F,0,64136,64386,1,0
Sprite,Foreground,BottomCentre,"sb\lyrics\3066.png",363.91,0 S,0,61040,,0.15 F,0,61040,61290,0,1 MY,22,61040,64386,409,420 F,0,64136,64386,1,0
Sprite,Foreground,BottomCentre,"sb\lyrics\3086.png",394.36,0 S,0,61040,,0.15 F,0,61040,61290,0,1 MY,22,61040,64386,409,420 F,0,64136,64386,1,0
Sprite,Foreground,BottomCentre,"sb\lyrics\304f.png",424.81,0 S,0,61040,,0.15 F,0,61040,61290,0,1 MY,22,61040,64386,409,420 F,0,64136,64386,1,0
Sprite,Foreground,BottomCentre,"sb\lyrics\5343.png",278.65,0 S,0,64617,,0.15 F,0,64617,64867,0,1 MY,22,64617,67733,407,420 F,0,67483,67733,1,0
Sprite,Foreground,BottomCentre,"sb\lyrics\306e.png",309.1,0 S,0,64617,,0.15 F,0,64617,64867,0,1 MY,22,64617,67733,408,420 F,0,67483,67733,1,0
Sprite,Foreground,BottomCentre,"sb\lyrics\7dbf.png",339.55,0 S,0,64617,,0.15 F,0,64617,64867,0,1 MY,22,64617,67733,409,420 F,0,67483,67733,1,0
Sprite,Foreground,BottomCentre,"sb\lyrics\7fbd.png",370,0 S,0,64617,,0.15 F,0,64617,64867,0,1 MY,22,64617,67733,407,420 F,0,67483,67733,1,0
Sprite,Foreground,BottomCentre,"sb\lyrics\3092.png",400.45,0 S,0,64617,,0.15 F,0,64617,64867,0,1 MY,22,64617,67733,410,420 F,0,67483,67733,1,0
Sprite,Foreground,BottomCentre,"sb\lyrics\3044.png",242.11,0 S,0,67963,,0.15 F,0,67963,68213,0,1 MY,22,67963,70156,407,420 F,0,69906,70156,1,0
Sprite,Foreground,BottomCentre,"sb\lyrics\3064.png",272.56,0 S,0,67963,,0.15 F,0,67963,68213,0,1 MY,22,67963,70156,410,420 F,0,69906,70156,1,0
Sprite,Foreground,BottomCentre,"sb\lyrics\304b.png",303.01,0 S,0,67963,,0.15 F,0,67963,68213,0,1 MY,22,67963,70156,409,420 F,0,69906,70156,1,0
Sprite,Foreground,BottomCentre,"sb\lyrics\7fbd.png",333.46,0 S,0,67963,,0.15 F,0,67963,68213,0,1 MY,22,67963,70156,409,420 F,0,69906,70156,1,0
Sprite,Foreground,BottomCentre,"sb\lyrics\3070.png",363.91,0 S,0,67963,,0.15 F,0,67963,68213,0,1 MY,22,67963,70156,408,420 F,0,69906,70156,1,0
Sprite,Foreground,BottomCentre,"sb\lyrics\305f.png",394.36,0 S,0,67963,,0.15 F,0,67963,68213,0,1 MY,22,67963,70156,410,420 F,0,69906,70156,1,0
Sprite,Foreground,BottomCentre,"sb\lyrics\304f.png",424.81,0 S,0,67963,,0.15 F,0,67963,68213,0,1 MY,22,67963,70156,408,420 F,0,69906,70156,1,0
Sprite,Foreground,BottomCentre,"sb\lyrics\3042.png",251.2,0 S,0,70271,,0.15 F,0,70271,70521,0,1 MY,22,70271,72463,408,420 F,0,72213,72463,1,0
Sprite,Foreground,BottomCentre,"sb\lyrics\3042.png",281.65,0 S,0,70271,,0.15 F,0,70271,70521,0,1 MY,22,70271,72463,407,420 F,0,72213,72463,1,0
Sprite,Foreground,BottomCentre,"sb\lyrics\79c1.png",327.4,0 S,0,70271,,0.15 F,0,70271,70521,0,1 MY,22,70271,72463,408,420 F,0,72213,72463,1,0
Sprite,Foreground,BottomCentre,"sb\lyrics\3060.png",357.85,0 S,0,70271,,0.15 F,0,70271,70521,0,1 MY,22,70271,72463,408,420 F,0,72213,72463,1,0
Sprite,Foreground,BottomCentre,"sb\lyrics\3063.png",388.3,0 S,0,70271,,0.15 F,0,70271,70521,0,1 MY,22,70271,72463,407,420 F,0,72213,72463,1,0
Sprite,Foreground,BottomCentre,"sb\lyrics\3066.png",418.75,0 S,0,70271,,0.15 F,0,70271,70521,0,1 MY,22,70271,72463,410,420 F,0,72213,72463,1,0
Sprite,Foreground,BottomCentre,"sb\lyrics\592a.png",260.38,0 S,0,72579,,0.15 F,0,72579,72829,0,1 MY,22,72579,75463,410,420 F,0,75213,75463,1,0
Sprite,Foreground,BottomCentre,"sb\lyrics\967d.png",290.83,0 S,0,72579,,0.15 F,0,72579,72829,0,1 MY,22,72579,75463,407,420 F,0,75213,75463,1,0
Sprite,Foreground,BottomCentre,"sb\lyrics\306e.png",321.28,0 S,0,72579,,0.15 F,0,72579,72829,0,1 MY,22,72579,75463,406,420 F,0,75213,75463,1,0
Sprite,Foreground,BottomCentre,"sb\lyrics\3088.png",351.73,0 S,0,72579,,0.15 F,0,72579,72829,0,1 MY,22,72579,75463,410,420 F,0,75213,75463,1,0
Sprite,Foreground,BottomCentre,"sb\lyrics\3046.png",382.18,0 S,0,72579,,0.15 F,0,72579,72829,0,1 MY,22,72579,75463,406,420 F,0,75213,75463,1,0
Sprite,Foreground,BottomCentre,"sb\lyrics\306b.png",412.63,0 S,0,72579,,0.15 F,0,72579,72829,0,1 MY,22,72579,75463,408,420 F,0,75213,75463,1,0
Sprite,Foreground,BottomCentre,"sb\lyrics\305d.png",214.66,0 S,0,75809,,0.15 F,0,75809,76059,0,1 MY,22,75809,79271,408,420 F,0,79021,79271,1,0
Sprite,Foreground,BottomCentre,"sb\lyrics\308c.png",245.11,0 S,0,75809,,0.15 F,0,75809,76059,0,1 MY,22,75809,79271,410,420 F,0,79021,79271,1,0
Sprite,Foreground,BottomCentre,"sb\lyrics\306f.png",275.56,0 S,0,75809,,0.15 F,0,75809,76059,0,1 MY,22,75809,79271,407,420 F,0,79021,79271,1,0
Sprite,Foreground,BottomCentre,"sb\lyrics\3042.png",321.31,0 S,0,75809,,0.15 F,0,75809,76059,0,1 MY,22,75809,79271,409,420 F,0,79021,79271,1,0
Sprite,Foreground,BottomCentre,"sb\lyrics\308a.png",351.76,0 S,0,75809,,0.15 F,0,75809,76059,0,1 MY,22,75809,79271,410,420 F,0,79021,79271,1,0
Sprite,Foreground,BottomCentre,"sb\lyrics\304d.png",382.21,0 S,0,75809,,0.15 F,0,75809,76059,0,1 MY,22,75809,79271,406,420 F,0,79021,79271,1,0
Sprite,Foreground,BottomCentre,"sb\lyrics\305f.png",412.66,0 S,0,75809,,0.15 F,0,75809,76059,0,1 MY,22,75809,79271,408,420 F,0,79021,79271,1,0
Sprite,Foreground,BottomCentre,"sb\lyrics\308a.png",443.11,0 S,0,75809,,0.15 F,0,75809,76059,0,1 MY,22,75809,79271,410,420 F,0,79021,79271,1,0
Sprite,Foreground,BottomCentre,"sb\lyrics\5c11.png",242.11,0 S,0,79386,,0.15 F,0,79386,79636,0,1 MY,22,79386,82386,409,420 F,0,82136,82386,1,0
Sprite,Foreground,BottomCentre,"sb\lyrics\3057.png",272.56,0 S,0,79386,,0.15 F,0,79386,79636,0,1 MY,22,79386,82386,408,420 F,0,82136,82386,1,0
Sprite,Foreground,BottomCentre,"sb\lyrics\51b7.png",303.01,0 S,0,79386,,0.15 F,0,79386,79636,0,1 MY,22,79386,82386,410,420 F,0,82136,82386,1,0
Sprite,Foreground,BottomCentre,"sb\lyrics\3048.png",333.46,0 S,0,79386,,0.15 F,0,79386,79636,0,1 MY,22,79386,82386,408,420 F,0,82136,82386,1,0
Sprite,Foreground,BottomCentre,"sb\lyrics\308b.png",363.91,0 S,0,79386,,0.15 F,0,79386,79636,0,1 MY,22,79386,82386,409,420 F,0,82136,82386,1,0
Sprite,Foreground,BottomCentre,"sb\lyrics\5348.png",394.36,0 S,0,79386,,0.15 F,0,79386,79636,0,1 MY,22,79386,82386,407,420 F,0,82136,82386,1,0
Sprite,Foreground,BottomCentre,"sb\lyrics\5f8c.png",424.81,0 S,0,79386,,0.15 F,0,79386,79636,0,1 MY,22,79386,82386,409,420 F,0,82136,82386,1,0
Sprite,Foreground,BottomCentre,"sb\lyrics\3069.png",242.11,0 S,0,82733,,0.15 F,0,82733,82983,0,1 MY,22,82733,85271,409,420 F,0,85021,85271,1,0
Sprite,Foreground,BottomCentre,"sb\lyrics\3053.png",272.56,0 S,0,82733,,0.15 F,0,82733,82983,0,1 MY,22,82733,85271,406,420 F,0,85021,85271,1,0
Sprite,Foreground,BottomCentre,"sb\lyrics\3067.png",303.01,0 S,0,82733,,0.15 F,0,82733,82983,0,1 MY,22,82733,85271,406,420 F,0,85021,85271,1,0
Sprite,Foreground,BottomCentre,"sb\lyrics\805e.png",333.46,0 S,0,82733,,0.15 F,0,82733,82983,0,1 MY,22,82733,85271,408,420 F,0,85021,85271,1,0
Sprite,Foreground,BottomCentre,"sb\lyrics\3044.png",363.91,0 S,0,82733,,0.15 F,0,82733,82983,0,1 MY,22,82733,85271,408,420 F,0,85021,85271,1,0
Sprite,Foreground,BottomCentre,"sb\lyrics\305f.png",394.36,0 S,0,82733,,0.15 F,0,82733,82983,0,1 MY,22,82733,85271,407,420 F,0,85021,85271,1,0
Sprite,Foreground,BottomCentre,"sb\lyrics\304b.png",424.81,0 S,0,82733,,0.15 F,0,82733,82983,0,1 MY,22,82733,85271,408,420 F,0,85021,85271,1,0
Sprite,Foreground,BottomCentre,"sb\lyrics\8a9e.png",242.11,0 S,0,85502,,0.15 F,0,85502,85752,0,1 MY,22,85502,88502,406,420 F,0,88252,88502,1,0
Sprite,Foreground,BottomCentre,"sb\lyrics\308a.png",272.56,0 S,0,85502,,0.15 F,0,85502,85752,0,1 MY,22,85502,88502,407,420 F,0,88252,88502,1,0
Sprite,Foreground,BottomCentre,"sb\lyrics\307e.png",303.01,0 S,0,85502,,0.15 F,0,85502,85752,0,1 MY,22,85502,88502,406,420 F,0,88252,88502,1,0
Sprite,Foreground,BottomCentre,"sb\lyrics\3057.png",333.46,0 S,0,85502,,0.15 F,0,85502,85752,0,1 MY,22,85502,88502,409,420 F,0,88252,88502,1,0
Sprite,Foreground,BottomCentre,"sb\lyrics\3087.png",363.91,0 S,0,85502,,0.15 F,0,85502,85752,0,1 MY,22,85502,88502,410,420 F,0,88252,88502,1,0
Sprite,Foreground,BottomCentre,"sb\lyrics\3046.png",394.36,0 S,0,85502,,0.15 F,0,85502,85752,0,1 MY,22,85502,88502,409,420 F,0,88252,88502,1,0
Sprite,Foreground,BottomCentre,"sb\lyrics\304b.png",424.81,0 S,0,85502,,0.15 F,0,85502,85752,0,1 MY,22,85502,88502,410,420 F,0,88252,88502,1,0
Sprite,Foreground,BottomCentre,"sb\lyrics\5c0f.png",260.38,0 S,0,88733,,0.15 F,0,88733,88983,0,1 MY,22,88733,93463,406,420 F,0,93213,93463,1,0
Sprite,Foreground,BottomCentre,"sb\lyrics\3055.png",290.83,0 S,0,88733,,0.15 F,0,88733,88983,0,1 MY,22,88733,93463,406,420 F,0,93213,93463,1,0
Sprite,Foreground,BottomCentre,"sb\lyrics\306a.png",321.28,0 S,0,88733,,0.15 F,0,88733,88983,0,1 MY,22,88733,93463,410,420 F,0,93213,93463,1,0
Sprite,Foreground,BottomCentre,"sb\lyrics\7269.png",351.73,0 S,0,88733,,0.15 F,0,88733,88983,0,1 MY,22,88733,93463,407,420 F,0,93213,93463,1,0
Sprite,Foreground,BottomCentre,"sb\lyrics\8a9e.png",382.18,0 S,0,88733,,0.15 F,0,88733,88983,0,1 MY,22,88733,93463,410,420 F,0,93213,93463,1,0
Sprite,Foreground,BottomCentre,"sb\lyrics\3092.png",412.63,0 S,0,88733,,0.15 F,0,88733,88983,0,1 MY,22,88733,93463,409,420 F,0,93213,93463,1,0
Sprite,Foreground,BottomCentre,"sb\lyrics\5927.png",315.19,0 S,0,98425,,0.15 F,0,98425,98675,0,1 MY,22,98425,100848,406,420 F,0,100598,100848,1,0
Sprite,Foreground,BottomCentre,"sb\lyrics\5207.png",345.64,0 S,0,98425,,0.15 F,0,98425,98675,0,1 MY,22,98425,100848,406,420 F,0,100598,100848,1,0
Sprite,Foreground,BottomCentre,"sb\lyrics\306b.png",376.09,0 S,0,98425,,0.15 F,0,98425,98675,0,1 MY,22,98425,100848,408,420 F,0,100598,100848,1,0
Sprite,Foreground,BottomCentre,"sb\lyrics\80f8.png",205.57,0 S,0,101194,,0.15 F,0,101194,101444,0,1 MY,22,101194,105233,409,420 F,0,104983,105233,1,0
Sprite,Foreground,BottomCentre,"sb\lyrics\306b.png",236.02,0 S,0,101194,,0.15 F,0,101194,101444,0,1 MY,22,101194,105233,407,420 F,0,104983,105233,1,0
Sprite,Foreground,BottomCentre,"sb\lyrics\3057.png",266.47,0 S,0,101194,,0.15 F,0,101194,101444,0,1 MY,22,101194,105233,408,420 F,0,104983,105233,1,0
Sprite,Foreground,BottomCentre,"sb\lyrics\307e.png",296.92,0 S,0,101194,,0.15 F,0,101194,101444,0,1 MY,22,101194,105233,410,420 F,0,104983,105233,1,0
Sprite,Foreground,BottomCentre,"sb\lyrics\3063.png",327.37,0 S,0,101194,,0.15 F,0,101194,101444,0,1 MY,22,101194,105233,407,420 F,0,104983,105233,1,0
Sprite,Foreground,BottomCentre,"sb\lyrics\3066.png",357.82,0 S,0,101194,,0.15 F,0,101194,101444,0,1 MY,22,101194,105233,407,420 F,0,104983,105233,1,0
Sprite,Foreground,BottomCentre,"sb\lyrics\3086.png",388.27,0 S,0,101194,,0.15 F,0,101194,101444,0,1 MY,22,101194,105233,406,420 F,0,104983,105233,1,0
Sprite,Foreground,BottomCentre,"sb\lyrics\304f.png",418.72,0 S,0,101194,,0.15 F,0,101194,101444,0,1 MY,22,101194,105233,407,420 F,0,104983,105233,1,0
Sprite,Foreground,BottomCentre,"sb\lyrics\306e.png",449.17,0 S,0,101194,,0.15 F,0,101194,101444,0,1 MY,22,101194,105233,409,420 F,0,104983,105233,1,0
Sprite,Foreground,BottomCentre,"sb\lyrics\958b.png",296.92,0 S,0,105809,,0.15 F,0,105809,106059,0,1 MY,22,105809,108233,409,420 F,0,107983,108233,1,0
Sprite,Foreground,BottomCentre,"sb\lyrics\304f.png",327.37,0 S,0,105809,,0.15 F,0,105809,106059,0,1 MY,22,105809,108233,408,420 F,0,107983,108233,1,0
Sprite,Foreground,BottomCentre,"sb\lyrics\306e.png",357.82,0 S,0,105809,,0.15 F,0,105809,106059,0,1 MY,22,105809,108233,409,420 F,0,107983,108233,1,0
Sprite,Foreground,BottomCentre,"sb\lyrics\306f.png",388.27,0 S,0,105809,,0.15 F,0,105809,106059,0,1 MY,22,105809,108233,407,420 F,0,107983,108233,1,0
Sprite,Foreground,BottomCentre,"sb\lyrics\5168.png",205.57,0 S,0,108579,,0.15 F,0,108579,108829,0,1 MY,22,108579,111694,409,420 F,0,111444,111694,1,0
Sprite,Foreground,BottomCentre,"sb\lyrics\3066.png",236.02,0 S,0,108579,,0.15 F,0,108579,108829,0,1 MY,22,108579,111694,406,420 F,0,111444,111694,1,0
Sprite,Foreground,BottomCentre,"sb\lyrics\51fa.png",266.47,0 S,0,108579,,0.15 F,0,108579,108829,0,1 MY,22,108579,111694,407,420 F,0,111444,111694,1,0
Sprite,Foreground,BottomCentre,"sb\lyrics\6765.png",296.92,0 S,0,108579,,0.15 F,0,108579,108829,0,1 MY,22,108579,111694,406,420 F,0,111444,111694,1,0
Sprite,Foreground,BottomCentre,"sb\lyrics\4e0a.png",327.37,0 S,0,108579,,0.15 F,0,108579,108829,0,1 MY,22,108579,111694,408,420 F,0,111444,111694,1,0
Sprite,Foreground,BottomCentre,"sb\lyrics\304c.png",357.82,0 S,0,108579,,0.15 F,0,108579,108829,0,1 MY,22,108579,111694,406,420 F,0,111444,111694,1,0
Sprite,Foreground,BottomCentre,"sb\lyrics\3063.png",388.27,0 S,0,108579,,0.15 F,0,108579,108829,0,1 MY,22,108579,111694,406,420 F,0,111444,111694,1,0
Sprite,Foreground,BottomCentre,"sb\lyrics\305f.png",418.72,0 S,0,108579,,0.15 F,0,108579,108829,0,1 MY,22,108579,111694,410,420 F,0,111444,111694,1,0
Sprite,Foreground,BottomCentre,"sb\lyrics\3089.png",449.17,0 S,0,108579,,0.15 F,0,108579,108829,0,1 MY,22,108579,111694,408,420 F,0,111444,111694,1,0
Sprite,Foreground,BottomCentre,"sb\lyrics\3055.png",296.92,0 S,0,113194,,0.15 F,0,113194,113444,0,1 MY,22,113194,115733,409,420 F,0,115483,115733,1,0
Sprite,Foreground,BottomCentre,"sb\lyrics\3056.png",327.37,0 S,0,113194,,0.15 F,0,113194,113444,0,1 MY,22,113194,115733,409,420 F,0,115483,115733,1,0
Sprite,Foreground,BottomCentre,"sb\lyrics\6ce2.png",357.82,0 S,0,113194,,0.15 F,0,113194,113444,0,1 MY,22,113194,115733,408,420 F,0,115483,115733,1,0
Sprite,Foreground,BottomCentre,"sb\lyrics\306f.png",388.27,0 S,0,113194,,0.15 F,0,113194,113444,0,1 MY,22,113194,115733,406,420 F,0,115483,115733,1,0
Sprite,Foreground,BottomCentre,"sb\lyrics\3068.png",205.57,0 S,0,115963,,0.15 F,0,115963,116213,0,1 MY,22,115963,120233,410,420 F,0,119983,120233,1,0
Sprite,Foreground,BottomCentre,"sb\lyrics\3066.png",236.02,0 S,0,115963,,0.15 F,0,115963,116213,0,1 MY,22,115963,120233,406,420 F,0,119983,120233,1,0
Sprite,Foreground,BottomCentre,"sb\lyrics\3082.png",266.47,0 S,0,115963,,0.15 F,0,115963,116213,0,1 MY,22,115963,120233,409,420 F,0,119983,120233,1,0
Sprite,Foreground,BottomCentre,"sb\lyrics\5fc3.png",296.92,0 S,0,115963,,0.15 F,0,115963,116213,0,1 MY,22,115963,120233,410,420 F,0,119983,120233,1,0
Sprite,Foreground,BottomCentre,"sb\lyrics\5730.png",327.37,0 S,0,115963,,0.15 F,0,115963,116213,0,1 MY,22,115963,120233,407,420 F,0,119983,120233,1,0
Sprite,Foreground,BottomCentre,"sb\lyrics\826f.png",357.82,0 S,0,115963,,0.15 F,0,115963,116213,0,1 MY,22,115963,120233,407,420 F,0,119983,120233,1,0
Sprite,Foreground,BottomCentre,"sb\lyrics\304f.png",388.27,0 S,0,115963,,0.15 F,0,115963,116213,0,1 MY,22,115963,120233,409,420 F,0,119983,120233,1,0
Sprite,Foreground,BottomCentre,"sb\lyrics\3063.png",418.72,0 S,0,115963,,0.15 F,0,115963,116213,0,1 MY,22,115963,120233,407,420 F,0,119983,120233,1,0
Sprite,Foreground,BottomCentre,"sb\lyrics\3066.png",449.17,0 S,0,115963,,0.15 F,0,115963,116213,0,1 MY,22,115963,120233,407,420 F,0,119983,120233,1,0
Sprite,Foreground,BottomCentre,"sb\lyrics\304d.png",278.65,0 S,0,120463,,0.15 F,0,120463,120713,0,1 MY,22,120463,123117,410,420 F,0,122867,123117,1,0
Sprite,Foreground,BottomCentre,"sb\lyrics\3063.png",309.1,0 S,0,120463,,0.15 F,0,120463,120713,0,1 MY,22,120463,123117,410,420 F,0,122867,123117,1,0
Sprite,Foreground,BottomCentre,"sb\lyrics\3068.png",339.55,0 S,0,120463,,0.15 F,0,120463,120713,0,1 MY,22,120463,123117,409,420 F,0,122867,123117,1,0
Sprite,Foreground,BottomCentre,"sb\lyrics\8ab0.png",370,0 S,0,120463,,0.15 F,0,120463,120713,0,1 MY,22,120463,123117,406,420 F,0,122867,123117,1,0
Sprite,Foreground,BottomCentre,"sb\lyrics\304b.png",400.45,0 S,0,120463,,0.15 F,0,120463,120713,0,1 MY,22,120463,123117,407,420 F,0,122867,123117,1,0
Sprite,Foreground,BottomCentre,"sb\lyrics\7fbd.png",187.3,0 S,0,123348,,0.15 F,0,123348,123598,0,1 MY,22,123348,126463,409,420 F,0,126213,126463,1,0
Sprite,Foreground,BottomCentre,"sb\lyrics\3092.png",217.75,0 S,0,123348,,0.15 F,0,123348,123598,0,1 MY,22,123348,126463,410,420 F,0,126213,126463,1,0
Sprite,Foreground,BottomCentre,"sb\lyrics\5e83.png",248.2,0 S,0,123348,,0.15 F,0,123348,123598,0,1 MY,22,123348,126463,409,420 F,0,126213,126463,1,0
Sprite,Foreground,BottomCentre,"sb\lyrics\3052.png",278.65,0 S,0,123348,,0.15 F,0,123348,123598,0,1 MY,22,123348,126463,407,420 F,0,126213,126463,1,0
Sprite,Foreground,BottomCentre,"sb\lyrics\305f.png",309.1,0 S,0,123348,,0.15 F,0,123348,123598,0,1 MY,22,123348,126463,406,420 F,0,126213,126463,1,0
Sprite,Foreground,BottomCentre,"sb\lyrics\3093.png",339.55,0 S,0,123348,,0.15 F,0,123348,123598,0,1 MY,22,123348,126463,409,420 F,0,126213,126463,1,0
Sprite,Foreground,BottomCentre,"sb\lyrics\3067.png",370,0 S,0,123348,,0.15 F,0,123348,123598,0,1 MY,22,123348,126463,410,420 F,0,126213,126463,1,0
Sprite,Foreground,BottomCentre,"sb\lyrics\3057.png",400.45,0 S,0,123348,,0.15 F,0,123348,123598,0,1 MY,22,123348,126463,410,420 F,0,126213,126463,1,0
Sprite,Foreground,BottomCentre,"sb\lyrics\3087.png",430.9,0 S,0,123348,,0.15 F,0,123348,123598,0,1 MY,22,123348,126463,406,420 F,0,126213,126463,1,0
Sprite,Foreground,BottomCentre,"sb\lyrics\3046.png",461.35,0 S,0,123348,,0.15 F,0,123348,123598,0,1 MY,22,123348,126463,407,420 F,0,126213,126463,1,0
Sprite,Foreground,BottomCentre,"sb\lyrics\6642.png",214.66,0 S,0,126579,,0.15 F,0,126579,126829,0,1 MY,22,126579,130130,406,420 F,0,129880,130130,1,0
Sprite,Foreground,BottomCentre,"sb\lyrics\3092.png",245.11,0 S,0,126579,,0.15 F,0,126579,126829,0,1 MY,22,126579,130130,408,420 F,0,129880,130130,1,0
Sprite,Foreground,BottomCentre,"sb\lyrics\304b.png",275.56,0 S,0,126579,,0.15 F,0,126579,126829,0,1 MY,22,126579,130130,407,420 F,0,129880,130130,1,0
Sprite,Foreground,BottomCentre,"sb\lyrics\3051.png",306.01,0 S,0,126579,,0.15 F,0,126579,126829,0,1 MY,22,126579,130130,408,420 F,0,129880,130130,1,0
Sprite,Foreground,BottomCentre,"sb\lyrics\3066.png",336.46,0 S,0,126579,,0.15 F,0,126579,126829,0,1 MY,22,126579,130130,407,420 F,0,129880,130130,1,0
Sprite,Foreground,BottomCentre,"sb\lyrics\3086.png",382.21,0 S,0,126579,,0.15 F,0,126579,126829,0,1 MY,22,126579,130130,410,420 F,0,129880,130130,1,0
Sprite,Foreground,BottomCentre,"sb\lyrics\308b.png",412.66,0 S,0,126579,,0.15 F,0,126579,126829,0,1 MY,22,126579,130130,410,420 F,0,129880,130130,1,0
Sprite,Foreground,BottomCentre,"sb\lyrics\308a.png",443.11,0 S,0,126579,,0.15 F,0,126579,126829,0,1 MY,22,126579,130130,407,420 F,0,129880,130130,1,0
Sprite,Foreground,BottomCentre,"sb\lyrics\78a7.png",223.84,0 S,0,130271,,0.15 F,0,130271,130521,0,1 MY,22,130271,133963,408,420 F,0,133713,133963,1,0
Sprite,Foreground,BottomCentre,"sb\lyrics\304f.png",254.29,0 S,0,130271,,0.15 F,0,130271,130521,0,1 MY,22,130271,133963,409,420 F,0,133713,133963,1,0
Sprite,Foreground,BottomCentre,"sb\lyrics\67d3.png",284.74,0 S,0,130271,,0.15 F,0,130271,130521,0,1 MY,22,130271,133963,408,420 F,0,133713,133963,1,0
Sprite,Foreground,BottomCentre,"sb\lyrics\3081.png",315.19,0 S,0,130271,,0.15 F,0,130271,130521,0,1 MY,22,130271,133963,410,420 F,0,133713,133963,1,0
Sprite,Foreground,BottomCentre,"sb\lyrics\4e0a.png",345.64,0 S,0,130271,,0.15 F,0,130271,130521,0,1 MY,22,130271,133963,410,420 F,0,133713,133963,1,0
Sprite,Foreground,BottomCentre,"sb\lyrics\3052.png",376.09,0 S,0,130271,,0.15 F,0,130271,130521,0,1 MY,22,130271,133963,406,420 F,0,133713,133963,1,0
Sprite,Foreground,BottomCentre,"sb\lyrics\308c.png",406.54,0 S,0,130271,,0.15 F,0,130271,130521,0,1 MY,22,130271,133963,408,420 F,0,133713,133963,1,0
Sprite,Foreground,BottomCentre,"sb\lyrics\3070.png",436.99,0 S,0,130271,,0.15 F,0,130271,130521,0,1 MY,22,130271,133963,406,420 F,0,133713,133963,1,0
Sprite,Foreground,BottomCentre,"sb\lyrics\624b.png",205.57,0 S,0,134425,,0.15 F,0,134425,134675,0,1 MY,22,134425,137886,407,420 F,0,137636,137886,1,0
Sprite,Foreground,BottomCentre,"sb\lyrics\9593.png",236.02,0 S,0,134425,,0.15 F,0,134425,134675,0,1 MY,22,134425,137886,409,420 F,0,137636,137886,1,0
Sprite,Foreground,BottomCentre,"sb\lyrics\306f.png",266.47,0 S,0,134425,,0.15 F,0,134425,134675,0,1 MY,22,134425,137886,407,420 F,0,137636,137886,1,0
Sprite,Foreground,BottomCentre,"sb\lyrics\304b.png",296.92,0 S,0,134425,,0.15 F,0,134425,134675,0,1 MY,22,134425,137886,409,420 F,0,137636,137886,1,0
Sprite,Foreground,BottomCentre,"sb\lyrics\304b.png",327.37,0 S,0,134425,,0.15 F,0,134425,134675,0,1 MY,22,134425,137886,409,420 F,0,137636,137886,1,0
Sprite,Foreground,BottomCentre,"sb\lyrics\308b.png",357.82,0 S,0,134425,,0.15 F,0,134425,134675,0,1 MY,22,134425,137886,409,420 F,0,137636,137886,1,0
Sprite,Foreground,BottomCentre,"sb\lyrics\3051.png",388.27,0 S,0,134425,,0.15 F,0,134425,134675,0,1 MY,22,134425,137886,409,420 F,0,137636,137886,1,0
Sprite,Foreground,BottomCentre,"sb\lyrics\308c.png",418.72,0 S,0,134425,,0.15 F,0,134425,134675,0,1 MY,22,134425,137886,406,420 F,0,137636,137886,1,0
Sprite,Foreground,BottomCentre,"sb\lyrics\3069.png",449.17,0 S,0,134425,,0.15 F,0,134425,134675,0,1 MY,22,134425,137886,410,420 F,0,137636,137886,1,0
Sprite,Foreground,BottomCentre,"sb\lyrics\660e.png",260.38,0 S,0,138117,,0.15 F,0,138117,138367,0,1 MY,22,138117,140720,410,420 F,0,140470,140720,1,0
Sprite,Foreground,BottomCentre,"sb\lyrics\65e5.png",290.83,0 S,0,138117,,0.15 F,0,138117,138367,0,1 MY,22,138117,140720,408,420 F,0,140470,140720,1,0
Sprite,Foreground,BottomCentre,"sb\lyrics\3082.png",321.28,0 S,0,138117,,0.15 F,0,138117,138367,0,1 MY,22,138117,140720,407,420 F,0,140470,140720,1,0
Sprite,Foreground,BottomCentre,"sb\lyrics\4f1a.png",351.73,0 S,0,138117,,0.15 F,0,138117,138367,0,1 MY,22,138117,140720,408,420 F,0,140470,140720,1,0
Sprite,Foreground,BottomCentre,"sb\lyrics\3048.png",382.18,0 S,0,138117,,0.15 F,0,138117,138367,0,1 MY,22,138117,140720,409,420 F,0,140470,140720,1,0
Sprite,Foreground,BottomCentre,"sb\lyrics\308b.png",412.63,0 S,0,138117,,0.15 F,0,138117,138367,0,1 MY,22,138117,140720,406,420 F,0,140470,140720,1,0
Sprite,Foreground,BottomCentre,"sb\lyrics\7d04.png",333.46,0 S,0,140886,,0.15 F,0,140886,141136,0,1 MY,22,140886,142271,410,420 F,0,142021,142271,1,0
Sprite,Foreground,BottomCentre,"sb\lyrics\675f.png",363.91,0 S,0,140886,,0.15 F,0,140886,141136,0,1 MY,22,140886,142271,409,420 F,0,142021,142271,1,0
Sprite,Foreground,BottomCentre,"sb\lyrics\91cd.png",242.11,0 S,0,142271,,0.15 F,0,142271,142521,0,1 MY,22,142271,145617,409,420 F,0,145367,145617,1,0
Sprite,Foreground,BottomCentre,"sb\lyrics\306d.png",272.56,0 S,0,142271,,0.15 F,0,142271,142521,0,1 MY,22,142271,145617,408,420 F,0,145367,145617,1,0
Sprite,Foreground,BottomCentre,"sb\lyrics\4e0a.png",303.01,0 S,0,142271,,0.15 F,0,142271,142521,0,1 MY,22,142271,145617,406,420 F,0,145367,145617,1,0
Sprite,Foreground,BottomCentre,"sb\lyrics\3052.png",333.46,0 S,0,142271,,0.15 F,0,142271,142521,0,1 MY,22,142271,145617,408,420 F,0,145367,145617,1,0
Sprite,Foreground,BottomCentre,"sb\lyrics\3066.png",363.91,0 S,0,142271,,0.15 F,0,142271,142521,0,1 MY,22,142271,145617,410,420 F,0,145367,145617,1,0
Sprite,Foreground,BottomCentre,"sb\lyrics\3086.png",394.36,0 S,0,142271,,0.15 F,0,142271,142521,0,1 MY,22,142271,145617,409,420 F,0,145367,145617,1,0
Sprite,Foreground,BottomCentre,"sb\lyrics\304f.png",424.81,0 S,0,142271,,0.15 F,0,142271,142521,0,1 MY,22,142271,145617,406,420 F,0,145367,145617,1,0
Sprite,Foreground,BottomCentre,"sb\lyrics\5343.png",278.65,0 S,0,145963,,0.15 F,0,145963,146213,0,1 MY,22,145963,148963,409,420 F,0,148713,148963,1,0
Sprite,Foreground,BottomCentre,"sb\lyrics\306e.png",309.1,0 S,0,145963,,0.15 F,0,145963,146213,0,1 MY,22,145963,148963,410,420 F,0,148713,148963,1,0
Sprite,Foreground,BottomCentre,"sb\lyrics\8272.png",339.55,0 S,0,145963,,0.15 F,0,145963,146213,0,1 MY,22,145963,148963,407,420 F,0,148713,148963,1,0
Sprite,Foreground,BottomCentre,"sb\lyrics\5f69.png",370,0 S,0,145963,,0.15 F,0,145963,146213,0,1 MY,22,145963,148963,408,420 F,0,148713,148963,1,0
Sprite,Foreground,BottomCentre,"sb\lyrics\3092.png",400.45,0 S,0,145963,,0.15 F,0,145963,146213,0,1 MY,22,145963,148963,406,420 F,0,148713,148963,1,0
Sprite,Foreground,BottomCentre,"sb\lyrics\79c1.png",269.47,0 S,0,149194,,0.15 F,0,149194,149444,0,1 MY,22,149194,151271,409,420 F,0,151021,151271,1,0
Sprite,Foreground,BottomCentre,"sb\lyrics\3042.png",315.22,0 S,0,149194,,0.15 F,0,149194,149444,0,1 MY,22,149194,151271,408,420 F,0,151021,151271,1,0
Sprite,Foreground,BottomCentre,"sb\lyrics\306a.png",345.67,0 S,0,149194,,0.15 F,0,149194,149444,0,1 MY,22,149194,151271,408,420 F,0,151021,151271,1,0
Sprite,Foreground,BottomCentre,"sb\lyrics\305f.png",376.12,0 S,0,149194,,0.15 F,0,149194,149444,0,1 MY,22,149194,151271,410,420 F,0,151021,151271,1,0
Sprite,Foreground,BottomCentre,"sb\lyrics\306b.png",406.57,0 S,0,149194,,0.15 F,0,149194,149444,0,1 MY,22,149194,151271,408,420 F,0,151021,151271,1,0
Sprite,Foreground,BottomCentre,"sb\lyrics\4f1d.png",260.38,0 S,0,151502,,0.15 F,0,151502,151752,0,1 MY,22,151502,153694,406,420 F,0,153444,153694,1,0
Sprite,Foreground,BottomCentre,"sb\lyrics\3048.png",290.83,0 S,0,151502,,0.15 F,0,151502,151752,0,1 MY,22,151502,153694,407,420 F,0,153444,153694,1,0
Sprite,Foreground,BottomCentre,"sb\lyrics\305f.png",321.28,0 S,0,151502,,0.15 F,0,151502,151752,0,1 MY,22,151502,153694,408,420 F,0,153444,153694,1,0
Sprite,Foreground,BottomCentre,"sb\lyrics\3044.png",351.73,0 S,0,151502,,0.15 F,0,151502,151752,0,1 MY,22,151502,153694,407,420 F,0,153444,153694,1,0
Sprite,Foreground,BottomCentre,"sb\lyrics\3053.png",382.18,0 S,0,151502,,0.15 F,0,151502,151752,0,1 MY,22,151502,153694,409,420 F,0,153444,153694,1,0
Sprite,Foreground,BottomCentre,"sb\lyrics\3068.png",412.63,0 S,0,151502,,0.15 F,0,151502,151752,0,1 MY,22,151502,153694,407,420 F,0,153444,153694,1,0
Sprite,Foreground,BottomCentre,"sb\lyrics\6ca2.png",278.65,0 S,0,153809,,0.15 F,0,153809,154059,0,1 MY,22,153809,156809,410,420 F,0,156559,156809,1,0
Sprite,Foreground,BottomCentre,"sb\lyrics\5c71.png",309.1,0 S,0,153809,,0.15 F,0,153809,154059,0,1 MY,22,153809,156809,409,420 F,0,156559,156809,1,0
Sprite,Foreground,BottomCentre,"sb\lyrics\3042.png",339.55,0 S,0,153809,,0.15 F,0,153809,154059,0,1 MY,22,153809,156809,410,420 F,0,156559,156809,1,0
Sprite,Foreground,BottomCentre,"sb\lyrics\308b.png",370,0 S,0,153809,,0.15 F,0,153809,154059,0,1 MY,22,153809,156809,410,420 F,0,156559,156809,1,0
Sprite,Foreground,BottomCentre,"sb\lyrics\306e.png",400.45,0 S,0,153809,,0.15 F,0,153809,154059,0,1 MY,22,153809,156809,409,420 F,0,156559,156809,1,0
Sprite,Foreground,BottomCentre,"sb\lyrics\305d.png",214.66,0 S,0,157040,,0.15 F,0,157040,157290,0,1 MY,22,157040,160386,407,420 F,0,160136,160386,1,0
Sprite,Foreground,BottomCentre,"sb\lyrics\308c.png",245.11,0 S,0,157040,,0.15 F,0,157040,157290,0,1 MY,22,157040,160386,407,420 F,0,160136,160386,1,0
Sprite,Foreground,BottomCentre,"sb\lyrics\306f.png",275.56,0 S,0,157040,,0.15 F,0,157040,157290,0,1 MY,22,157040,160386,410,420 F,0,160136,160386,1,0
Sprite,Foreground,BottomCentre,"sb\lyrics\3042.png",321.31,0 S,0,157040,,0.15 F,0,157040,157290,0,1 MY,22,157040,160386,409,420 F,0,160136,160386,1,0
Sprite,Foreground,BottomCentre,"sb\lyrics\308a.png",351.76,0 S,0,157040,,0.15 F,0,157040,157290,0,1 MY,22,157040,160386,409,420 F,0,160136,160386,1,0
Sprite,Foreground,BottomCentre,"sb\lyrics\304d.png",382.21,0 S,0,157040,,0.15 F,0,157040,157290,0,1 MY,22,157040,160386,407,420 F,0,160136,160386,1,0
Sprite,Foreground,BottomCentre,"sb\lyrics\305f.png",412.66,0 S,0,157040,,0.15 F,0,157040,157290,0,1 MY,22,157040,160386,406,420 F,0,160136,160386,1,0
Sprite,Foreground,BottomCentre,"sb\lyrics\308a.png",443.11,0 S,0,157040,,0.15 F,0,157040,157290,0,1 MY,22,157040,160386,406,420 F,0,160136,160386,1,0
Sprite,Foreground,BottomCentre,"sb\lyrics\3060.png",260.38,0 S,0,160733,,0.15 F,0,160733,160983,0,1 MY,22,160733,163617,408,420 F,0,163367,163617,1,0
Sprite,Foreground,BottomCentre,"sb\lyrics\3051.png",290.83,0 S,0,160733,,0.15 F,0,160733,160983,0,1 MY,22,160733,163617,406,420 F,0,163367,163617,1,0
Sprite,Foreground,BottomCentre,"sb\lyrics\3069.png",321.28,0 S,0,160733,,0.15 F,0,160733,160983,0,1 MY,22,160733,163617,406,420 F,0,163367,163617,1,0
Sprite,Foreground,BottomCentre,"sb\lyrics\552f.png",351.73,0 S,0,160733,,0.15 F,0,160733,160983,0,1 MY,22,160733,163617,408,420 F,0,163367,163617,1,0
Sprite,Foreground,BottomCentre,"sb\lyrics\4e00.png",382.18,0 S,0,160733,,0.15 F,0,160733,160983,0,1 MY,22,160733,163617,408,420 F,0,163367,163617,1,0
Sprite,Foreground,BottomCentre,"sb\lyrics\3064.png",412.63,0 S,0,160733,,0.15 F,0,160733,160983,0,1 MY,22,160733,163617,408,420 F,0,163367,163617,1,0
Sprite,Foreground,BottomCentre,"sb\lyrics\4eca.png",260.38,0 S,0,163963,,0.15 F,0,163963,164213,0,1 MY,22,163963,166386,406,420 F,0,166136,166386,1,0
Sprite,Foreground,BottomCentre,"sb\lyrics\3082.png",290.83,0 S,0,163963,,0.15 F,0,163963,164213,0,1 MY,22,163963,166386,409,420 F,0,166136,166386,1,0
Sprite,Foreground,BottomCentre,"sb\lyrics\3053.png",321.28,0 S,0,163963,,0.15 F,0,163963,164213,0,1 MY,22,163963,166386,410,420 F,0,166136,166386,1,0
Sprite,Foreground,BottomCentre,"sb\lyrics\3046.png",351.73,0 S,0,163963,,0.15 F,0,163963,164213,0,1 MY,22,163963,166386,408,420 F,0,166136,166386,1,0
Sprite,Foreground,BottomCentre,"sb\lyrics\3057.png",382.18,0 S,0,163963,,0.15 F,0,163963,164213,0,1 MY,22,163963,166386,408,420 F,0,166136,166386,1,0
Sprite,Foreground,BottomCentre,"sb\lyrics\3066.png",412.63,0 S,0,163963,,0.15 F,0,163963,164213,0,1 MY,22,163963,166386,409,420 F,0,166136,166386,1,0
Sprite,Foreground,BottomCentre,"sb\lyrics\7db4.png",242.11,0 S,0,166733,,0.15 F,0,166733,166983,0,1 MY,22,166733,169617,409,420 F,0,169367,169617,1,0
Sprite,Foreground,BottomCentre,"sb\lyrics\3089.png",272.56,0 S,0,166733,,0.15 F,0,166733,166983,0,1 MY,22,166733,169617,406,420 F,0,169367,169617,1,0
Sprite,Foreground,BottomCentre,"sb\lyrics\308c.png",303.01,0 S,0,166733,,0.15 F,0,166733,166983,0,1 MY,22,166733,169617,409,420 F,0,169367,169617,1,0
Sprite,Foreground,BottomCentre,"sb\lyrics\3066.png",333.46,0 S,0,166733,,0.15 F,0,166733,166983,0,1 MY,22,166733,169617,408,420 F,0,169367,169617,1,0
Sprite,Foreground,BottomCentre,"sb\lyrics\3044.png",363.91,0 S,0,166733,,0.15 F,0,166733,166983,0,1 MY,22,166733,169617,408,420 F,0,169367,169617,1,0
Sprite,Foreground,BottomCentre,"sb\lyrics\308b.png",394.36,0 S,0,166733,,0.15 F,0,166733,166983,0,1 MY,22,166733,169617,408,420 F,0,169367,169617,1,0
Sprite,Foreground,BottomCentre,"sb\lyrics\306e.png",424.81,0 S,0,166733,,0.15 F,0,166733,166983,0,1 MY,22,166733,169617,407,420 F,0,169367,169617,1,0
Sprite,Foreground,BottomCentre,"sb\lyrics\5c0f.png",260.38,0 S,0,169963,,0.15 F,0,169963,170213,0,1 MY,22,169963,175194,409,420 F,0,174944,175194,1,0
Sprite,Foreground,BottomCentre,"sb\lyrics\3055.png",290.83,0 S,0,169963,,0.15 F,0,169963,170213,0,1 MY,22,169963,175194,407,420 F,0,174944,175194,1,0
Sprite,Foreground,BottomCentre,"sb\lyrics\306a.png",321.28,0 S,0,169963,,0.15 F,0,169963,170213,0,1 MY,22,169963,175194,406,420 F,0,174944,175194,1,0
Sprite,Foreground,BottomCentre,"sb\lyrics\7269.png",351.73,0 S,0,169963,,0.15 F,0,169963,170213,0,1 MY,22,169963,175194,409,420 F,0,174944,175194,1,0
Sprite,Foreground,BottomCentre,"sb\lyrics\8a9e.png",382.18,0 S,0,169963,,0.15 F,0,169963,170213,0,1 MY,22,169963,175194,409,420 F,0,174944,175194,1,0
Sprite,Foreground,BottomCentre,"sb\lyrics\306f.png",412.63,0 S,0,169963,,0.15 F,0,169963,170213,0,1 MY,22,169963,175194,407,420 F,0,174944,175194,1,0
Sprite,Foreground,BottomCentre,"sb\lyrics\6c34.png",223.84,0 S,0,186117,,0.15 F,0,186117,186367,0,1 MY,22,186117,189579,408,420 F,0,189329,189579,1,0
Sprite,Foreground,BottomCentre,"sb\lyrics\306b.png",254.29,0 S,0,186117,,0.15 F,0,186117,186367,0,1 MY,22,186117,189579,407,420 F,0,189329,189579,1,0
Sprite,Foreground,BottomCentre,"sb\lyrics\306a.png",284.74,0 S,0,186117,,0.15 F,0,186117,186367,0,1 MY,22,186117,189579,408,420 F,0,189329,189579,1,0
Sprite,Foreground,BottomCentre,"sb\lyrics\308a.png",315.19,0 S,0,186117,,0.15 F,0,186117,186367,0,1 MY,22,186117,189579,410,420 F,0,189329,189579,1,0
Sprite,Foreground,BottomCentre,"sb\lyrics\307e.png",345.64,0 S,0,186117,,0.15 F,0,186117,186367,0,1 MY,22,186117,189579,407,420 F,0,189329,189579,1,0
Sprite,Foreground,BottomCentre,"sb\lyrics\3057.png",376.09,0 S,0,186117,,0.15 F,0,186117,186367,0,1 MY,22,186117,189579,407,420 F,0,189329,189579,1,0
Sprite,Foreground,BottomCentre,"sb\lyrics\3087.png",406.54,0 S,0,186117,,0.15 F,0,186117,186367,0,1 MY,22,186117,189579,406,420 F,0,189329,189579,1,0
Sprite,Foreground,BottomCentre,"sb\lyrics\3046.png",436.99,0 S,0,186117,,0.15 F,0,186117,186367,0,1 MY,22,186117,189579,407,420 F,0,189329,189579,1,0
Sprite,Foreground,BottomCentre,"sb\lyrics\5927.png",205.57,0 S,0,189809,,0.15 F,0,189809,190059,0,1 MY,22,189809,193271,407,420 F,0,193021,193271,1,0
Sprite,Foreground,BottomCentre,"sb\lyrics\5730.png",236.02,0 S,0,189809,,0.15 F,0,189809,190059,0,1 MY,22,189809,193271,409,420 F,0,193021,193271,1,0
Sprite,Foreground,BottomCentre,"sb\lyrics\306b.png",266.47,0 S,0,189809,,0.15 F,0,189809,190059,0,1 MY,22,189809,193271,410,420 F,0,193021,193271,1,0
Sprite,Foreground,BottomCentre,"sb\lyrics\306a.png",296.92,0 S,0,189809,,0.15 F,0,189809,190059,0,1 MY,22,189809,193271,408,420 F,0,193021,193271,1,0
Sprite,Foreground,BottomCentre,"sb\lyrics\308a.png",327.37,0 S,0,189809,,0.15 F,0,189809,190059,0,1 MY,22,189809,193271,407,420 F,0,193021,193271,1,0
Sprite,Foreground,BottomCentre,"sb\lyrics\307e.png",357.82,0 S,0,189809,,0.15 F,0,189809,190059,0,1 MY,22,189809,193271,409,420 F,0,193021,193271,1,0
Sprite,Foreground,BottomCentre,"sb\lyrics\3057.png",388.27,0 S,0,189809,,0.15 F,0,189809,190059,0,1 MY,22,189809,193271,406,420 F,0,193021,193271,1,0
Sprite,Foreground,BottomCentre,"sb\lyrics\3087.png",418.72,0 S,0,189809,,0.15 F,0,189809,190059,0,1 MY,22,189809,193271,410,420 F,0,193021,193271,1,0
Sprite,Foreground,BottomCentre,"sb\lyrics\3046.png",449.17,0 S,0,189809,,0.15 F,0,189809,190059,0,1 MY,22,189809,193271,410,420 F,0,193021,193271,1,0
Sprite,Foreground,BottomCentre,"sb\lyrics\3042.png",242.11,0 S,0,193502,,0.15 F,0,193502,193752,0,1 MY,22,193502,195579,410,420 F,0,195329,195579,1,0
Sprite,Foreground,BottomCentre,"sb\lyrics\306a.png",272.56,0 S,0,193502,,0.15 F,0,193502,193752,0,1 MY,22,193502,195579,408,420 F,0,195329,195579,1,0
Sprite,Foreground,BottomCentre,"sb\lyrics\305f.png",303.01,0 S,0,193502,,0.15 F,0,193502,193752,0,1 MY,22,193502,195579,407,420 F,0,195329,195579,1,0
Sprite,Foreground,BottomCentre,"sb\lyrics\306f.png",333.46,0 S,0,193502,,0.15 F,0,193502,193752,0,1 MY,22,193502,195579,407,420 F,0,195329,195579,1,0
Sprite,Foreground,BottomCentre,"sb\lyrics\8a00.png",363.91,0 S,0,193502,,0.15 F,0,193502,193752,0,1 MY,22,193502,195579,407,420 F,0,195329,195579,1,0
Sprite,Foreground,BottomCentre,"sb\lyrics\3063.png",394.36,0 S,0,193502,,0.15 F,0,193502,193752,0,1 MY,22,193502,195579,409,420 F,0,195329,195579,1,0
Sprite,Foreground,BottomCentre,"sb\lyrics\305f.png",424.81,0 S,0,193502,,0.15 F,0,193502,193752,0,1 MY,22,193502,195579,408,420 F,0,195329,195579,1,0
Sprite,Foreground,BottomCentre,"sb\lyrics\6fc1.png",296.92,0 S,0,195809,,0.15 F,0,195809,196059,0,1 MY,22,195809,197886,409,420 F,0,197636,197886,1,0
Sprite,Foreground,BottomCentre,"sb\lyrics\3057.png",327.37,0 S,0,195809,,0.15 F,0,195809,196059,0,1 MY,22,195809,197886,408,420 F,0,197636,197886,1,0
Sprite,Foreground,BottomCentre,"sb\lyrics\3066.png",357.82,0 S,0,195809,,0.15 F,0,195809,196059,0,1 MY,22,195809,197886,406,420 F,0,197636,197886,1,0
Sprite,Foreground,BottomCentre,"sb\lyrics\3082.png",388.27,0 S,0,195809,,0.15 F,0,195809,196059,0,1 MY,22,195809,197886,406,420 F,0,197636,197886,1,0
Sprite,Foreground,BottomCentre,"sb\lyrics\69cb.png",278.65,0 S,0,198117,,0.15 F,0,198117,198367,0,1 MY,22,198117,201002,407,420 F,0,200752,201002,1,0
Sprite,Foreground,BottomCentre,"sb\lyrics\308f.png",309.1,0 S,0,198117,,0.15 F,0,198117,198367,0,1 MY,22,198117,201002,407,420 F,0,200752,201002,1,0
Sprite,Foreground,BottomCentre,"sb\lyrics\306a.png",339.55,0 S,0,198117,,0.15 F,0,198117,198367,0,1 MY,22,198117,201002,410,420 F,0,200752,201002,1,0
Sprite,Foreground,BottomCentre,"sb\lyrics\3044.png",370,0 S,0,198117,,0.15 F,0,198117,198367,0,1 MY,22,198117,201002,406,420 F,0,200752,201002,1,0
Sprite,Foreground,BottomCentre,"sb\lyrics\3068.png",400.45,0 S,0,198117,,0.15 F,0,198117,198367,0,1 MY,22,198117,201002,408,420 F,0,200752,201002,1,0
Sprite,Foreground,BottomCentre,"sb\lyrics\91cd.png",242.11,0 S,0,201348,,0.15 F,0,201348,201598,0,1 MY,22,201348,204348,408,420 F,0,204098,204348,1,0
Sprite,Foreground,BottomCentre,"sb\lyrics\306d.png",272.56,0 S,0,201348,,0.15 F,0,201348,201598,0,1 MY,22,201348,204348,406,420 F,0,204098,204348,1,0
Sprite,Foreground,BottomCentre,"sb\lyrics\4e0a.png",303.01,0 S,0,201348,,0.15 F,0,201348,201598,0,1 MY,22,201348,204348,407,420 F,0,204098,204348,1,0
Sprite,Foreground,BottomCentre,"sb\lyrics\3052.png",333.46,0 S,0,201348,,0.15 F,0,201348,201598,0,1 MY,22,201348,204348,406,420 F,0,204098,204348,1,0
Sprite,Foreground,BottomCentre,"sb\lyrics\3066.png",363.91,0 S,0,201348,,0.15 F,0,201348,201598,0,1 MY,22,201348,204348,407,420 F,0,204098,204348,1,0
Sprite,Foreground,BottomCentre,"sb\lyrics\3086.png",394.36,0 S,0,201348,,0.15 F,0,201348,201598,0,1 MY,22,201348,204348,406,420 F,0,204098,204348,1,0
Sprite,Foreground,BottomCentre,"sb\lyrics\304f.png",424.81,0 S,0,201348,,0.15 F,0,201348,201598,0,1 MY,22,201348,204348,406,420 F,0,204098,204348,1,0
Sprite,Foreground,BottomCentre,"sb\lyrics\5343.png",278.65,0 S,0,205040,,0.15 F,0,205040,205290,0,1 MY,22,205040,208040,407,420 F,0,207790,208040,1,0
Sprite,Foreground,BottomCentre,"sb\lyrics\306e.png",309.1,0 S,0,205040,,0.15 F,0,205040,205290,0,1 MY,22,205040,208040,406,420 F,0,207790,208040,1,0
Sprite,Foreground,BottomCentre,"sb\lyrics\7dbf.png",339.55,0 S,0,205040,,0.15 F,0,205040,205290,0,1 MY,22,205040,208040,407,420 F,0,207790,208040,1,0
Sprite,Foreground,BottomCentre,"sb\lyrics\7fbd.png",370,0 S,0,205040,,0.15 F,0,205040,205290,0,1 MY,22,205040,208040,407,420 F,0,207790,208040,1,0
Sprite,Foreground,BottomCentre,"sb\lyrics\3092.png",400.45,0 S,0,205040,,0.15 F,0,205040,205290,0,1 MY,22,205040,208040,408,420 F,0,207790,208040,1,0
Sprite,Foreground,BottomCentre,"sb\lyrics\3044.png",242.11,0 S,0,208271,,0.15 F,0,208271,208521,0,1 MY,22,208271,210348,407,420 F,0,210098,210348,1,0
Sprite,Foreground,BottomCentre,"sb\lyrics\3064.png",272.56,0 S,0,208271,,0.15 F,0,208271,208521,0,1 MY,22,208271,210348,408,420 F,0,210098,210348,1,0
Sprite,Foreground,BottomCentre,"sb\lyrics\304b.png",303.01,0 S,0,208271,,0.15 F,0,208271,208521,0,1 MY,22,208271,210348,410,420 F,0,210098,210348,1,0
Sprite,Foreground,BottomCentre,"sb\lyrics\7fbd.png",333.46,0 S,0,208271,,0.15 F,0,208271,208521,0,1 MY,22,208271,210348,410,420 F,0,210098,210348,1,0
Sprite,Foreground,BottomCentre,"sb\lyrics\3070.png",363.91,0 S,0,208271,,0.15 F,0,208271,208521,0,1 MY,22,208271,210348,409,420 F,0,210098,210348,1,0
Sprite,Foreground,BottomCentre,"sb\lyrics\305f.png",394.36,0 S,0,208271,,0.15 F,0,208271,208521,0,1 MY,22,208271,210348,408,420 F,0,210098,210348,1,0
Sprite,Foreground,BottomCentre,"sb\lyrics\304f.png",424.81,0 S,0,208271,,0.15 F,0,208271,208521,0,1 MY,22,208271,210348,410,420 F,0,210098,210348,1,0
Sprite,Foreground,BottomCentre,"sb\lyrics\3042.png",251.2,0 S,0,210579,,0.15 F,0,210579,210829,0,1 MY,22,210579,212540,409,420 F,0,212290,212540,1,0
Sprite,Foreground,BottomCentre,"sb\lyrics\3042.png",281.65,0 S,0,210579,,0.15 F,0,210579,210829,0,1 MY,22,210579,212540,406,420 F,0,212290,212540,1,0
Sprite,Foreground,BottomCentre,"sb\lyrics\79c1.png",327.4,0 S,0,210579,,0.15 F,0,210579,210829,0,1 MY,22,210579,212540,408,420 F,0,212290,212540,1,0
Sprite,Foreground,BottomCentre,"sb\lyrics\3060.png",357.85,0 S,0,210579,,0.15 F,0,210579,210829,0,1 MY,22,210579,212540,410,420 F,0,212290,212540,1,0
Sprite,Foreground,BottomCentre,"sb\lyrics\3063.png",388.3,0 S,0,210579,,0.15 F,0,210579,210829,0,1 MY,22,210579,212540,408,420 F,0,212290,212540,1,0
Sprite,Foreground,BottomCentre,"sb\lyrics\3066.png",418.75,0 S,0,210579,,0.15 F,0,210579,210829,0,1 MY,22,210579,212540,408,420 F,0,212290,212540,1,0
Sprite,Foreground,BottomCentre,"sb\lyrics\592a.png",260.38,0 S,0,212886,,0.15 F,0,212886,213136,0,1 MY,22,212886,215771,406,420 F,0,215521,215771,1,0
Sprite,Foreground,BottomCentre,"sb\lyrics\967d.png",290.83,0 S,0,212886,,0.15 F,0,212886,213136,0,1 MY,22,212886,215771,406,420 F,0,215521,215771,1,0
Sprite,Foreground,BottomCentre,"sb\lyrics\306e.png",321.28,0 S,0,212886,,0.15 F,0,212886,213136,0,1 MY,22,212886,215771,408,420 F,0,215521,215771,1,0
Sprite,Foreground,BottomCentre,"sb\lyrics\3088.png",351.73,0 S,0,212886,,0.15 F,0,212886,213136,0,1 MY,22,212886,215771,410,420 F,0,215521,215771,1,0
Sprite,Foreground,BottomCentre,"sb\lyrics\3046.png",382.18,0 S,0,212886,,0.15 F,0,212886,213136,0,1 MY,22,212886,215771,406,420 F,0,215521,215771,1,0
Sprite,Foreground,BottomCentre,"sb\lyrics\306b.png",412.63,0 S,0,212886,,0.15 F,0,212886,213136,0,1 MY,22,212886,215771,410,420 F,0,215521,215771,1,0
Sprite,Foreground,BottomCentre,"sb\lyrics\305d.png",214.66,0 S,0,216117,,0.15 F,0,216117,216367,0,1 MY,22,216117,219117,410,420 F,0,218867,219117,1,0
Sprite,Foreground,BottomCentre,"sb\lyrics\308c.png",245.11,0 S,0,216117,,0.15 F,0,216117,216367,0,1 MY,22,216117,219117,410,420 F,0,218867,219117,1,0
Sprite,Foreground,BottomCentre,"sb\lyrics\306f.png",275.56,0 S,0,216117,,0.15 F,0,216117,216367,0,1 MY,22,216117,219117,408,420 F,0,218867,219117,1,0
Sprite,Foreground,BottomCentre,"sb\lyrics\3042.png",321.31,0 S,0,216117,,0.15 F,0,216117,216367,0,1 MY,22,216117,219117,409,420 F,0,218867,219117,1,0
Sprite,Foreground,BottomCentre,"sb\lyrics\308a.png",351.76,0 S,0,216117,,0.15 F,0,216117,216367,0,1 MY,22,216117,219117,410,420 F,0,218867,219117,1,0
Sprite,Foreground,BottomCentre,"sb\lyrics\304d.png",382.21,0 S,0,216117,,0.15 F,0,216117,216367,0,1 MY,22,216117,219117,408,420 F,0,218867,219117,1,0
Sprite,Foreground,BottomCentre,"sb\lyrics\305f.png",412.66,0 S,0,216117,,0.15 F,0,216117,216367,0,1 MY,22,216117,219117,407,420 F,0,218867,219117,1,0
Sprite,Foreground,BottomCentre,"sb\lyrics\308a.png",443.11,0 S,0,216117,,0.15 F,0,216117,216367,0,1 MY,22,216117,219117,408,420 F,0,218867,219117,1,0
Sprite,Foreground,BottomCentre,"sb\lyrics\5c11.png",242.11,0 S,0,219809,,0.15 F,0,219809,220059,0,1 MY,22,219809,222694,410,420 F,0,222444,222694,1,0
Sprite,Foreground,BottomCentre,"sb\lyrics\3057.png",272.56,0 S,0,219809,,0.15 F,0,219809,220059,0,1 MY,22,219809,222694,407,420 F,0,222444,222694,1,0
Sprite,Foreground,BottomCentre,"sb\lyrics\51b7.png",303.01,0 S,0,219809,,0.15 F,0,219809,220059,0,1 MY,22,219809,222694,406,420 F,0,222444,222694,1,0
Sprite,Foreground,BottomCentre,"sb\lyrics\3048.png",333.46,0 S,0,219809,,0.15 F,0,219809,220059,0,1 MY,22,219809,222694,410,420 F,0,222444,222694,1,0
Sprite,Foreground,BottomCentre,"sb\lyrics\308b.png",363.91,0 S,0,219809,,0.15 F,0,219809,220059,0,1 MY,22,219809,222694,409,420 F,0,222444,222694,1,0
Sprite,Foreground,BottomCentre,"sb\lyrics\5348.png",394.36,0 S,0,219809,,0.15 F,0,219809,220059,0,1 MY,22,219809,222694,407,420 F,0,222444,222694,1,0
Sprite,Foreground,BottomCentre,"sb\lyrics\5f8c.png",424.81,0 S,0,219809,,0.15 F,0,219809,220059,0,1 MY,22,219809,222694,406,420 F,0,222444,222694,1,0
Sprite,Foreground,BottomCentre,"sb\lyrics\3069.png",242.11,0 S,0,223040,,0.15 F,0,223040,223290,0,1 MY,22,223040,225463,406,420 F,0,225213,225463,1,0
Sprite,Foreground,BottomCentre,"sb\lyrics\3053.png",272.56,0 S,0,223040,,0.15 F,0,223040,223290,0,1 MY,22,223040,225463,407,420 F,0,225213,225463,1,0
Sprite,Foreground,BottomCentre,"sb\lyrics\3067.png",303.01,0 S,0,223040,,0.15 F,0,223040,223290,0,1 MY,22,223040,225463,407,420 F,0,225213,225463,1,0
Sprite,Foreground,BottomCentre,"sb\lyrics\805e.png",333.46,0 S,0,223040,,0.15 F,0,223040,223290,0,1 MY,22,223040,225463,406,420 F,0,225213,225463,1,0
Sprite,Foreground,BottomCentre,"sb\lyrics\3044.png",363.91,0 S,0,223040,,0.15 F,0,223040,223290,0,1 MY,22,223040,225463,408,420 F,0,225213,225463,1,0
Sprite,Foreground,BottomCentre,"sb\lyrics\305f.png",394.36,0 S,0,223040,,0.15 F,0,223040,223290,0,1 MY,22,223040,225463,407,420 F,0,225213,225463,1,0
Sprite,Foreground,BottomCentre,"sb\lyrics\304b.png",424.81,0 S,0,223040,,0.15 F,0,223040,223290,0,1 MY,22,223040,225463,407,420 F,0,225213,225463,1,0
Sprite,Foreground,BottomCentre,"sb\lyrics\8a9e.png",242.11,0 S,0,225809,,0.15 F,0,225809,226059,0,1 MY,22,225809,228579,407,420 F,0,228329,228579,1,0
Sprite,Foreground,BottomCentre,"sb\lyrics\308a.png",272.56,0 S,0,225809,,0.15 F,0,225809,226059,0,1 MY,22,225809,228579,409,420 F,0,228329,228579,1,0
Sprite,Foreground,BottomCentre,"sb\lyrics\307e.png",303.01,0 S,0,225809,,0.15 F,0,225809,226059,0,1 MY,22,225809,228579,410,420 F,0,228329,228579,1,0
Sprite,Foreground,BottomCentre,"sb\lyrics\3057.png",333.46,0 S,0,225809,,0.15 F,0,225809,226059,0,1 MY,22,225809,228579,408,420 F,0,228329,228579,1,0
Sprite,Foreground,BottomCentre,"sb\lyrics\3087.png",363.91,0 S,0,225809,,0.15 F,0,225809,226059,0,1 MY,22,225809,228579,406,420 F,0,228329,228579,1,0
Sprite,Foreground,BottomCentre,"sb\lyrics\3046.png",394.36,0 S,0,225809,,0.15 F,0,225809,226059,0,1 MY,22,225809,228579,409,420 F,0,228329,228579,1,0
Sprite,Foreground,BottomCentre,"sb\lyrics\304b.png",424.81,0 S,0,225809,,0.15 F,0,225809,226059,0,1 MY,22,225809,228579,407,420 F,0,228329,228579,1,0
Sprite,Foreground,BottomCentre,"sb\lyrics\5c0f.png",260.38,0 S,0,228925,,0.15 F,0,228925,229175,0,1 MY,22,228925,233425,409,420 F,0,233175,233425,1,0
Sprite,Foreground,BottomCentre,"sb\lyrics\3055.png",290.83,0 S,0,228925,,0.15 F,0,228925,229175,0,1 MY,22,228925,233425,406,420 F,0,233175,233425,1,0
Sprite,Foreground,BottomCentre,"sb\lyrics\306a.png",321.28,0 S,0,228925,,0.15 F,0,228925,229175,0,1 MY,22,228925,233425,407,420 F,0,233175,233425,1,0
Sprite,Foreground,BottomCentre,"sb\lyrics\7269.png",351.73,0 S,0,228925,,0.15 F,0,228925,229175,0,1 MY,22,228925,233425,410,420 F,0,233175,233425,1,0
Sprite,Foreground,BottomCentre,"sb\lyrics\8a9e.png",382.18,0 S,0,228925,,0.15 F,0,228925,229175,0,1 MY,22,228925,233425,410,420 F,0,233175,233425,1,0
Sprite,Foreground,BottomCentre,"sb\lyrics\3092.png",412.63,0 S,0,228925,,0.15 F,0,228925,229175,0,1 MY,22,228925,233425,409,420 F,0,233175,233425,1,0
Sprite,Foreground,BottomCentre,"sb\lyrics\5c0f.png",260.38,0 S,0,236425,,0.15 F,0,236425,236675,0,1 MY,22,236425,242079,406,420 F,0,241829,242079,1,0
Sprite,Foreground,BottomCentre,"sb\lyrics\3055.png",290.83,0 S,0,236425,,0.15 F,0,236425,236675,0,1 MY,22,236425,242079,409,420 F,0,241829,242079,1,0
Sprite,Foreground,BottomCentre,"sb\lyrics\306a.png",321.28,0 S,0,236425,,0.15 F,0,236425,236675,0,1 MY,22,236425,242079,410,420 F,0,241829,242079,1,0
Sprite,Foreground,BottomCentre,"sb\lyrics\7269.png",351.73,0 S,0,236425,,0.15 F,0,236425,236675,0,1 MY,22,236425,242079,408,420 F,0,241829,242079,1,0
Sprite,Foreground,BottomCentre,"sb\lyrics\8a9e.png",382.18,0 S,0,236425,,0.15 F,0,236425,236675,0,1 MY,22,236425,242079,410,420 F,0,241829,242079,1,0
Sprite,Foreground,BottomCentre,"sb\lyrics\3092.png",412.63,0 S,0,236425,,0.15 F,0,236425,236675,0,1 MY,22,236425,242079,410,420 F,0,241829,242079,1,0
Sprite,Foreground,BottomCentre,"sb\lyrics\0050.png",186.67,0 S,0,246117,,0.15 F,0,246117,246367,0,1 MY,22,246117,249579,406,420 F,0,249329,249579,1,0
Sprite,Foreground,BottomCentre,"sb\lyrics\0065.png",201.97,0 S,0,246117,,0.15 F,0,246117,246367,0,1 MY,22,246117,249579,410,420 F,0,249329,249579,1,0
Sprite,Foreground,BottomCentre,"sb\lyrics\0072.png",217.27,0 S,0,246117,,0.15 F,0,246117,246367,0,1 MY,22,246117,249579,406,420 F,0,249329,249579,1,0
Sprite,Foreground,BottomCentre,"sb\lyrics\0066.png",232.57,0 S,0,246117,,0.15 F,0,246117,246367,0,1 MY,22,246117,249579,409,420 F,0,249329,249579,1,0
Sprite,Foreground,BottomCentre,"sb\lyrics\006f.png",247.87,0 S,0,246117,,0.15 F,0,246117,246367,0,1 MY,22,246117,249579,406,420 F,0,249329,249579,1,0
Sprite,Foreground,BottomCentre,"sb\lyrics\0072.png",263.17,0 S,0,246117,,0.15 F,0,246117,246367,0,1 MY,22,246117,249579,409,420 F,0,249329,249579,1,0
Sprite,Foreground,BottomCentre,"sb\lyrics\006d.png",278.47,0 S,0,246117,,0.15 F,0,246117,246367,0,1 MY,22,246117,249579,406,420 F,0,249329,249579,1,0
Sprite,Foreground,BottomCentre,"sb\lyrics\0065.png",293.77,0 S,0,246117,,0.15 F,0,246117,246367,0,1 MY,22,246117,249579,410,420 F,0,249329,249579,1,0
Sprite,Foreground,BottomCentre,"sb\lyrics\0064.png",309.07,0 S,0,246117,,0.15 F,0,246117,246367,0,1 MY,22,246117,249579,408,420 F,0,249329,249579,1,0
Sprite,Foreground,BottomCentre,"sb\lyrics\0062.png",339.67,0 S,0,246117,,0.15 F,0,246117,246367,0,1 MY,22,246117,249579,406,420 F,0,249329,249579,1,0
Sprite,Foreground,BottomCentre,"sb\lyrics\0079.png",354.97,0 S,0,246117,,0.15 F,0,246117,246367,0,1 MY,22,246117,249579,409,420 F,0,249329,249579,1,0
Sprite,Foreground,BottomCentre,"sb\lyrics\767d.png",385.57,0 S,0,246117,,0.15 F,0,246117,246367,0,1 MY,22,246117,249579,407,420 F,0,249329,249579,1,0
Sprite,Foreground,BottomCentre,"sb\lyrics\77f3.png",416.02,0 S,0,246117,,0.15 F,0,246117,246367,0,1 MY,22,246117,249579,406,420 F,0,249329,249579,1,0
Sprite,Foreground,BottomCentre,"sb\lyrics\7d2c.png",461.77,0 S,0,246117,,0.15 F,0,246117,246367,0,1 MY,22,246117,249579,409,420 F,0,249329,249579,1,0
Sprite,Foreground,BottomCentre,"sb\lyrics\0054.png",177.22,0 S,0,249809,,0.15 F,0,249809,250059,0,1 MY,22,249809,253531,408,420 F,0,253281,253531,1,0
Sprite,Foreground,BottomCentre,"sb\lyrics\0068.png",192.52,0 S,0,249809,,0.15 F,0,249809,250059,0,1 MY,22,249809,253531,409,420 F,0,253281,253531,1,0
Sprite,Foreground,BottomCentre,"sb\lyrics\0061.png",207.82,0 S,0,249809,,0.15 F,0,249809,250059,0,1 MY,22,249809,253531,406,420 F,0,253281,253531,1,0
Sprite,Foreground,BottomCentre,"sb\lyrics\006e.png",223.12,0 S,0,249809,,0.15 F,0,249809,250059,0,1 MY,22,249809,253531,408,420 F,0,253281,253531,1,0
Sprite,Foreground,BottomCentre,"sb\lyrics\006b.png",238.42,0 S,0,249809,,0.15 F,0,249809,250059,0,1 MY,22,249809,253531,408,420 F,0,253281,253531,1,0
Sprite,Foreground,BottomCentre,"sb\lyrics\0079.png",269.02,0 S,0,249809,,0.15 F,0,249809,250059,0,1 MY,22,249809,253531,407,420 F,0,253281,253531,1,0
Sprite,Foreground,BottomCentre,"sb\lyrics\006f.png",284.32,0 S,0,249809,,0.15 F,0,249809,250059,0,1 MY,22,249809,253531,406,420 F,0,253281,253531,1,0
Sprite,Foreground,BottomCentre,"sb\lyrics\0075.png",299.62,0 S,0,249809,,0.15 F,0,249809,250059,0,1 MY,22,249809,253531,407,420 F,0,253281,253531,1,0
Sprite,Foreground,BottomCentre,"sb\lyrics\0066.png",330.22,0 S,0,249809,,0.15 F,0,249809,250059,0,1 MY,22,249809,253531,408,420 F,0,253281,253531,1,0
Sprite,Foreground,BottomCentre,"sb\lyrics\006f.png",345.52,0 S,0,249809,,0.15 F,0,249809,250059,0,1 MY,22,249809,253531,410,420 F,0,253281,253531,1,0
Sprite,Foreground,BottomCentre,"sb\lyrics\0072.png",360.82,0 S,0,249809,,0.15 F,0,249809,250059,0,1 MY,22,249809,253531,406,420 F,0,253281,253531,1,0
Sprite,Foreground,BottomCentre,"sb\lyrics\0050.png",391.42,0 S,0,249809,,0.15 F,0,249809,250059,0,1 MY,22,249809,253531,407,420 F,0,253281,253531,1,0
Sprite,Foreground,BottomCentre,"sb\lyrics\006c.png",406.72,0 S,0,249809,,0.15 F,0,249809,250059,0,1 MY,22,249809,253531,408,420 F,0,253281,253531,1,0
Sprite,Foreground,BottomCentre,"sb\lyrics\0061.png",422.02,0 S,0,249809,,0.15 F,0,249809,250059,0,1 MY,22,249809,253531,406,420 F,0,253281,253531,1,0
Sprite,Foreground,BottomCentre,"sb\lyrics\0079.png",437.32,0 S,0,249809,,0.15 F,0,249809,250059,0,1 MY,22,249809,253531,406,420 F,0,253281,253531,1,0
Sprite,Foreground,BottomCentre,"sb\lyrics\0069.png",452.62,0 S,0,249809,,0.15 F,0,249809,250059,0,1 MY,22,249809,253531,410,420 F,0,253281,253531,1,0
Sprite,Foreground,BottomCentre,"sb\lyrics\006e.png",467.92,0 S,0,249809,,0.15 F,0,249809,250059,0,1 MY,22,249809,253531,406,420 F,0,253281,253531,1,0
Sprite,Foreground,BottomCentre,"sb\lyrics\0067.png",483.22,0 S,0,249809,,0.15 F,0,249809,250059,0,1 MY,22,249809,253531,410,420 F,0,253281,253531,1,0
//Storyboard Layer 4 (Overlay)
//Storyboard Sound Samples

[TimingPoints]
-6694,461.538461538462,4,2,0,50,1,0
459,-100,4,2,1,35,0,0
6229,-100,4,2,1,60,0,0
8075,-90.9090909090909,4,2,1,50,0,0
15459,-125,4,2,1,35,0,0
30229,-111.111111111111,4,2,1,45,0,0
58844,-111.111111111111,4,2,1,55,0,0
61613,461.538461538462,4,2,1,65,1,1
61613,-90.9090909090909,4,2,1,65,0,1
91151,-90.9090909090909,4,2,1,30,0,0
97382,-111.111111111111,4,2,1,30,0,0
98536,-111.111111111111,4,2,1,40,0,0
128075,-111.111111111111,4,2,1,50,0,0
139151,-111.111111111111,4,2,1,25,0,0
140998,-111.111111111111,4,2,1,55,0,0
142843,-90.9090909090909,4,2,1,65,0,1
172382,-90.9090909090909,4,2,1,65,0,0
176074,-90.9090909090909,4,2,1,65,0,0
201921,-90.9090909090909,4,2,1,25,0,0
208613,-111.111111111111,4,2,1,25,0,0
209305,-100,4,2,1,40,0,0
212998,-100,4,2,1,55,0,0
216689,-90.9090909090909,4,2,1,70,0,1
246228,-90.9090909090909,4,2,1,25,0,0
252920,-200,4,2,1,25,0,0
253382,-200,4,2,1,5,0,0

[Colours]
Combo1 : 219,167,254
Combo2 : 231,220,248
Combo3 : 187,181,225

[HitObjects]
266,316,459,6,0,L|262:342,2,26.6666666666667,0|0|0,0:2|0:2|0:2,0:0:0:0:
272,289,690,2,0,P|266:242|241:199,2,80,6|2|2,0:2|0:2|0:2,0:0:0:0:
365,316,1382,2,0,P|368:267|328:153,1,160,2|2,0:2|0:2,0:0:0:0:
258,96,2075,2,0,P|212:112|173:114,1,80,2|0,0:2|0:2,0:0:0:0:
146,107,2421,1,0,0:0:0:0:
123,88,2536,6,0,B|104:62|99:29|99:29|65:62|53:121|104:103|103:155|73:204,1,240,2|2,0:2|0:2,0:0:0:0:
7,341,3690,1,2,0:2:0:0:
159,384,4152,1,2,0:2:0:0:
230,313,4382,6,0,P|273:300|335:305,2,80,6|2|2,0:2|0:2|0:2,0:0:0:0:
182,239,5075,2,0,P|238:217|355:218,1,160,2|2,0:2|0:2,0:0:0:0:
442,263,5767,2,0,L|449:169,1,80,2|10,0:2|0:3,0:0:0:0:
451,151,6113,1,10,0:3:0:0:
454,119,6229,5,0,3:2:0:0:
378,23,6459,1,4,0:3:0:0:
296,118,6690,1,4,0:3:0:0:
195,35,6921,1,8,0:3:0:0:
137,148,7152,5,0,1:2:0:0:
238,214,7382,1,0,3:2:0:0:
238,214,7498,1,4,0:3:0:0:
238,214,7613,2,0,L|288:222,3,40,0|0|8|8,1:2|1:2|0:3|0:3,0:0:0:0:
316,206,8075,6,0,P|317:255|323:313,1,88.000002685547,6|0,3:2|0:2,0:0:0:0:
405,356,8536,1,0,1:2:0:0:
450,260,8767,2,0,P|453:200|435:56,1,176.000005371094,0|0,0:2|0:2,0:0:0:0:
361,3,9459,1,0,1:2:0:0:
312,107,9690,1,0,0:2:0:0:
203,141,9921,6,0,B|84:102|84:102|27:120,1,176.000005371094,6|0,3:2|1:2,0:0:0:0:
0,225,10613,2,0,L|85:198,1,88.000002685547,0|0,0:2|3:2,0:0:0:0:
189,254,11075,2,0,L|105:280,1,88.000002685547,0|0,0:2|1:2,0:0:0:0:
36,346,11536,1,0,0:2:0:0:
139,383,11767,6,0,P|195:372|225:353,1,88.000002685547,4|0,3:2|0:2,0:0:0:0:
274,249,12229,1,0,1:2:0:0:
370,325,12459,2,0,B|380:333|399:356|399:356|439:299|426:225,1,176.000005371094,0|0,0:2|0:2,0:0:0:0:
364,145,13152,1,0,1:2:0:0:
474,132,13382,1,0,0:2:0:0:
493,30,13613,6,0,P|455:36|414:76,1,88.000002685547,4|0,3:2|1:2,0:0:0:0:
365,165,14075,1,0,3:2:0:0:
279,99,14306,2,0,L|184:84,1,88.000002685547,0|0,1:2|3:2,0:0:0:0:
114,5,14767,1,0,1:2:0:0:
30,85,14998,2,0,L|27:134,3,44.0000013427735,0|0|4|8,1:2|1:2|0:3|0:3,0:0:0:0:
8,148,15459,6,0,L|18:297,1,128,6|2,0:2|3:2,0:0:0:0:
88,345,16152,2,0,P|129:331|219:328,1,128,2|0,0:2|0:2,0:0:0:0:
315,347,16844,2,0,P|354:353|394:349,1,64,2|2,3:2|0:2,0:0:0:0:
461,293,17306,5,0,3:2:0:0:
459,266,17767,1,0,3:2:0:0:
457,239,18229,1,2,3:2:0:0:
381,165,18459,1,2,0:2:0:0:
288,201,18690,2,0,L|211:190,1,64,2|0,3:2|0:2,0:0:0:0:
133,178,19152,6,0,P|99:129|90:57,1,128,2|2,3:2|3:2,0:0:0:0:
160,5,19844,2,0,P|205:12|245:30,1,64,2|0,0:2|3:2,0:0:0:0:
287,86,20306,1,2,0:2:0:0:
348,19,20536,2,0,P|394:2|420:-1,1,64,2|0,3:2|0:2,0:0:0:0:
496,48,20998,6,0,P|500:89|418:85,3,128,2|0|0|0,3:2|3:2|3:2|3:2,0:0:0:0:
194,126,22844,6,0,L|207:278,1,128,4|2,3:2|3:2,0:0:0:0:
280,310,23536,2,0,P|253:337|145:325,1,128,2|0,0:2|0:2,0:0:0:0:
100,273,24229,2,0,L|92:190,1,64,2|2,3:2|0:2,0:0:0:0:
41,122,24690,5,0,3:2:0:0:
44,95,25152,1,0,3:2:0:0:
47,68,25613,1,2,3:2:0:0:
122,14,25844,1,2,0:2:0:0:
208,55,26075,2,0,P|250:53|294:37,1,64,2|0,3:2|0:2,0:0:0:0:
364,12,26536,6,0,P|401:5|443:9,1,64,2|2,3:2|0:2,0:0:0:0:
493,68,26998,1,2,3:2:0:0:
493,68,27229,2,0,L|488:207,1,128,2|2,0:2|0:2,0:0:0:0:
401,256,27921,2,0,L|395:192,1,64,2|0,3:2|0:2,0:0:0:0:
330,127,28382,6,0,P|291:112|262:111,2,64,0|0|0,3:2|0:2|3:2,0:0:0:0:
395,192,29075,1,2,0:2:0:0:
399,270,29306,1,2,3:2:0:0:
380,332,29536,1,2,0:2:0:0:
357,362,29767,1,2,3:2:0:0:
340,370,29998,1,2,0:2:0:0:
335,375,30229,6,0,P|293:353|244:348,1,71.9999978027344,6|0,3:2|0:0,0:0:0:0:
169,374,30690,1,2,1:2:0:0:
94,302,30921,2,0,P|78:246|102:157,1,143.999995605469,2|0,0:2|0:2,0:0:0:0:
190,116,31613,1,2,1:2:0:0:
197,233,31844,1,2,0:2:0:0:
295,254,32075,6,0,L|374:245,2,71.9999978027344,0|0|2,3:2|0:2|1:2,0:0:0:0:
267,168,32767,1,0,0:2:0:0:
347,112,32998,2,0,P|385:103|429:107,1,71.9999978027344,2|2,3:2|0:2,0:0:0:0:
497,194,33459,2,0,P|450:204|423:222,1,71.9999978027344,2|0,1:2|0:2,0:0:0:0:
382,309,33921,6,0,L|229:279,1,143.999995605469,6|2,3:2|1:2,0:0:0:0:
147,247,34613,2,0,P|143:287|126:324,1,71.9999978027344,2|2,0:2|3:2,0:0:0:0:
59,372,35075,1,2,0:2:0:0:
0,290,35306,1,2,1:2:0:0:
62,216,35536,1,2,0:2:0:0:
0,128,35767,6,0,L|6:43,1,71.9999978027344,2|0,3:2|0:2,0:0:0:0:
96,113,36229,2,0,L|102:28,1,71.9999978027344,2|2,1:2|0:2,0:0:0:0:
197,0,36690,2,0,L|202:71,1,71.9999978027344,0|2,3:2|0:2,0:0:0:0:
216,84,37036,1,0,0:0:0:0:
232,96,37152,2,0,P|258:95|292:82,2,35.9999989013672,2|0|0,1:2|1:0|0:2,0:0:0:0:
156,175,37613,6,0,L|164:343,1,143.999995605469,6|2,3:2|1:2,0:0:0:0:
246,384,38306,2,0,P|295:345|390:348,1,143.999995605469,2|0,0:2|0:2,0:0:0:0:
469,384,38998,1,2,1:2:0:0:
507,294,39229,1,2,0:2:0:0:
399,239,39459,6,0,P|363:240|323:250,2,71.9999978027344,0|2|0,3:2|0:2|1:2,0:0:0:0:
373,341,40152,1,2,0:2:0:0:
268,325,40382,5,2,3:2:0:0:
245,214,40613,1,2,0:2:0:0:
147,259,40844,2,0,P|132:296|127:373,1,107.999996704102,2|0,1:2|0:0,0:0:0:0:
123,376,41306,6,0,L|32:353,1,71.9999978027344,6|2,3:2|0:2,0:0:0:0:
15,256,41767,1,2,1:2:0:0:
93,178,41998,2,0,P|152:160|231:201,1,143.999995605469,2|2,0:2|0:2,0:0:0:0:
317,242,42690,2,0,P|319:285|310:324,1,71.9999978027344,2|0,1:2|0:0,0:0:0:0:
242,384,43152,5,4,3:2:0:0:
242,384,43613,2,0,L|147:373,1,71.9999978027344,2|0,1:2|0:2,0:0:0:0:
143,357,43959,1,0,1:2:0:0:
124,329,44075,2,0,P|128:289|140:252,1,71.9999978027344,2|0,3:3|0:2,0:0:0:0:
167,153,44536,2,0,P|148:145|122:139,3,35.9999989013672,2|0|4|4,1:2|1:2|0:3|0:3,0:0:0:0:
101,140,44998,5,6,3:2:0:0:
158,52,45229,1,2,0:2:0:0:
249,111,45459,1,2,1:2:0:0:
249,111,45690,2,0,B|324:136|309:71|405:104,1,143.999995605469,2|2,3:2|3:2,0:0:0:0:
466,146,46382,1,2,1:2:0:0:
466,146,46613,6,0,P|451:189|357:160,1,143.999995605469,4|0,3:2|3:2,0:0:0:0:
386,90,47306,2,0,P|413:62|450:50,1,71.9999978027344,2|0,1:2|3:2,0:0:0:0:
290,118,47767,2,0,P|252:108|223:82,1,71.9999978027344,2|0,1:2|3:2,0:0:0:0:
366,182,48229,2,0,P|376:219|368:257,1,71.9999978027344,2|8,1:2|0:3,0:0:0:0:
359,271,48575,1,8,0:3:0:0:
344,290,48690,5,6,3:2:0:0:
278,214,48921,1,2,0:2:0:0:
191,245,49152,1,2,1:2:0:0:
191,245,49382,2,0,B|116:270|131:205|35:238,1,143.999995605469,2|2,3:2|1:2,0:0:0:0:
0,318,50075,6,0,P|41:367|80:314,1,143.999995605469,6|0,3:2|3:2,0:0:0:0:
56,236,50767,1,0,1:2:0:0:
56,236,50998,2,0,P|51:193|56:152,1,71.9999978027344,0|0,1:2|3:2,0:0:0:0:
118,103,51459,1,2,1:2:0:0:
194,153,51690,1,2,3:2:0:0:
198,241,51921,2,0,L|184:322,1,71.9999978027344,2|0,3:2|3:2,0:0:0:0:
250,376,52382,6,0,P|297:386|333:383,2,71.9999978027344,6|2|2,3:2|0:2|1:2,0:0:0:0:
295,292,53075,2,0,L|309:136,1,143.999995605469,2|2,3:2|1:2,0:0:0:0:
387,86,53767,2,0,B|413:70|405:42|405:42|316:31|332:80|233:52,1,215.999993408203,6|0,3:2|3:2,0:0:0:0:
147,17,54690,6,0,P|144:70|159:120,1,71.9999978027344,2|0,1:2|3:2,0:0:0:0:
160,188,55152,2,0,P|111:178|73:158,1,71.9999978027344,2|0,1:2|1:2,0:0:0:0:
69,155,55498,1,0,1:2:0:0:
53,132,55613,2,0,L|49:182,3,35.9999989013672,10|8|8|8,0:3|0:3|0:3|0:3,0:0:0:0:
31,194,56075,6,0,L|45:354,1,143.999995605469,6|0,0:2|1:2,0:0:0:0:
143,379,56767,1,6,0:3:0:0:
143,379,56882,1,2,0:0:0:0:
143,379,56998,2,0,P|185:327|209:237,1,143.999995605469,2|0,3:2|1:2,0:0:0:0:
135,173,57690,1,0,3:2:0:0:
220,110,57921,6,0,B|277:93|277:93|378:123,1,143.999995605469,6|0,3:2|3:2,0:0:0:0:
433,208,58613,1,2,3:2:0:0:
433,208,58729,1,2,0:2:0:0:
433,208,58844,1,2,1:2:0:0:
329,224,59075,1,0,1:2:0:0:
403,308,59306,1,0,1:2:0:0:
289,369,59536,5,0,3:2:0:0:
137,275,59998,5,2,0:2:0:0:
131,260,60229,1,2,0:2:0:0:
128,245,60459,1,2,0:2:0:0:
53,195,60690,5,2,0:2:0:0:
56,180,60921,1,2,0:2:0:0:
58,165,61152,1,8,0:3:0:0:
58,149,61382,1,0,0:0:0:0:
55,138,61613,6,0,P|105:119|151:117,1,88.000002685547,6|0,3:2|0:2,0:0:0:0:
258,132,62074,1,2,1:2:0:0:
165,29,62305,2,0,L|151:216,1,176.000005371094,2|2,0:2|0:2,0:0:0:0:
142,309,62997,1,2,1:2:0:0:
220,380,63228,1,2,0:2:0:0:
324,380,63459,6,0,P|366:345|502:346,1,176.000005371094,4|0,3:2|1:2,0:0:0:0:
512,246,64151,2,0,P|458:232|396:234,1,88.000002685547,0|0,0:2|3:2,0:0:0:0:
327,189,64613,1,0,0:2:0:0:
254,273,64843,2,0,P|226:232|211:174,1,88.000002685547,2|2,1:2|0:2,0:0:0:0:
192,93,65305,6,0,B|333:77|333:77|314:86|289:121,1,176.000005371094,6|0,3:2|1:2,0:0:0:0:
386,164,65997,1,2,0:2:0:0:
386,164,66228,1,2,3:2:0:0:
314,245,66459,1,2,0:2:0:0:
231,195,66689,2,0,P|162:204|124:224,1,88.000002685547,2|2,1:2|0:2,0:0:0:0:
55,292,67151,6,0,L|36:107,1,176.000005371094,4|0,3:2|1:2,0:0:0:0:
36,11,67843,1,2,0:2:0:0:
124,66,68074,6,0,P|167:76|224:61,1,88.000002685547,0|2,3:2|0:2,0:0:0:0:
334,24,68536,2,0,P|311:45|307:158,1,132.00000402832,2|0,1:2|0:0,0:0:0:0:
318,164,68997,5,6,3:2:0:0:
392,100,69228,1,2,0:2:0:0:
458,170,69459,1,2,1:2:0:0:
458,170,69689,2,0,B|441:227|457:274|457:274|437:320|442:356,1,176.000005371094,2|0,0:2|0:2,0:0:0:0:
351,375,70382,2,0,B|301:376|257:329,1,88.000002685547,2|0,1:2|0:2,0:0:0:0:
214,252,70843,5,6,3:2:0:0:
196,135,71074,1,2,0:2:0:0:
130,208,71305,1,2,1:2:0:0:
276,182,71536,2,0,P|288:127|257:-3,2,176.000005371094,2|2|0,0:2|0:2|0:0,0:0:0:0:
188,247,72689,6,0,P|191:302|291:296,1,176.000005371094,4|2,3:2|1:2,0:0:0:0:
389,245,73382,2,0,P|401:307|396:342,1,88.000002685547,2|6,0:2|3:2,0:0:0:0:
289,299,73843,1,2,0:2:0:0:
262,190,74074,1,2,1:2:0:0:
353,113,74305,1,2,0:2:0:0:
460,168,74536,6,0,P|477:207|483:251,1,88.000002685547,6|2,3:2|1:2,0:0:0:0:
444,376,74997,2,0,P|403:347|341:338,1,88.000002685547,2|2,1:2|1:2,0:0:0:0:
264,270,75459,2,0,L|214:281,3,44.0000013427735,10|0|4|4,0:3|1:2|0:3|0:3,0:0:0:0:
188,305,75920,2,0,L|138:294,3,44.0000013427735,10|8|6|4,0:3|0:3|0:3|0:3,0:0:0:0:
117,275,76382,6,0,P|97:232|92:180,1,88.000002685547,6|0,3:2|0:2,0:0:0:0:
119,77,76843,1,2,1:2:0:0:
205,149,77074,2,0,B|301:187|271:111|376:150,1,176.000005371094,2|2,0:2|0:2,0:0:0:0:
470,207,77766,1,2,1:2:0:0:
483,97,77997,1,2,0:2:0:0:
394,35,78228,6,0,B|321:22|321:22|284:38|284:38|206:22,1,176.000005371094,4|0,3:2|1:2,0:0:0:0:
128,0,78920,2,0,L|142:91,1,88.000002685547,0|0,0:2|3:2,0:0:0:0:
160,174,79382,1,0,0:2:0:0:
64,147,79613,2,0,P|42:99|46:49,1,88.000002685547,2|2,1:2|0:2,0:0:0:0:
160,174,80074,6,0,P|168:240|118:344,1,176.000005371094,6|0,3:2|1:2,0:0:0:0:
36,275,80766,1,2,0:2:0:0:
13,374,80997,1,6,3:2:0:0:
124,337,81228,1,0,0:0:0:0:
222,384,81459,2,0,P|244:348|261:285,1,88.000002685547,2|2,1:2|0:2,0:0:0:0:
326,193,81920,6,0,P|400:182|477:262,1,176.000005371094,4|2,3:2|1:2,0:0:0:0:
376,281,82613,1,2,0:2:0:0:
326,193,82843,2,0,L|336:99,1,88.000002685547,2|0,3:2|0:2,0:0:0:0:
401,35,83305,2,0,P|335:10|304:16,1,88.000002685547,2|0,1:2|0:2,0:0:0:0:
214,57,83766,6,0,L|80:85,2,132.00000402832,6|2|2,3:2|0:2|0:2,0:0:0:0:
284,139,84689,2,0,P|295:188|284:235,1,88.000002685547,2|0,3:2|0:2,0:0:0:0:
201,281,85151,1,0,1:2:0:0:
202,185,85382,1,0,0:2:0:0:
98,147,85613,6,0,P|52:173|58:253,2,132.00000402832,6|2|2,3:2|0:2|0:2,0:0:0:0:
199,199,86536,2,0,P|207:251|142:297,2,132.00000402832,2|2|2,3:2|0:2|0:2,0:0:0:0:
199,102,87459,6,0,B|245:77|245:77|396:97,1,176.000005371094,6|0,3:2|1:2,0:0:0:0:
461,52,88151,1,0,0:2:0:0:
434,163,88382,2,0,P|395:184|339:182,1,88.000002685547,4|0,3:2|1:2,0:0:0:0:
318,184,88728,1,0,1:2:0:0:
290,179,88843,2,0,P|251:185|227:192,3,44.0000013427735,2|0|6|0,3:2|1:2|0:3|0:2,0:0:0:0:
222,203,89305,6,0,P|206:248|206:291,1,88.000002685547,6|2,3:2|1:2,0:0:0:0:
349,222,89766,1,2,1:2:0:0:
280,113,89997,2,0,P|186:105|120:179,1,176.000005371094,6|2,3:2|3:2,0:0:0:0:
88,264,90689,1,0,1:2:0:0:
1,196,90920,1,8,0:3:0:0:
58,71,91151,5,6,3:2:0:0:
256,192,91266,12,14,92997,0:2:0:0:
247,215,94843,5,14,0:2:0:0:
256,192,94959,12,14,96689,0:2:0:0:
147,132,97382,6,0,P|146:77|56:85,1,143.999995605469,6|0,3:2|3:2,0:0:0:0:
36,157,98074,2,0,L|43:212,3,35.9999989013672,0|0|8|8,1:2|1:2|0:3|0:3,0:0:0:0:
65,211,98536,6,0,L|57:295,1,71.9999978027344,6|0,3:2|0:0,0:0:0:0:
0,361,98997,1,2,1:2:0:0:
94,371,99228,2,0,B|133:355|147:322|147:322|173:344|218:343,1,143.999995605469,2|2,3:2|3:2,0:0:0:0:
303,304,99920,1,2,1:2:0:0:
220,238,100151,1,2,0:2:0:0:
296,173,100382,6,0,P|370:165|391:170,2,71.9999978027344,0|0|0,3:2|3:2|1:2,0:0:0:0:
218,251,101074,1,0,3:2:0:0:
141,184,101305,2,0,P|134:134|137:84,1,71.9999978027344,2|2,3:2|3:2,0:0:0:0:
50,40,101766,2,0,P|33:94|34:162,1,107.999996704102,2|0,1:2|0:0,0:0:0:0:
37,172,102228,6,0,P|39:219|35:251,1,71.9999978027344,2|0,3:2|0:0,0:0:0:0:
8,342,102689,1,2,1:2:0:0:
106,322,102920,2,0,P|149:321|181:325,1,71.9999978027344,2|0,3:2|3:2,0:0:0:0:
263,370,103382,1,2,3:2:0:0:
290,280,103613,1,2,1:2:0:0:
250,200,103843,1,2,0:2:0:0:
157,182,104074,6,0,L|61:201,2,71.9999978027344,2|0|0,3:2|3:2|1:2,0:0:0:0:
219,105,104766,1,0,3:2:0:0:
308,163,104997,2,0,L|322:254,1,71.9999978027344,2|0,3:2|3:2,0:0:0:0:
383,313,105459,2,0,P|431:290|500:295,1,107.999996704102,2|4,1:2|0:3,0:0:0:0:
500,300,105920,6,0,L|505:128,1,143.999995605469,6|2,3:2|1:2,0:0:0:0:
446,81,106613,2,0,B|372:55|373:122|299:95,1,143.999995605469,2|0,3:2|3:2,0:0:0:0:
215,73,107305,2,0,P|199:34|194:2,1,71.9999978027344,2|2,1:2|0:2,0:0:0:0:
239,167,107766,6,0,P|223:202|200:230,2,71.9999978027344,0|0|0,3:2|3:2|1:2,0:0:0:0:
143,144,108459,1,0,3:2:0:0:
215,73,108689,5,2,0:2:0:0:
122,42,108920,1,2,3:2:0:0:
53,108,109151,2,0,L|64:238,1,107.999996704102,2|0,1:2|0:0,0:0:0:0:
61,248,109613,5,6,3:2:0:0:
61,248,109843,2,0,P|102:281|121:312,1,71.9999978027344,2|2,0:2|1:2,0:0:0:0:
193,360,110305,2,0,P|209:295|201:199,1,143.999995605469,2|2,3:2|0:2,0:0:0:0:
185,121,110997,2,0,P|235:127|281:145,1,71.9999978027344,2|0,1:2|0:0,0:0:0:0:
344,192,111459,6,0,L|341:344,1,143.999995605469,2|0,3:2|1:2,0:0:0:0:
443,369,112151,1,2,3:2:0:0:
443,369,112266,1,2,0:2:0:0:
443,369,112382,1,2,0:2:0:0:
478,286,112613,1,0,3:2:0:0:
463,200,112843,2,0,L|452:157,3,35.9999989013672,2|2|10|0,1:2|1:2|0:3|0:0,0:0:0:0:
442,135,113305,6,0,P|438:93|443:59,1,71.9999978027344,6|0,3:2|0:0,0:0:0:0:
343,97,113766,1,2,1:2:0:0:
288,20,113997,2,0,P|228:9|118:27,1,143.999995605469,2|0,3:2|3:2,0:0:0:0:
58,67,114689,1,2,1:2:0:0:
41,166,114920,6,0,L|53:336,1,143.999995605469,2|0,3:2|3:2,0:0:0:0:
135,370,115613,2,0,P|178:346|218:335,1,71.9999978027344,0|0,1:2|3:2,0:0:0:0:
219,334,115959,1,0,1:2:0:0:
239,333,116074,1,2,3:2:0:0:
327,377,116305,1,2,3:2:0:0:
409,323,116536,2,0,L|416:237,1,71.9999978027344,2|0,1:2|0:2,0:0:0:0:
420,140,116997,6,0,P|382:98|293:101,1,143.999995605469,6|2,3:2|1:2,0:0:0:0:
239,186,117689,2,0,P|215:215|110:213,1,143.999995605469,2|2,3:2|3:2,0:0:0:0:
38,159,118382,2,0,L|53:64,1,71.9999978027344,2|2,1:2|3:2,0:0:0:0:
113,12,118843,6,0,B|166:2|166:2|252:28,1,143.999995605469,2|0,3:2|1:2,0:0:0:0:
330,95,119536,1,0,3:2:0:0:
414,40,119766,2,0,P|468:27|493:27,1,71.9999978027344,2|0,3:2|3:2,0:0:0:0:
487,161,120228,2,0,P|451:157|416:147,1,71.9999978027344,2|4,1:2|0:3,0:0:0:0:
313,88,120689,6,0,L|307:247,1,143.999995605469,6|2,3:2|1:2,0:0:0:0:
249,314,121382,2,0,P|212:280|114:279,1,143.999995605469,2|0,3:2|3:2,0:0:0:0:
57,354,122074,1,2,1:2:0:0:
0,275,122305,2,0,L|14:116,1,143.999995605469,2|0,3:2|3:2,0:0:0:0:
93,58,122997,2,0,L|104:148,1,71.9999978027344,0|0,1:2|3:2,0:0:0:0:
105,147,123343,1,0,1:0:0:0:
108,163,123459,1,2,3:2:0:0:
164,236,123689,1,2,3:2:0:0:
240,182,123920,2,0,P|277:174|319:179,1,71.9999978027344,2|4,1:2|0:3,0:0:0:0:
402,227,124382,5,6,3:2:0:0:
484,164,124613,1,2,0:2:0:0:
404,250,124843,1,2,1:2:0:0:
310,176,125074,2,0,P|306:138|329:79,1,71.9999978027344,2|4,0:2|3:2,0:0:0:0:
352,25,125536,1,2,0:2:0:0:
261,10,125766,2,0,P|224:14|182:30,1,71.9999978027344,2|0,1:2|0:0,0:0:0:0:
124,95,126228,5,0,3:2:0:0:
124,95,126459,1,0,1:2:0:0:
43,20,126689,2,0,L|28:109,1,71.9999978027344,2|4,1:2|3:2,0:0:0:0:
0,180,127151,2,0,L|13:262,1,71.9999978027344,0|0,0:0|3:2,0:0:0:0:
86,321,127613,2,0,P|109:314|136:312,3,35.9999989013672,2|0|8|8,1:2|1:2|0:3|0:3,0:0:0:0:
149,313,128074,6,0,P|180:331|223:336,1,71.9999978027344,6|2,3:2|0:2,0:0:0:0:
289,285,128536,1,2,0:2:0:0:
348,362,128766,1,2,3:2:0:0:
416,298,128997,2,0,L|423:198,1,71.9999978027344,0|2,1:2|0:2,0:0:0:0:
445,128,129459,1,2,3:2:0:0:
374,58,129689,1,0,3:2:0:0:
296,111,129920,6,0,P|276:151|276:186,1,71.9999978027344,0|0,0:2|1:2,0:0:0:0:
292,269,130382,2,0,L|200:251,1,71.9999978027344,2|0,0:2|3:2,0:0:0:0:
137,181,130843,2,0,L|124:275,1,71.9999978027344,2|0,1:2|0:2,0:0:0:0:
63,328,131305,2,0,L|146:341,1,71.9999978027344,2|0,0:2|3:2,0:0:0:0:
226,370,131766,6,0,P|263:348|303:346,1,71.9999978027344,6|2,3:2|0:2,0:0:0:0:
387,383,132228,1,2,3:2:0:0:
450,300,132459,2,0,L|458:143,1,143.999995605469,2|2,3:2|0:2,0:0:0:0:
389,86,133151,2,0,P|346:93|302:127,1,71.9999978027344,6|0,3:2|3:2,0:0:0:0:
267,185,133613,6,0,B|211:179|211:179|174:194|174:194|101:188,2,143.999995605469,0|0|2,0:2|3:2|1:2,0:0:0:0:
171,277,134766,1,2,1:2:0:0:
64,254,134997,2,0,P|41:214|54:135,1,107.999996704102,2|0,3:2|0:0,0:0:0:0:
55,131,135459,6,0,P|67:86|64:52,1,71.9999978027344,6|2,3:2|0:2,0:0:0:0:
151,19,135920,1,2,0:2:0:0:
210,101,136151,2,0,P|245:113|287:111,1,71.9999978027344,2|0,3:2|1:2,0:0:0:0:
353,30,136613,1,2,3:2:0:0:
435,91,136843,2,0,L|427:323,1,215.999993408203,6|0,3:2|3:2,0:0:0:0:
344,374,137766,6,0,L|261:367,1,71.9999978027344,0|0,1:2|3:2,0:0:0:0:
166,354,138228,2,0,P|153:313|157:270,1,71.9999978027344,2|0,1:2|3:2,0:0:0:0:
230,199,138689,2,0,P|191:206|149:198,1,71.9999978027344,2|4,1:2|0:3,0:0:0:0:
70,164,139151,6,0,P|113:109|183:109,1,143.999995605469,2|0,0:2|0:2,0:0:0:0:
280,173,139843,2,0,L|283:133,2,35.9999989013672,2|0|2,0:2|0:2|0:2,0:0:0:0:
269,348,140536,1,0,0:2:0:0:
374,384,140766,5,0,1:0:0:0:
374,384,140882,1,0,1:0:0:0:
374,384,140997,2,0,P|383:350|384:312,1,71.9999978027344,2|0,1:2|3:2,0:0:0:0:
320,239,141459,1,0,3:2:0:0:
212,289,141689,1,2,1:2:0:0:
248,139,141920,1,2,1:2:0:0:
137,196,142151,1,0,3:2:0:0:
54,117,142382,2,0,P|62:74|81:41,1,71.9999978027344,2|2,1:2|3:2,0:0:0:0:
175,0,142843,6,0,B|281:-20|253:45|372:24,1,176.000005371094,6|2,3:2|1:2,0:0:0:0:
473,4,143536,2,0,P|441:68|433:188,1,176.000005371094,2|2,0:2|0:2,0:0:0:0:
480,286,144228,1,2,1:2:0:0:
363,256,144459,5,2,0:2:0:0:
363,256,144574,1,0,0:0:0:0:
363,256,144689,2,0,P|316:277|282:307,1,88.000002685547,4|0,3:2|0:0,0:0:0:0:
215,384,145151,1,0,1:2:0:0:
122,328,145382,2,0,P|109:284|151:150,1,176.000005371094,0|0,0:2|0:2,0:0:0:0:
247,82,146074,2,0,L|127:68,1,88.000002685547,2|2,1:2|0:2,0:0:0:0:
66,40,146536,6,0,L|261:31,1,176.000005371094,6|0,3:2|1:2,0:0:0:0:
343,79,147228,1,2,0:2:0:0:
261,147,147459,1,2,3:2:0:0:
241,31,147689,1,2,0:2:0:0:
360,0,147920,2,0,P|408:30|425:86,1,88.000002685547,2|2,1:2|0:2,0:0:0:0:
443,179,148382,6,0,L|432:277,2,88.000002685547,4|0|0,3:2|0:0|1:2,0:0:0:0:
344,124,149074,1,2,0:2:0:0:
286,213,149305,5,0,3:2:0:0:
205,150,149536,1,2,0:2:0:0:
142,226,149766,2,0,P|150:291|144:356,1,132.00000402832,2|0,1:2|0:0,0:0:0:0:
121,384,150228,5,6,3:2:0:0:
42,288,150459,1,2,0:2:0:0:
142,226,150689,1,2,1:2:0:0:
142,226,150920,2,0,P|219:222|282:306,1,176.000005371094,2|0,0:2|0:2,0:0:0:0:
342,384,151613,5,2,1:2:0:0:
447,345,151843,1,2,0:2:0:0:
420,243,152074,1,6,3:2:0:0:
505,187,152305,2,0,P|517:230|509:284,1,88.000002685547,2|2,0:2|1:2,0:0:0:0:
397,232,152766,2,0,L|407:41,2,176.000005371094,2|2|0,0:2|0:2|0:0,0:0:0:0:
298,297,153920,6,0,P|231:294|218:197,1,176.000005371094,6|2,3:2|1:2,0:0:0:0:
294,104,154613,2,0,L|177:83,1,88.000002685547,2|4,0:2|3:2,0:0:0:0:
119,169,155074,1,0,0:2:0:0:
35,82,155305,2,0,P|6:125|2:184,1,88.000002685547,2|2,1:2|0:2,0:0:0:0:
64,278,155766,6,0,L|160:278,1,88.000002685547,6|2,3:2|1:2,0:0:0:0:
258,221,156228,1,2,1:2:0:0:
253,338,156459,1,10,0:3:0:0:
362,361,156689,2,0,P|388:347|406:328,3,44.0000013427735,0|8|6|4,3:1|2:3|0:3|0:3,0:3:0:0:
435,331,157151,2,0,P|440:286|438:265,3,44.0000013427735,2|0|2|0,1:2|1:3|1:2|1:3,0:0:0:0:
435,257,157613,6,0,P|431:196|443:136,1,88.000002685547,4|0,3:2|0:2,0:0:0:0:
478,80,158074,1,2,1:2:0:0:
392,30,158305,2,0,B|283:16|283:16|214:50,1,176.000005371094,2|2,0:2|0:2,0:0:0:0:
166,138,158997,1,2,1:2:0:0:
241,232,159228,5,2,0:2:0:0:
241,232,159343,1,0,0:0:0:0:
241,232,159459,2,0,P|291:241|349:232,1,88.000002685547,4|0,3:2|0:0,0:0:0:0:
428,203,159920,1,0,1:2:0:0:
383,313,160151,2,0,P|277:324|188:299,1,176.000005371094,0|0,0:2|0:2,0:0:0:0:
122,257,160843,2,0,P|110:317|111:352,1,88.000002685547,2|2,1:2|0:2,0:0:0:0:
203,207,161305,6,0,L|195:14,1,176.000005371094,6|0,3:2|1:2,0:0:0:0:
105,64,161997,1,2,0:2:0:0:
197,14,162228,1,6,3:2:0:0:
286,78,162459,1,0,0:0:0:0:
366,18,162689,2,0,P|420:32|451:65,1,88.000002685547,2|2,1:2|0:2,0:0:0:0:
473,164,163151,6,0,L|462:347,1,176.000005371094,4|2,3:2|1:2,0:0:0:0:
361,384,163843,1,2,0:2:0:0:
273,338,164074,2,0,P|252:275|257:237,1,88.000002685547,0|2,3:2|0:2,0:0:0:0:
348,180,164536,2,0,P|369:243|364:281,1,88.000002685547,2|0,1:2|0:2,0:0:0:0:
273,338,164997,6,0,L|109:323,2,132.00000402832,6|2|2,3:2|0:2|0:2,0:0:0:0:
253,254,165920,2,0,L|56:234,1,176.000005371094,2|0,3:2|1:2,0:0:0:0:
19,303,166613,1,0,0:2:0:0:
8,195,166843,6,0,P|42:159|129:147,2,132.00000402832,6|2|2,3:2|0:2|0:2,0:0:0:0:
7,306,167766,2,0,P|41:342|128:354,2,132.00000402832,2|2|2,3:2|0:2|0:2,0:0:0:0:
96,244,168689,6,0,L|204:242,1,88.000002685547,6|0,3:2|0:2,0:0:0:0:
258,167,169151,2,0,P|290:208|292:259,1,88.000002685547,0|0,1:2|0:2,0:0:0:0:
263,346,169613,2,0,L|368:341,1,88.000002685547,4|0,3:2|0:2,0:0:0:0:
463,363,170074,2,0,P|460:315|483:220,1,132.00000402832,2|0,1:2|0:0,0:0:0:0:
500,203,170536,5,6,3:2:0:0:
424,125,170766,1,0,1:2:0:0:
342,223,170997,1,2,1:2:0:0:
235,161,171228,2,0,L|134:158,2,88.000002685547,2|0|0,3:2|1:2|1:2,0:0:0:0:
354,236,171920,5,2,3:2:0:0:
235,161,172151,1,2,1:2:0:0:
353,78,172382,1,6,3:2:0:0:
256,192,172497,12,2,175613,1:2:0:0:
162,316,176074,6,0,B|288:302|288:302|262:291|246:268,1,176.000005371094,6|2,3:2|1:2,0:0:0:0:
164,207,176766,2,0,P|196:183|256:173,1,88.000002685547,2|0,0:2|3:2,0:0:0:0:
331,213,177228,1,2,0:2:0:0:
374,297,177459,2,0,L|362:406,1,88.000002685547,2|0,1:2|0:2,0:0:0:0:
490,364,177920,6,0,L|473:169,1,176.000005371094,6|0,3:2|1:2,0:0:0:0:
380,138,178613,1,0,0:2:0:0:
401,45,178843,6,0,P|453:75|473:115,1,88.000002685547,2|2,3:2|0:2,0:0:0:0:
358,161,179305,1,2,1:2:0:0:
265,109,179536,2,0,B|247:102|217:100|217:100|171:164|89:137,1,176.000005371094,2|0,0:2|0:2,0:0:0:0:
31,81,180228,1,2,1:2:0:0:
130,55,180459,2,0,P|162:167|141:243,1,176.000005371094,2|0,0:2|0:2,0:0:0:0:
59,269,181151,5,2,1:2:0:0:
130,366,181382,2,0,P|192:375|259:336,1,132.00000402832,2|0,0:2|0:0,0:0:0:0:
271,322,181843,1,2,0:2:0:0:
173,271,182074,1,2,1:2:0:0:
265,191,182305,1,2,0:2:0:0:
354,271,182536,5,2,3:2:0:0:
252,177,182766,1,2,0:2:0:0:
364,170,182997,2,0,B|408:125|417:91|417:91|396:88|375:101,1,132.00000402832,2|0,1:2|0:0,0:0:0:0:
358,99,183459,6,0,P|297:90|235:28,1,132.00000402832,6|0,3:2|0:0,0:0:0:0:
233,24,183920,1,0,1:2:0:0:
181,119,184151,2,0,P|126:123|90:110,1,88.000002685547,0|0,0:2|3:2,0:0:0:0:
17,32,184613,2,0,L|3:136,1,88.000002685547,2|0,0:2|1:2,0:0:0:0:
0,232,185074,1,2,0:2:0:0:
88,305,185305,5,4,3:2:0:0:
88,305,185420,1,0,1:2:0:0:
88,305,185536,2,0,L|148:291,1,44.0000013427735,0|0,1:2|3:0,0:0:0:0:
166,283,185766,2,0,P|184:304|191:319,3,44.0000013427735,0|8|4|0,1:2|0:3|0:3|3:0,0:0:0:0:
216,344,186228,6,0,P|245:334|296:331,3,44.0000013427735,2|4|0|4,0:0|0:3|3:0|0:3,0:0:0:0:
288,311,186689,2,0,P|316:318|344:319,3,44.0000013427735,2|0|8|8,1:2|1:2|0:3|0:3,0:0:0:0:
376,306,187151,6,0,P|391:245|282:192,1,176.000005371094,6|0,3:2|1:2,0:0:0:0:
205,252,187843,1,0,0:2:0:0:
209,133,188074,1,2,3:2:0:0:
226,269,188305,1,2,0:2:0:0:
121,214,188536,2,0,P|105:170|101:102,1,88.000002685547,2|0,1:2|0:2,0:0:0:0:
5,57,188997,6,0,L|-1:234,1,176.000005371094,6|0,3:2|1:2,0:0:0:0:
16,348,189689,1,2,0:2:0:0:
105,287,189920,2,0,P|149:276|199:285,1,88.000002685547,0|0,3:2|0:2,0:0:0:0:
262,349,190382,2,0,P|306:360|356:351,1,88.000002685547,2|0,1:2|0:2,0:0:0:0:
442,297,190843,6,0,B|443:235|443:235|423:186|423:186|428:116,1,176.000005371094,6|0,3:2|1:2,0:0:0:0:
441,0,191536,1,2,0:2:0:0:
512,72,191766,1,2,3:2:0:0:
428,125,191997,1,2,0:2:0:0:
361,56,192228,2,0,P|305:59|262:77,1,88.000002685547,2|0,1:2|0:2,0:0:0:0:
197,127,192689,6,0,B|16:113,1,176.000005371094,6|0,3:2|1:2,0:0:0:0:
150,335,193613,1,2,3:2:0:0:
61,365,193843,1,2,0:2:0:0:
33,275,194074,1,2,1:2:0:0:
123,247,194305,1,2,0:2:0:0:
216,269,194536,6,0,B|237:310|227:356|227:356|272:328|343:336,1,176.000005371094,6|2,3:2|1:2,0:0:0:0:
424,347,195228,2,0,P|447:293|424:175,1,176.000005371094,2|0,0:2|0:2,0:0:0:0:
351,101,195920,1,2,1:2:0:0:
284,196,196151,1,2,0:2:0:0:
176,112,196382,6,0,L|368:100,1,176.000005371094,6|2,3:2|1:2,0:0:0:0:
258,22,197074,2,0,B|140:30|140:30|84:78,1,176.000005371094,2|0,0:2|0:2,0:0:0:0:
52,160,197766,2,0,L|66:254,1,88.000002685547,0|0,1:2|0:2,0:0:0:0:
159,311,198228,6,0,P|205:326|281:222,1,176.000005371094,6|0,3:2|1:2,0:0:0:0:
253,102,198920,1,2,0:2:0:0:
182,158,199151,2,0,P|184:199|205:242,1,88.000002685547,6|2,3:2|0:2,0:0:0:0:
303,317,199613,1,2,1:2:0:0:
370,243,199843,1,2,0:2:0:0:
473,256,200074,5,4,3:2:0:0:
404,346,200305,1,0,1:2:0:0:
340,234,200536,1,0,1:2:0:0:
263,328,200766,2,0,P|222:244|245:150,1,176.000005371094,4|0,3:2|3:2,0:0:0:0:
390,106,201459,1,2,1:2:0:0:
265,6,201689,1,6,0:3:0:0:
295,95,201920,5,6,0:2:0:0:
273,123,208613,5,2,0:2:0:0:
273,123,208728,1,0,0:2:0:0:
273,123,208843,2,0,P|314:113|384:129,1,107.999996704102,2|0,0:2|0:0,0:0:0:0:
401,141,209305,6,0,L|409:240,1,80,6|2,3:2|0:2,0:0:0:0:
469,305,209766,1,2,3:2:0:0:
390,357,209997,2,0,P|314:337|229:340,1,160,2|0,0:2|0:2,0:0:0:0:
145,384,210689,2,0,L|35:358,1,80,2|0,3:2|0:2,0:0:0:0:
7,272,211151,6,0,P|1:221|8:167,1,80,2|2,3:2|0:2,0:0:0:0:
93,122,211613,1,2,3:2:0:0:
195,178,211843,2,0,P|269:188|313:112,1,160,2|2,0:2|0:2,0:0:0:0:
305,15,212536,2,0,P|347:23|400:63,1,80,0|0,3:2|0:2,0:0:0:0:
438,136,212997,6,0,L|424:327,1,160,6|2,3:2|3:2,0:0:0:0:
328,362,213689,1,2,3:2:0:0:
305,369,213805,1,0,0:0:0:0:
283,370,213920,1,0,3:2:0:0:
223,266,214151,1,2,3:2:0:0:
121,323,214382,2,0,P|109:274|114:232,1,80,2|2,3:2|3:2,0:0:0:0:
133,100,214843,5,2,3:2:0:0:
27,212,215074,1,2,1:2:0:0:
180,178,215305,1,2,1:2:0:0:
38,116,215536,1,2,3:2:0:0:
119,253,215766,1,0,1:2:0:0:
119,253,215882,1,0,1:2:0:0:
119,253,215997,1,0,3:0:0:0:
205,165,216228,2,0,L|245:173,3,40,2|0|10|8,1:2|1:2|0:3|0:3,0:0:0:0:
275,179,216689,6,0,P|318:154|334:93,1,88.000002685547,4|0,3:2|0:0,0:0:0:0:
236,83,217151,1,2,1:2:0:0:
322,29,217382,2,0,L|416:57,1,88.000002685547,2|0,0:2|3:2,0:0:0:0:
447,156,217843,1,2,0:2:0:0:
337,178,218074,1,2,1:2:0:0:
414,263,218305,5,2,0:2:0:0:
414,263,218420,1,0,0:0:0:0:
414,263,218536,2,0,P|421:317|407:354,1,88.000002685547,6|0,3:2|0:0,0:0:0:0:
313,384,218997,1,0,1:2:0:0:
240,299,219228,2,0,P|166:255|66:294,1,176.000005371094,0|0,0:2|0:2,0:0:0:0:
46,384,219920,1,2,1:2:0:0:
156,353,220151,1,2,0:2:0:0:
83,277,220382,6,0,B|69:209|69:209|88:93,1,176.000005371094,6|0,3:2|1:2,0:0:0:0:
151,19,221074,1,2,0:2:0:0:
174,14,221189,1,0,0:0:0:0:
195,15,221305,1,6,3:2:0:0:
300,71,221536,1,0,0:0:0:0:
222,175,221766,2,0,P|190:141|176:94,1,88.000002685547,2|2,1:2|0:2,0:0:0:0:
324,81,222228,6,0,L|308:267,1,176.000005371094,4|2,3:2|1:2,0:0:0:0:
400,324,222920,1,2,0:2:0:0:
298,371,223151,2,0,P|257:354|222:327,1,88.000002685547,2|2,3:2|0:2,0:0:0:0:
132,239,223613,2,0,L|118:334,1,88.000002685547,2|0,1:2|0:2,0:0:0:0:
28,384,224074,6,0,L|16:246,1,132.00000402832,6|2,3:2|0:2,0:0:0:0:
14,223,224536,2,0,P|35:180|77:148,1,88.000002685547,0|2,1:2|0:2,0:0:0:0:
178,153,224997,2,0,L|276:188,2,88.000002685547,2|0|0,3:2|0:2|1:2,0:0:0:0:
133,64,225689,1,0,0:2:0:0:
209,0,225920,6,0,L|374:41,1,132.00000402832,6|2,3:2|0:2,0:0:0:0:
367,42,226382,2,0,P|399:87|405:137,1,88.000002685547,0|2,1:2|0:2,0:0:0:0:
391,235,226843,2,0,P|385:301|406:382,1,132.00000402832,2|2,3:2|0:2,0:0:0:0:
415,381,227305,2,0,L|311:358,1,88.000002685547,0|2,1:2|0:2,0:0:0:0:
207,315,227766,6,0,B|149:317|98:357|98:357|70:349|24:363,2,176.000005371094,6|0|4,3:2|1:2|3:2,0:0:0:0:
315,335,228920,1,0,0:2:0:0:
279,236,229151,2,0,P|278:174|296:125,1,88.000002685547,2|2,1:2|0:2,0:0:0:0:
354,73,229613,5,6,3:2:0:0:
241,55,229843,1,0,1:2:0:0:
284,149,230074,1,2,1:2:0:0:
159,129,230305,2,0,P|102:96|72:25,1,132.00000402832,6|0,3:2|0:0,0:0:0:0:
63,17,230766,2,0,L|48:113,1,88.000002685547,2|4,3:2|3:2,0:0:0:0:
29,231,231228,1,2,0:2:0:0:
205,191,231459,5,6,3:2:0:0:
256,192,231574,12,0,234689,1:2:0:0:
352,295,235151,6,0,P|359:234|314:108,1,176.000005371094,4|0,3:2|1:2,0:0:0:0:
234,78,235843,1,0,0:2:0:0:
143,144,236074,2,0,L|151:234,1,88.000002685547,0|0,3:2|0:2,0:0:0:0:
189,332,236536,5,2,1:2:0:0:
263,253,236766,1,0,0:2:0:0:
150,231,236997,2,0,P|70:265|35:294,1,132.00000402832,6|0,3:2|0:0,0:0:0:0:
23,313,237459,1,2,1:2:0:0:
11,204,237689,2,0,P|65:169|109:155,1,88.000002685547,2|0,0:2|3:2,0:0:0:0:
205,163,238151,2,0,P|161:210|139:251,1,88.000002685547,2|0,0:2|1:2,0:0:0:0:
167,329,238613,1,2,0:2:0:0:
267,362,238843,6,0,L|376:348,1,88.000002685547,6|0,3:2|0:0,0:0:0:0:
463,380,239305,1,2,1:2:0:0:
510,282,239536,2,0,P|512:238|503:195,1,88.000002685547,2|0,0:2|3:2,0:0:0:0:
437,115,239997,1,0,0:2:0:0:
497,17,240228,2,0,L|400:5,1,88.000002685547,0|0,1:2|0:2,0:0:0:0:
301,8,240689,6,0,B|290:104|290:104|312:108|340:129,1,132.00000402832,4|0,3:2|0:0,0:0:0:0:
347,136,241151,1,0,1:2:0:0:
268,196,241382,2,0,P|225:184|167:150,1,88.000002685547,0|0,0:2|3:2,0:0:0:0:
114,73,241843,1,0,0:2:0:0:
47,157,242074,2,0,L|50:263,1,88.000002685547,0|0,1:2|0:2,0:0:0:0:
56,360,242536,6,0,P|105:313|217:331,1,176.000005371094,4|0,3:2|1:2,0:0:0:0:
285,384,243228,1,0,0:2:0:0:
380,315,243459,2,0,B|362:214|362:214|334:177|290:184,1,176.000005371094,4|0,3:2|1:2,0:0:0:0:
209,236,244151,1,0,0:2:0:0:
159,159,244382,5,4,3:2:0:0:
120,257,244613,1,0,1:2:0:0:
201,324,244843,1,0,1:2:0:0:
290,269,245074,1,0,1:2:0:0:
266,172,245305,1,0,1:2:0:0:
266,172,245420,1,0,1:2:0:0:
266,172,245536,1,0,3:2:0:0:
209,99,245766,6,0,P|232:89|252:83,3,44.0000013427735,0|0|8|8,1:2|1:2|0:3|0:3,0:0:0:0:
292,83,246228,1,6,0:2:0:0:
256,192,246343,12,2,249920,0:2:0:0:
256,192,250036,12,2,252459,0:2:0:0:
311,197,252920,6,0,B|317:105|189:90|167:180|204:232|204:232|237:288|216:358,1,360,2|0,0:2|0:2,0:0:0:0:
