osu file format v14

[General]
AudioFilename: audio.mp3
AudioLeadIn: 0
PreviewTime:50494
Countdown: 0
SampleSet: Soft
StackLeniency: 0.5
Mode: 0
LetterboxInBreaks: 0
WidescreenStoryboard: 1

[Editor]
Bookmarks: 118656,141244,152538
DistanceSpacing: 1.1
BeatDivisor: 4
GridSize: 8
TimelineZoom: 2.4

[Metadata]
Title:phony
TitleUnicode:フォニイ
Artist:Tsumiki
ArtistUnicode:ツミキ
Creator:Ryuusei Aika
Version:Setu's Hard
Source:
Tags:_23ki_ foni japanese rock jrock j-rock pop jpop j-pop calvaria shikibe mayu shizuku- kazato asa deppyforce [hatsune miku] remapper _lai setu shiratamamywife ryxliee midorijeon vocalsynth 可不 KAFU KAF+U cevio ai female vocal KAMITSUBAKI STUDIO 神椿スタジオ
BeatmapID:3151543
BeatmapSetID:1533832

[Difficulty]
HPDrainRate:4
CircleSize:3.5
OverallDifficulty:6
ApproachRate:8
SliderMultiplier:1.59999990463257
SliderTickRate:1

[Events]
//Background and Video events
0,0,"BG.jpg",0,0
//Break Periods
2,30068,33200
2,84974,89141
2,90621,95318
2,141244,151788
//Storyboard Layer 0 (Background)
//Storyboard Layer 1 (Fail)
//Storyboard Layer 2 (Pass)
//Storyboard Layer 3 (Foreground)
//Storyboard Layer 4 (Overlay)
//Storyboard Sound Samples

[TimingPoints]
1480,352.941176470588,4,2,1,50,1,0
1480,-111.111111111111,4,2,1,50,0,0
11362,-100,4,2,1,70,0,0
17009,-100,4,2,1,70,0,0
18597,-100,4,2,1,70,0,0
18774,-100,4,2,1,70,0,0
22127,-100,4,2,2,70,0,0
22215,-100,4,2,1,70,0,0
22303,-100,4,2,2,70,0,0
22391,-100,4,2,1,70,0,0
22479,-100,4,2,1,70,0,0
22656,-100,4,2,1,70,0,0
24244,-100,4,2,1,70,0,0
24421,-100,4,2,1,70,0,0
27773,-100,4,2,1,70,0,0
27950,-100,4,2,1,70,0,0
28303,-100,4,2,2,60,0,0
28391,-100,4,2,1,60,0,0
28479,-100,4,2,1,60,0,0
40479,-100,4,2,1,60,0,0
40656,-100,4,2,1,60,0,0
41538,-100,4,2,1,60,0,0
41715,-100,4,2,1,60,0,0
44361,-100,4,2,1,60,0,0
44538,-100,4,2,1,60,0,0
44715,-100,4,2,2,60,0,0
44803,-100,4,2,1,60,0,0
44891,-100,4,2,2,60,0,0
44979,-100,4,2,1,60,0,0
45068,-100,4,2,1,60,0,0
47185,-100,4,2,1,60,0,0
47362,-100,4,2,1,60,0,0
50185,-100,4,2,2,60,0,0
50274,-100,4,2,1,60,0,0
50362,-100,4,2,1,60,0,0
50891,-100,4,2,1,70,0,0
50979,-100,4,2,2,70,0,0
51067,-100,4,2,2,70,0,0
51244,-100,4,2,2,70,0,0
52567,-100,4,2,2,70,0,0
52656,-100,4,2,2,70,0,0
53891,-100,4,2,2,70,0,0
54068,-100,4,2,2,70,0,0
56361,-100,4,2,2,70,0,0
56538,-100,4,2,1,70,0,0
56627,-100,4,2,2,70,0,0
56714,-100,4,2,2,70,0,0
56891,-100,4,2,2,70,0,0
58479,-100,4,2,2,70,0,0
58656,-100,4,2,2,70,0,0
59185,-100,4,2,2,70,0,0
59362,-100,4,2,2,70,0,0
59538,-100,4,2,2,70,0,0
59715,-100,4,2,2,70,0,0
62185,-100,4,2,1,80,0,1
62362,-100,4,2,1,80,0,1
62538,-100,4,2,1,80,0,1
62715,-100,4,2,1,80,0,1
62891,-100,4,2,1,80,0,1
63068,-100,4,2,3,80,0,1
63156,-100,4,2,1,80,0,1
63244,-100,4,2,1,80,0,1
63421,-100,4,2,3,80,0,1
63509,-100,4,2,1,80,0,1
63597,-100,4,2,1,80,0,1
63774,-100,4,2,3,80,0,1
63862,-100,4,2,1,80,0,1
63950,-100,4,2,1,80,0,1
64127,-100,4,2,1,80,0,1
64303,-100,4,2,1,80,0,1
64480,-100,4,2,1,80,0,1
64656,-100,4,2,1,80,0,1
64833,-100,4,2,3,80,0,1
64920,-100,4,2,1,80,0,1
65009,-100,4,2,1,80,0,1
65186,-100,4,2,1,80,0,1
65362,-100,4,2,1,80,0,1
65539,-100,4,2,3,80,0,1
65626,-100,4,2,1,80,0,1
65715,-100,4,2,1,80,0,1
65892,-100,4,2,3,80,0,1
65979,-100,4,2,1,80,0,1
66068,-100,4,2,1,80,0,1
66245,-100,4,2,3,80,0,1
66332,-100,4,2,1,80,0,1
66421,-100,4,2,1,80,0,1
66598,-100,4,2,1,80,0,1
66774,-100,4,2,1,80,0,1
66951,-100,4,2,1,80,0,1
67127,-100,4,2,1,80,0,1
67304,-100,4,2,3,80,0,1
67391,-100,4,2,1,80,0,1
67479,-100,4,2,1,80,0,1
67656,-100,4,2,3,80,0,1
67744,-100,4,2,1,80,0,1
67832,-100,4,2,1,80,0,1
68009,-100,4,2,3,80,0,1
68097,-100,4,2,1,80,0,1
68185,-100,4,2,1,80,0,1
68362,-100,4,2,3,80,0,1
68450,-100,4,2,1,80,0,1
68538,-100,4,2,1,80,0,1
68715,-100,4,2,1,80,0,1
68891,-100,4,2,1,80,0,1
69068,-100,4,2,3,80,0,1
69156,-100,4,2,1,80,0,1
69244,-100,4,2,1,80,0,1
69421,-100,4,2,3,80,0,1
69509,-100,4,2,1,80,0,1
69597,-100,4,2,1,80,0,1
69774,-100,4,2,1,80,0,1
69950,-100,4,2,1,80,0,1
70127,-100,4,2,1,80,0,1
70303,-100,4,2,1,80,0,1
70480,-100,4,2,1,80,0,1
70656,-100,4,2,1,80,0,1
70833,-100,4,2,1,80,0,1
71009,-100,4,2,1,80,0,1
71186,-100,4,2,3,80,0,1
71273,-100,4,2,1,80,0,1
71362,-100,4,2,1,80,0,1
71539,-100,4,2,1,80,0,1
71715,-100,4,2,1,80,0,1
71892,-100,4,2,3,80,0,1
71979,-100,4,2,1,80,0,1
72068,-100,4,2,1,80,0,1
72245,-100,4,2,3,80,0,1
72332,-100,4,2,1,80,0,1
72421,-100,4,2,1,80,0,1
72598,-100,4,2,3,80,0,1
72685,-100,4,2,1,80,0,1
72774,-100,4,2,1,80,0,1
72951,-100,4,2,3,80,0,1
73038,-100,4,2,1,80,0,1
73127,-100,4,2,1,80,0,1
73304,-100,4,2,3,80,0,1
73391,-100,4,2,1,80,0,1
73479,-100,4,2,1,80,0,1
73656,-100,4,2,1,80,0,1
73832,-100,4,2,1,80,0,1
74009,-100,4,2,1,80,0,1
74185,-100,4,2,1,80,0,1
74362,-100,4,2,3,80,0,1
74450,-100,4,2,1,80,0,1
74538,-100,4,2,1,80,0,1
74715,-100,4,2,3,80,0,1
74803,-100,4,2,1,80,0,1
74891,-100,4,2,1,80,0,1
75068,-100,4,2,3,80,0,1
75156,-100,4,2,1,80,0,1
75244,-100,4,2,1,80,0,1
75421,-100,4,2,1,80,0,1
75597,-100,4,2,1,80,0,1
75774,-100,4,2,1,80,0,1
75950,-100,4,2,1,80,0,1
76127,-100,4,2,3,80,0,1
76215,-100,4,2,1,80,0,1
76303,-100,4,2,1,80,0,1
76480,-100,4,2,1,80,0,1
76656,-100,4,2,1,80,0,1
76833,-100,4,2,3,80,0,1
76920,-100,4,2,1,80,0,1
77009,-100,4,2,1,80,0,1
77186,-100,4,2,1,80,0,1
77362,-100,4,2,1,80,0,1
77539,-100,4,2,3,80,0,1
77626,-100,4,2,1,80,0,1
77715,-100,4,2,1,80,0,1
77892,-100,4,2,1,80,0,1
78068,-100,4,2,1,80,0,1
78245,-100,4,2,1,80,0,1
78421,-100,4,2,1,80,0,1
78598,-100,4,2,3,80,0,1
78685,-100,4,2,1,80,0,1
78774,-100,4,2,1,80,0,1
78951,-100,4,2,3,80,0,1
79038,-100,4,2,1,80,0,1
79127,-100,4,2,1,80,0,1
79304,-100,4,2,1,80,0,1
79479,-100,4,2,1,80,0,1
79656,-100,4,2,1,80,0,1
79832,-100,4,2,1,80,0,1
80009,-100,4,2,1,80,0,1
80185,-100,4,2,1,80,0,1
80362,-100,4,2,1,80,0,1
80538,-100,4,2,1,80,0,1
80715,-100,4,2,1,80,0,1
80891,-100,4,2,1,80,0,1
81068,-100,4,2,1,80,0,1
81244,-100,4,2,1,80,0,1
81421,-100,4,2,1,80,0,1
81597,-100,4,2,1,80,0,1
81774,-100,4,2,1,80,0,1
81950,-100,4,2,1,80,0,1
84421,-100,4,2,1,80,0,0
84774,-100,4,2,1,70,0,0
89891,-100,4,2,2,70,0,0
89980,-100,4,2,1,70,0,0
90068,-100,4,2,2,70,0,0
90156,-100,4,2,1,70,0,0
90244,-100,4,2,1,70,0,0
96068,-100,4,2,1,60,0,0
98008,-100,4,2,1,60,0,0
98185,-100,4,2,1,60,0,0
100832,-100,4,2,1,60,0,0
101009,-100,4,2,1,60,0,0
101715,-100,4,2,3,60,0,0
101803,-100,4,2,1,60,0,0
103655,-100,4,2,1,60,0,0
103832,-100,4,2,1,60,0,0
107362,-100,4,2,1,70,0,0
112479,-100,4,2,2,70,0,0
112568,-100,4,2,1,70,0,0
112656,-100,4,2,2,70,0,0
112744,-100,4,2,1,70,0,0
112832,-100,4,2,1,70,0,0
113009,-100,4,2,1,70,0,0
117685,-100,4,2,1,40,0,0
117950,-100,4,2,1,70,0,0
118038,-100,4,2,1,40,0,0
118127,-100,4,2,1,40,0,0
118303,-100,4,2,1,70,0,0
118391,-100,4,2,1,40,0,0
118479,-100,4,2,1,40,0,0
118656,-100,4,2,2,70,0,0
118832,-100,4,2,2,70,0,0
119009,-100,4,2,3,70,0,0
119097,-100,4,2,2,70,0,0
120332,-100,4,2,2,70,0,0
120421,-100,4,2,2,70,0,0
120597,-100,4,2,2,70,0,0
120774,-100,4,2,2,70,0,0
121303,-100,4,2,2,70,0,0
121479,-100,4,2,2,70,0,0
121655,-100,4,2,2,70,0,0
121832,-100,4,2,2,70,0,0
122449,-100,4,2,2,70,0,0
122538,-100,4,2,2,70,0,0
124126,-100,4,2,2,70,0,0
124303,-100,4,2,1,70,0,0
124391,-100,4,2,2,70,0,0
124479,-100,4,2,2,70,0,0
124656,-100,4,2,2,70,0,0
125979,-100,4,2,2,70,0,0
126068,-100,4,2,2,70,0,0
126244,-100,4,2,2,70,0,0
126421,-100,4,2,2,70,0,0
126950,-100,4,2,2,70,0,0
127127,-100,4,2,2,70,0,0
127303,-100,4,2,2,70,0,0
127479,-100,4,2,2,70,0,0
129861,-100,4,2,2,70,0,0
129950,-100,4,2,1,70,0,0
130038,-100,4,2,1,70,0,0
130126,-100,4,2,1,70,0,0
130303,-100,4,2,1,70,0,0
130479,-100,4,2,3,70,0,0
130567,-100,4,2,1,70,0,0
131185,-100,4,2,3,70,0,0
131273,-100,4,2,1,70,0,0
131538,-100,4,2,3,70,0,0
131626,-100,4,2,1,70,0,0
131891,-100,4,2,3,70,0,0
131979,-100,4,2,1,70,0,0
132244,-100,4,2,4,70,0,0
132303,-100,4,2,1,70,0,0
132421,-100,4,2,2,70,0,0
132509,-100,4,2,1,70,0,0
132597,-100,4,2,3,70,0,0
132685,-100,4,2,1,70,0,0
132950,-100,4,2,3,70,0,0
133038,-100,4,2,1,70,0,0
133303,-100,4,2,3,70,0,0
133391,-100,4,2,1,70,0,0
133656,-100,4,2,3,70,0,0
133744,-100,4,2,1,70,0,0
134009,-100,4,2,3,70,0,0
134097,-100,4,2,1,70,0,0
135068,-100,4,2,4,70,0,0
135156,-100,4,2,1,70,0,0
135244,-100,4,2,2,70,0,0
135332,-100,4,2,1,70,0,0
135420,-100,4,2,1,70,0,0
135597,-100,4,2,1,70,0,0
135685,-100,4,2,1,70,0,0
136127,-100,4,2,3,70,0,0
136215,-100,4,2,1,70,0,0
136833,-100,4,2,3,70,0,0
136921,-100,4,2,1,70,0,0
137186,-100,4,2,3,70,0,0
137274,-100,4,2,1,70,0,0
137539,-100,4,2,3,70,0,0
137627,-100,4,2,1,70,0,0
137892,-100,4,2,4,70,0,0
137951,-100,4,2,1,70,0,0
138069,-100,4,2,2,70,0,0
138157,-100,4,2,1,70,0,0
138245,-100,4,2,3,70,0,0
138333,-100,4,2,1,70,0,0
138598,-100,4,2,3,70,0,0
138686,-100,4,2,1,70,0,0
138951,-100,4,2,3,70,0,0
139039,-100,4,2,1,70,0,0
139304,-100,4,2,3,70,0,0
139392,-100,4,2,1,70,0,0
139657,-100,4,2,4,70,0,0
139745,-100,4,2,1,70,0,0
141244,-100,4,2,5,70,0,0
141332,-100,4,2,2,70,0,0
152538,-100,4,2,5,70,0,0
152627,-100,4,2,2,70,0,0
158185,-100,4,2,1,70,0,0
158449,-100,4,2,1,70,0,0
158538,-100,4,2,1,70,0,0
158802,-100,4,2,1,70,0,0
158891,-100,4,2,1,70,0,0
159155,-100,4,2,1,70,0,0
159244,-100,4,2,1,70,0,0
159508,-100,4,2,1,70,0,0
159597,-100,4,2,1,70,0,0
161009,-100,4,2,1,50,0,0
161273,-100,4,2,1,50,0,0
161362,-90.9090909090909,4,2,1,80,0,1
161538,-90.9090909090909,4,2,1,80,0,1
161715,-90.9090909090909,4,2,1,80,0,1
161892,-90.9090909090909,4,2,3,80,0,1
161979,-90.9090909090909,4,2,1,80,0,1
162068,-90.9090909090909,4,2,1,80,0,1
162245,-90.9090909090909,4,2,3,80,0,1
162332,-90.9090909090909,4,2,1,80,0,1
162421,-90.9090909090909,4,2,1,80,0,1
162598,-90.9090909090909,4,2,3,80,0,1
162685,-90.9090909090909,4,2,1,80,0,1
162774,-90.9090909090909,4,2,1,80,0,1
162951,-90.9090909090909,4,2,1,80,0,1
163127,-90.9090909090909,4,2,1,80,0,1
163304,-90.9090909090909,4,2,1,80,0,1
163479,-90.9090909090909,4,2,1,80,0,1
163656,-90.9090909090909,4,2,3,80,0,1
163743,-90.9090909090909,4,2,1,80,0,1
163832,-90.9090909090909,4,2,1,80,0,1
164009,-90.9090909090909,4,2,1,80,0,1
164185,-90.9090909090909,4,2,1,80,0,1
164362,-90.9090909090909,4,2,3,80,0,1
164449,-90.9090909090909,4,2,1,80,0,1
164538,-90.9090909090909,4,2,1,80,0,1
164715,-90.9090909090909,4,2,3,80,0,1
164802,-90.9090909090909,4,2,1,80,0,1
164891,-90.9090909090909,4,2,1,80,0,1
165068,-90.9090909090909,4,2,3,80,0,1
165155,-90.9090909090909,4,2,1,80,0,1
165244,-90.9090909090909,4,2,1,80,0,1
165421,-90.9090909090909,4,2,1,80,0,1
165597,-90.9090909090909,4,2,1,80,0,1
165774,-90.9090909090909,4,2,1,80,0,1
165950,-90.9090909090909,4,2,1,80,0,1
166127,-90.9090909090909,4,2,3,80,0,1
166214,-90.9090909090909,4,2,1,80,0,1
166303,-90.9090909090909,4,2,1,80,0,1
166480,-90.9090909090909,4,2,3,80,0,1
166567,-90.9090909090909,4,2,1,80,0,1
166656,-90.9090909090909,4,2,1,80,0,1
166833,-90.9090909090909,4,2,3,80,0,1
166920,-90.9090909090909,4,2,1,80,0,1
167009,-90.9090909090909,4,2,1,80,0,1
167186,-90.9090909090909,4,2,3,80,0,1
167273,-90.9090909090909,4,2,1,80,0,1
167362,-90.9090909090909,4,2,1,80,0,1
167539,-90.9090909090909,4,2,1,80,0,1
167715,-90.9090909090909,4,2,1,80,0,1
167892,-90.9090909090909,4,2,3,80,0,1
167979,-90.9090909090909,4,2,1,80,0,1
168068,-90.9090909090909,4,2,1,80,0,1
168245,-90.9090909090909,4,2,3,80,0,1
168332,-90.9090909090909,4,2,1,80,0,1
168421,-90.9090909090909,4,2,1,80,0,1
168598,-90.9090909090909,4,2,1,80,0,1
168774,-90.9090909090909,4,2,1,80,0,1
168951,-90.9090909090909,4,2,1,80,0,1
169127,-90.9090909090909,4,2,1,80,0,1
169304,-90.9090909090909,4,2,1,80,0,1
169479,-90.9090909090909,4,2,1,80,0,1
169656,-90.9090909090909,4,2,1,80,0,1
169832,-90.9090909090909,4,2,1,80,0,1
170009,-90.9090909090909,4,2,3,80,0,1
170096,-90.9090909090909,4,2,1,80,0,1
170185,-90.9090909090909,4,2,1,80,0,1
170362,-90.9090909090909,4,2,1,80,0,1
170538,-90.9090909090909,4,2,1,80,0,1
170715,-90.9090909090909,4,2,3,80,0,1
170802,-90.9090909090909,4,2,1,80,0,1
170891,-90.9090909090909,4,2,1,80,0,1
171068,-90.9090909090909,4,2,3,80,0,1
171155,-90.9090909090909,4,2,1,80,0,1
171244,-90.9090909090909,4,2,1,80,0,1
171421,-90.9090909090909,4,2,3,80,0,1
171508,-90.9090909090909,4,2,1,80,0,1
171597,-90.9090909090909,4,2,1,80,0,1
171774,-90.9090909090909,4,2,3,80,0,1
171861,-90.9090909090909,4,2,1,80,0,1
171950,-90.9090909090909,4,2,1,80,0,1
172127,-90.9090909090909,4,2,3,80,0,1
172214,-90.9090909090909,4,2,1,80,0,1
172303,-90.9090909090909,4,2,1,80,0,1
172480,-90.9090909090909,4,2,1,80,0,1
172656,-90.9090909090909,4,2,1,80,0,1
172833,-90.9090909090909,4,2,1,80,0,1
173009,-90.9090909090909,4,2,1,80,0,1
173186,-90.9090909090909,4,2,3,80,0,1
173273,-90.9090909090909,4,2,1,80,0,1
173362,-90.9090909090909,4,2,1,80,0,1
173539,-90.9090909090909,4,2,3,80,0,1
173626,-90.9090909090909,4,2,1,80,0,1
173715,-90.9090909090909,4,2,1,80,0,1
173892,-90.9090909090909,4,2,3,80,0,1
173979,-90.9090909090909,4,2,1,80,0,1
174068,-90.9090909090909,4,2,1,80,0,1
174245,-90.9090909090909,4,2,1,80,0,1
174421,-90.9090909090909,4,2,1,80,0,1
174598,-90.9090909090909,4,2,1,80,0,1
174774,-90.9090909090909,4,2,1,80,0,1
174951,-90.9090909090909,4,2,3,80,0,1
175038,-90.9090909090909,4,2,1,80,0,1
175127,-90.9090909090909,4,2,1,80,0,1
175304,-90.9090909090909,4,2,1,80,0,1
175479,-90.9090909090909,4,2,1,80,0,1
175656,-90.9090909090909,4,2,3,80,0,1
175743,-90.9090909090909,4,2,1,80,0,1
175832,-90.9090909090909,4,2,1,80,0,1
176009,-90.9090909090909,4,2,1,80,0,1
176185,-90.9090909090909,4,2,1,80,0,1
176362,-90.9090909090909,4,2,3,80,0,1
176449,-90.9090909090909,4,2,1,80,0,1
176538,-90.9090909090909,4,2,1,80,0,1
176715,-90.9090909090909,4,2,1,80,0,1
176891,-90.9090909090909,4,2,1,80,0,1
177068,-90.9090909090909,4,2,1,80,0,1
177244,-90.9090909090909,4,2,1,80,0,1
177421,-90.9090909090909,4,2,3,80,0,1
177508,-90.9090909090909,4,2,1,80,0,1
177597,-90.9090909090909,4,2,1,80,0,1
177774,-90.9090909090909,4,2,3,80,0,1
177861,-90.9090909090909,4,2,1,80,0,1
177950,-90.9090909090909,4,2,1,80,0,1
178127,-90.9090909090909,4,2,1,80,0,1
178303,-90.9090909090909,4,2,1,80,0,1
178480,-90.9090909090909,4,2,1,80,0,1
178656,-90.9090909090909,4,2,1,80,0,1
178833,-90.9090909090909,4,2,1,80,0,1
179009,-90.9090909090909,4,2,1,80,0,1
179186,-90.9090909090909,4,2,1,80,0,1
179362,-90.9090909090909,4,2,1,80,0,1
179539,-90.9090909090909,4,2,1,80,0,1
179715,-90.9090909090909,4,2,1,80,0,1
179892,-90.9090909090909,4,2,1,80,0,1
180068,-90.9090909090909,4,2,1,80,0,1
180245,-90.9090909090909,4,2,1,80,0,1
180421,-90.9090909090909,4,2,1,80,0,1
180598,-90.9090909090909,4,2,1,80,0,1
180774,-90.9090909090909,4,2,1,80,0,1
180951,-90.9090909090909,4,2,1,80,0,1
181127,-90.9090909090909,4,2,1,80,0,1
181304,-90.9090909090909,4,2,1,80,0,1
181479,-90.9090909090909,4,2,1,80,0,1
181656,-90.9090909090909,4,2,1,80,0,1
181832,-90.9090909090909,4,2,1,80,0,1
182009,-90.9090909090909,4,2,3,80,0,1
182097,-90.9090909090909,4,2,1,80,0,1
182185,-90.9090909090909,4,2,1,80,0,1
182362,-90.9090909090909,4,2,1,80,0,1
182538,-90.9090909090909,4,2,1,80,0,1
182715,-90.9090909090909,4,2,1,80,0,1
182803,-90.9090909090909,4,2,1,80,0,1
183597,-100,4,2,1,60,0,0

[Colours]
Combo1 : 192,192,192
Combo2 : 128,128,128

[HitObjects]
58,119,1480,6,0,B|144:90|121:145|197:122,1,143.9999870224,2|2,0:0|0:0,0:0:0:0:
263,71,2009,1,2,0:0:0:0:
263,71,2185,2,0,P|280:124|212:208,1,143.9999870224,2|2,0:0|0:0,0:0:0:0:
165,240,2715,1,2,0:0:0:0:
165,240,2891,2,0,P|200:270|251:279,1,71.9999935112002,2|0,0:0|0:0,0:0:0:0:
305,247,3244,6,0,P|368:248|443:302,2,143.9999870224,2|2|2,0:0|0:0|0:0,0:0:0:0:
146,318,4303,6,0,P|135:259|141:166,1,143.9999870224,2|2,0:0|0:0,0:0:0:0:
205,119,4832,1,0,0:0:0:0:
205,119,5009,2,0,P|252:118|287:134,1,71.9999935112002,2|2,0:0|0:0,0:0:0:0:
338,185,5362,2,0,P|385:186|420:170,1,71.9999935112002,2|0,0:0|0:0,0:0:0:0:
452,103,5715,2,0,L|438:270,1,143.9999870224,2|0,0:0|0:0,0:0:0:0:
486,319,6244,6,0,P|440:331|389:313,1,71.9999935112002,2|2,0:0|0:0,0:0:0:0:
357,270,6597,1,2,0:0:0:0:
357,270,6774,2,0,P|310:258|259:276,1,71.9999935112002,2|2,0:0|0:0,0:0:0:0:
246,339,7127,6,0,L|236:185,1,143.9999870224,2|2,0:0|0:0,0:0:0:0:
167,151,7656,1,2,0:0:0:0:
167,151,7832,2,0,P|110:131|16:161,1,143.9999870224,2|2,0:0|0:0,0:0:0:0:
63,236,8362,1,2,0:0:0:0:
63,236,8538,2,0,P|97:245|131:235,1,71.9999935112002,2|0,0:0|0:0,0:0:0:0:
167,151,8891,6,0,P|222:133|314:167,2,143.9999870224,2|2|2,0:0|0:0|0:0,0:0:0:0:
63,236,9950,1,2,0:0:0:0:
63,236,10303,6,0,L|47:323,1,71.9999935112002,2|0,0:0|0:0,0:0:0:0:
135,320,10656,2,0,L|201:366,1,71.9999935112002,2|2,0:0|0:0,0:0:0:0:
251,296,11009,2,0,L|338:270,1,71.9999935112002,2|0,0:0|0:0,0:0:0:0:
402,325,11362,6,0,P|417:242|428:157,3,159.999990463257,6|6|6|6,3:2|3:2|3:2|3:2,0:0:0:0:
256,43,12774,2,0,B|161:12|191:75|89:38,3,159.999990463257,6|6|6|6,3:2|3:2|3:2|3:2,0:0:0:0:
32,209,14185,6,0,P|23:249|17:299,3,79.9999952316285,6|0|6|0,3:2|3:2|3:2|3:2,0:0:0:0:
103,334,14891,2,0,P|132:338|156:334,3,39.9999976158142,6|0|0|0,3:2|3:2|3:2|3:2,0:0:0:0:
182,309,15244,2,0,P|211:305|235:309,3,39.9999976158142,6|0|0|0,3:2|3:2|3:2|3:2,0:0:0:0:
256,339,15597,5,2,0:0:0:0:
463,61,17009,6,0,P|356:52|297:50,1,159.999990463257,6|10,3:2|3:2,0:0:0:0:
314,136,17538,1,0,0:0:0:0:
314,136,17715,2,0,P|381:137|441:145,2,119.999992847443,2|2|2,3:2|0:0|0:0,0:0:0:0:
262,207,18421,6,0,P|218:224|172:271,1,79.9999952316285,0|0,3:2|0:0,0:0:0:0:
123,186,18774,1,10,3:2:0:0:
113,99,18950,1,2,0:0:0:0:
113,99,19038,1,2,0:0:0:0:
113,99,19127,2,0,P|109:46|103:11,1,79.9999952316285,2|2,3:2|0:0,0:0:0:0:
202,50,19479,2,0,P|206:103|212:138,1,79.9999952316285,10|2,3:2|0:0,0:0:0:0:
273,202,19832,6,0,P|324:245|448:244,1,159.999990463257,2|10,3:2|3:2,0:0:0:0:
431,163,20362,1,0,0:0:0:0:
431,163,20538,2,0,P|392:130|299:131,2,119.999992847443,2|2|2,3:2|0:0|0:0,0:0:0:0:
414,255,21244,6,0,P|411:302|403:347,1,79.9999952316285,0|2,3:2|0:0,0:0:0:0:
315,366,21597,1,10,3:2:0:0:
220,349,21774,1,2,0:0:0:0:
130,329,21950,1,2,3:2:0:0:
130,329,22127,2,0,P|121:299|119:275,1,39.9999976158142,8|0,0:0|0:0,0:0:0:0:
122,248,22303,2,0,P|124:206|130:168,1,79.9999952316285,8|0,3:2|0:0,0:0:0:0:
194,89,22656,6,0,P|134:68|40:117,1,159.999990463257,6|10,3:2|3:2,0:0:0:0:
85,199,23185,1,0,0:0:0:0:
85,199,23362,2,0,P|128:214|196:170,2,119.999992847443,2|2|2,3:2|0:0|0:0,0:0:0:0:
13,263,24068,6,0,P|7:310|10:359,1,79.9999952316285,0|0,3:2|0:0,0:0:0:0:
100,367,24421,1,10,3:2:0:0:
178,298,24597,1,2,0:0:0:0:
178,298,24685,1,2,0:0:0:0:
178,298,24774,2,0,P|235:284|263:281,1,79.9999952316285,2|2,3:2|0:0,0:0:0:0:
293,358,25127,2,0,P|236:372|208:375,1,79.9999952316285,10|2,3:2|0:0,0:0:0:0:
350,290,25479,6,0,P|375:237|337:150,1,159.999990463257,2|10,3:2|3:2,0:0:0:0:
246,176,26009,1,0,0:0:0:0:
246,176,26185,2,0,P|227:215|255:281,2,119.999992847443,2|2|2,3:2|0:0|0:0,0:0:0:0:
336,149,26891,5,0,3:2:0:0:
395,232,27068,1,2,0:0:0:0:
395,232,27156,1,2,0:0:0:0:
395,232,27244,1,2,3:2:0:0:
492,202,27421,1,2,0:0:0:0:
493,101,27597,2,0,P|482:58|479:19,1,79.9999952316285,2|0,3:2|0:0,0:0:0:0:
397,67,27950,2,0,P|351:77|307:71,1,79.9999952316285,0|2,0:0|0:0,0:0:0:0:
233,28,28303,5,6,3:2:0:0:
29,284,33950,5,2,3:2:0:0:
29,284,34479,5,2,3:2:0:0:
123,304,34656,1,2,3:2:0:0:
123,304,35185,5,2,3:2:0:0:
104,112,35538,1,0,3:2:0:0:
104,112,35891,5,0,3:2:0:0:
198,132,36068,1,2,3:2:0:0:
198,132,36421,5,2,0:0:0:0:
217,324,36774,1,2,3:2:0:0:
217,324,37127,5,2,0:0:0:0:
311,344,37304,1,2,3:2:0:0:
405,364,37479,2,0,P|464:353|516:355,2,79.9999952316285,2|2|2,3:2|0:0|0:0,0:0:0:0:
374,283,38009,5,8,3:2:0:0:
374,283,38097,1,8,2:2:0:0:
374,283,38185,2,0,P|379:208|384:181,1,79.9999952316285,2|12,3:2|0:0,0:0:0:0:
485,170,38538,2,0,P|480:245|475:272,1,79.9999952316285,0|2,3:2|0:0,0:0:0:0:
415,123,38891,2,0,P|454:91|511:95,1,79.9999952316285,2|2,3:2|0:0,0:0:0:0:
379,203,39244,1,10,3:2:0:0:
379,203,39332,1,2,0:0:0:0:
379,203,39421,1,2,0:0:0:0:
379,203,39509,1,2,0:0:0:0:
379,203,39597,6,0,P|321:203|279:196,1,79.9999952316285,6|2,3:2|0:0,0:0:0:0:
251,284,39950,2,0,P|309:284|351:291,1,79.9999952316285,10|2,3:2|0:0,0:0:0:0:
210,194,40303,2,0,P|177:241|145:270,1,79.9999952316285,2|2,3:2|0:0,0:0:0:0:
202,346,40656,2,0,P|235:299|267:270,1,79.9999952316285,10|2,3:2|0:0,0:0:0:0:
329,237,41009,5,0,3:2:0:0:
329,237,41185,1,2,0:0:0:0:
375,330,41362,2,0,P|428:326|466:331,1,79.9999952316285,10|0,3:2|0:0,0:0:0:0:
485,227,41715,2,0,P|367:244|319:233,1,159.999990463257,2|8,3:2|3:2,0:0:0:0:
268,150,42244,1,2,0:0:0:0:
268,150,42421,6,0,P|257:94|258:59,1,79.9999952316285,2|2,3:2|0:0,0:0:0:0:
170,112,42774,2,0,P|181:168|180:203,1,79.9999952316285,10|2,3:2|0:0,0:0:0:0:
187,11,43127,2,0,P|151:28|112:39,1,79.9999952316285,2|2,3:2|0:0,0:0:0:0:
95,140,43480,2,0,P|130:122|169:111,1,79.9999952316285,10|2,3:2|0:0,0:0:0:0:
268,150,43832,5,0,3:2:0:0:
268,150,44009,1,2,0:0:0:0:
337,209,44185,2,0,P|387:213|429:203,1,79.9999952316285,10|0,3:2|0:0,0:0:0:0:
488,143,44538,1,2,3:2:0:0:
447,56,44715,1,8,0:0:0:0:
447,56,44891,1,8,3:2:0:0:
352,68,45068,1,2,0:0:0:0:
333,162,45244,6,0,P|334:201|326:249,1,79.9999952316285,4|2,3:2|0:0,0:0:0:0:
235,266,45597,2,0,P|234:227|241:178,1,79.9999952316285,10|2,3:2|0:0,0:0:0:0:
305,331,45950,2,0,P|263:351|232:374,1,79.9999952316285,2|2,3:2|0:0,0:0:0:0:
165,305,46303,2,0,P|207:285|238:262,1,79.9999952316285,10|2,3:2|0:0,0:0:0:0:
333,162,46656,5,0,3:2:0:0:
333,162,46832,1,2,0:0:0:0:
252,109,47009,2,0,P|219:86|182:69,1,79.9999952316285,10|0,3:2|0:0,0:0:0:0:
87,83,47362,2,0,P|69:148|73:258,1,159.999990463257,2|8,3:2|3:2,0:0:0:0:
133,319,47891,1,2,0:0:0:0:
133,319,48068,6,0,P|179:327|228:319,1,79.9999952316285,2|2,3:2|0:0,0:0:0:0:
246,233,48421,2,0,P|200:225|151:233,1,79.9999952316285,10|2,3:2|0:0,0:0:0:0:
304,312,48774,1,2,3:2:0:0:
393,281,48950,1,2,0:0:0:0:
394,185,49127,1,10,3:2:0:0:
303,156,49303,1,2,0:0:0:0:
231,92,49479,6,0,P|223:40|223:1,1,79.9999952316285,0|2,3:2|0:0,0:0:0:0:
137,58,49832,2,0,P|145:110|145:149,1,79.9999952316285,10|0,3:2|0:0,0:0:0:0:
217,191,50185,5,6,3:2:0:0:
95,339,50538,1,2,0:0:0:0:
95,339,50891,6,0,P|137:348|205:336,1,79.9999952316285,6|0,3:2|0:0,0:0:0:0:
267,367,51244,2,0,P|255:302|255:259,2,79.9999952316285,10|2|2,0:2|3:2|3:2,0:0:0:0:
351,315,51774,1,2,0:0:0:0:
351,315,51862,1,2,3:2:0:0:
351,315,51950,6,0,P|390:312|429:321,1,79.9999952316285,10|2,0:2|3:2,0:0:0:0:
487,231,52303,2,0,P|448:234|370:199,1,119.999992847443,2|0,0:0|0:0,0:0:0:0:
343,166,52656,2,0,P|329:114|325:69,1,79.9999952316285,10|0,0:2|3:2,0:0:0:0:
287,0,53009,1,2,3:2:0:0:
192,10,53185,1,8,0:2:0:0:
192,10,53362,2,0,P|141:19|96:13,1,79.9999952316285,10|0,0:2|3:2,0:0:0:0:
154,103,53715,6,0,P|205:94|250:100,1,79.9999952316285,2|0,3:2|0:0,0:0:0:0:
117,182,54068,2,0,P|75:150|65:100,1,79.9999952316285,10|2,0:2|3:2,0:0:0:0:
202,176,54421,2,0,P|196:268|198:308,2,119.999992847443,2|0|2,3:2|3:2|3:2,0:0:0:0:
378,104,55303,6,0,P|418:76|458:61,1,79.9999952316285,2|10,3:2|0:2,0:0:0:0:
348,17,55656,1,2,3:2:0:0:
348,17,55832,2,0,P|308:45|268:60,1,79.9999952316285,2|8,3:2|0:2,0:0:0:0:
362,182,56185,2,0,P|372:118|387:83,1,79.9999952316285,10|0,0:2|0:0,0:0:0:0:
274,143,56538,6,0,P|264:207|249:242,1,79.9999952316285,6|0,3:2|0:0,0:0:0:0:
261,315,56891,1,10,3:2:0:0:
355,342,57068,1,2,0:0:0:0:
406,263,57244,1,2,3:2:0:0:
348,188,57421,1,2,0:0:0:0:
348,188,57509,1,2,0:0:0:0:
348,188,57597,1,10,3:2:0:0:
258,221,57774,1,2,0:0:0:0:
174,187,57950,5,2,3:2:0:0:
174,187,58303,2,0,P|114:180|69:170,1,79.9999952316285,10|0,3:2|0:0,0:0:0:0:
13,257,58656,2,0,P|72:263|118:274,1,79.9999952316285,2|8,3:2|0:0,0:0:0:0:
10,90,59009,2,0,P|3:150|-7:195,1,79.9999952316285,10|0,3:2|0:0,0:0:0:0:
97,346,59362,2,0,P|90:288|95:244,1,79.9999952316285,2|0,3:2|0:0,0:0:0:0:
94,176,59715,5,10,3:2:0:0:
94,176,59891,1,2,0:0:0:0:
174,187,60068,2,0,B|273:161|248:227|333:196,1,159.999990463257,2|10,3:2|3:2,0:0:0:0:
401,255,60597,1,2,3:2:0:0:
277,348,60950,5,10,3:2:0:0:
245,258,61126,1,10,3:2:0:0:
401,255,61303,1,10,3:2:0:0:
372,347,61480,1,14,3:2:0:0:
372,347,62185,6,0,P|432:336|472:339,1,79.9999952316285,6|2,3:2|0:3,0:0:0:0:
393,249,62538,2,0,P|333:260|293:257,1,79.9999952316285,10|2,3:2|0:3,0:0:0:0:
222,284,62891,1,2,3:2:0:0:
163,203,63068,1,2,0:3:0:0:
221,125,63244,1,10,3:2:0:0:
314,155,63421,1,2,0:3:0:0:
314,155,63597,6,0,P|353:110|376:95,1,79.9999952316285,2|2,3:2|0:3,0:0:0:0:
334,6,63950,2,0,P|295:51|272:66,1,79.9999952316285,10|2,3:2|0:3,0:0:0:0:
221,125,64303,2,0,B|131:90|148:153|60:118,1,159.999990463257,2|10,3:2|3:2,0:0:0:0:
177,201,64832,1,2,0:3:0:0:
177,201,65009,6,0,P|208:246|232:295,1,79.9999952316285,2|2,3:2|0:3,0:0:0:0:
298,367,65362,1,10,3:2:0:0:
298,367,65538,2,0,P|317:332|341:299,1,79.9999952316285,2|0,0:3|3:2,0:0:0:0:
210,347,65891,2,0,P|157:361|119:361,1,79.9999952316285,2|8,0:3|3:2,0:0:0:0:
294,225,66244,1,2,0:3:0:0:
294,225,66421,6,0,P|347:211|385:211,1,79.9999952316285,0|2,3:2|0:3,0:0:0:0:
237,137,66774,2,0,P|204:174|175:200,1,79.9999952316285,8|2,3:2|0:3,0:0:0:0:
294,225,67127,1,2,3:2:0:0:
394,197,67303,1,2,0:3:0:0:
399,93,67479,1,10,3:2:0:0:
302,56,67656,1,2,0:3:0:0:
237,137,67832,6,0,P|181:139|136:128,1,79.9999952316285,6|2,3:2|0:3,0:0:0:0:
92,220,68185,2,0,P|148:218|193:229,1,79.9999952316285,10|2,3:2|0:3,0:0:0:0:
217,295,68538,1,2,3:2:0:0:
363,345,68891,6,0,P|402:333|442:327,1,79.9999952316285,10|2,3:2|0:3,0:0:0:0:
441,235,69244,2,0,P|402:247|362:253,1,79.9999952316285,2|2,3:2|0:3,0:0:0:0:
303,198,69597,1,10,3:2:0:0:
303,198,69950,6,0,P|304:145|310:111,1,79.9999952316285,2|2,3:2|0:3,0:0:0:0:
211,156,70303,2,0,P|210:209|204:243,1,79.9999952316285,10|2,3:2|0:3,0:0:0:0:
71,54,70656,6,0,B|171:14|152:98|253:40,1,159.999990463257,2|8,3:2|3:2,0:0:0:0:
120,130,71185,1,2,0:3:0:0:
120,130,71362,2,0,P|109:174|93:214,1,79.9999952316285,2|2,3:2|0:3,0:0:0:0:
175,275,71715,2,0,P|186:231|202:191,1,79.9999952316285,8|2,3:2|0:3,0:0:0:0:
279,152,72068,5,2,3:2:0:0:
279,152,72244,1,2,0:3:0:0:
273,251,72421,2,0,P|284:295|300:335,1,79.9999952316285,8|2,3:2|0:3,0:0:0:0:
377,370,72774,5,2,3:2:0:0:
377,370,72950,1,2,0:3:0:0:
447,308,73127,2,0,P|455:258|453:210,1,79.9999952316285,10|2,3:2|0:3,0:0:0:0:
411,135,73479,6,0,P|351:124|311:127,1,79.9999952316285,6|2,3:2|0:3,0:0:0:0:
273,202,73832,2,0,P|213:213|173:210,1,79.9999952316285,10|2,3:2|0:3,0:0:0:0:
104,235,74185,1,2,3:2:0:0:
46,155,74362,1,2,0:3:0:0:
103,78,74538,1,10,3:2:0:0:
194,108,74715,1,2,0:3:0:0:
194,108,74891,6,0,P|229:71|253:39,1,79.9999952316285,2|2,3:2|0:3,0:0:0:0:
280,143,75244,2,0,P|307:171|332:202,1,79.9999952316285,10|2,3:2|0:3,0:0:0:0:
406,92,75597,2,0,P|378:63|353:31,1,79.9999952316285,2|2,3:2|0:3,0:0:0:0:
426,196,75950,5,10,3:2:0:0:
462,291,76127,2,0,P|479:340|488:373,2,79.9999952316285,2|0|2,0:3|3:2|0:3,0:0:0:0:
360,295,76656,5,10,3:2:0:0:
259,278,76833,2,0,P|208:268|174:259,2,79.9999952316285,2|0|2,0:3|3:2|0:3,0:0:0:0:
303,186,77362,5,10,3:2:0:0:
367,107,77539,2,0,P|400:67|425:43,2,79.9999952316285,2|0|2,0:3|3:2|0:3,0:0:0:0:
269,93,78068,2,0,P|210:113|173:118,1,79.9999952316285,10|2,3:2|0:3,0:0:0:0:
99,93,78421,1,2,3:2:0:0:
48,174,78597,1,2,0:3:0:0:
111,248,78773,1,10,3:2:0:0:
198,211,78949,1,2,0:3:0:0:
283,268,79127,6,0,P|341:268|383:275,1,79.9999952316285,6|2,3:2|0:3,0:0:0:0:
413,189,79480,2,0,P|355:189|313:182,1,79.9999952316285,10|2,3:2|0:3,0:0:0:0:
454,279,79833,2,0,P|487:232|519:203,1,79.9999952316285,2|2,3:2|0:3,0:0:0:0:
462,127,80186,2,0,P|429:174|397:203,1,79.9999952316285,10|2,3:2|0:3,0:0:0:0:
292,103,80538,6,0,P|350:103|392:110,1,79.9999952316285,2|2,3:2|0:3,0:0:0:0:
337,16,80891,2,0,P|279:16|237:9,1,79.9999952316285,10|2,3:2|0:3,0:0:0:0:
175,81,81244,2,0,P|194:124|205:164,1,79.9999952316285,2|2,3:2|0:3,0:0:0:0:
330,173,81597,2,0,L|284:89,1,79.9999952316285,10|2,3:2|0:3,0:0:0:0:
205,247,81950,6,0,B|310:213|272:281|375:247,3,159.999990463257,6|6|6|6,3:2|3:2|3:2|3:2,0:0:0:0:
474,184,83362,6,0,P|470:263|459:370,1,159.999990463257,6|2,3:2|3:2,0:0:0:0:
283,339,84068,1,2,3:2:0:0:
283,339,84244,1,2,3:2:0:0:
292,251,84421,2,0,L|296:212,3,39.9999976158142,2|2|2|2,0:0|0:0|0:0|0:0,0:0:0:0:
300,169,84774,5,6,3:2:0:0:
75,150,89891,5,8,0:0:0:0:
89,236,90068,1,8,3:2:0:0:
256,192,90421,5,6,3:2:0:0:
167,154,96068,6,0,P|131:169|76:159,1,79.9999952316285,6|2,3:2|0:0,0:0:0:0:
79,71,96421,2,0,P|115:56|170:66,1,79.9999952316285,2|2,3:2|0:0,0:0:0:0:
241,102,96774,2,0,L|329:90,1,79.9999952316285,2|2,3:2|0:0,0:0:0:0:
393,28,97127,2,0,L|481:40,1,79.9999952316285,2|2,3:2|0:0,0:0:0:0:
498,130,97479,6,0,P|453:135|421:172,1,79.9999952316285,0|2,3:2|0:0,0:0:0:0:
349,212,97832,2,0,L|338:123,1,79.9999952316285,2|0,3:2|0:0,0:0:0:0:
283,53,98185,2,0,P|242:110|123:120,1,159.999990463257,2|0,3:2|3:2,0:0:0:0:
62,297,98891,6,0,P|107:301|149:333,1,79.9999952316285,2|2,3:2|0:0,0:0:0:0:
167,227,99244,2,0,P|122:223|80:191,1,79.9999952316285,2|2,3:2|0:0,0:0:0:0:
158,130,99597,2,0,L|153:34,1,79.9999952316285,2|2,3:2|0:0,0:0:0:0:
62,20,99950,2,0,L|66:99,1,79.9999952316285,2|2,3:2|0:0,0:0:0:0:
158,130,100303,6,0,P|205:112|256:127,1,79.9999952316285,0|2,3:2|0:0,0:0:0:0:
295,189,100656,2,0,P|342:207|393:192,1,79.9999952316285,2|0,3:2|0:0,0:0:0:0:
458,214,101009,1,2,3:2:0:0:
495,133,101185,1,2,0:0:0:0:
430,73,101362,1,0,3:2:0:0:
353,116,101538,1,2,0:0:0:0:
370,203,101715,6,0,P|379:249|366:286,1,79.9999952316285,6|2,3:2|0:0,0:0:0:0:
284,324,102068,2,0,P|275:278|288:241,1,79.9999952316285,2|2,3:2|0:0,0:0:0:0:
238,162,102421,2,0,L|139:147,1,79.9999952316285,2|2,3:2|0:0,0:0:0:0:
107,231,102774,2,0,L|186:242,1,79.9999952316285,2|2,3:2|0:0,0:0:0:0:
238,162,103127,6,0,P|252:122|245:76,1,79.9999952316285,0|2,3:2|0:0,0:0:0:0:
169,30,103479,2,0,P|155:70|162:116,1,79.9999952316285,2|0,3:2|0:0,0:0:0:0:
248,85,103832,2,0,P|286:98|384:25,1,159.999990463257,2|0,3:2|3:2,0:0:0:0:
441,114,104362,1,2,0:0:0:0:
441,114,104538,6,0,L|445:203,1,79.9999952316285,2|2,3:2|0:0,0:0:0:0:
508,265,104891,2,0,P|463:280|437:310,1,79.9999952316285,2|2,3:2|0:0,0:0:0:0:
363,245,105244,2,0,L|359:165,1,79.9999952316285,2|2,3:2|0:0,0:0:0:0:
331,72,105597,2,0,P|288:109|236:111,1,79.9999952316285,2|2,3:2|0:0,0:0:0:0:
170,113,105950,6,0,P|218:124|298:206,3,159.999990463257,0|2|2|2,0:0|0:0|0:0|0:0,0:0:0:0:
96,49,107362,6,0,B|73:91|73:91|89:210,1,159.999990463257,6|8,3:2|3:2,0:0:0:0:
153,269,107891,1,2,0:0:0:0:
153,269,108068,2,0,P|206:243|232:169,2,119.999992847443,2|2|2,3:2|0:0|0:0,0:0:0:0:
297,344,108950,6,0,P|341:355|385:360,2,79.9999952316285,2|10|2,0:0|3:2|0:0,0:0:0:0:
226,287,109479,2,0,P|182:276|138:271,1,79.9999952316285,2|2,3:2|0:0,0:0:0:0:
225,193,109832,2,0,P|269:204|313:209,1,79.9999952316285,8|2,3:2|0:0,0:0:0:0:
204,107,110185,6,0,P|163:127|141:186,2,79.9999952316285,2|2|10,3:2|0:0|3:2,0:0:0:0:
290,128,110715,2,0,P|298:86|302:40,1,79.9999952316285,2|0,0:0|3:2,0:0:0:0:
225,193,111068,2,0,P|216:248|217:304,1,79.9999952316285,2|10,0:0|3:2,0:0:0:0:
266,343,111421,1,2,0:0:0:0:
266,343,111774,6,0,P|322:334|373:336,2,79.9999952316285,2|10|2,0:0|3:2|0:0,0:0:0:0:
173,373,112303,1,2,3:2:0:0:
115,297,112480,1,8,0:0:0:0:
171,218,112656,2,0,P|210:188|243:155,1,79.9999952316285,10|0,3:2|0:0,0:0:0:0:
320,81,113009,6,0,L|307:246,1,159.999990463257,6|8,3:2|3:2,0:0:0:0:
398,229,113538,1,2,0:0:0:0:
398,229,113715,2,0,L|407:109,2,119.999992847443,2|2|2,3:2|0:0|0:0,0:0:0:0:
237,302,114597,6,0,P|180:302|136:321,2,79.9999952316285,2|10|2,0:0|3:2|0:0,0:0:0:0:
319,335,115127,2,0,P|376:335|420:316,1,79.9999952316285,2|2,3:2|0:0,0:0:0:0:
452,259,115479,2,0,L|458:179,1,79.9999952316285,10|2,3:2|0:0,0:0:0:0:
347,137,115832,6,0,L|354:232,2,79.9999952316285,2|2|10,3:2|0:0|3:2,0:0:0:0:
278,85,116362,2,0,P|238:75|191:83,1,79.9999952316285,2|0,0:0|3:2,0:0:0:0:
134,148,116715,1,2,0:0:0:0:
134,148,116891,2,0,L|141:243,2,79.9999952316285,8|2|0,3:2|0:0|3:2,0:0:0:0:
183,64,117421,5,2,0:0:0:0:
278,85,117597,1,10,3:2:0:0:
286,180,117774,1,2,3:2:0:0:
199,218,117950,1,10,3:2:0:0:
199,218,118038,1,0,3:2:0:0:
199,218,118127,1,2,3:2:0:0:
134,148,118303,1,10,3:2:0:0:
50,175,118479,1,2,3:2:0:0:
20,258,118656,6,0,L|33:357,1,79.9999952316285,6|0,3:2|0:0,0:0:0:0:
117,351,119009,2,0,L|104:252,2,79.9999952316285,14|2|2,3:2|0:0|3:2,0:0:0:0:
201,315,119538,1,2,0:0:0:0:
201,315,119627,1,2,0:0:0:0:
201,315,119715,2,0,P|242:324|282:322,1,79.9999952316285,10|2,3:2|0:0,0:0:0:0:
374,260,120068,6,0,L|388:132,1,119.999992847443,2|0,3:2|0:0,0:0:0:0:
393,96,120421,2,0,L|404:-5,1,79.9999952316285,10|0,3:2|0:0,0:0:0:0:
315,34,120774,1,2,3:2:0:0:
232,52,120950,1,8,0:0:0:0:
232,52,121127,2,0,L|221:138,1,79.9999952316285,10|0,3:2|0:0,0:0:0:0:
158,192,121479,6,0,P|100:185|65:149,1,79.9999952316285,2|0,3:2|0:0,0:0:0:0:
64,87,121832,2,0,P|122:94|157:130,1,79.9999952316285,10|2,3:2|0:0,0:0:0:0:
221,131,122185,2,0,L|357:108,1,119.999992847443,2|0,3:2|0:0,0:0:0:0:
386,105,122538,1,10,3:2:0:0:
386,105,122715,2,0,P|409:156|416:207,1,79.9999952316285,2|0,0:0|3:2,0:0:0:0:
408,274,123068,5,2,0:0:0:0:
316,300,123244,1,10,3:2:0:0:
263,219,123421,1,2,0:0:0:0:
171,245,123597,2,0,L|89:269,1,79.9999952316285,2|8,3:2|0:0,0:0:0:0:
85,355,123950,2,0,L|161:332,1,79.9999952316285,10|0,3:2|0:0,0:0:0:0:
62,193,124303,6,0,P|26:222|13:269,1,79.9999952316285,6|0,3:2|0:0,0:0:0:0:
171,245,124656,2,0,L|181:159,2,79.9999952316285,10|2|2,3:2|0:0|3:2,0:0:0:0:
246,308,125185,1,2,0:0:0:0:
246,308,125274,1,2,0:0:0:0:
246,308,125362,2,0,P|286:327|334:329,1,79.9999952316285,10|2,3:2|0:0,0:0:0:0:
402,291,125715,2,0,P|410:229|411:153,1,119.999992847443,2|0,3:2|0:0,0:0:0:0:
408,127,126068,6,0,P|400:75|398:38,1,79.9999952316285,10|0,3:2|0:0,0:0:0:0:
317,84,126421,2,0,P|325:136|327:173,1,79.9999952316285,2|8,3:2|0:0,0:0:0:0:
262,22,126774,2,0,P|217:37|172:44,1,79.9999952316285,10|0,3:2|0:0,0:0:0:0:
163,138,127127,2,0,P|208:123|253:116,1,79.9999952316285,2|0,3:2|0:0,0:0:0:0:
326,163,127479,5,10,3:2:0:0:
326,163,127656,1,2,0:0:0:0:
358,244,127832,2,0,P|426:261|402:191,1,159.999990463257,2|10,3:2|3:2,0:0:0:0:
256,243,128362,1,2,0:0:0:0:
256,243,128715,6,0,L|247:329,2,79.9999952316285,2|2|2,0:0|3:2|0:0,0:0:0:0:
204,171,129244,1,0,3:2:0:0:
204,171,129597,2,0,P|149:155|65:162,1,119.999992847443,2|0,0:0|0:0,0:0:0:0:
58,190,129950,6,0,P|42:240|42:277,1,79.9999952316285,6|2,3:2|0:3,0:0:0:0:
105,327,130303,2,0,P|164:339|215:333,1,79.9999952316285,8|2,3:2|0:3,0:0:0:0:
269,299,130656,2,0,P|321:316|352:377,2,119.999992847443,2|2|2,3:2|0:0|0:3,0:0:0:0:
204,171,131538,5,2,0:3:0:0:
204,171,131715,2,0,P|201:120|207:74,1,79.9999952316285,10|2,3:2|0:3,0:0:0:0:
285,57,132068,2,0,P|287:96|284:136,1,79.9999952316285,2|10,3:2|0:0,0:0:0:0:
346,200,132421,1,10,3:2:0:0:
432,187,132597,1,2,0:3:0:0:
477,111,132774,6,0,P|474:71|477:31,1,79.9999952316285,2|2,3:2|0:3,0:0:0:0:
387,30,133127,1,10,3:2:0:0:
387,30,133303,2,0,P|389:69|386:109,1,79.9999952316285,2|0,0:3|3:2,0:0:0:0:
432,187,133656,1,2,0:3:0:0:
432,187,133744,1,2,0:0:0:0:
432,187,133832,1,10,3:2:0:0:
494,252,134009,2,0,P|492:291|495:331,1,79.9999952316285,2|0,0:3|3:2,0:0:0:0:
406,362,134362,6,0,L|315:354,2,79.9999952316285,2|8|2,0:3|3:2|0:3,0:0:0:0:
495,331,134891,1,0,3:2:0:0:
487,247,135068,1,10,0:2:0:0:
487,247,135244,2,0,L|463:151,1,79.9999952316285,8|0,0:2|0:0,0:0:0:0:
439,85,135597,6,0,B|342:44|366:117|267:79,1,159.999990463257,6|8,3:2|3:2,0:0:0:0:
215,38,136127,1,2,0:3:0:0:
215,38,136303,2,0,P|163:48|105:109,2,119.999992847443,2|2|2,3:2|0:0|0:3,0:0:0:0:
319,179,137185,6,0,L|310:266,2,79.9999952316285,2|10|2,0:3|3:2|0:3,0:0:0:0:
252,115,137715,1,2,3:2:0:0:
293,32,137891,1,10,0:0:0:0:
384,45,138068,1,10,3:2:0:0:
400,135,138244,1,2,0:3:0:0:
319,179,138421,6,0,P|271:195|236:219,1,79.9999952316285,2|2,3:2|0:3,0:0:0:0:
153,261,138774,1,10,3:2:0:0:
153,261,138950,2,0,P|153:188|146:152,1,79.9999952316285,2|0,0:3|3:2,0:0:0:0:
231,314,139303,5,2,0:3:0:0:
231,314,139479,1,10,3:2:0:0:
310,351,139656,2,0,L|390:343,1,79.9999952316285,2|0,3:2|0:0,0:0:0:0:
452,280,140009,6,0,L|458:187,2,79.9999952316285,2|2|2,3:2|3:2|3:2,0:0:0:0:
472,365,140538,1,2,3:2:0:0:
59,89,152538,6,0,B|160:52|128:125|225:87,3,159.999990463257,14|10|10|10,3:2|3:2|3:2|3:2,0:0:0:0:
287,41,153774,1,2,0:0:0:0:
287,41,153950,2,0,P|367:50|453:61,2,159.999990463257,10|10|10,3:2|3:2|3:2,0:0:0:0:
99,164,155009,6,0,P|91:234|92:280,1,79.9999952316285,10|2,3:2|0:0,0:0:0:0:
106,330,155362,1,8,3:2:0:0:
272,273,155715,6,0,P|280:203|279:157,1,79.9999952316285,10|2,3:2|0:0,0:0:0:0:
265,107,156068,1,8,3:2:0:0:
219,352,156421,6,0,P|266:363|311:354,1,79.9999952316285,10|2,3:2|0:0,0:0:0:0:
352,291,156774,2,0,B|442:264|425:329|520:296,2,159.999990463257,8|10|10,3:2|3:2|3:2,0:0:0:0:
291,234,157656,1,2,0:0:0:0:
291,234,157832,2,0,P|282:176|284:137,1,79.9999952316285,10|2,3:2|0:0,0:0:0:0:
338,86,158185,6,0,P|378:70|436:122,1,119.999992847443,6|0,3:2|0:0,0:0:0:0:
437,157,158538,2,0,L|424:290,1,119.999992847443,6|0,3:2|0:0,0:0:0:0:
416,320,158891,2,0,P|376:336|318:284,1,119.999992847443,6|0,3:2|0:0,0:0:0:0:
298,254,159244,2,0,P|238:239|163:274,1,119.999992847443,6|0,3:2|0:0,0:0:0:0:
147,280,159597,6,0,P|110:294|61:324,1,79.9999952316285,6|0,3:2|3:2,0:0:0:0:
16,248,159950,2,0,P|52:233|102:204,1,79.9999952316285,0|0,3:2|3:2,0:0:0:0:
150,151,160303,2,0,P|155:120|158:92,3,39.9999976158142,0|0|0|0,3:2|3:2|3:2|3:2,0:0:0:0:
189,81,160656,2,0,P|262:66|329:83,1,119.999992847443,2|0,3:2|3:2,0:0:0:0:
334,107,161009,6,0,P|348:153|332:240,1,119.999992847443,2|0,0:0|0:0,0:0:0:0:
311,263,161362,2,0,P|251:274|205:267,1,87.9999974403381,14|2,3:2|0:3,0:0:0:0:
126,304,161715,1,2,3:2:0:0:
64,218,161891,1,2,0:3:0:0:
125,135,162068,1,10,3:2:0:0:
229,166,162245,1,2,0:3:0:0:
229,166,162421,6,0,P|269:140|310:122,1,87.9999974403381,2|2,3:2|0:3,0:0:0:0:
299,19,162774,2,0,P|259:45|218:63,1,87.9999974403381,10|2,3:2|0:3,0:0:0:0:
305,123,163127,2,0,B|411:83|386:160|487:120,1,175.999994880676,2|10,3:2|3:2,0:0:0:0:
360,192,163656,1,2,0:3:0:0:
360,192,163832,6,0,P|315:218|283:255,1,87.9999974403381,2|2,3:2|0:3,0:0:0:0:
194,358,164185,1,10,3:2:0:0:
194,358,164361,2,0,P|165:330|124:302,1,87.9999974403381,2|0,0:3|3:2,0:0:0:0:
136,195,164715,2,0,P|165:223|206:251,1,87.9999974403381,2|8,0:3|3:2,0:0:0:0:
364,315,165068,1,2,0:3:0:0:
364,315,165244,6,0,P|315:325|273:350,1,87.9999974403381,0|2,3:2|0:3,0:0:0:0:
290,243,165597,2,0,P|339:233|381:208,1,87.9999974403381,8|2,3:2|0:3,0:0:0:0:
463,162,165950,1,2,3:2:0:0:
445,60,166127,1,2,0:3:0:0:
341,45,166303,1,10,3:2:0:0:
294,138,166479,1,2,0:3:0:0:
372,214,166656,6,0,P|379:264|373:308,1,87.9999974403381,6|2,3:2|0:3,0:0:0:0:
492,342,167009,2,0,P|485:292|491:248,1,87.9999974403381,10|2,3:2|0:3,0:0:0:0:
463,162,167362,1,2,3:2:0:0:
281,343,167715,6,0,P|220:350|171:341,1,87.9999974403381,10|2,3:2|0:3,0:0:0:0:
165,258,168068,2,0,P|226:251|275:260,1,87.9999974403381,2|2,3:2|0:3,0:0:0:0:
341,266,168421,1,10,3:2:0:0:
341,266,168774,6,0,P|351:217|348:177,1,87.9999974403381,2|2,3:2|0:3,0:0:0:0:
263,134,169127,2,0,P|253:183|256:223,1,87.9999974403381,10|2,3:2|0:3,0:0:0:0:
341,79,169479,6,0,B|448:37|426:122|526:76,1,175.999994880676,2|8,3:2|3:2,0:0:0:0:
467,172,170009,1,2,0:3:0:0:
467,172,170185,2,0,P|459:229|457:272,1,87.9999974403381,2|2,3:2|0:3,0:0:0:0:
366,293,170538,2,0,P|374:236|376:193,1,87.9999974403381,8|2,3:2|0:3,0:0:0:0:
313,136,170891,5,2,3:2:0:0:
313,136,171067,1,2,0:3:0:0:
286,234,171244,2,0,P|280:278|268:321,1,87.9999974403381,8|2,3:2|0:3,0:0:0:0:
184,366,171597,5,2,3:2:0:0:
184,366,171774,1,2,0:3:0:0:
88,349,171950,2,0,P|65:302|54:247,1,87.9999974403381,10|2,3:2|0:3,0:0:0:0:
183,177,172303,6,0,P|184:231|167:283,1,87.9999974403381,6|2,3:2|0:3,0:0:0:0:
7,188,172656,2,0,L|105:178,1,87.9999974403381,10|2,3:2|0:3,0:0:0:0:
129,87,173009,2,0,L|41:95,1,87.9999974403381,2|2,3:2|0:3,0:0:0:0:
183,177,173362,2,0,P|234:185|281:183,1,87.9999974403381,10|2,3:2|0:3,0:0:0:0:
338,114,173715,6,0,P|375:82|415:62,2,87.9999974403381,2|2|10,3:2|0:3|3:2,0:0:0:0:
270,184,174244,1,2,0:3:0:0:
270,184,174421,2,0,L|261:291,1,87.9999974403381,2|2,3:2|0:3,0:0:0:0:
320,346,174774,5,10,3:2:0:0:
410,319,174950,2,0,P|453:315|507:319,2,87.9999974403381,2|0|2,0:3|3:2|0:3,0:0:0:0:
341,251,175479,5,10,3:2:0:0:
314,161,175656,2,0,P|310:118|314:64,2,87.9999974403381,2|0|2,0:3|3:2|0:3,0:0:0:0:
247,227,176185,5,10,3:2:0:0:
157,254,176362,2,0,P|114:258|60:254,2,87.9999974403381,2|0|2,0:3|3:2|0:3,0:0:0:0:
227,324,176891,2,0,P|286:304|325:299,1,87.9999974403381,10|2,3:2|0:3,0:0:0:0:
404,321,177244,1,2,3:2:0:0:
455,240,177420,1,2,0:3:0:0:
392,166,177596,1,10,3:2:0:0:
305,203,177774,1,2,0:3:0:0:
245,126,177950,6,0,P|186:146|147:151,1,87.9999974403381,6|2,3:2|0:3,0:0:0:0:
248,307,178303,2,0,P|228:248|223:209,1,87.9999974403381,10|2,3:2|0:3,0:0:0:0:
75,333,178656,2,0,P|134:313|173:308,1,87.9999974403381,2|2,3:2|0:3,0:0:0:0:
64,149,179009,2,0,P|84:208|89:247,1,87.9999974403381,10|2,3:2|0:3,0:0:0:0:
207,75,179362,6,0,P|186:113|160:149,1,87.9999974403381,2|2,3:2|0:3,0:0:0:0:
297,269,179715,2,0,P|259:248|224:222,1,87.9999974403381,10|2,3:2|0:3,0:0:0:0:
111,382,180068,2,0,P|132:344|159:309,1,87.9999974403381,2|2,3:2|0:3,0:0:0:0:
13,185,180421,2,0,P|51:206|86:233,1,87.9999974403381,10|2,3:2|0:3,0:0:0:0:
223,221,180774,6,0,B|338:181|296:258|408:219,3,175.999994880676,2|8|0|8,3:2|3:2|3:2|3:2,0:0:0:0:
472,168,182009,1,2,0:3:0:0:
472,168,182185,2,0,L|483:57,1,87.9999974403381,0|2,3:2|0:3,0:0:0:0:
397,31,182538,2,0,L|388:118,1,87.9999974403381,8|2,3:2|0:3,0:0:0:0:
348,209,182891,1,2,3:2:0:0:
249,198,183068,1,2,3:2:0:0:
229,101,183244,1,2,3:2:0:0:
314,51,183421,1,2,3:2:0:0:
387,118,183597,5,2,0:0:0:0:
