osu file format v14

[General]
AudioFilename: audio.mp3
AudioLeadIn: 0
PreviewTime:50494
Countdown: 0
SampleSet: Soft
StackLeniency: 0.7
Mode: 0
LetterboxInBreaks: 0
WidescreenStoryboard: 1

[Editor]
Bookmarks: 15597,17009,28303,33950,50185,50891,61479,62185,129244,129950,141244,152538,183597,186421
DistanceSpacing: 1
BeatDivisor: 4
GridSize: 16
TimelineZoom: 2.6

[Metadata]
Title:phony
TitleUnicode:フォニイ
Artist:Tsumiki
ArtistUnicode:ツミキ
Creator:Ryuusei Aika
Version:Ryxliee's Normal
Source:
Tags:_23ki_ foni japanese rock jrock j-rock pop jpop j-pop calvaria shikibe mayu shizuku- kazato asa deppyforce [hatsune miku] remapper _lai setu shiratamamywife ryxliee midorijeon vocalsynth 可不 KAFU KAF+U cevio ai female vocal KAMITSUBAKI STUDIO 神椿スタジオ
BeatmapID:3143593
BeatmapSetID:1533832

[Difficulty]
HPDrainRate:3
CircleSize:3
OverallDifficulty:4
ApproachRate:6
SliderMultiplier:1.09999990463257
SliderTickRate:1

[Events]
//Background and Video events
0,0,"BG.jpg",0,0
//Break Periods
2,28503,32780
2,141444,151368
//Storyboard Layer 0 (Background)
//Storyboard Layer 1 (Fail)
//Storyboard Layer 2 (Pass)
//Storyboard Layer 3 (Foreground)
//Storyboard Layer 4 (Overlay)
//Storyboard Sound Samples

[TimingPoints]
1480,352.941176470588,4,2,1,50,1,0
1490,-100,4,2,1,50,0,0
4215,-100,4,2,1,5,0,0
4303,-100,4,2,1,50,0,0
7038,-100,4,2,1,5,0,0
7126,-100,4,2,1,50,0,0
11362,-90.9090909090909,4,2,1,70,0,0
17009,-100,4,2,1,70,0,0
22127,-100,4,2,2,70,0,0
22215,-100,4,2,1,70,0,0
22303,-100,4,2,2,70,0,0
22391,-100,4,2,1,70,0,0
22479,-100,4,2,1,70,0,0
28303,-100,4,2,2,60,0,0
28391,-100,4,2,1,60,0,0
28479,-100,4,2,1,60,0,0
33950,-111.111111111111,4,2,1,60,0,0
39597,-100,4,2,1,60,0,0
44715,-100,4,2,2,60,0,0
44803,-100,4,2,1,60,0,0
44891,-100,4,2,2,60,0,0
44979,-100,4,2,1,60,0,0
45068,-100,4,2,1,60,0,0
50185,-100,4,2,2,60,0,0
50274,-100,4,2,1,60,0,0
50362,-100,4,2,1,60,0,0
50891,-100,4,2,1,70,0,0
50979,-100,4,2,2,70,0,0
56538,-100,4,2,1,70,0,0
56627,-100,4,2,2,70,0,0
62185,-90.9090909090909,4,2,1,80,0,1
62362,-90.9090909090909,4,2,1,80,0,1
62538,-90.9090909090909,4,2,1,80,0,1
62715,-90.9090909090909,4,2,1,80,0,1
62891,-90.9090909090909,4,2,1,80,0,1
63068,-90.9090909090909,4,2,3,80,0,1
63156,-90.9090909090909,4,2,1,80,0,1
63244,-90.9090909090909,4,2,1,80,0,1
63421,-90.9090909090909,4,2,3,80,0,1
63509,-90.9090909090909,4,2,1,80,0,1
63597,-90.9090909090909,4,2,1,80,0,1
63774,-90.9090909090909,4,2,3,80,0,1
63862,-90.9090909090909,4,2,1,80,0,1
63950,-90.9090909090909,4,2,1,80,0,1
64127,-90.9090909090909,4,2,1,80,0,1
64303,-90.9090909090909,4,2,1,80,0,1
64480,-90.9090909090909,4,2,1,80,0,1
64656,-90.9090909090909,4,2,1,80,0,1
64833,-90.9090909090909,4,2,3,80,0,1
64920,-90.9090909090909,4,2,1,80,0,1
65009,-90.9090909090909,4,2,1,80,0,1
65186,-90.9090909090909,4,2,1,80,0,1
65362,-90.9090909090909,4,2,1,80,0,1
65539,-90.9090909090909,4,2,3,80,0,1
65626,-90.9090909090909,4,2,1,80,0,1
65715,-90.9090909090909,4,2,1,80,0,1
65892,-90.9090909090909,4,2,3,80,0,1
65979,-90.9090909090909,4,2,1,80,0,1
66068,-90.9090909090909,4,2,1,80,0,1
66245,-90.9090909090909,4,2,3,80,0,1
66332,-90.9090909090909,4,2,1,80,0,1
66421,-90.9090909090909,4,2,1,80,0,1
66598,-90.9090909090909,4,2,1,80,0,1
66774,-90.9090909090909,4,2,1,80,0,1
66951,-90.9090909090909,4,2,1,80,0,1
67127,-90.9090909090909,4,2,1,80,0,1
67304,-90.9090909090909,4,2,3,80,0,1
67391,-90.9090909090909,4,2,1,80,0,1
67479,-90.9090909090909,4,2,1,80,0,1
67656,-90.9090909090909,4,2,3,80,0,1
67744,-90.9090909090909,4,2,1,80,0,1
67832,-90.9090909090909,4,2,1,80,0,1
68009,-90.9090909090909,4,2,3,80,0,1
68097,-90.9090909090909,4,2,1,80,0,1
68185,-90.9090909090909,4,2,1,80,0,1
68362,-90.9090909090909,4,2,3,80,0,1
68450,-90.9090909090909,4,2,1,80,0,1
68538,-90.9090909090909,4,2,1,80,0,1
68715,-90.9090909090909,4,2,1,80,0,1
68891,-90.9090909090909,4,2,1,80,0,1
69068,-90.9090909090909,4,2,3,80,0,1
69156,-90.9090909090909,4,2,1,80,0,1
69244,-90.9090909090909,4,2,1,80,0,1
69421,-90.9090909090909,4,2,3,80,0,1
69509,-90.9090909090909,4,2,1,80,0,1
69597,-90.9090909090909,4,2,1,80,0,1
69774,-90.9090909090909,4,2,1,80,0,1
69950,-90.9090909090909,4,2,1,80,0,1
70127,-90.9090909090909,4,2,1,80,0,1
70303,-90.9090909090909,4,2,1,80,0,1
70480,-90.9090909090909,4,2,1,80,0,1
70656,-90.9090909090909,4,2,1,80,0,1
70833,-90.9090909090909,4,2,1,80,0,1
71009,-90.9090909090909,4,2,1,80,0,1
71186,-90.9090909090909,4,2,3,80,0,1
71273,-90.9090909090909,4,2,1,80,0,1
71362,-90.9090909090909,4,2,1,80,0,1
71539,-90.9090909090909,4,2,1,80,0,1
71715,-90.9090909090909,4,2,1,80,0,1
71892,-90.9090909090909,4,2,3,80,0,1
71979,-90.9090909090909,4,2,1,80,0,1
72068,-90.9090909090909,4,2,1,80,0,1
72245,-90.9090909090909,4,2,3,80,0,1
72332,-90.9090909090909,4,2,1,80,0,1
72421,-90.9090909090909,4,2,1,80,0,1
72598,-90.9090909090909,4,2,3,80,0,1
72685,-90.9090909090909,4,2,1,80,0,1
72774,-90.9090909090909,4,2,1,80,0,1
72951,-90.9090909090909,4,2,3,80,0,1
73038,-90.9090909090909,4,2,1,80,0,1
73127,-90.9090909090909,4,2,1,80,0,1
73304,-90.9090909090909,4,2,3,80,0,1
73391,-90.9090909090909,4,2,1,80,0,1
73479,-90.9090909090909,4,2,1,80,0,1
73656,-90.9090909090909,4,2,1,80,0,1
73832,-90.9090909090909,4,2,1,80,0,1
74009,-90.9090909090909,4,2,1,80,0,1
74185,-90.9090909090909,4,2,1,80,0,1
74362,-90.9090909090909,4,2,3,80,0,1
74450,-90.9090909090909,4,2,1,80,0,1
74538,-90.9090909090909,4,2,1,80,0,1
74715,-90.9090909090909,4,2,3,80,0,1
74803,-90.9090909090909,4,2,1,80,0,1
74891,-90.9090909090909,4,2,1,80,0,1
75068,-90.9090909090909,4,2,3,80,0,1
75156,-90.9090909090909,4,2,1,80,0,1
75244,-90.9090909090909,4,2,1,80,0,1
75421,-90.9090909090909,4,2,1,80,0,1
75597,-90.9090909090909,4,2,1,80,0,1
75774,-90.9090909090909,4,2,1,80,0,1
75950,-90.9090909090909,4,2,1,80,0,1
76127,-90.9090909090909,4,2,3,80,0,1
76215,-90.9090909090909,4,2,1,80,0,1
76303,-90.9090909090909,4,2,1,80,0,1
76480,-90.9090909090909,4,2,1,80,0,1
76656,-90.9090909090909,4,2,1,80,0,1
76833,-90.9090909090909,4,2,3,80,0,1
76920,-90.9090909090909,4,2,1,80,0,1
77009,-90.9090909090909,4,2,1,80,0,1
77186,-90.9090909090909,4,2,1,80,0,1
77362,-90.9090909090909,4,2,1,80,0,1
77539,-90.9090909090909,4,2,3,80,0,1
77626,-90.9090909090909,4,2,1,80,0,1
77715,-90.9090909090909,4,2,1,80,0,1
77892,-90.9090909090909,4,2,1,80,0,1
78068,-90.9090909090909,4,2,1,80,0,1
78245,-90.9090909090909,4,2,1,80,0,1
78421,-90.9090909090909,4,2,1,80,0,1
78598,-90.9090909090909,4,2,3,80,0,1
78685,-90.9090909090909,4,2,1,80,0,1
78774,-90.9090909090909,4,2,1,80,0,1
78951,-90.9090909090909,4,2,3,80,0,1
79038,-90.9090909090909,4,2,1,80,0,1
79127,-90.9090909090909,4,2,1,80,0,1
79304,-90.9090909090909,4,2,1,80,0,1
79479,-90.9090909090909,4,2,1,80,0,1
79656,-90.9090909090909,4,2,1,80,0,1
79832,-90.9090909090909,4,2,1,80,0,1
80009,-90.9090909090909,4,2,1,80,0,1
80185,-90.9090909090909,4,2,1,80,0,1
80362,-90.9090909090909,4,2,1,80,0,1
80538,-90.9090909090909,4,2,1,80,0,1
80715,-90.9090909090909,4,2,1,80,0,1
80891,-90.9090909090909,4,2,1,80,0,1
81068,-90.9090909090909,4,2,1,80,0,1
81244,-90.9090909090909,4,2,1,80,0,1
81421,-90.9090909090909,4,2,1,80,0,1
81597,-90.9090909090909,4,2,1,80,0,1
81774,-90.9090909090909,4,2,1,80,0,1
81950,-90.9090909090909,4,2,1,80,0,1
84774,-99.9999999999999,4,2,1,70,0,0
89891,-99.9999999999999,4,2,2,70,0,0
89980,-99.9999999999999,4,2,1,70,0,0
90068,-99.9999999999999,4,2,2,70,0,0
90156,-99.9999999999999,4,2,1,70,0,0
90244,-99.9999999999999,4,2,1,70,0,0
96068,-99.9999999999999,4,2,1,60,0,0
101715,-99.9999999999999,4,2,3,60,0,0
101803,-99.9999999999999,4,2,1,60,0,0
107362,-99.9999999999999,4,2,1,70,0,0
112479,-99.9999999999999,4,2,2,70,0,0
112568,-99.9999999999999,4,2,1,70,0,0
112656,-99.9999999999999,4,2,2,70,0,0
112744,-99.9999999999999,4,2,1,70,0,0
112832,-99.9999999999999,4,2,1,70,0,0
117685,-99.9999999999999,4,2,1,40,0,0
117950,-99.9999999999999,4,2,1,70,0,0
118038,-99.9999999999999,4,2,1,40,0,0
118127,-99.9999999999999,4,2,1,40,0,0
118303,-99.9999999999999,4,2,1,70,0,0
118391,-99.9999999999999,4,2,1,40,0,0
118479,-99.9999999999999,4,2,1,40,0,0
118656,-99.9999999999999,4,2,2,70,0,0
119009,-99.9999999999999,4,2,3,70,0,0
119097,-99.9999999999999,4,2,2,70,0,0
124303,-99.9999999999999,4,2,1,70,0,0
124391,-99.9999999999999,4,2,2,70,0,0
129950,-99.9999999999999,4,2,1,70,0,0
130038,-99.9999999999999,4,2,1,70,0,0
130479,-99.9999999999999,4,2,3,70,0,0
130567,-99.9999999999999,4,2,1,70,0,0
131185,-99.9999999999999,4,2,3,70,0,0
131273,-99.9999999999999,4,2,1,70,0,0
131538,-99.9999999999999,4,2,3,70,0,0
131626,-99.9999999999999,4,2,1,70,0,0
131891,-99.9999999999999,4,2,3,70,0,0
131979,-99.9999999999999,4,2,1,70,0,0
132244,-99.9999999999999,4,2,4,70,0,0
132303,-99.9999999999999,4,2,1,70,0,0
132421,-99.9999999999999,4,2,2,70,0,0
132509,-99.9999999999999,4,2,1,70,0,0
132597,-99.9999999999999,4,2,3,70,0,0
132685,-99.9999999999999,4,2,1,70,0,0
132950,-99.9999999999999,4,2,3,70,0,0
133038,-99.9999999999999,4,2,1,70,0,0
133303,-99.9999999999999,4,2,3,70,0,0
133391,-99.9999999999999,4,2,1,70,0,0
133656,-99.9999999999999,4,2,3,70,0,0
133744,-99.9999999999999,4,2,1,70,0,0
134009,-99.9999999999999,4,2,3,70,0,0
134097,-99.9999999999999,4,2,1,70,0,0
135068,-99.9999999999999,4,2,4,70,0,0
135156,-99.9999999999999,4,2,1,70,0,0
135244,-99.9999999999999,4,2,2,70,0,0
135332,-99.9999999999999,4,2,1,70,0,0
135597,-99.9999999999999,4,2,1,70,0,0
135685,-99.9999999999999,4,2,1,70,0,0
136127,-99.9999999999999,4,2,3,70,0,0
136215,-99.9999999999999,4,2,1,70,0,0
136833,-99.9999999999999,4,2,3,70,0,0
136921,-99.9999999999999,4,2,1,70,0,0
137186,-99.9999999999999,4,2,3,70,0,0
137274,-99.9999999999999,4,2,1,70,0,0
137539,-99.9999999999999,4,2,3,70,0,0
137627,-99.9999999999999,4,2,1,70,0,0
137892,-99.9999999999999,4,2,4,70,0,0
137951,-99.9999999999999,4,2,1,70,0,0
138069,-99.9999999999999,4,2,2,70,0,0
138157,-99.9999999999999,4,2,1,70,0,0
138245,-99.9999999999999,4,2,3,70,0,0
138333,-99.9999999999999,4,2,1,70,0,0
138598,-99.9999999999999,4,2,3,70,0,0
138686,-99.9999999999999,4,2,1,70,0,0
138951,-99.9999999999999,4,2,3,70,0,0
139039,-99.9999999999999,4,2,1,70,0,0
139304,-99.9999999999999,4,2,3,70,0,0
139392,-99.9999999999999,4,2,1,70,0,0
139657,-99.9999999999999,4,2,4,70,0,0
139745,-99.9999999999999,4,2,1,70,0,0
141244,-99.9999999999999,4,2,5,70,0,0
141332,-99.9999999999999,4,2,2,70,0,0
152538,-111.111111111111,4,2,5,70,0,0
152627,-111.111111111111,4,2,2,70,0,0
158185,-100,4,2,1,70,0,0
161009,-100,4,2,1,50,0,0
161362,-90.9090909090909,4,2,1,80,0,1
161538,-90.9090909090909,4,2,1,80,0,1
161715,-90.9090909090909,4,2,1,80,0,1
161892,-90.9090909090909,4,2,3,80,0,1
161979,-90.9090909090909,4,2,1,80,0,1
162068,-90.9090909090909,4,2,1,80,0,1
162245,-90.9090909090909,4,2,3,80,0,1
162332,-90.9090909090909,4,2,1,80,0,1
162421,-90.9090909090909,4,2,1,80,0,1
162598,-90.9090909090909,4,2,3,80,0,1
162685,-90.9090909090909,4,2,1,80,0,1
162774,-90.9090909090909,4,2,1,80,0,1
162951,-90.9090909090909,4,2,1,80,0,1
163127,-90.9090909090909,4,2,1,80,0,1
163304,-90.9090909090909,4,2,1,80,0,1
163479,-90.9090909090909,4,2,1,80,0,1
163656,-90.9090909090909,4,2,3,80,0,1
163743,-90.9090909090909,4,2,1,80,0,1
163832,-90.9090909090909,4,2,1,80,0,1
164009,-90.9090909090909,4,2,1,80,0,1
164185,-90.9090909090909,4,2,1,80,0,1
164362,-90.9090909090909,4,2,3,80,0,1
164449,-90.9090909090909,4,2,1,80,0,1
164538,-90.9090909090909,4,2,1,80,0,1
164715,-90.9090909090909,4,2,3,80,0,1
164802,-90.9090909090909,4,2,1,80,0,1
164891,-90.9090909090909,4,2,1,80,0,1
165068,-90.9090909090909,4,2,3,80,0,1
165155,-90.9090909090909,4,2,1,80,0,1
165244,-90.9090909090909,4,2,1,80,0,1
165421,-90.9090909090909,4,2,1,80,0,1
165597,-90.9090909090909,4,2,1,80,0,1
165774,-90.9090909090909,4,2,1,80,0,1
165950,-90.9090909090909,4,2,1,80,0,1
166127,-90.9090909090909,4,2,3,80,0,1
166214,-90.9090909090909,4,2,1,80,0,1
166303,-90.9090909090909,4,2,1,80,0,1
166480,-90.9090909090909,4,2,3,80,0,1
166567,-90.9090909090909,4,2,1,80,0,1
166656,-90.9090909090909,4,2,1,80,0,1
166833,-90.9090909090909,4,2,3,80,0,1
166920,-90.9090909090909,4,2,1,80,0,1
167009,-90.9090909090909,4,2,1,80,0,1
167186,-90.9090909090909,4,2,3,80,0,1
167273,-90.9090909090909,4,2,1,80,0,1
167362,-90.9090909090909,4,2,1,80,0,1
167539,-90.9090909090909,4,2,1,80,0,1
167715,-90.9090909090909,4,2,1,80,0,1
167892,-90.9090909090909,4,2,3,80,0,1
167979,-90.9090909090909,4,2,1,80,0,1
168068,-90.9090909090909,4,2,1,80,0,1
168245,-90.9090909090909,4,2,3,80,0,1
168332,-90.9090909090909,4,2,1,80,0,1
168421,-90.9090909090909,4,2,1,80,0,1
168598,-90.9090909090909,4,2,1,80,0,1
168774,-90.9090909090909,4,2,1,80,0,1
168951,-90.9090909090909,4,2,1,80,0,1
169127,-90.9090909090909,4,2,1,80,0,1
169304,-90.9090909090909,4,2,1,80,0,1
169479,-90.9090909090909,4,2,1,80,0,1
169656,-90.9090909090909,4,2,1,80,0,1
169832,-90.9090909090909,4,2,1,80,0,1
170009,-90.9090909090909,4,2,3,80,0,1
170096,-90.9090909090909,4,2,1,80,0,1
170185,-90.9090909090909,4,2,1,80,0,1
170362,-90.9090909090909,4,2,1,80,0,1
170538,-90.9090909090909,4,2,1,80,0,1
170715,-90.9090909090909,4,2,3,80,0,1
170802,-90.9090909090909,4,2,1,80,0,1
170891,-90.9090909090909,4,2,1,80,0,1
171068,-90.9090909090909,4,2,3,80,0,1
171155,-90.9090909090909,4,2,1,80,0,1
171244,-90.9090909090909,4,2,1,80,0,1
171421,-90.9090909090909,4,2,3,80,0,1
171508,-90.9090909090909,4,2,1,80,0,1
171597,-90.9090909090909,4,2,1,80,0,1
171774,-90.9090909090909,4,2,3,80,0,1
171861,-90.9090909090909,4,2,1,80,0,1
171950,-90.9090909090909,4,2,1,80,0,1
172127,-90.9090909090909,4,2,3,80,0,1
172214,-90.9090909090909,4,2,1,80,0,1
172303,-90.9090909090909,4,2,1,80,0,1
172480,-90.9090909090909,4,2,1,80,0,1
172656,-90.9090909090909,4,2,1,80,0,1
172833,-90.9090909090909,4,2,1,80,0,1
173009,-90.9090909090909,4,2,1,80,0,1
173186,-90.9090909090909,4,2,3,80,0,1
173273,-90.9090909090909,4,2,1,80,0,1
173362,-90.9090909090909,4,2,1,80,0,1
173539,-90.9090909090909,4,2,3,80,0,1
173626,-90.9090909090909,4,2,1,80,0,1
173715,-90.9090909090909,4,2,1,80,0,1
173892,-90.9090909090909,4,2,3,80,0,1
173979,-90.9090909090909,4,2,1,80,0,1
174068,-90.9090909090909,4,2,1,80,0,1
174245,-90.9090909090909,4,2,1,80,0,1
174421,-90.9090909090909,4,2,1,80,0,1
174598,-90.9090909090909,4,2,1,80,0,1
174774,-90.9090909090909,4,2,1,80,0,1
174951,-90.9090909090909,4,2,3,80,0,1
175038,-90.9090909090909,4,2,1,80,0,1
175127,-90.9090909090909,4,2,1,80,0,1
175304,-90.9090909090909,4,2,1,80,0,1
175479,-90.9090909090909,4,2,1,80,0,1
175656,-90.9090909090909,4,2,3,80,0,1
175743,-90.9090909090909,4,2,1,80,0,1
175832,-90.9090909090909,4,2,1,80,0,1
176009,-90.9090909090909,4,2,1,80,0,1
176185,-90.9090909090909,4,2,1,80,0,1
176362,-90.9090909090909,4,2,3,80,0,1
176449,-90.9090909090909,4,2,1,80,0,1
176538,-90.9090909090909,4,2,1,80,0,1
176715,-90.9090909090909,4,2,1,80,0,1
176891,-90.9090909090909,4,2,1,80,0,1
177068,-90.9090909090909,4,2,1,80,0,1
177244,-90.9090909090909,4,2,1,80,0,1
177421,-90.9090909090909,4,2,3,80,0,1
177508,-90.9090909090909,4,2,1,80,0,1
177597,-90.9090909090909,4,2,1,80,0,1
177774,-90.9090909090909,4,2,3,80,0,1
177861,-90.9090909090909,4,2,1,80,0,1
177950,-90.9090909090909,4,2,1,80,0,1
178127,-90.9090909090909,4,2,1,80,0,1
178303,-90.9090909090909,4,2,1,80,0,1
178480,-90.9090909090909,4,2,1,80,0,1
178656,-90.9090909090909,4,2,1,80,0,1
178833,-90.9090909090909,4,2,1,80,0,1
179009,-90.9090909090909,4,2,1,80,0,1
179186,-90.9090909090909,4,2,1,80,0,1
179362,-90.9090909090909,4,2,1,80,0,1
179539,-90.9090909090909,4,2,1,80,0,1
179715,-90.9090909090909,4,2,1,80,0,1
179892,-90.9090909090909,4,2,1,80,0,1
180068,-90.9090909090909,4,2,1,80,0,1
180245,-90.9090909090909,4,2,1,80,0,1
180421,-90.9090909090909,4,2,1,80,0,1
180598,-90.9090909090909,4,2,1,80,0,1
180774,-90.9090909090909,4,2,1,80,0,1
180951,-90.9090909090909,4,2,1,80,0,1
181127,-90.9090909090909,4,2,1,80,0,1
181304,-90.9090909090909,4,2,1,80,0,1
181479,-90.9090909090909,4,2,1,80,0,1
181656,-90.9090909090909,4,2,1,80,0,1
181832,-90.9090909090909,4,2,1,80,0,1
182009,-90.9090909090909,4,2,3,80,0,1
182097,-90.9090909090909,4,2,1,80,0,1
182185,-90.9090909090909,4,2,1,80,0,1
182362,-90.9090909090909,4,2,1,80,0,1
182538,-90.9090909090909,4,2,1,80,0,1
182715,-90.9090909090909,4,2,1,80,0,1
182803,-90.9090909090909,4,2,1,80,0,1
183597,-100,4,2,1,60,0,0

[Colours]
Combo1 : 192,192,192
Combo2 : 128,128,128

[HitObjects]
378,0,11362,6,0,P|389:59|399:119,1,120.999993202209,6|6,3:2|3:2,0:0:0:0:
512,160,12068,2,0,P|500:219|490:279,1,120.999993202209,6|6,3:2|3:2,0:0:0:0:
396,355,12774,1,6,3:2:0:0:
301,279,13127,1,6,3:2:0:0:
337,163,13479,1,6,3:2:0:0:
251,77,13832,1,6,3:2:0:0:
132,102,14185,6,0,L|121:161,1,60.4999966011047,6|0,3:2|3:2,0:0:0:0:
80,206,14538,2,0,L|90:265,1,60.4999966011047,6|0,3:2|3:2,0:0:0:0:
103,324,14891,2,0,P|132:329|161:323,1,60.4999966011047,6|0,3:2|3:2,0:0:0:0:
221,336,15244,2,0,P|276:315|332:335,1,120.999993202209,6|2,3:2|0:0,0:0:0:0:
215,154,17009,6,0,P|266:171|317:155,1,109.999990463257,6|10,3:2|3:2,0:0:0:0:
405,87,17715,2,0,L|419:5,2,82.4999928474427,2|2|2,3:2|0:0|0:0,0:0:0:0:
475,172,18596,1,0,0:0:0:0:
479,176,18774,2,0,L|488:230,1,54.9999952316285,10|2,3:2|0:0,0:0:0:0:
512,280,19127,1,2,3:2:0:0:
420,339,19479,1,10,3:2:0:0:
321,292,19832,6,0,L|266:302,1,54.9999952316285,2|2,3:2|0:0,0:0:0:0:
230,343,20185,2,0,L|121:323,1,109.999990463257,10|2,3:2|3:2,0:0:0:0:
58,234,20891,2,0,L|48:179,1,54.9999952316285,8|2,3:2|0:0,0:0:0:0:
33,127,21244,1,0,3:2:0:0:
96,37,21597,2,0,P|140:7|194:9,1,109.999990463257,10|2,3:2|3:2,0:0:0:0:
246,43,22127,1,8,0:0:0:0:
246,43,22303,1,8,3:2:0:0:
354,66,22656,6,0,L|374:174,1,109.999990463257,6|10,3:2|3:2,0:0:0:0:
474,219,23362,2,0,L|488:137,2,82.4999928474427,2|2|2,3:2|0:0|0:0,0:0:0:0:
415,311,24243,1,0,0:0:0:0:
419,315,24421,2,0,L|364:305,1,54.9999952316285,10|2,3:2|0:0,0:0:0:0:
319,274,24774,1,2,3:2:0:0:
284,169,25126,1,10,3:2:0:0:
201,95,25479,6,0,L|146:104,1,54.9999952316285,2|2,3:2|0:0,0:0:0:0:
94,85,25832,2,0,P|64:129|66:183,1,109.999990463257,10|2,3:2|3:2,0:0:0:0:
160,241,26538,2,0,L|150:295,1,54.9999952316285,8|2,3:2|0:0,0:0:0:0:
141,349,26891,1,0,3:2:0:0:
244,312,27244,2,0,L|353:331,2,109.999990463257,2|2|0,3:2|3:2|0:0,0:0:0:0:
160,241,28303,1,6,3:2:0:0:
15,34,33950,5,2,3:2:0:0:
84,104,34303,2,0,L|66:201,1,98.9999883956914,2|2,0:0|3:2,0:0:0:0:
0,275,35009,2,0,P|40:301|89:299,1,98.9999883956914,2|2,0:0|0:0,0:0:0:0:
178,255,35715,2,0,L|195:351,2,98.9999883956914,2|2|2,0:0|3:2|0:0,0:0:0:0:
221,165,36774,5,2,3:2:0:0:
310,202,37127,2,0,L|301:250,1,49.4999941978457,2|2,0:0|3:2,0:0:0:0:
295,299,37479,2,0,P|343:296|384:322,1,98.9999883956914,2|2,3:2|0:0,0:0:0:0:
414,362,38009,1,8,3:2:0:0:
418,366,38185,1,2,3:2:0:0:
508,325,38538,1,0,3:2:0:0:
508,225,38891,1,2,3:2:0:0:
422,174,39244,2,0,L|373:182,1,49.4999941978457,10|2,3:2|0:0,0:0:0:0:
325,210,39597,6,0,L|217:190,1,109.999990463257,6|10,3:2|3:2,0:0:0:0:
111,222,40303,1,2,3:2:0:0:
28,149,40656,2,0,L|37:94,1,54.9999952316285,10|2,3:2|0:0,0:0:0:0:
56,43,41009,2,0,P|80:30|107:29,1,54.9999952316285,0|2,3:2|0:0,0:0:0:0:
162,37,41361,1,10,3:2:0:0:
241,113,41715,2,0,L|349:93,1,109.999990463257,2|8,3:2|3:2,0:0:0:0:
392,58,42244,1,2,0:0:0:0:
396,62,42421,5,2,3:2:0:0:
487,122,42774,1,10,3:2:0:0:
468,230,43127,1,2,3:2:0:0:
366,189,43479,2,0,P|339:183|312:189,1,54.9999952316285,10|2,3:2|0:0,0:0:0:0:
267,221,43833,2,0,L|257:275,1,54.9999952316285,0|2,3:2|0:0,0:0:0:0:
252,329,44185,2,0,P|208:299|154:301,1,109.999990463257,10|2,3:2|3:2,0:0:0:0:
118,344,44715,1,8,0:0:0:0:
118,344,44891,1,8,3:2:0:0:
24,286,45244,6,0,L|4:177,1,109.999990463257,4|10,3:2|3:2,0:0:0:0:
40,73,45950,1,2,3:2:0:0:
146,47,46303,2,0,P|173:48|198:60,1,54.9999952316285,10|2,3:2|0:0,0:0:0:0:
233,102,46656,2,0,L|223:156,1,54.9999952316285,0|0,3:2|0:0,0:0:0:0:
215,210,47009,1,10,3:2:0:0:
266,307,47362,2,0,P|316:324|367:308,1,109.999990463257,2|8,3:2|3:2,0:0:0:0:
415,279,47891,1,2,0:0:0:0:
419,283,48068,5,2,3:2:0:0:
363,188,48421,1,10,3:2:0:0:
396,83,48774,2,0,P|420:70|447:69,1,54.9999952316285,2|2,3:2|0:0,0:0:0:0:
504,88,49127,1,10,3:2:0:0:
504,88,49303,1,2,0:0:0:0:
508,198,49656,1,2,0:0:0:0:
512,202,49832,2,0,L|502:260,1,54.9999952316285,10|0,3:2|0:0,0:0:0:0:
496,311,50185,1,6,3:2:0:0:
289,384,50891,6,0,L|168:362,1,109.999990463257,6|10,3:2|0:2,0:0:0:0:
70,357,51597,2,0,P|99:311|95:257,1,109.999990463257,2|10,3:2|0:2,0:0:0:0:
71,207,52127,1,2,3:2:0:0:
71,207,52303,1,2,0:0:0:0:
0,122,52656,6,0,L|9:67,1,54.9999952316285,10|0,0:2|0:0,0:0:0:0:
22,14,53009,1,2,3:2:0:0:
122,58,53362,2,0,L|206:43,1,54.9999952316285,10|0,0:2|3:2,0:0:0:0:
230,41,53715,1,2,3:2:0:0:
333,79,54068,2,0,P|345:103|346:130,1,54.9999952316285,10|2,0:2|3:2,0:0:0:0:
311,173,54421,6,0,L|289:293,1,109.999990463257,2|10,3:2|0:2,0:0:0:0:
287,336,54950,1,2,3:2:0:0:
386,383,55303,1,2,3:2:0:0:
472,314,55656,2,0,L|462:258,1,54.9999952316285,2|2,3:2|3:2,0:0:0:0:
445,212,56009,1,8,0:2:0:0:
445,212,56185,1,10,0:2:0:0:
509,123,56538,6,0,P|511:68|481:24,1,109.999990463257,6|10,3:2|3:2,0:0:0:0:
403,102,57244,2,0,L|294:82,1,109.999990463257,2|10,3:2|3:2,0:0:0:0:
256,51,57774,1,2,0:0:0:0:
256,51,57950,1,2,3:2:0:0:
151,0,58303,6,0,L|96:9,1,54.9999952316285,10|0,3:2|0:0,0:0:0:0:
43,24,58656,1,2,3:2:0:0:
87,124,59009,2,0,L|77:178,1,54.9999952316285,10|0,3:2|0:0,0:0:0:0:
68,232,59362,1,2,3:2:0:0:
98,337,59715,2,0,P|122:349|149:350,1,54.9999952316285,10|2,3:2|0:0,0:0:0:0:
202,364,60068,6,0,P|247:334|301:338,1,109.999990463257,2|10,3:2|3:2,0:0:0:0:
351,362,60597,1,2,3:2:0:0:
446,306,60950,2,0,L|455:251,1,54.9999952316285,10|10,3:2|3:2,0:0:0:0:
419,210,61303,2,0,L|409:155,1,54.9999952316285,10|14,3:2|3:2,0:0:0:0:
223,0,62185,6,0,L|201:119,1,120.999993202209,6|10,3:2|3:2,0:0:0:0:
158,232,62891,2,0,P|131:218|101:216,1,60.4999966011047,2|2,3:2|0:3,0:0:0:0:
42,230,63244,2,0,L|31:289,1,60.4999966011047,10|2,3:2|0:3,0:0:0:0:
15,348,63597,2,0,B|61:339|61:339|83:355|83:355|129:347,1,120.999993202209,2|10,3:2|3:2,0:0:0:0:
245,382,64303,1,2,3:2:0:0:
336,303,64656,6,0,L|395:313,1,60.4999966011047,10|2,3:2|0:3,0:0:0:0:
454,329,65009,1,2,3:2:0:0:
506,219,65362,1,10,3:2:0:0:
510,223,65538,2,0,P|516:193|510:164,1,60.4999966011047,2|0,0:3|3:2,0:0:0:0:
484,109,65891,1,2,0:3:0:0:
384,50,66244,1,2,0:3:0:0:
384,50,66421,2,0,P|328:70|273:49,1,120.999993202209,0|8,3:2|3:2,0:0:0:0:
145,0,67127,2,0,L|83:10,1,60.4999966011047,2|2,3:2|0:3,0:0:0:0:
34,43,67479,2,0,L|23:102,1,60.4999966011047,10|2,3:2|0:3,0:0:0:0:
1,159,67832,5,6,3:2:0:0:
100,227,68185,1,10,3:2:0:0:
200,159,68538,2,0,L|319:180,1,120.999993202209,2|10,3:2|3:2,0:0:0:0:
368,215,69068,1,2,0:3:0:0:
372,219,69244,2,0,P|385:246|387:275,1,60.4999966011047,2|2,3:2|0:3,0:0:0:0:
372,334,69597,1,10,3:2:0:0:
260,285,69950,2,0,L|200:295,1,60.4999966011047,2|0,3:2|0:0,0:0:0:0:
164,344,70303,2,0,L|104:333,1,60.4999966011047,10|0,3:2|0:0,0:0:0:0:
46,349,70655,5,2,3:2:0:0:
0,236,71008,1,8,3:2:0:0:
82,147,71362,2,0,L|201:125,1,120.999993202209,2|8,3:2|3:2,0:0:0:0:
258,104,71891,2,0,P|259:73|273:47,1,60.4999966011047,2|2,0:3|3:2,0:0:0:0:
324,14,72243,1,2,0:3:0:0:
440,48,72597,2,0,P|453:74|455:104,1,60.4999966011047,2|2,0:3|3:2,0:0:0:0:
436,164,72949,1,2,0:3:0:0:
436,164,73127,1,10,3:2:0:0:
318,193,73479,6,0,P|283:241|289:300,1,120.999993202209,6|10,3:2|3:2,0:0:0:0:
378,383,74185,2,0,L|437:371,1,60.4999966011047,2|2,3:2|0:3,0:0:0:0:
486,336,74538,2,0,P|492:306|486:276,1,60.4999966011047,10|2,3:2|0:3,0:0:0:0:
446,232,74891,2,0,B|415:195|415:195|439:127,1,120.999993202209,2|10,3:2|3:2,0:0:0:0:
507,25,75597,1,2,3:2:0:0:
392,4,75950,5,10,3:2:0:0:
392,4,76127,2,0,L|332:15,1,60.4999966011047,2|0,0:3|3:2,0:0:0:0:
232,81,76656,1,10,3:2:0:0:
232,81,76832,2,0,L|220:140,1,60.4999966011047,2|0,0:3|3:2,0:0:0:0:
127,217,77362,1,10,3:2:0:0:
131,221,77538,2,0,L|71:232,1,60.4999966011047,2|0,0:3|3:2,0:0:0:0:
0,330,78068,1,10,3:2:0:0:
108,383,78421,2,0,P|137:376|166:382,1,60.4999966011047,2|2,3:2|0:3,0:0:0:0:
222,357,78774,2,0,P|251:363|280:357,1,60.4999966011047,10|2,3:2|0:3,0:0:0:0:
331,323,79126,5,6,3:2:0:0:
439,377,79479,1,10,3:2:0:0:
510,279,79832,2,0,L|488:159,1,120.999993202209,2|10,3:2|3:2,0:0:0:0:
473,101,80362,1,2,0:3:0:0:
477,105,80538,1,2,3:2:0:0:
378,34,80891,1,10,3:2:0:0:
275,98,81244,2,0,P|254:153|275:208,1,120.999993202209,2|10,3:2|3:2,0:0:0:0:
316,253,81774,1,2,0:3:0:0:
320,257,81950,5,6,3:2:0:0:
264,364,82303,1,6,3:2:0:0:
169,287,82656,1,6,3:2:0:0:
94,382,83009,1,6,3:2:0:0:
2,302,83362,2,0,L|22:183,1,120.999993202209,6|6,3:2|3:2,0:0:0:0:
63,71,84068,1,2,3:2:0:0:
63,71,84244,2,0,P|89:57|119:55,1,60.4999966011047,2|2,3:2|0:0,0:0:0:0:
229,42,84774,6,0,L|210:150,1,109.999990463257,6|10,3:2|3:2,0:0:0:0:
123,219,85480,2,0,L|108:137,2,82.4999928474427
178,313,86361,1,0,0:0:0:0:
182,317,86539,2,0,L|236:307,1,54.9999952316285
290,307,86891,1,0,0:0:0:0:
370,231,87244,1,0,0:0:0:0:
321,132,87597,6,0,L|311:77,1,54.9999952316285
342,32,87950,2,0,P|396:29|441:58,1,109.999990463257
510,145,88656,2,0,L|500:199,1,54.9999952316285
466,242,89009,1,0,0:0:0:0:
488,349,89362,2,0,L|379:329,1,109.999990463257
329,321,89892,1,8,0:0:0:0:
329,321,90068,1,8,3:2:0:0:
232,268,90421,6,0,L|123:287,1,109.999990463257,6|0,3:2|0:0,0:0:0:0:
14,303,91127,2,0,L|0:384,2,82.4999928474427
56,201,92008,1,0,0:0:0:0:
60,205,92186,2,0,L|50:150,1,54.9999952316285
38,97,92538,1,0,0:0:0:0:
112,16,92891,1,0,0:0:0:0:
212,60,93244,6,0,L|202:114,1,54.9999952316285
173,161,93597,2,0,P|218:190|272:187,1,109.999990463257
356,115,94303,2,0,L|410:125,1,54.9999952316285
461,145,94656,2,0,P|477:196|460:247,1,109.999990463257
434,297,95185,1,0,0:0:0:0:
434,297,95362,2,0,L|326:317,1,109.999990463257
222,356,96068,6,0,L|202:248,1,109.999990463257,6|2,3:2|3:2,0:0:0:0:
227,140,96774,1,2,3:2:0:0:
335,120,97127,2,0,L|392:130,1,54.9999952316285,2|2,3:2|0:0,0:0:0:0:
423,173,97479,2,0,L|480:162,1,54.9999952316285,0|2,3:2|0:0,0:0:0:0:
512,121,97832,1,2,3:2:0:0:
447,31,98185,2,0,P|401:1|347:4,1,109.999990463257,2|0,3:2|3:2,0:0:0:0:
297,27,98715,1,2,0:0:0:0:
301,31,98892,5,2,3:2:0:0:
229,114,99245,1,2,3:2:0:0:
281,210,99598,1,2,3:2:0:0:
228,306,99950,2,0,P|201:311|175:305,1,54.9999952316285,2|2,3:2|0:0,0:0:0:0:
130,272,100303,2,0,P|103:266|77:272,1,54.9999952316285,0|2,3:2|0:0,0:0:0:0:
29,301,100656,2,0,L|9:192,1,109.999990463257,2|2,3:2|3:2,0:0:0:0:
4,142,101186,1,0,0:0:0:0:
4,142,101362,1,0,3:2:0:0:
62,48,101715,6,0,P|113:31|164:48,1,109.999990463257,6|2,3:2|3:2,0:0:0:0:
224,141,102421,1,2,3:2:0:0:
128,196,102774,2,0,L|118:251,1,54.9999952316285,2|2,3:2|0:0,0:0:0:0:
73,281,103127,2,0,L|82:336,1,54.9999952316285,0|2,3:2|0:0,0:0:0:0:
112,381,103480,1,2,3:2:0:0:
203,319,103832,2,0,L|311:338,1,109.999990463257,2|0,3:2|3:2,0:0:0:0:
364,353,104362,1,2,0:0:0:0:
368,357,104539,5,2,3:2:0:0:
449,283,104892,1,2,3:2:0:0:
381,195,105245,2,0,L|323:205,1,54.9999952316285,2|2,3:2|0:0,0:0:0:0:
275,213,105598,1,2,3:2:0:0:
275,213,105774,1,2,0:0:0:0:
197,143,106127,1,2,0:0:0:0:
197,143,106303,2,0,P|190:116|196:89,1,54.9999952316285,2|0,0:0|0:0,0:0:0:0:
220,40,106656,2,0,L|327:21,1,109.999990463257,2|2,0:0|0:0,0:0:0:0:
436,0,107362,6,0,P|406:44|409:98,1,109.999990463257,6|8,3:2|3:2,0:0:0:0:
431,207,108068,2,0,L|512:192,2,82.4999928474427,2|2|2,3:2|0:0|0:0,0:0:0:0:
369,298,108950,1,2,0:0:0:0:
373,302,109127,2,0,L|318:292,1,54.9999952316285,10|2,3:2|0:0,0:0:0:0:
268,268,109480,1,2,3:2:0:0:
182,336,109832,1,8,3:2:0:0:
82,289,110185,6,0,L|70:222,1,54.9999952316285,2|2,3:2|0:0,0:0:0:0:
37,192,110538,1,10,3:2:0:0:
41,196,110715,2,0,L|60:89,1,109.999990463257,2|2,0:0|0:0,0:0:0:0:
92,44,111244,1,10,3:2:0:0:
92,44,111420,1,2,0:0:0:0:
194,2,111774,1,2,0:0:0:0:
198,6,111950,2,0,L|217:114,1,109.999990463257,10|2,3:2|3:2,0:0:0:0:
208,172,112479,1,8,0:0:0:0:
208,172,112656,1,10,3:2:0:0:
290,244,113009,6,0,P|343:247|389:217,1,109.999990463257,6|8,3:2|3:2,0:0:0:0:
428,114,113715,2,0,L|509:128,2,82.4999928474427,2|2|2,3:2|0:0|0:0,0:0:0:0:
344,33,114597,1,2,0:0:0:0:
348,37,114774,2,0,P|324:25|297:24,1,54.9999952316285,10|2,3:2|0:0,0:0:0:0:
241,33,115127,1,2,3:2:0:0:
212,138,115479,1,10,3:2:0:0:
124,204,115832,6,0,P|100:216|73:217,1,54.9999952316285,2|2,3:2|0:0,0:0:0:0:
18,204,116185,1,10,3:2:0:0:
22,208,116362,2,0,L|41:316,1,109.999990463257,2|2,0:0|0:0,0:0:0:0:
66,365,116891,1,8,3:2:0:0:
66,365,117067,1,2,0:0:0:0:
162,309,117421,1,2,0:0:0:0:
162,309,117597,2,0,P|213:291|264:309,1,109.999990463257,10|10,3:2|3:2,0:0:0:0:
294,348,118126,1,2,3:2:0:0:
298,352,118303,2,0,L|364:340,1,54.9999952316285,10|2,3:2|3:2,0:0:0:0:
404,360,118656,5,6,3:2:0:0:
497,302,119009,2,0,P|496:274|484:250,1,54.9999952316285,14|2,3:2|0:0,0:0:0:0:
437,221,119362,2,0,L|456:112,1,109.999990463257,2|10,3:2|3:2,0:0:0:0:
452,61,119892,1,2,0:0:0:0:
452,61,120068,1,2,3:2:0:0:
356,5,120421,6,0,L|301:14,1,54.9999952316285,10|0,3:2|0:0,0:0:0:0:
248,29,120774,1,2,3:2:0:0:
286,132,121127,2,0,L|271:216,1,54.9999952316285,10|0,3:2|0:0,0:0:0:0:
265,240,121480,1,2,3:2:0:0:
189,319,121832,2,0,P|164:331|137:331,1,54.9999952316285,10|2,3:2|0:0,0:0:0:0:
84,314,122186,6,0,L|64:205,1,109.999990463257,2|10,3:2|3:2,0:0:0:0:
42,155,122715,1,2,0:0:0:0:
88,55,123068,1,2,0:0:0:0:
92,59,123244,2,0,L|200:39,1,109.999990463257,10|2,3:2|3:2,0:0:0:0:
251,13,123774,1,8,0:0:0:0:
251,13,123950,1,10,3:2:0:0:
306,108,124303,6,0,P|357:125|408:107,1,109.999990463257,6|10,3:2|3:2,0:0:0:0:
493,36,125009,2,0,L|512:144,1,109.999990463257,2|10,3:2|3:2,0:0:0:0:
511,203,125539,1,2,0:0:0:0:
511,203,125715,1,2,3:2:0:0:
417,261,126068,6,0,L|407:315,1,54.9999952316285,10|2,3:2|0:1,0:0:0:0:
399,369,126421,1,2,3:2:0:0:
300,320,126774,2,0,L|245:329,1,54.9999952316285,10|2,3:2|0:1,0:0:0:0:
193,346,127127,1,2,3:2:0:0:
100,287,127479,2,0,P|87:262|87:235,1,54.9999952316285,10|2,3:2|0:0,0:0:0:0:
125,195,127832,6,0,P|142:143|124:92,1,109.999990463257,2|10,3:2|3:2,0:0:0:0:
110,44,128362,1,2,0:0:0:0:
110,44,128538,2,0,B|143:16|143:16|206:38,2,109.999990463257,0|2|0,3:2|3:2|3:2,0:0:0:0:
0,235,129950,6,0,L|108:254,1,109.999990463257,6|8,3:2|3:2,0:0:0:0:
157,290,130479,1,2,0:3:0:0:
157,290,130656,2,0,L|171:371,2,82.4999928474427,2|2|2,3:2|0:0|0:3,0:0:0:0:
229,207,131538,1,2,0:3:0:0:
233,211,131715,2,0,P|258:198|285:198,1,54.9999952316285,10|2,3:2|0:3,0:0:0:0:
338,206,132068,1,2,3:2:0:0:
431,263,132421,1,10,3:2:0:0:
503,180,132774,6,0,L|512:125,1,54.9999952316285,2|2,3:2|0:3,0:0:0:0:
486,77,133127,1,10,3:2:0:0:
490,81,133303,2,0,P|444:51|390:55,1,109.999990463257,2|2,0:3|0:3,0:0:0:0:
348,88,133832,1,10,3:2:0:0:
348,88,134009,1,2,0:3:0:0:
257,26,134362,1,2,0:3:0:0:
261,30,134538,2,0,L|143:50,1,109.999990463257,8|0,3:2|3:2,0:0:0:0:
102,43,135068,1,10,0:2:0:0:
102,43,135244,1,8,0:2:0:0:
25,122,135597,6,0,P|70:151|124:147,1,109.999990463257,6|8,3:2|3:2,0:0:0:0:
179,132,136126,1,2,0:3:0:0:
179,132,136303,2,0,L|197:28,2,82.4999928474427,2|2|2,3:2|0:0|0:3,0:0:0:0:
238,224,137185,1,2,0:3:0:0:
242,228,137362,2,0,L|252:285,1,54.9999952316285,10|2,3:2|0:3,0:0:0:0:
239,336,137715,1,2,3:2:0:0:
140,384,138068,1,10,3:2:0:0:
41,334,138421,6,0,L|50:279,1,54.9999952316285,2|2,3:2|0:3,0:0:0:0:
90,243,138774,1,10,3:2:0:0:
94,247,138950,2,0,L|74:138,1,109.999990463257,2|2,0:3|0:3,0:0:0:0:
48,97,139479,1,10,3:2:0:0:
48,97,139656,1,2,3:2:0:0:
123,17,140009,1,2,3:2:0:0:
123,17,140185,2,0,P|148:4|175:4,1,54.9999952316285,2|2,3:2|3:2,0:0:0:0:
225,25,140538,2,0,L|205:133,1,109.999990463257,2|2,3:2|0:0,0:0:0:0:
155,231,141244,1,14,3:2:0:0:
78,18,152538,6,0,L|60:115,1,98.9999883956914,14|10,3:2|3:2,0:0:0:0:
3,196,153244,1,10,3:2:0:0:
68,270,153597,1,10,3:2:0:0:
155,223,153950,2,0,P|200:208|247:222,1,98.9999883956914,10|10,3:2|3:2,0:0:0:0:
293,311,154656,1,10,3:2:0:0:
367,384,155009,5,10,3:2:0:0:
367,384,155185,2,0,L|415:375,1,49.4999941978457,2|0,0:0|0:0,0:0:0:0:
498,318,155715,1,10,3:2:0:0:
498,318,155891,2,0,L|506:269,1,49.4999941978457,2|0,0:0|0:0,0:0:0:0:
455,190,156421,1,10,3:2:0:0:
455,190,156597,2,0,L|406:181,1,49.4999941978457,2|0,0:0|0:0,0:0:0:0:
319,228,157127,1,10,3:2:0:0:
226,192,157479,2,0,P|216:169|213:144,1,49.4999941978457,10|2,3:2|0:0,0:0:0:0:
258,122,157832,2,0,P|267:99|270:74,1,49.4999941978457,10|2,3:2|0:0,0:0:0:0:
236,30,158185,5,6,3:2:0:0:
130,0,158538,1,6,3:2:0:0:
32,50,158891,2,0,L|51:158,1,109.999990463257,6|6,3:2|3:2,0:0:0:0:
89,205,159421,1,0,0:0:0:0:
89,205,159597,2,0,L|79:259,1,54.9999952316285,6|0,3:2|3:2,0:0:0:0:
79,314,159950,2,0,P|103:326|131:327,1,54.9999952316285,0|0,3:2|3:2,0:0:0:0:
184,315,160303,1,0,3:2:0:0:
274,253,160656,2,0,P|328:250|373:279,1,109.999990463257,2|2,3:2|0:0,0:0:0:0:
445,377,161362,5,14,3:2:0:0:
511,276,161715,2,0,L|500:216,1,60.4999966011047,2|2,3:2|0:3,0:0:0:0:
454,176,162068,2,0,L|464:116,1,60.4999966011047,10|2,3:2|0:3,0:0:0:0:
451,57,162421,2,0,P|402:23|343:29,1,120.999993202209,2|10,3:2|3:2,0:0:0:0:
242,97,163127,1,2,3:2:0:0:
272,214,163480,6,0,L|331:224,1,60.4999966011047,10|2,3:2|0:3,0:0:0:0:
389,241,163833,1,2,3:2:0:0:
328,347,164185,1,10,3:2:0:0:
328,347,164362,2,0,P|301:361|271:363,1,60.4999966011047,2|0,0:3|3:2,0:0:0:0:
211,352,164715,1,2,0:3:0:0:
129,270,165068,1,2,0:3:0:0:
129,270,165244,2,0,B|160:233|160:233|136:165,1,120.999993202209,0|8,3:2|3:2,0:0:0:0:
25,113,165951,2,0,L|35:52,1,60.4999966011047,2|2,3:2|0:3,0:0:0:0:
82,15,166303,2,0,P|109:1|139:-1,1,60.4999966011047,10|2,3:2|0:3,0:0:0:0:
196,17,166656,5,6,3:2:0:0:
265,115,167009,1,10,3:2:0:0:
207,221,167362,2,0,P|186:276|208:332,1,120.999993202209,2|10,3:2|3:2,0:0:0:0:
260,373,167892,1,2,0:3:0:0:
260,373,168068,2,0,L|319:362,1,60.4999966011047,2|2,3:2|0:3,0:0:0:0:
379,352,168421,1,10,3:2:0:0:
449,253,168774,2,0,P|454:223|448:194,1,60.4999966011047,2|2,3:2|0:3,0:0:0:0:
418,141,169126,2,0,L|350:129,1,60.4999966011047,10|2,3:2|0:3,0:0:0:0:
297,135,169479,5,2,3:2:0:0:
200,61,169832,1,8,3:2:0:0:
90,112,170185,2,0,L|68:231,1,120.999993202209,2|8,3:2|3:2,0:0:0:0:
18,264,170715,2,0,L|28:323,1,60.4999966011047,2|2,0:3|3:2,0:0:0:0:
47,380,171067,1,2,0:3:0:0:
156,327,171421,2,0,L|166:267,1,60.4999966011047,2|2,0:3|3:2,0:0:0:0:
200,218,171773,1,2,0:3:0:0:
200,218,171951,1,10,3:2:0:0:
294,143,172303,6,0,P|353:138|401:172,1,120.999993202209,6|10,3:2|3:2,0:0:0:0:
484,260,173009,2,0,L|473:319,1,60.4999966011047,2|2,3:2|0:3,0:0:0:0:
427,358,173362,2,0,L|367:368,1,60.4999966011047,10|2,3:2|0:3,0:0:0:0:
312,342,173715,2,0,B|266:333|266:333|244:349|244:349|198:341,1,120.999993202209,2|10,3:2|3:2,0:0:0:0:
80,373,174421,1,2,3:2:0:0:
4,285,174774,5,10,3:2:0:0:
4,285,174951,2,0,L|14:225,1,60.4999966011047,2|0,0:3|3:2,0:0:0:0:
116,158,175479,1,10,3:2:0:0:
116,158,175656,2,0,L|175:147,1,60.4999966011047,2|0,0:3|3:2,0:0:0:0:
289,101,176185,1,10,3:2:0:0:
289,101,176362,2,0,L|299:41,1,60.4999966011047,2|0,0:3|3:2,0:0:0:0:
413,1,176892,1,10,3:2:0:0:
497,86,177244,2,0,P|510:113|511:143,1,60.4999966011047,2|2,3:2|0:3,0:0:0:0:
468,185,177597,2,0,P|454:212|453:242,1,60.4999966011047,10|2,3:2|0:3,0:0:0:0:
463,301,177950,5,6,3:2:0:0:
369,377,178303,1,10,3:2:0:0:
282,292,178656,2,0,L|303:172,1,120.999993202209,2|10,3:2|3:2,0:0:0:0:
330,120,179186,1,2,0:3:0:0:
330,120,179362,1,2,3:2:0:0:
250,28,179715,1,10,3:2:0:0:
129,32,180068,2,0,P|94:80|99:139,1,120.999993202209,2|10,3:2|3:2,0:0:0:0:
139,191,180597,1,2,0:3:0:0:
139,191,180774,5,2,3:2:0:0:
236,263,181127,1,8,3:2:0:0:
196,377,181480,1,0,3:2:0:0:
74,378,181833,1,8,3:2:0:0:
32,264,182186,2,0,L|11:145,1,120.999993202209,0|8,3:2|3:2,0:0:0:0:
59,33,182892,2,0,L|122:44,1,60.4999966011047,2|2,3:2|3:2,0:0:0:0:
171,72,183244,2,0,L|182:135,1,60.4999966011047,2|2,3:2|3:2,0:0:0:0:
190,186,183597,1,2,0:0:0:0:
