osu file format v14

[General]
AudioFilename: audio.mp3
AudioLeadIn: 0
PreviewTime: 50494
Countdown: 0
SampleSet: Soft
StackLeniency: 0.6
Mode: 0
LetterboxInBreaks: 0
WidescreenStoryboard: 1

[Editor]
Bookmarks: 62185,84774,96068,105950,118656,129950,141244
DistanceSpacing: 1.5
BeatDivisor: 4
GridSize: 8
TimelineZoom: 2.6

[Metadata]
Title:phony
TitleUnicode:フォニイ
Artist:Tsumiki
ArtistUnicode:ツミキ
Creator:Ryuusei Aika
Version:Hatsune Miku's Insane
Source:
Tags:_23ki_ foni japanese rock jrock j-rock pop jpop j-pop calvaria shikibe mayu shizuku- kazato asa deppyforce [hatsune miku] remapper _lai setu shiratamamywife ryxliee midorijeon vocalsynth 可不 KAFU KAF+U cevio ai female vocal KAMITSUBAKI STUDIO 神椿スタジオ
BeatmapID:3280686
BeatmapSetID:1533832

[Difficulty]
HPDrainRate:6
CircleSize:3.3
OverallDifficulty:8
ApproachRate:9
SliderMultiplier:1.5
SliderTickRate:1

[Events]
//Background and Video events
0,0,"BG.jpg",0,0
//Break Periods
2,30068,32538
2,86185,89009
2,91832,94656
2,144068,146291
2,149715,151585
//Storyboard Layer 0 (Background)
//Storyboard Layer 1 (Fail)
//Storyboard Layer 2 (Pass)
//Storyboard Layer 3 (Foreground)
//Storyboard Layer 4 (Overlay)
//Storyboard Sound Samples

[TimingPoints]
1480,352.941176470588,4,2,1,50,1,0
11362,-66.6666666666667,4,2,1,70,0,0
11627,-66.6666666666667,4,2,1,70,0,0
11715,-66.6666666666667,4,2,1,70,0,0
11979,-66.6666666666667,4,2,1,70,0,0
12068,-66.6666666666667,4,2,1,70,0,0
12332,-66.6666666666667,4,2,1,70,0,0
12421,-66.6666666666667,4,2,1,70,0,0
12685,-66.6666666666667,4,2,1,70,0,0
12774,-66.6666666666667,4,2,1,70,0,0
13038,-66.6666666666667,4,2,1,70,0,0
13127,-66.6666666666667,4,2,1,70,0,0
13391,-66.6666666666667,4,2,1,70,0,0
13479,-66.6666666666667,4,2,1,70,0,0
13744,-66.6666666666667,4,2,1,70,0,0
13832,-66.6666666666667,4,2,1,70,0,0
14097,-66.6666666666667,4,2,1,70,0,0
14185,-66.6666666666667,4,2,1,70,0,0
15597,-100,4,2,1,50,0,0
15950,-100,4,2,1,50,0,0
17009,-80,4,2,1,70,0,0
20185,-66.6666666666667,4,2,1,70,0,0
20538,-80,4,2,1,70,0,0
22127,-66.6666666666667,4,2,2,70,0,0
22215,-66.6666666666667,4,2,1,70,0,0
22303,-66.6666666666667,4,2,2,70,0,0
22391,-66.6666666666667,4,2,1,70,0,0
22479,-66.6666666666667,4,2,1,70,0,0
22656,-80,4,2,1,70,0,0
23009,-66.6666666666667,4,2,1,70,0,0
23362,-80,4,2,1,70,0,0
25832,-66.6666666666667,4,2,1,70,0,0
26185,-80,4,2,1,70,0,0
28303,-66.6666666666667,4,2,2,60,0,0
28391,-66.6666666666667,4,2,1,60,0,0
28479,-66.6666666666667,4,2,1,5,0,0
33950,-100,4,2,1,60,0,0
38362,-80,4,2,1,60,0,0
39244,-66.6666666666667,4,2,1,60,0,0
39597,-100,4,2,1,60,0,0
44715,-100,4,2,2,60,0,0
44803,-100,4,2,1,60,0,0
44891,-100,4,2,2,60,0,0
44979,-100,4,2,1,60,0,0
45068,-100,4,2,1,60,0,0
48950,-66.6666666666667,4,2,1,60,0,0
49479,-100,4,2,1,60,0,0
50185,-100,4,2,2,60,0,0
50274,-100,4,2,1,60,0,0
50362,-100,4,2,1,60,0,0
50538,-100,4,2,1,60,0,0
50891,-66.6666666666667,4,2,1,70,0,0
50979,-66.6666666666667,4,2,2,70,0,0
54068,-100,4,2,2,70,0,0
54421,-66.6666666666667,4,2,2,70,0,0
56538,-80,4,2,1,70,0,0
56627,-80,4,2,2,70,0,0
58435,-80,4,2,2,70,0,0
58479,-80,4,2,2,70,0,0
59141,-80,4,2,2,70,0,0
59185,-80,4,2,2,70,0,0
60597,-66.6666666666667,4,2,2,70,0,0
61127,-50,4,2,2,70,0,0
61832,-133.333333333333,4,2,2,70,0,0
62009,-133.333333333333,4,2,2,70,0,0
62185,-66.6666666666667,4,2,1,80,0,0
62362,-66.6666666666667,4,2,1,80,0,0
62538,-66.6666666666667,4,2,1,80,0,0
62715,-66.6666666666667,4,2,1,80,0,0
62891,-66.6666666666667,4,2,1,80,0,0
63068,-66.6666666666667,4,2,3,80,0,0
63156,-66.6666666666667,4,2,1,80,0,0
63244,-66.6666666666667,4,2,1,80,0,0
63421,-66.6666666666667,4,2,3,80,0,0
63509,-66.6666666666667,4,2,1,80,0,0
63597,-66.6666666666667,4,2,1,80,0,0
63774,-66.6666666666667,4,2,3,80,0,0
63862,-66.6666666666667,4,2,1,80,0,0
63950,-66.6666666666667,4,2,1,80,0,0
64127,-66.6666666666667,4,2,1,80,0,0
64303,-66.6666666666667,4,2,1,80,0,0
64480,-66.6666666666667,4,2,1,80,0,0
64656,-66.6666666666667,4,2,1,80,0,0
64833,-66.6666666666667,4,2,3,80,0,0
64920,-66.6666666666667,4,2,1,80,0,0
65009,-66.6666666666667,4,2,1,80,0,0
65186,-66.6666666666667,4,2,1,80,0,0
65362,-66.6666666666667,4,2,1,80,0,0
65538,-66.6666666666667,4,2,3,80,0,0
65626,-66.6666666666667,4,2,1,80,0,0
65715,-66.6666666666667,4,2,1,80,0,0
65892,-66.6666666666667,4,2,3,80,0,0
65979,-66.6666666666667,4,2,1,80,0,0
66068,-66.6666666666667,4,2,1,80,0,0
66244,-66.6666666666667,4,2,3,80,0,0
66332,-66.6666666666667,4,2,1,80,0,0
66421,-66.6666666666667,4,2,1,80,0,0
66598,-66.6666666666667,4,2,1,80,0,0
66774,-66.6666666666667,4,2,1,80,0,0
66951,-66.6666666666667,4,2,1,80,0,0
67127,-66.6666666666667,4,2,1,80,0,0
67304,-66.6666666666667,4,2,3,80,0,0
67391,-66.6666666666667,4,2,1,80,0,0
67479,-66.6666666666667,4,2,1,80,0,0
67656,-66.6666666666667,4,2,3,80,0,0
67744,-66.6666666666667,4,2,1,80,0,0
67832,-66.6666666666667,4,2,1,80,0,0
68009,-66.6666666666667,4,2,3,80,0,0
68097,-66.6666666666667,4,2,1,80,0,0
68185,-66.6666666666667,4,2,1,80,0,0
68362,-66.6666666666667,4,2,3,80,0,0
68450,-66.6666666666667,4,2,1,80,0,0
68538,-66.6666666666667,4,2,1,80,0,0
68715,-66.6666666666667,4,2,1,80,0,0
68891,-66.6666666666667,4,2,1,80,0,0
69068,-66.6666666666667,4,2,3,80,0,0
69156,-66.6666666666667,4,2,1,80,0,0
69244,-66.6666666666667,4,2,1,80,0,0
69421,-66.6666666666667,4,2,3,80,0,0
69509,-66.6666666666667,4,2,1,80,0,0
69597,-66.6666666666667,4,2,1,80,0,0
69774,-66.6666666666667,4,2,1,80,0,0
69950,-66.6666666666667,4,2,1,80,0,0
70127,-66.6666666666667,4,2,1,80,0,0
70303,-66.6666666666667,4,2,1,80,0,0
70480,-66.6666666666667,4,2,1,80,0,0
70656,-66.6666666666667,4,2,1,80,0,0
70833,-66.6666666666667,4,2,1,80,0,0
71009,-66.6666666666667,4,2,1,80,0,0
71186,-66.6666666666667,4,2,3,80,0,0
71273,-66.6666666666667,4,2,1,80,0,0
71362,-57.1428571428571,4,2,1,80,0,0
71539,-57.1428571428571,4,2,1,80,0,0
71715,-57.1428571428571,4,2,1,80,0,0
71891,-66.6666666666667,4,2,3,80,0,0
71979,-66.6666666666667,4,2,1,80,0,0
72068,-66.6666666666667,4,2,1,80,0,0
72245,-66.6666666666667,4,2,3,80,0,0
72332,-66.6666666666667,4,2,1,80,0,0
72421,-66.6666666666667,4,2,1,80,0,0
72598,-66.6666666666667,4,2,3,80,0,0
72685,-66.6666666666667,4,2,1,80,0,0
72774,-66.6666666666667,4,2,1,80,0,0
72951,-66.6666666666667,4,2,3,80,0,0
73038,-66.6666666666667,4,2,1,80,0,0
73127,-66.6666666666667,4,2,1,80,0,0
73304,-66.6666666666667,4,2,3,80,0,0
73391,-66.6666666666667,4,2,1,80,0,0
73479,-66.6666666666667,4,2,1,80,0,0
73656,-66.6666666666667,4,2,1,80,0,0
73832,-66.6666666666667,4,2,1,80,0,0
74009,-66.6666666666667,4,2,1,80,0,0
74185,-66.6666666666667,4,2,1,80,0,0
74362,-66.6666666666667,4,2,3,80,0,0
74450,-66.6666666666667,4,2,1,80,0,0
74538,-66.6666666666667,4,2,1,80,0,0
74715,-66.6666666666667,4,2,3,80,0,0
74803,-66.6666666666667,4,2,1,80,0,0
74891,-66.6666666666667,4,2,1,80,0,0
75068,-66.6666666666667,4,2,3,80,0,0
75156,-66.6666666666667,4,2,1,80,0,0
75244,-66.6666666666667,4,2,1,80,0,0
75421,-66.6666666666667,4,2,1,80,0,0
75597,-66.6666666666667,4,2,1,80,0,0
75774,-66.6666666666667,4,2,1,80,0,0
75950,-66.6666666666667,4,2,1,80,0,0
76127,-100,4,2,3,80,0,0
76215,-100,4,2,1,80,0,0
76303,-100,4,2,1,80,0,0
76480,-100,4,2,1,80,0,0
76656,-100,4,2,1,80,0,0
76832,-80,4,2,3,80,0,0
76920,-80,4,2,1,80,0,0
77009,-80,4,2,1,80,0,0
77186,-80,4,2,1,80,0,0
77362,-80,4,2,1,80,0,0
77538,-66.6666666666667,4,2,3,80,0,0
77626,-66.6666666666667,4,2,1,80,0,0
77715,-66.6666666666667,4,2,1,80,0,0
77892,-66.6666666666667,4,2,1,80,0,0
78068,-66.6666666666667,4,2,1,80,0,0
78245,-66.6666666666667,4,2,1,80,0,0
78421,-66.6666666666667,4,2,1,80,0,0
78597,-66.6666666666667,4,2,3,80,0,0
78685,-66.6666666666667,4,2,1,80,0,0
78774,-66.6666666666667,4,2,1,80,0,0
78950,-66.6666666666667,4,2,3,80,0,0
79038,-66.6666666666667,4,2,1,80,0,0
79127,-66.6666666666667,4,2,1,80,0,0
79304,-66.6666666666667,4,2,1,80,0,0
79479,-66.6666666666667,4,2,1,80,0,0
79656,-66.6666666666667,4,2,1,80,0,0
79832,-66.6666666666667,4,2,1,80,0,0
80009,-66.6666666666667,4,2,1,80,0,0
80185,-66.6666666666667,4,2,1,80,0,0
80362,-66.6666666666667,4,2,1,80,0,0
80538,-66.6666666666667,4,2,1,80,0,0
80715,-66.6666666666667,4,2,1,80,0,0
80891,-66.6666666666667,4,2,1,80,0,0
81068,-66.6666666666667,4,2,1,80,0,0
81244,-66.6666666666667,4,2,1,80,0,0
81421,-66.6666666666667,4,2,1,80,0,0
81597,-66.6666666666667,4,2,1,80,0,0
81774,-66.6666666666667,4,2,1,80,0,0
81950,-66.6666666666667,4,2,1,80,0,0
84774,-66.6666666666667,4,2,1,70,0,0
89891,-66.6666666666667,4,2,2,70,0,0
89980,-66.6666666666667,4,2,1,70,0,0
90068,-66.6666666666667,4,2,2,70,0,0
90156,-66.6666666666667,4,2,1,70,0,0
90244,-66.6666666666667,4,2,1,70,0,0
96068,-100,4,2,1,60,0,0
101715,-100,4,2,3,60,0,0
101803,-100,4,2,1,60,0,0
107009,-66.6666666666667,4,2,1,60,0,0
107362,-80,4,2,1,70,0,0
112479,-80,4,2,2,70,0,0
112568,-80,4,2,1,70,0,0
112656,-66.6666666666667,4,2,2,70,0,0
112744,-66.6666666666667,4,2,1,70,0,0
112832,-66.6666666666667,4,2,1,70,0,0
113009,-80,4,2,1,70,0,0
117685,-80,4,2,1,40,0,0
117950,-80,4,2,1,70,0,0
118038,-80,4,2,1,40,0,0
118127,-80,4,2,1,40,0,0
118303,-80,4,2,1,70,0,0
118391,-80,4,2,1,40,0,0
118479,-80,4,2,1,40,0,0
118656,-80,4,2,2,70,0,0
119009,-80,4,2,3,70,0,0
119097,-80,4,2,2,70,0,0
124303,-66.6666666666667,4,2,1,70,0,0
124391,-66.6666666666667,4,2,2,70,0,0
124656,-80,4,2,2,70,0,0
129597,-100,4,2,2,70,0,0
129950,-66.6666666666667,4,2,1,70,0,0
130038,-66.6666666666667,4,2,1,70,0,0
130303,-80,4,2,1,70,0,0
130479,-80,4,2,3,70,0,0
130567,-80,4,2,1,70,0,0
131185,-80,4,2,3,70,0,0
131273,-80,4,2,1,70,0,0
131538,-80,4,2,3,70,0,0
131626,-80,4,2,1,70,0,0
131891,-80,4,2,3,70,0,0
131979,-80,4,2,1,70,0,0
132068,-66.6666666666667,4,2,1,70,0,0
132244,-66.6666666666667,4,2,4,70,0,0
132303,-66.6666666666667,4,2,1,70,0,0
132421,-80,4,2,2,70,0,0
132509,-80,4,2,1,70,0,0
132597,-80,4,2,3,70,0,0
132685,-80,4,2,1,70,0,0
132950,-80,4,2,3,70,0,0
133038,-80,4,2,1,70,0,0
133303,-80,4,2,3,70,0,0
133391,-80,4,2,1,70,0,0
133656,-80,4,2,3,70,0,0
133744,-80,4,2,1,70,0,0
134009,-80,4,2,3,70,0,0
134097,-80,4,2,1,70,0,0
135068,-66.6666666666667,4,2,4,70,0,0
135156,-66.6666666666667,4,2,1,70,0,0
135244,-66.6666666666667,4,2,2,70,0,0
135332,-66.6666666666667,4,2,1,70,0,0
135597,-80,4,2,1,70,0,0
135685,-80,4,2,1,70,0,0
136127,-80,4,2,3,70,0,0
136215,-80,4,2,1,70,0,0
136833,-80,4,2,3,70,0,0
136921,-80,4,2,1,70,0,0
137186,-80,4,2,3,70,0,0
137274,-80,4,2,1,70,0,0
137538,-66.6666666666667,4,2,3,70,0,0
137627,-66.6666666666667,4,2,1,70,0,0
137892,-66.6666666666667,4,2,4,70,0,0
137951,-66.6666666666667,4,2,1,70,0,0
138069,-66.6666666666667,4,2,2,70,0,0
138157,-66.6666666666667,4,2,1,70,0,0
138245,-66.6666666666667,4,2,3,70,0,0
138333,-66.6666666666667,4,2,1,70,0,0
138421,-80,4,2,1,70,0,0
138598,-80,4,2,3,70,0,0
138686,-80,4,2,1,70,0,0
138951,-80,4,2,3,70,0,0
139039,-80,4,2,1,70,0,0
139304,-80,4,2,3,70,0,0
139392,-80,4,2,1,70,0,0
139657,-80,4,2,4,70,0,0
139745,-80,4,2,1,70,0,0
140185,-50,4,2,1,70,0,0
141244,-50,4,2,5,70,0,0
141332,-50,4,2,2,70,0,0
152538,-80,4,2,5,70,0,0
152627,-80,4,2,2,70,0,0
152891,-100,4,2,2,70,0,0
155185,-133.333333333333,4,2,2,70,0,0
155891,-100,4,2,2,70,0,0
156597,-80,4,2,2,70,0,0
157127,-100,4,2,2,70,0,0
158185,-80,4,2,1,70,0,0
159597,-66.6666666666667,4,2,1,70,0,0
161009,-66.6666666666667,4,2,1,50,0,0
161362,-50,4,2,1,80,0,0
161538,-50,4,2,1,80,0,0
161715,-66.6666666666667,4,2,1,80,0,0
161891,-66.6666666666667,4,2,3,80,0,0
161979,-66.6666666666667,4,2,1,80,0,0
162068,-66.6666666666667,4,2,1,80,0,0
162244,-66.6666666666667,4,2,3,80,0,0
162332,-66.6666666666667,4,2,1,80,0,0
162421,-66.6666666666667,4,2,1,80,0,0
162597,-66.6666666666667,4,2,3,80,0,0
162685,-66.6666666666667,4,2,1,80,0,0
162774,-66.6666666666667,4,2,1,80,0,0
162950,-66.6666666666667,4,2,1,80,0,0
163127,-66.6666666666667,4,2,1,80,0,0
163304,-66.6666666666667,4,2,1,80,0,0
163479,-66.6666666666667,4,2,1,80,0,0
163656,-66.6666666666667,4,2,3,80,0,0
163743,-66.6666666666667,4,2,1,80,0,0
163832,-66.6666666666667,4,2,1,80,0,0
164009,-66.6666666666667,4,2,1,80,0,0
164185,-66.6666666666667,4,2,1,80,0,0
164362,-66.6666666666667,4,2,3,80,0,0
164449,-66.6666666666667,4,2,1,80,0,0
164538,-66.6666666666667,4,2,1,80,0,0
164715,-66.6666666666667,4,2,3,80,0,0
164802,-66.6666666666667,4,2,1,80,0,0
164891,-66.6666666666667,4,2,1,80,0,0
165068,-66.6666666666667,4,2,3,80,0,0
165155,-66.6666666666667,4,2,1,80,0,0
165244,-66.6666666666667,4,2,1,80,0,0
165421,-66.6666666666667,4,2,1,80,0,0
165597,-66.6666666666667,4,2,1,80,0,0
165774,-66.6666666666667,4,2,1,80,0,0
165950,-66.6666666666667,4,2,1,80,0,0
166127,-66.6666666666667,4,2,3,80,0,0
166214,-66.6666666666667,4,2,1,80,0,0
166303,-66.6666666666667,4,2,1,80,0,0
166480,-66.6666666666667,4,2,3,80,0,0
166567,-66.6666666666667,4,2,1,80,0,0
166656,-66.6666666666667,4,2,1,80,0,0
166833,-66.6666666666667,4,2,3,80,0,0
166920,-66.6666666666667,4,2,1,80,0,0
167009,-66.6666666666667,4,2,1,80,0,0
167186,-66.6666666666667,4,2,3,80,0,0
167273,-66.6666666666667,4,2,1,80,0,0
167362,-66.6666666666667,4,2,1,80,0,0
167539,-66.6666666666667,4,2,1,80,0,0
167715,-66.6666666666667,4,2,1,80,0,0
167892,-66.6666666666667,4,2,3,80,0,0
167979,-66.6666666666667,4,2,1,80,0,0
168068,-66.6666666666667,4,2,1,80,0,0
168245,-66.6666666666667,4,2,3,80,0,0
168332,-66.6666666666667,4,2,1,80,0,0
168421,-66.6666666666667,4,2,1,80,0,0
168598,-66.6666666666667,4,2,1,80,0,0
168774,-66.6666666666667,4,2,1,80,0,0
168950,-66.6666666666667,4,2,1,80,0,0
169127,-66.6666666666667,4,2,1,80,0,0
169303,-66.6666666666667,4,2,1,80,0,0
169479,-66.6666666666667,4,2,1,80,0,0
169656,-66.6666666666667,4,2,1,80,0,0
169832,-66.6666666666667,4,2,1,80,0,0
170009,-66.6666666666667,4,2,3,80,0,0
170096,-66.6666666666667,4,2,1,80,0,0
170185,-57.1428571428571,4,2,1,80,0,0
170362,-57.1428571428571,4,2,1,80,0,0
170538,-57.1428571428571,4,2,1,80,0,0
170715,-66.6666666666667,4,2,3,80,0,0
170802,-66.6666666666667,4,2,1,80,0,0
170891,-66.6666666666667,4,2,1,80,0,0
171068,-66.6666666666667,4,2,3,80,0,0
171155,-66.6666666666667,4,2,1,80,0,0
171244,-66.6666666666667,4,2,1,80,0,0
171421,-66.6666666666667,4,2,3,80,0,0
171508,-66.6666666666667,4,2,1,80,0,0
171597,-66.6666666666667,4,2,1,80,0,0
171774,-66.6666666666667,4,2,3,80,0,0
171861,-66.6666666666667,4,2,1,80,0,0
171950,-66.6666666666667,4,2,1,80,0,0
172127,-66.6666666666667,4,2,3,80,0,0
172214,-66.6666666666667,4,2,1,80,0,0
172303,-66.6666666666667,4,2,1,80,0,0
172480,-66.6666666666667,4,2,1,80,0,0
172656,-66.6666666666667,4,2,1,80,0,0
172833,-66.6666666666667,4,2,1,80,0,0
173009,-66.6666666666667,4,2,1,80,0,0
173185,-66.6666666666667,4,2,3,80,0,0
173273,-66.6666666666667,4,2,1,80,0,0
173362,-66.6666666666667,4,2,1,80,0,0
173538,-66.6666666666667,4,2,3,80,0,0
173626,-66.6666666666667,4,2,1,80,0,0
173715,-66.6666666666667,4,2,1,80,0,0
173891,-66.6666666666667,4,2,3,80,0,0
173979,-66.6666666666667,4,2,1,80,0,0
174068,-66.6666666666667,4,2,1,80,0,0
174244,-66.6666666666667,4,2,1,80,0,0
174421,-66.6666666666667,4,2,1,80,0,0
174598,-66.6666666666667,4,2,1,80,0,0
174774,-66.6666666666667,4,2,1,80,0,0
174950,-100,4,2,3,80,0,0
175038,-100,4,2,1,80,0,0
175127,-100,4,2,1,80,0,0
175304,-100,4,2,1,80,0,0
175479,-100,4,2,1,80,0,0
175656,-80,4,2,3,80,0,0
175743,-80,4,2,1,80,0,0
175832,-80,4,2,1,80,0,0
176009,-80,4,2,1,80,0,0
176185,-80,4,2,1,80,0,0
176362,-66.6666666666667,4,2,3,80,0,0
176449,-66.6666666666667,4,2,1,80,0,0
176538,-66.6666666666667,4,2,1,80,0,0
176715,-66.6666666666667,4,2,1,80,0,0
176891,-66.6666666666667,4,2,1,80,0,0
177068,-66.6666666666667,4,2,1,80,0,0
177244,-66.6666666666667,4,2,1,80,0,0
177421,-66.6666666666667,4,2,3,80,0,0
177508,-66.6666666666667,4,2,1,80,0,0
177598,-66.6666666666667,4,2,1,80,0,0
177774,-66.6666666666667,4,2,3,80,0,0
177861,-66.6666666666667,4,2,1,80,0,0
177950,-66.6666666666667,4,2,1,80,0,0
178127,-66.6666666666667,4,2,1,80,0,0
178303,-66.6666666666667,4,2,1,80,0,0
178480,-66.6666666666667,4,2,1,80,0,0
178656,-66.6666666666667,4,2,1,80,0,0
178833,-66.6666666666667,4,2,1,80,0,0
179009,-66.6666666666667,4,2,1,80,0,0
179186,-66.6666666666667,4,2,1,80,0,0
179362,-66.6666666666667,4,2,1,80,0,0
179539,-66.6666666666667,4,2,1,80,0,0
179715,-66.6666666666667,4,2,1,80,0,0
179892,-66.6666666666667,4,2,1,80,0,0
180068,-66.6666666666667,4,2,1,80,0,0
180245,-66.6666666666667,4,2,1,80,0,0
180421,-66.6666666666667,4,2,1,80,0,0
180598,-66.6666666666667,4,2,1,80,0,0
180774,-66.6666666666667,4,2,1,80,0,0
180951,-66.6666666666667,4,2,1,80,0,0
181127,-66.6666666666667,4,2,1,80,0,0
181304,-66.6666666666667,4,2,1,80,0,0
181479,-66.6666666666667,4,2,1,80,0,0
181656,-66.6666666666667,4,2,1,80,0,0
181832,-66.6666666666667,4,2,1,80,0,0
182009,-66.6666666666667,4,2,3,80,0,0
182097,-66.6666666666667,4,2,1,80,0,0
182185,-66.6666666666667,4,2,1,80,0,0
182362,-66.6666666666667,4,2,1,80,0,0
182538,-66.6666666666667,4,2,1,80,0,0
182715,-66.6666666666667,4,2,1,80,0,0
182803,-66.6666666666667,4,2,1,80,0,0
182891,-100,4,2,1,80,0,0
183068,-80,4,2,1,80,0,0
183244,-66.6666666666667,4,2,1,80,0,0
183421,-57.1428571428571,4,2,1,80,0,0
183597,-133.333333333333,4,2,1,60,0,0

[Colours]
Combo1 : 192,192,192
Combo2 : 128,128,128

[HitObjects]
44,152,1127,6,0,P|76:188|148:163,1,112.5,2|0,0:0|0:0,0:0:0:0:
159,161,1480,1,2,0:0:0:0:
159,161,1832,1,2,0:0:0:0:
203,230,2009,1,2,0:0:0:0:
299,147,2185,2,0,L|287:15,1,112.5,2|0,0:0|0:0,0:0:0:0:
286,8,2538,1,2,0:0:0:0:
376,14,2715,1,2,0:0:0:0:
433,83,2891,1,2,0:0:0:0:
236,310,3244,6,0,L|147:315,1,74.9999999999999,2|0,0:0|0:0,0:0:0:0:
35,364,3597,2,0,P|3:326|15:251,1,112.5,2|0,0:0|0:0,0:0:0:0:
18,242,3950,1,2,0:0:0:0:
253,338,4303,2,0,L|369:331,1,112.5,2|0,0:0|0:0,0:0:0:0:
383,351,4656,2,0,P|425:314|409:231,1,112.5,2|0,0:0|0:0,0:0:0:0:
411,239,5009,1,2,0:0:0:0:
331,197,5185,1,2,0:0:0:0:
376,77,5362,1,2,0:0:0:0:
376,77,5715,2,0,L|263:83,1,112.5,2|0,0:0|0:0,0:0:0:0:
237,84,6068,1,0,0:0:0:0:
102,73,6244,5,2,0:0:0:0:
102,73,6421,1,2,0:0:0:0:
7,173,6597,1,2,0:0:0:0:
65,241,6774,1,2,0:0:0:0:
148,207,6950,1,2,0:0:0:0:
108,348,7127,6,0,P|56:360|1:332,1,112.5,2|0,0:0|0:0,0:0:0:0:
6,309,7479,1,2,0:0:0:0:
65,241,7656,1,2,0:0:0:0:
121,336,7832,2,0,L|235:357,1,112.5,2|0,0:0|0:0,0:0:0:0:
257,349,8185,1,2,0:0:0:0:
347,269,8362,1,2,0:0:0:0:
274,173,8538,1,2,0:0:0:0:
489,318,8891,6,0,P|425:298|401:306,1,75,2|0,0:0|0:0,0:0:0:0:
257,349,9244,2,0,P|212:316|235:237,1,112.5,2|0,0:0|0:0,0:0:0:0:
221,238,9597,1,2,0:0:0:0:
432,161,9950,2,0,L|425:48,1,112.5,2|0,0:0|0:0,0:0:0:0:
410,27,10303,2,0,P|373:82|319:81,1,112.5,2|0,0:0|0:0,0:0:0:0:
306,76,10656,1,2,0:0:0:0:
218,56,10832,1,2,0:0:0:0:
243,142,11009,1,2,0:0:0:0:
30,308,11362,6,0,B|131:313|131:313|147:323|147:323|266:329,3,225.000008583069,6|6|6|6,3:2|3:2|3:2|3:2,0:0:0:0:
251,328,12774,2,0,P|278:279|271:225,1,112.500004291535,6|0,3:2|0:0,0:0:0:0:
49,204,13127,2,0,P|22:252|29:307,1,112.500004291535,6|0,3:2|0:0,0:0:0:0:
270,224,13479,2,0,B|57:282,1,168.750006437302,6|0,3:2|0:0,0:0:0:0:
172,213,13832,2,0,P|198:164|191:109,1,112.500004291535,6|0,3:2|0:0,0:0:0:0:
354,66,14185,5,6,3:2:0:0:
191,109,14362,1,0,3:2:0:0:
354,66,14538,1,6,3:2:0:0:
191,109,14715,1,0,3:2:0:0:
350,229,14891,5,6,3:2:0:0:
350,229,14979,1,0,3:2:0:0:
350,229,15068,1,0,3:2:0:0:
350,229,15156,1,0,3:2:0:0:
380,252,15244,5,6,3:2:0:0:
391,304,15332,1,0,3:2:0:0:
356,345,15420,1,0,3:2:0:0:
302,340,15508,1,0,3:2:0:0:
284,335,15597,6,0,P|232:278|269:193,1,150,2|2,0:0|0:0,0:0:0:0:
443,22,16303,2,0,P|495:79|458:164,1,150,2|2,0:0|0:0,0:0:0:0:
317,155,16832,1,2,0:0:0:0:
317,155,16921,1,2,0:0:0:0:
317,155,17009,6,0,P|214:178|178:154,1,140.625,6|0,3:2|0:0,0:0:0:0:
174,145,17362,1,10,3:2:0:0:
123,55,17538,1,0,0:0:0:0:
15,251,17715,2,0,P|118:228|154:252,1,140.625,2|2,3:2|0:0,0:0:0:0:
163,230,18068,2,0,L|177:313,1,46.875,8|0,3:2|0:0,0:0:0:0:
235,367,18244,2,0,L|351:356,1,93.75,2|0,0:0|3:2,0:0:0:0:
451,251,18597,6,0,B|459:231|459:231|458:204,1,46.875
386,170,18774,2,0,B|378:190|378:190|378:216,1,46.875,10|0,3:2|0:0,0:0:0:0:
454,274,18950,1,2,0:0:0:0:
408,362,19127,1,2,3:2:0:0:
408,362,19303,1,2,0:0:0:0:
282,323,19479,1,10,3:2:0:0:
282,323,19656,2,0,L|274:276,1,46.875,2|2,0:0|0:0,0:0:0:0:
258,172,19832,5,2,3:2:0:0:
67,166,20009,1,2,0:0:0:0:
67,166,20097,1,2,0:0:0:0:
67,166,20185,2,0,P|122:106|203:112,1,168.750006437302,10|0,3:2|0:0,0:0:0:0:
258,172,20538,2,0,L|362:166,1,93.75,2|0,3:2|0:0,0:0:0:0:
419,210,20803,2,0,L|431:164,1,46.875,2|8,0:0|3:2,0:0:0:0:
313,18,21068,1,2,0:0:0:0:
487,86,21244,1,0,3:2:0:0:
404,48,21421,5,2,0:0:0:0:
404,48,21597,2,0,L|391:93,1,46.875,10|0,3:2|0:0,0:0:0:0:
419,210,21774,2,0,L|431:164,1,46.875,2|0,0:0|0:0,0:0:0:0:
390,93,21950,1,2,3:2:0:0:
493,259,22127,6,0,P|483:234|457:229,1,56.2500021457673,8|0,0:0|0:0,0:0:0:0:
238,254,22303,2,0,B|210:302|255:334|255:334|365:318,1,168.750006437302,8|0,3:2|0:0,0:0:0:0:
418,319,22656,5,6,3:2:0:0:
418,319,22744,1,2,0:0:0:0:
418,319,22832,1,2,0:0:0:0:
214,239,23009,2,0,B|136:215|144:320|127:216|54:261,1,168.750006437302,10|0,3:2|0:0,0:0:0:0:
84,343,23362,2,0,B|74:378|74:378|183:336,1,140.625,2|2,3:2|0:0,0:0:0:0:
201,328,23715,2,0,P|211:300|206:269,1,46.875,8|0,3:2|0:0,0:0:0:0:
130,204,23891,2,0,L|119:100,1,93.75,2|0,0:0|3:2,0:0:0:0:
307,131,24244,6,0,B|327:142|327:142|351:138,1,46.875
391,69,24421,2,0,B|371:58|371:58|346:61,1,46.875,10|0,3:2|0:0,0:0:0:0:
284,130,24597,1,2,0:0:0:0:
371,257,24774,1,2,3:2:0:0:
371,257,24950,1,2,0:0:0:0:
492,207,25127,1,10,3:2:0:0:
492,207,25303,2,0,P|459:187|442:193,1,46.875,2|2,0:0|0:0,0:0:0:0:
371,257,25479,5,2,3:2:0:0:
188,354,25656,1,2,0:0:0:0:
188,354,25744,1,2,0:0:0:0:
188,354,25832,2,0,B|142:372|142:372|110:359|110:359|81:375|81:375|30:363,1,168.750006437302,10|0,3:2|0:0,0:0:0:0:
4,287,26185,2,0,L|17:187,1,93.75,2|0,3:2|0:0,0:0:0:0:
5,114,26450,2,0,L|62:100,1,46.875,2|8,0:0|3:2,0:0:0:0:
226,37,26715,1,2,0:0:0:0:
146,206,26891,5,0,3:2:0:0:
158,115,27068,1,2,0:0:0:0:
158,115,27244,2,0,L|226:136,1,46.875,2|0,3:2|0:0,0:0:0:0:
226,125,27421,2,0,L|270:111,1,46.875,2|0,0:0|0:0,0:0:0:0:
294,110,27597,2,0,L|362:131,1,46.875,2|0,3:2|0:0,0:0:0:0:
361,130,27774,1,2,0:0:0:0:
465,38,27950,1,2,0:0:0:0:
438,270,28127,5,2,0:0:0:0:
438,270,28303,2,0,P|417:303|428:265,1,112.500004291535,6|0,3:2|0:0,0:0:0:0:
201,283,33950,6,0,P|157:296|67:233,1,150,2|2,3:2|0:0,0:0:0:0:
51,155,34479,1,2,3:2:0:0:
51,155,34656,2,0,L|41:70,2,75,2|0|2,3:2|0:0|0:0,0:0:0:0:
189,30,35185,2,0,L|114:21,1,75,2|2,3:2|0:0,0:0:0:0:
133,109,35538,1,0,3:2:0:0:
307,168,35715,5,2,0:0:0:0:
419,147,35891,1,0,3:2:0:0:
419,147,36068,2,0,P|439:204|418:254,1,112.5,2|0,3:2|0:0,0:0:0:0:
401,267,36421,2,0,L|377:265,6,18.75,2|0|0|0|0|0|0,0:0|0:0|0:0|0:0|0:0|0:0|0:0,0:0:0:0:
334,341,36774,5,2,3:2:0:0:
334,341,37127,1,2,0:0:0:0:
247,363,37303,1,2,3:2:0:0:
203,235,37479,1,2,3:2:0:0:
274,289,37656,1,2,0:0:0:0:
162,384,37832,1,0,0:0:0:0:
247,363,38009,5,8,3:2:0:0:
240,345,38097,1,8,2:2:0:0:
241,326,38185,1,2,3:2:0:0:
365,131,38362,2,0,L|360:231,1,93.75,12|0,0:0|3:2,0:0:0:0:
356,341,38715,1,2,0:0:0:0:
448,328,38891,1,6,3:2:0:0:
268,237,39068,6,0,L|239:226,2,23.4375,2|0|0,0:0|0:0|0:0,0:0:0:0:
360,224,39244,1,10,3:2:0:0:
360,224,39332,1,2,0:0:0:0:
360,224,39421,1,2,0:0:0:0:
360,224,39509,1,2,0:0:0:0:
360,224,39597,5,6,3:2:0:0:
323,322,39774,1,2,0:0:0:0:
237,261,39950,1,10,3:2:0:0:
200,359,40127,1,2,0:0:0:0:
96,250,40303,2,0,P|83:295|90:334,1,75,2|2,3:2|0:0,0:0:0:0:
22,185,40656,1,10,3:2:0:0:
164,139,40832,2,0,P|166:101|154:66,1,75,2|0,0:0|3:2,0:0:0:0:
12,15,41185,1,2,0:0:0:0:
22,185,41362,1,10,3:2:0:0:
265,254,41715,2,0,L|346:270,1,75,2|0,3:2|0:0,0:0:0:0:
435,211,42068,2,0,L|467:215,2,18.75,8|0|0,3:2|0:0|0:0,0:0:0:0:
410,201,42244,2,0,L|401:153,1,37.5,2|0,0:0|0:0,0:0:0:0:
394,46,42421,5,2,3:2:0:0:
394,46,42597,1,2,0:0:0:0:
254,16,42774,1,10,3:2:0:0:
292,152,42950,1,2,0:0:0:0:
152,122,43127,1,2,3:2:0:0:
152,122,43303,1,2,0:0:0:0:
295,244,43479,1,10,3:2:0:0:
295,244,43656,2,0,L|369:237,1,75,2|0,0:0|3:2,0:0:0:0:
468,259,44009,1,2,0:0:0:0:
366,332,44185,2,0,L|272:340,1,75,10|0,3:2|0:0,0:0:0:0:
140,356,44538,1,2,3:2:0:0:
140,356,44715,2,0,P|148:339|154:321,1,37.5,8|0,0:0|0:0,0:0:0:0:
162,240,44891,2,0,P|156:222|147:205,1,37.5,8|0,3:2|0:0,0:0:0:0:
160,126,45068,5,0,0:0:0:0:
37,212,45244,1,4,3:2:0:0:
37,212,45421,1,2,0:0:0:0:
153,321,45597,1,10,3:2:0:0:
160,126,45774,1,2,0:0:0:0:
276,235,45950,1,2,3:2:0:0:
276,235,46127,1,2,0:0:0:0:
417,179,46303,1,10,3:2:0:0:
417,179,46479,2,0,L|327:167,1,75,2|0,0:0|3:2,0:0:0:0:
220,81,46832,1,0,0:0:0:0:
347,0,47009,1,10,3:2:0:0:
228,269,47362,2,0,L|134:286,1,75,2|0,3:2|0:0,0:0:0:0:
60,329,47715,2,0,L|52:301,2,18.75,8|0|0,3:2|0:0|0:0,0:0:0:0:
38,345,47891,6,0,L|28:394,1,37.5,2|0,0:0|0:0,0:0:0:0:
134,353,48068,1,2,3:2:0:0:
56,270,48244,1,2,0:0:0:0:
138,192,48421,1,10,3:2:0:0:
56,114,48597,1,2,0:0:0:0:
56,114,48774,1,2,3:2:0:0:
199,68,48950,2,0,L|188:147,1,56.2500021457673,2|0,0:0|0:0,0:0:0:0:
28,256,49127,2,0,P|55:269|85:266,1,56.2500021457673,10|0,3:2|0:0,0:0:0:0:
94,179,49303,2,0,P|68:167|38:170,1,56.2500021457673,2|0,0:0|0:0,0:0:0:0:
135,345,49479,1,0,3:2:0:0:
135,345,49656,6,0,L|196:334,1,37.5,2|0,0:0|0:0,0:0:0:0:
243,361,49832,1,10,3:2:0:0:
255,347,49921,1,0,0:0:0:0:
258,328,50009,1,0,0:0:0:0:
400,127,50185,1,6,3:2:0:0:
400,127,50538,6,0,P|446:161|423:216,1,112.5,2|0,0:0|0:0,0:0:0:0:
369,255,50891,2,0,P|329:213|189:192,1,168.750006437302,6|0,3:2|0:0,0:0:0:0:
145,216,51244,1,10,0:2:0:0:
34,87,51421,1,2,3:2:0:0:
34,87,51597,2,0,L|124:74,1,56.2500021457673,2|0,3:2|0:0,0:0:0:0:
145,14,51774,1,2,0:0:0:0:
173,10,51862,1,2,3:2:0:0:
201,7,51950,1,10,0:2:0:0:
361,129,52127,1,2,3:2:0:0:
61,223,52479,5,0,3:2:0:0:
348,360,52832,1,0,3:2:0:0:
348,360,53009,2,0,L|411:357,2,56.2500021457673,2|0|8,3:2|0:0|0:2,0:0:0:0:
270,384,53362,1,10,0:2:0:0:
470,313,53538,1,0,3:2:0:0:
317,146,53715,1,2,3:2:0:0:
317,146,54068,6,0,L|308:215,1,37.5,10|0,0:2|0:0,0:0:0:0:
385,84,54244,2,0,L|389:46,1,37.5,2|0,3:2|0:0,0:0:0:0:
317,146,54421,2,0,P|265:119|198:136,1,112.500004291535,2|0,3:2|0:0,0:0:0:0:
139,100,54685,2,0,P|140:158|152:174,1,56.2500021457673,0|10,3:2|0:2,0:0:0:0:
206,313,54950,2,0,P|280:351|377:326,1,168.750006437302,2|0,3:2|0:0,0:0:0:0:
437,363,55303,2,0,P|436:305|424:289,1,56.2500021457673,2|0,3:2|0:0,0:0:0:0:
389,239,55479,1,10,0:2:0:0:
512,140,55656,1,2,3:2:0:0:
369,73,55832,1,2,3:2:0:0:
369,73,56009,1,8,0:2:0:0:
369,73,56185,1,10,0:2:0:0:
115,349,56538,6,0,P|61:314|82:215,1,140.625,6|0,3:2|0:0,0:0:0:0:
79,218,56891,1,10,3:2:0:0:
192,171,57068,1,2,0:0:0:0:
192,171,57244,2,0,P|209:141|199:101,1,46.875,2|0,3:2|0:0,0:0:0:0:
185,38,57421,1,2,0:0:0:0:
161,35,57509,1,2,0:0:0:0:
137,30,57597,1,10,3:2:0:0:
0,65,57774,2,0,P|4:87|18:106,1,46.875,2|0,0:0|0:0,0:0:0:0:
79,218,57950,2,0,L|91:341,1,93.75,2|0,3:2|0:0,0:0:0:0:
268,364,58303,6,0,P|352:365|417:314,1,140.625,10|0,3:2|0:0,0:0:0:0:
414,307,58656,2,0,L|410:210,1,93.75,2|8,3:2|0:0,0:0:0:0:
415,25,59009,2,0,P|331:24|266:75,1,140.625,10|0,3:2|0:0,0:0:0:0:
248,129,59362,2,0,L|252:226,1,93.75,2|0,3:2|0:0,0:0:0:0:
410,213,59715,5,10,3:2:0:0:
508,26,59891,1,2,0:0:0:0:
415,25,60068,2,0,P|331:24|266:75,1,140.625,2|0,3:2|0:0,0:0:0:0:
269,82,60421,1,10,3:2:0:0:
410,213,60597,2,0,L|224:187,1,168.750006437302,2|0,3:2|0:0,0:0:0:0:
164,178,60950,5,10,3:2:0:0:
48,105,61127,2,0,L|35:13,1,75,10|0,3:2|0:0,0:0:0:0:
161,0,61303,2,0,L|171:74,1,75,10|0,3:2|0:0,0:0:0:0:
73,263,61479,1,14,3:2:0:0:
73,263,61832,6,0,P|91:299|131:301,1,84.3750032186509,2|0,0:0|0:0,0:0:0:0:
66,338,62185,2,0,P|145:269|246:291,1,168.750006437302,6|0,3:2|0:0,0:0:0:0:
257,328,62538,2,0,B|306:355|306:355|356:328,1,112.500004291535,10|0,3:2|0:0,0:0:0:0:
491,145,62891,1,2,3:2:0:0:
326,105,63068,1,2,0:3:0:0:
491,145,63244,1,10,3:2:0:0:
361,183,63421,1,2,0:3:0:0:
495,63,63597,1,2,3:2:0:0:
361,183,63774,1,2,0:3:0:0:
204,94,63950,2,0,L|37:65,1,168.750006437302,10|0,3:2|0:0,0:0:0:0:
66,91,64303,2,0,P|34:136|53:196,1,112.500004291535,2|2,3:2|0:3,0:0:0:0:
104,257,64656,5,10,3:2:0:0:
104,257,64832,1,2,0:3:0:0:
270,286,65009,2,0,P|302:241|283:181,1,112.500004291535,2|2,3:2|0:3,0:0:0:0:
289,188,65362,2,0,L|232:195,1,56.2500021457673,10|0,3:2|0:0,0:0:0:0:
72,9,65538,2,0,P|33:64|117:154,1,168.750006437302,2|0,0:3|0:0,0:0:0:0:
151,119,65891,2,0,B|199:114|199:114|212:118|212:118|263:112,1,112.500004291535,2|8,0:3|3:2,0:0:0:0:
415,35,66244,1,2,0:3:0:0:
415,35,66421,2,0,P|488:44|475:139,1,168.750006437302,0|0,3:2|0:0,0:0:0:0:
464,153,66774,2,0,L|409:144,3,56.2500021457673,8|0|2|0,3:2|0:0|0:3|0:0,0:0:0:0:
492,228,67127,6,0,B|502:254|502:254|491:281,1,56.2500021457673,2|0,3:2|0:0,0:0:0:0:
477,317,67303,1,2,0:3:0:0:
405,349,67479,1,10,3:2:0:0:
335,311,67656,1,2,0:3:0:0:
390,89,67832,5,6,3:2:0:0:
310,118,68009,1,2,0:3:0:0:
409,8,68185,1,10,3:2:0:0:
461,135,68362,1,2,0:3:0:0:
310,118,68538,2,0,L|139:97,1,168.750006437302,2|0,3:2|0:0,0:0:0:0:
111,72,68891,2,0,L|102:127,1,56.2500021457673,10|0,3:2|0:0,0:0:0:0:
140,203,69068,1,2,0:3:0:0:
67,339,69244,1,2,3:2:0:0:
20,145,69421,1,2,0:3:0:0:
230,191,69597,2,0,L|397:211,1,168.750006437302,10|0,3:2|0:0,0:0:0:0:
487,138,69950,6,0,P|523:97|512:44,1,112.500004291535,2|2,3:2|0:3,0:0:0:0:
230,191,70303,2,0,P|193:231|204:284,1,112.500004291535,10|2,3:2|0:3,0:0:0:0:
501,215,70656,2,0,B|447:232|447:232|396:207,2,112.500004291535,2|2|8,3:2|0:3|3:2,0:0:0:0:
382,19,71185,1,2,0:3:0:0:
501,215,71362,2,0,B|512:205|512:205|521:125|435:98,1,131.250001251698,2|2,3:2|0:3,0:0:0:0:
273,48,71715,1,8,3:2:0:0:
273,48,71891,6,0,P|246:99|279:155,2,112.500004291535,2|2|2,0:3|3:2|0:3,0:0:0:0:
408,61,72421,1,8,3:2:0:0:
408,61,72597,2,0,P|427:111|400:159,1,112.500004291535,2|2,0:3|3:2,0:0:0:0:
399,159,72950,1,2,0:3:0:0:
248,249,73127,5,10,3:2:0:0:
143,89,73303,1,2,0:3:0:0:
265,261,73479,2,0,L|462:247,1,168.750006437302,6|0,3:2|0:0,0:0:0:0:
487,191,73832,2,0,P|512:239|497:295,1,112.500004291535,10|2,3:2|0:3,0:0:0:0:
304,334,74185,1,2,3:2:0:0:
250,173,74362,1,2,0:3:0:0:
304,334,74538,1,10,3:2:0:0:
203,244,74715,1,2,0:3:0:0:
376,294,74891,1,2,3:2:0:0:
203,244,75068,1,2,0:3:0:0:
69,364,75244,2,0,P|5:316|11:235,1,168.750006437302,10|0,3:2|0:0,0:0:0:0:
50,225,75597,2,0,L|68:102,1,112.500004291535,2|2,3:2|0:3,0:0:0:0:
33,41,75950,5,10,3:2:0:0:
165,163,76127,2,0,P|219:149|233:114,2,75,2|0|2,0:3|3:2|0:3,0:0:0:0:
33,41,76656,5,10,3:2:0:0:
244,154,76832,2,0,P|304:113|306:64,2,93.75,2|0|2,0:3|3:2|0:3,0:0:0:0:
33,41,77362,5,10,3:2:0:0:
329,104,77538,2,0,P|372:45|357:-1,2,112.500004291535,2|0|2,0:3|3:2|0:3,0:0:0:0:
381,169,78068,6,0,P|328:114|217:100,1,168.750006437302,10|0,3:2|0:0,0:0:0:0:
174,50,78421,2,0,P|162:76|161:104,1,56.2500021457673,2|0,3:2|0:0,0:0:0:0:
208,166,78597,1,2,0:3:0:0:
210,330,78774,1,10,3:2:0:0:
210,330,78950,1,2,0:3:0:0:
7,230,79127,6,0,B|-21:190|21:155|21:155|135:191,1,168.750006437302,6|0,3:2|0:0,0:0:0:0:
135,196,79479,2,0,B|128:258|95:233|90:296,1,112.500004291535,10|2,3:2|0:3,0:0:0:0:
210,330,79832,2,0,L|338:313,1,112.500004291535,2|2,3:2|0:3,0:0:0:0:
425,146,80185,2,0,P|461:131|503:232,1,168.750006437302,10|0,3:2|0:0,0:0:0:0:
491,256,80538,2,0,B|396:268|440:203|333:217,1,168.750006437302,2|0,3:2|0:0,0:0:0:0:
259,188,80891,2,0,P|206:141|268:46,1,168.750006437302,10|0,3:2|0:0,0:0:0:0:
216,22,81244,2,0,L|344:5,1,112.500004291535,2|2,3:2|0:3,0:0:0:0:
485,0,81597,2,0,L|463:210,1,168.750006437302,10|0,3:2|0:0,0:0:0:0:
461,207,81950,5,6,3:2:0:0:
51,177,82303,1,6,3:2:0:0:
345,377,82656,1,6,3:2:0:0:
166,6,83009,1,6,3:2:0:0:
140,362,83362,1,6,3:2:0:0:
371,21,83715,5,6,3:2:0:0:
249,199,84068,2,0,L|190:191,1,56.2500021457673,2|0,3:2|0:0,0:0:0:0:
263,185,84244,2,0,L|322:193,1,56.2500021457673,2|0,3:2|0:0,0:0:0:0:
256,277,84421,5,2,0:0:0:0:
256,237,84509,1,2,0:0:0:0:
256,198,84597,1,2,0:0:0:0:
256,158,84685,1,2,0:0:0:0:
256,119,84773,1,6,3:2:0:0:
85,228,89891,5,8,0:0:0:0:
85,228,90068,2,0,B|137:280|286:261|214:157|160:273,1,225.000008583069,8|6,3:2|3:2,0:0:0:0:
112,135,96068,6,0,P|122:183|105:216,1,75,6|2,3:2|0:0,0:0:0:0:
90,235,96421,2,0,L|15:228,1,75,2|2,3:2|0:0,0:0:0:0:
12,46,96774,2,0,L|87:53,1,75,2|2,3:2|0:0,0:0:0:0:
112,135,97127,2,0,L|187:128,2,75,2|2|0,3:2|0:0|3:2,0:0:0:0:
90,235,97656,1,2,0:0:0:0:
90,235,97832,2,0,P|79:270|90:305,1,75,2|0,3:2|0:0,0:0:0:0:
161,360,98185,1,2,3:2:0:0:
323,281,98538,1,0,3:2:0:0:
270,207,98715,5,2,0:0:0:0:
270,207,98891,2,0,L|277:132,1,75,2|2,3:2|0:0,0:0:0:0:
257,99,99244,2,0,P|291:84|328:87,1,75,2|2,3:2|0:0,0:0:0:0:
402,268,99597,2,0,P|367:282|330:279,1,75,2|2,3:2|0:0,0:0:0:0:
270,207,99950,2,0,P|232:203|198:218,2,75,2|2|0,3:2|0:0|3:2,0:0:0:0:
330,279,100479,1,2,0:0:0:0:
330,279,100656,2,0,L|337:354,1,75,2|0,3:2|0:0,0:0:0:0:
168,288,101009,2,0,L|161:213,1,75,2|0,3:2|0:0,0:0:0:0:
163,40,101362,1,0,3:2:0:0:
137,125,101538,5,2,0:0:0:0:
256,192,101715,1,6,3:2:0:0:
256,192,101891,1,2,0:0:0:0:
256,192,102068,1,2,3:2:0:0:
256,192,102244,1,2,0:0:0:0:
256,223,102421,1,2,3:2:0:0:
224,192,102597,1,2,0:0:0:0:
256,160,102774,1,2,3:2:0:0:
287,192,102950,2,0,L|417:208,1,112.5,2|0,0:0|0:0,0:0:0:0:
436,210,103303,1,2,0:0:0:0:
507,286,103479,2,0,P|479:339|452:344,1,75,2|0,3:2|0:0,0:0:0:0:
384,375,103832,2,0,L|220:355,1,150,2|0,3:2|3:2,0:0:0:0:
130,343,104362,5,2,0:0:0:0:
55,213,104538,1,2,3:2:0:0:
51,190,104715,1,2,0:0:0:0:
47,167,104891,1,2,3:2:0:0:
43,144,105068,1,2,0:0:0:0:
39,121,105244,1,2,3:2:0:0:
190,96,105421,1,2,0:0:0:0:
35,98,105597,1,2,3:2:0:0:
31,75,105774,2,0,L|113:84,1,75,2|0,0:0|0:0,0:0:0:0:
109,254,106127,5,2,0:0:0:0:
154,184,106303,2,0,L|286:164,1,112.5,2|0,0:0|0:0,0:0:0:0:
290,159,106656,2,0,P|329:208|327:268,1,112.5,2|0,0:0|0:0,0:0:0:0:
253,290,107009,2,0,P|194:328|78:295,1,168.750006437302,2|0,0:0|0:0,0:0:0:0:
67,317,107362,6,0,L|44:206,2,93.75,6|0|8,3:2|0:0|3:2,0:0:0:0:
167,237,107891,1,2,0:0:0:0:
167,237,108068,2,0,P|208:180|202:128,1,93.75,2|0,3:2|0:0,0:0:0:0:
197,128,108332,2,0,L|131:109,1,46.875,2|8,0:0|3:2,0:0:0:0:
32,91,108597,2,0,L|12:0,1,93.75,2|0,0:0|3:2,0:0:0:0:
153,97,108950,5,2,0:0:0:0:
251,66,109127,1,10,3:2:0:0:
375,138,109303,1,2,0:0:0:0:
409,330,109479,1,2,3:2:0:0:
450,256,109656,2,0,L|476:247,2,23.4375,2|0|0,0:0|0:0|0:0,0:0:0:0:
409,330,109832,2,0,L|342:339,1,46.875,8|0,3:2|0:0,0:0:0:0:
289,381,110009,2,0,P|280:359|278:335,1,46.875,2|0,0:0|0:0,0:0:0:0:
319,262,110185,5,2,3:2:0:0:
450,256,110362,1,2,0:0:0:0:
296,178,110538,1,10,3:2:0:0:
296,178,110715,2,0,L|203:169,1,93.75,2|0,0:0|3:0,0:0:0:0:
128,128,111068,1,2,0:0:0:0:
128,212,111244,1,10,3:2:0:0:
202,168,111421,1,2,0:0:0:0:
450,36,111774,1,2,0:0:0:0:
447,176,111950,1,10,3:2:0:0:
328,99,112127,1,2,0:0:0:0:
450,36,112303,1,2,3:2:0:0:
447,176,112479,1,8,0:0:0:0:
447,176,112656,6,0,P|475:258|449:345,1,168.750006437302,10|0,3:2|0:0,0:0:0:0:
384,296,113009,2,0,L|271:287,2,93.75,6|0|8,3:2|0:0|3:2,0:0:0:0:
455,334,113538,1,2,0:0:0:0:
271,310,113715,2,0,L|177:317,1,93.75,2|0,3:2|0:0,0:0:0:0:
153,339,113979,2,0,L|133:291,1,46.875,2|8,0:0|3:2,0:0:0:0:
8,233,114244,2,0,P|4:181|35:145,1,93.75,2|0,0:0|3:2,0:0:0:0:
133,264,114597,5,2,0:0:0:0:
225,279,114774,1,10,3:2:0:0:
301,143,114950,1,2,0:0:0:0:
157,31,115127,1,2,3:2:0:0:
73,29,115303,2,0,P|72:40|75:52,2,23.4375
157,31,115479,2,0,L|234:37,1,46.875,10|0,3:2|0:0,0:0:0:0:
284,6,115656,2,0,P|289:41|283:67,1,46.875,2|0,0:0|0:0,0:0:0:0:
230,114,115832,5,2,3:2:0:0:
63,146,116009,1,2,0:0:0:0:
223,195,116185,1,10,3:2:0:0:
223,195,116362,2,0,L|327:192,1,93.75,2|0,0:0|3:2,0:0:0:0:
460,71,116715,2,0,P|495:125|477:210,1,140.625,2|0,0:0|0:0,0:0:0:0:
462,221,117068,2,0,L|452:282,2,46.875,2|0|0,0:0|0:0|3:0,0:0:0:0:
270,291,117421,5,10,0:0:0:0:
188,354,117597,1,10,3:2:0:0:
274,315,117774,5,10,3:2:0:0:
158,268,117950,1,10,3:2:0:0:
279,337,118127,5,10,3:2:0:0:
255,164,118303,1,10,3:2:0:0:
283,361,118479,5,10,3:2:0:0:
462,221,118655,1,14,3:2:0:0:
31,86,119009,5,14,3:2:0:0:
201,20,119185,1,2,0:0:0:0:
201,20,119362,2,0,L|191:109,1,46.875,2|0,3:2|0:0,0:0:0:0:
245,143,119538,1,2,0:0:0:0:
242,170,119626,1,2,0:0:0:0:
239,198,119714,1,10,3:2:0:0:
56,221,119891,2,0,L|61:165,1,46.875,2|0,0:0|0:0,0:0:0:0:
32,93,120068,2,0,P|89:92|133:124,1,93.75,2|0,3:2|0:0,0:0:0:0:
140,277,120421,6,0,L|295:295,1,140.625,10|0,3:2|0:0,0:0:0:0:
306,312,120774,2,0,L|299:187,1,93.75,2|8,3:2|0:0,0:0:0:0:
227,68,121127,2,0,L|387:49,1,140.625,10|0,3:2|0:0,0:0:0:0:
449,31,121479,2,0,L|443:134,1,93.75,2|0,3:2|0:0,0:0:0:0:
301,218,121832,5,10,3:2:0:0:
145,112,122009,1,2,0:0:0:0:
227,68,122185,2,0,L|387:49,1,140.625,2|0,3:2|0:0,0:0:0:0:
399,45,122538,1,10,3:2:0:0:
437,218,122715,2,0,P|364:232|292:213,1,140.625,2|0,0:0|0:0,0:0:0:0:
229,170,123068,2,0,P|217:190|216:215,1,46.875,2|0,0:0|0:0,0:0:0:0:
254,288,123244,1,10,3:2:0:0:
336,140,123421,1,2,0:0:0:0:
185,215,123597,2,0,L|73:228,1,93.75,2|8,3:2|0:0,0:0:0:0:
3,116,123950,6,0,P|6:37|72:34,1,140.625,10|0,3:2|0:0,0:0:0:0:
138,12,124303,2,0,L|122:209,1,168.750006437302,6|0,3:2|0:0,0:0:0:0:
115,264,124656,1,10,3:2:0:0:
219,357,124832,1,2,0:0:0:0:
219,357,125009,2,0,L|286:348,1,46.875,2|0,3:2|0:0,0:0:0:0:
309,284,125185,1,2,0:0:0:0:
332,281,125273,1,2,0:0:0:0:
355,278,125361,1,10,3:2:0:0:
435,139,125538,2,0,L|388:145,1,46.875,2|0,0:0|0:0,0:0:0:0:
294,150,125715,2,0,P|270:103|307:35,1,93.75,2|0,3:2|0:0,0:0:0:0:
458,118,126068,6,0,L|432:291,1,140.625,10|0,3:2|0:0,0:0:0:0:
454,285,126421,2,0,L|336:260,1,93.75,2|8,3:2|0:0,0:0:0:0:
174,274,126774,2,0,L|148:101,1,140.625,10|0,3:2|0:0,0:0:0:0:
151,49,127127,2,0,L|33:74,1,93.75,2|0,3:2|0:0,0:0:0:0:
11,229,127479,5,10,3:2:0:0:
144,359,127656,1,2,0:0:0:0:
174,274,127832,2,0,L|148:101,1,140.625,2|0,3:2|0:0,0:0:0:0:
148,102,128185,1,10,3:2:0:0:
11,229,128362,2,0,P|27:269|43:278,1,46.875,2|0,0:0|0:0,0:0:0:0:
144,359,128538,5,0,3:2:0:0:
174,274,128715,1,2,0:0:0:0:
174,274,128891,1,2,3:2:0:0:
174,274,129068,1,2,0:0:0:0:
174,274,129244,1,0,3:2:0:0:
448,153,129597,2,0,P|396:198|332:176,1,112.5,2|0,0:0|0:0,0:0:0:0:
278,206,129950,6,0,L|263:62,2,112.500004291535,6|2|8,3:2|0:3|3:2,0:0:0:0:
372,37,130479,1,2,0:3:0:0:
278,206,130656,2,0,P|212:184|167:187,1,93.75,2|2,3:2|0:3,0:0:0:0:
121,130,130921,1,2,0:0:0:0:
102,156,131009,2,0,L|109:220,1,46.875,8|0,3:2|0:0,0:0:0:0:
165,265,131185,2,0,L|153:373,1,93.75,2|0,0:3|3:2,0:0:0:0:
380,365,131538,5,2,0:3:0:0:
450,289,131715,2,0,L|446:227,1,46.875,10|0,3:2|0:0,0:0:0:0:
485,367,131891,1,2,0:3:0:0:
369,243,132068,2,0,B|365:217|365:217|368:206|368:206|365:181,1,56.2500021457673,2|0,3:2|0:0,0:0:0:0:
460,131,132244,6,0,L|501:137,2,37.5000014305115,10|2|2,0:0|0:2|0:2,0:0:0:0:
442,116,132421,2,0,L|395:109,1,46.875,10|0,3:2|0:0,0:0:0:0:
496,7,132597,2,0,B|503:29|503:29|496:51,1,46.875,2|0,0:3|0:0,0:0:0:0:
361,184,132774,5,2,3:2:0:0:
270,161,132950,1,2,0:3:0:0:
232,56,133127,1,10,3:2:0:0:
371,90,133303,2,0,L|359:198,1,93.75,2|0,0:3|3:2,0:0:0:0:
284,266,133656,1,2,0:3:0:0:
252,257,133744,1,2,0:0:0:0:
220,265,133832,1,10,3:2:0:0:
119,213,134009,2,0,L|129:306,1,93.75,2|0,0:3|3:2,0:0:0:0:
255,370,134362,5,2,0:3:0:0:
432,311,134538,1,8,3:2:0:0:
252,257,134715,1,2,0:3:0:0:
252,257,134891,2,0,L|246:194,1,46.875,0|0,3:2|0:0,0:0:0:0:
103,114,135068,2,0,P|140:126|184:116,1,56.2500021457673,10|0,0:2|0:0,0:0:0:0:
202,51,135244,2,0,B|211:36|211:36|148:-26|76:31,1,168.750006437302,8|0,0:2|0:0,0:0:0:0:
26,160,135597,6,0,L|38:258,2,93.75,6|2|8,3:2|0:3|3:2,0:0:0:0:
139,311,136127,1,2,0:3:0:0:
26,160,136303,2,0,P|70:189|127:171,1,93.75,2|2,3:2|0:3,0:0:0:0:
187,215,136568,1,2,0:0:0:0:
216,230,136656,2,0,L|223:174,1,46.875,8|0,3:2|0:0,0:0:0:0:
175,113,136832,2,0,L|158:-15,1,93.75,2|0,0:3|3:2,0:0:0:0:
351,26,137185,5,2,0:3:0:0:
455,89,137362,2,0,L|461:145,1,46.875,10|0,3:2|0:0,0:0:0:0:
446,9,137538,1,2,0:3:0:0:
344,136,137715,2,0,L|350:192,1,56.2500021457673,2|0,3:2|0:0,0:0:0:0:
417,251,137891,6,0,L|463:250,2,37.5000014305115,10|2|2,0:0|0:2|0:2,0:0:0:0:
395,267,138068,2,0,L|324:274,1,56.2500021457673,10|0,3:2|0:0,0:0:0:0:
459,384,138244,2,0,B|465:359|465:359|449:331,1,56.2500021457673,2|0,0:3|0:0,0:0:0:0:
349,191,138421,5,2,3:2:0:0:
444,150,138597,1,2,0:3:0:0:
404,0,138774,1,10,3:2:0:0:
242,80,138950,2,0,L|233:181,1,93.75,2|0,0:3|3:2,0:0:0:0:
61,298,139303,2,0,P|83:306|107:308,1,46.875,2|0,0:3|0:0,0:0:0:0:
125,226,139479,2,0,P|103:218|79:216,1,46.875,10|0,3:2|0:0,0:0:0:0:
160,377,139656,1,2,3:2:0:0:
160,377,140009,6,0,L|206:372,1,46.875,2|0,3:2|0:0,0:0:0:0:
416,228,140185,2,0,L|429:302,1,75,2|0,3:2|0:0,0:0:0:0:
297,360,140362,2,0,L|285:287,1,75,2|0,3:2|0:0,0:0:0:0:
508,224,140538,1,2,3:2:0:0:
4,160,141244,5,14,3:2:0:0:
256,192,146891,5,14,3:2:0:0:
96,314,152185,5,10,3:2:0:0:
96,314,152362,1,2,0:0:0:0:
96,314,152538,2,0,L|69:138,1,140.625,14|0,3:2|0:0,0:0:0:0:
69,149,152891,2,0,L|152:167,1,75,10|0,3:2|0:0,0:0:0:0:
238,183,153244,1,10,3:2:0:0:
238,183,153421,1,2,0:0:0:0:
274,64,153597,1,10,3:2:0:0:
274,64,153774,1,2,0:0:0:0:
365,97,153950,1,10,3:2:0:0:
365,97,154127,1,2,0:0:0:0:
365,97,154303,2,0,P|426:57|429:5,1,112.5,10|0,3:2|0:0,0:0:0:0:
407,14,154656,2,0,L|414:109,1,75,10|0,3:2|0:0,0:0:0:0:
462,214,155009,5,10,3:2:0:0:
392,271,155185,2,0,P|357:274|321:247,2,56.2500021457673,2|10|0,0:0|3:2|0:0,0:0:0:0:
462,214,155715,5,10,3:2:0:0:
321,282,155891,2,0,P|289:267|271:225,2,75,2|10|0,0:0|3:2|0:0,0:0:0:0:
462,214,156421,5,10,3:2:0:0:
249,241,156597,2,0,P|223:202|229:156,2,93.75,2|10|0,0:0|3:2|0:0,0:0:0:0:
344,358,157127,6,0,L|222:350,1,112.5,10|0,3:2|0:0,0:0:0:0:
205,348,157479,1,10,3:2:0:0:
126,374,157656,1,2,0:0:0:0:
48,347,157832,1,10,3:2:0:0:
24,267,158009,1,2,0:0:0:0:
51,81,158185,5,6,3:2:0:0:
51,81,158538,1,6,3:2:0:0:
51,81,158891,1,6,3:2:0:0:
51,81,159244,1,6,3:2:0:0:
358,220,159597,6,0,P|413:222|456:188,3,112.500004291535,6|0|0|0,3:2|3:2|3:2|3:2,0:0:0:0:
267,180,160303,5,0,3:2:0:0:
267,180,160391,1,0,3:2:0:0:
267,180,160480,1,0,3:2:0:0:
267,180,160568,1,0,3:2:0:0:
237,203,160656,5,2,3:2:0:0:
226,255,160744,1,0,3:2:0:0:
261,296,160832,1,0,3:2:0:0:
315,291,160920,1,0,3:2:0:0:
358,220,161009,5,2,0:0:0:0:
23,110,161362,6,0,B|6:87|6:87|67:-6|176:49,1,225,14|0,3:2|0:0,0:0:0:0:
220,131,161715,1,2,3:2:0:0:
91,240,161891,1,2,0:3:0:0:
220,131,162068,1,10,3:2:0:0:
185,234,162244,1,2,0:3:0:0:
220,131,162421,1,2,3:2:0:0:
91,240,162597,1,2,0:3:0:0:
249,297,162774,2,0,L|435:279,1,168.750006437302,10|0,3:2|0:0,0:0:0:0:
443,310,163127,2,0,P|471:263|457:210,1,112.500004291535,2|2,3:2|0:3,0:0:0:0:
402,139,163479,5,10,3:2:0:0:
402,139,163656,1,2,0:3:0:0:
237,102,163832,2,0,P|208:148|222:201,1,112.500004291535,2|2,3:2|0:3,0:0:0:0:
299,248,164185,2,0,L|371:242,1,56.2500021457673,10|0,3:2|0:0,0:0:0:0:
489,129,164362,2,0,P|503:76|409:10,1,168.750006437302,2|0,0:3|0:0,0:0:0:0:
364,57,164715,2,0,L|251:66,1,112.500004291535,2|8,0:3|3:2,0:0:0:0:
89,18,165068,1,2,0:3:0:0:
89,18,165244,2,0,L|110:218,1,168.750006437302,0|0,3:2|0:0,0:0:0:0:
82,217,165597,2,0,P|133:254|194:226,1,112.500004291535,8|2,3:2|0:3,0:0:0:0:
262,349,165950,5,2,3:2:0:0:
329,289,166127,1,2,0:3:0:0:
329,199,166303,1,10,3:2:0:0:
329,199,166479,1,2,0:3:0:0:
122,89,166656,5,6,3:2:0:0:
202,118,166833,1,2,0:3:0:0:
103,8,167009,1,10,3:2:0:0:
51,135,167186,1,2,0:3:0:0:
202,118,167362,2,0,L|373:97,1,168.750006437302,2|0,3:2|0:0,0:0:0:0:
401,72,167715,2,0,L|410:127,1,56.2500021457673,10|0,3:2|0:0,0:0:0:0:
372,203,167892,1,2,0:3:0:0:
445,339,168068,1,2,3:2:0:0:
492,145,168245,1,2,0:3:0:0:
282,191,168421,2,0,L|115:211,1,168.750006437302,10|0,3:2|0:0,0:0:0:0:
25,138,168774,6,0,P|-11:97|0:44,1,112.500004291535,2|2,3:2|0:3,0:0:0:0:
282,191,169127,2,0,P|319:231|308:284,1,112.500004291535,10|2,3:2|0:3,0:0:0:0:
90,338,169479,2,0,L|65:207,2,112.500004291535,2|2|8,3:2|0:3|3:2,0:0:0:0:
178,128,170009,1,2,0:3:0:0:
90,338,170185,2,0,B|86:360|86:360|142:398|198:352,1,131.250001251698,2|2,3:2|0:3,0:0:0:0:
383,336,170538,1,8,3:2:0:0:
383,336,170715,6,0,P|419:284|389:214,2,112.500004291535,2|2|2,0:3|3:2|0:3,0:0:0:0:
242,294,171244,1,8,3:2:0:0:
242,294,171421,2,0,P|235:239|269:196,1,112.500004291535,2|2,0:3|3:2,0:0:0:0:
228,129,171774,1,2,0:3:0:0:
409,65,171950,5,10,3:2:0:0:
332,244,172127,1,2,0:3:0:0:
425,40,172303,2,0,P|352:6|262:41,1,168.750006437302,6|0,3:2|0:0,0:0:0:0:
226,105,172656,2,0,L|104:92,1,112.500004291535,10|2,3:2|0:3,0:0:0:0:
0,282,173009,1,2,3:2:0:0:
32,121,173185,1,2,0:3:0:0:
0,282,173362,1,10,3:2:0:0:
71,201,173538,1,2,0:3:0:0:
0,282,173715,1,2,3:2:0:0:
32,121,173891,1,2,0:3:0:0:
158,225,174068,2,0,L|336:244,1,168.750006437302,10|0,3:2|0:0,0:0:0:0:
354,215,174421,2,0,P|400:257|404:327,1,112.500004291535,2|2,3:2|0:3,0:0:0:0:
334,355,174774,5,10,3:2:0:0:
212,206,174950,2,0,B|176:215|176:215|135:255,2,75,2|0|2,0:3|3:2|0:3,0:0:0:0:
334,355,175479,5,10,3:2:0:0:
135,215,175656,2,0,B|100:245|100:245|92:295,2,93.75,2|0|2,0:3|3:2|0:3,0:0:0:0:
334,355,176185,5,10,3:2:0:0:
63,275,176362,2,0,L|38:344,1,56.2500021457673,2|0,0:3|0:0,0:0:0:0:
143,378,176538,2,0,P|213:357|217:237,1,168.750006437302,0|0,3:2|0:0,0:0:0:0:
189,201,176891,6,0,B|176:183|176:183|231:109|325:168,1,168.750006437302,10|0,3:2|0:0,0:0:0:0:
365,218,177244,2,0,P|390:176|389:151,1,56.2500021457673,2|0,3:2|0:0,0:0:0:0:
358,91,177421,1,2,0:3:0:0:
483,16,177597,1,10,3:2:0:0:
483,16,177774,1,2,0:3:0:0:
351,251,177950,6,0,P|403:287|494:243,1,168.750006437302,6|0,3:2|0:0,0:0:0:0:
499,208,178303,2,0,L|491:90,1,112.500004291535,10|2,3:2|0:3,0:0:0:0:
370,12,178656,2,0,P|298:22|281:69,1,112.500004291535,2|2,3:2|0:3,0:0:0:0:
154,186,179009,2,0,B|161:205|161:205|124:275|32:244,1,168.750006437302,10|0,3:2|0:0,0:0:0:0:
41,206,179362,2,0,P|12:158|87:75,1,168.750006437302,2|0,3:2|0:0,0:0:0:0:
147,37,179715,2,0,L|162:219,1,168.750006437302,10|0,3:2|0:0,0:0:0:0:
137,237,180068,2,0,L|149:382,1,112.500004291535,2|2,3:2|0:3,0:0:0:0:
314,365,180421,2,0,P|385:353|374:261,1,168.750006437302,10|0,3:2|0:0,0:0:0:0:
366,247,180774,5,2,3:2:0:0:
366,247,181127,2,0,L|239:261,1,112.500004291535,10|2,3:2|0:3,0:0:0:0:
378,143,181479,2,0,L|274:97,1,112.500004291535,2|2,3:2|0:3,0:0:0:0:
186,115,181832,2,0,P|161:174|177:223,1,112.500004291535,10|2,3:2|0:3,0:0:0:0:
366,247,182185,2,0,P|391:188|375:139,1,112.500004291535,2|2,3:2|0:3,0:0:0:0:
53,61,182538,6,0,B|29:53|29:53|-28:116|26:192,1,168.750006437302,8|0,3:2|0:0,0:0:0:0:
98,217,182891,2,0,L|118:256,1,37.5,2|0,3:2|0:0,0:0:0:0:
171,144,183068,2,0,L|194:97,1,46.875,2|0,3:2|0:0,0:0:0:0:
237,241,183244,2,0,L|266:299,1,56.2500021457673,2|0,3:2|0:0,0:0:0:0:
321,131,183421,2,0,L|350:72,1,65.6250006258488,2|0,3:2|0:0,0:0:0:0:
457,29,183597,5,2,0:0:0:0:
457,29,183950,2,0,L|460:101,1,56.2500021457673,2|2,0:0|0:0,0:0:0:0:
464,169,184303,1,2,0:0:0:0:
392,321,184656,2,0,P|362:354|277:346,1,112.500004291535,2|2,0:0|0:0,0:0:0:0:
217,208,185362,2,0,P|187:175|102:183,1,112.500004291535,2|2,0:0|0:0,0:0:0:0:
11,299,186068,1,2,0:0:0:0:
11,299,186421,1,2,0:0:0:0:
