osu file format v14

[General]
AudioFilename: audio.mp3
AudioLeadIn: 0
PreviewTime:50494
Countdown: 0
SampleSet: Soft
StackLeniency: 0.7
Mode: 0
LetterboxInBreaks: 0
WidescreenStoryboard: 1

[Editor]
Bookmarks:1435,11318,16921,28215,39509,50494,50803,61921,62009,62053,62097,84685,96024,107274,118215,118568,129818,141200,160744,160832,160877,160921,183509
DistanceSpacing: 0.5
BeatDivisor: 16
GridSize: 4
TimelineZoom: 4.099998

[Metadata]
Title:phony
TitleUnicode:フォニイ
Artist:Tsumiki
ArtistUnicode:ツミキ
Creator:Ryuusei Aika
Version:Calvaria's Ex
Source:
Tags:_23ki_ foni japanese rock jrock j-rock pop jpop j-pop calvaria shikibe mayu shizuku- kazato asa deppyforce [hatsune miku] remapper _lai setu shiratamamywife ryxliee midorijeon vocalsynth 可不 KAFU KAF+U cevio ai female vocal KAMITSUBAKI STUDIO 神椿スタジオ
BeatmapID:3151748
BeatmapSetID:1533832

[Difficulty]
HPDrainRate:5
CircleSize:4
OverallDifficulty:8.5
ApproachRate:9.4
SliderMultiplier:2.59999990463257
SliderTickRate:1

[Events]
//Background and Video events
0,0,"BG.jpg",0,0
//Break Periods
2,85127,89351
2,90774,95175
//Storyboard Layer 0 (Background)
//Storyboard Layer 1 (Fail)
//Storyboard Layer 2 (Pass)
//Storyboard Layer 3 (Foreground)
//Storyboard Layer 4 (Overlay)
//Storyboard Sound Samples

[TimingPoints]
1480,352.941176470588,4,2,1,60,1,0
1480,-200,4,2,1,60,0,0
10656,-100,4,2,1,60,0,0
11009,-500,4,2,1,60,0,0
11274,-500,4,2,1,5,0,0
11296,-500,4,2,1,60,0,0
11362,-66.6666666666667,4,2,1,80,0,0
11627,-66.6666666666667,4,2,1,5,0,0
11649,-66.6666666666667,4,2,1,80,0,0
11979,-66.6666666666667,4,2,1,5,0,0
12001,-66.6666666666667,4,2,1,80,0,0
12332,-66.6666666666667,4,2,1,5,0,0
12354,-66.6666666666667,4,2,1,80,0,0
12685,-66.6666666666667,4,2,1,5,0,0
12707,-66.6666666666667,4,2,1,80,0,0
13038,-66.6666666666667,4,2,1,5,0,0
13060,-66.6666666666667,4,2,1,80,0,0
13391,-66.6666666666667,4,2,1,5,0,0
13413,-66.6666666666667,4,2,1,80,0,0
13744,-66.6666666666667,4,2,1,5,0,0
13766,-66.6666666666667,4,2,1,80,0,0
14097,-66.6666666666667,4,2,1,5,0,0
14119,-66.6666666666667,4,2,1,80,0,0
14185,-55.5555555555556,4,2,1,80,0,0
14274,-55.5555555555556,4,2,1,5,0,0
14296,-55.5555555555556,4,2,1,80,0,0
14450,-55.5555555555556,4,2,1,5,0,0
14472,-55.5555555555556,4,2,1,80,0,0
14627,-55.5555555555556,4,2,1,5,0,0
14649,-55.5555555555556,4,2,1,80,0,0
14803,-55.5555555555556,4,2,1,5,0,0
14825,-55.5555555555556,4,2,1,80,0,0
14891,-83.3333333333333,4,2,1,80,0,0
15597,-100,4,2,1,80,0,0
16921,-100,4,2,1,5,0,0
16943,-100,4,2,1,80,0,0
17009,-100,4,2,1,75,0,0
20185,-83.3333333333333,4,2,1,75,0,0
20538,-100,4,2,1,75,0,0
22127,-50,4,2,2,75,0,0
22303,-55.5555555555556,4,2,2,75,0,0
22479,-55.5555555555556,4,2,1,75,0,0
22656,-100,4,2,1,75,0,0
23009,-83.3333333333333,4,2,1,75,0,0
23362,-100,4,2,1,75,0,0
28303,-83.3333333333333,4,2,2,65,0,0
28479,-83.3333333333333,4,2,1,65,0,0
29715,-133.333333333333,4,2,1,65,0,0
33774,-66.6666666666667,4,2,1,65,0,0
33950,-83.3333333333333,4,2,1,65,0,0
38185,-55.5555555555556,4,2,1,65,0,0
38362,-66.6666666666667,4,2,1,65,0,0
41362,-100,4,2,1,65,0,0
42068,-55.5555555555556,4,2,1,65,0,0
42421,-66.6666666666667,4,2,1,65,0,0
44715,-66.6666666666667,4,2,2,65,0,0
45068,-66.6666666666667,4,2,1,65,0,0
47009,-100,4,2,1,65,0,0
47715,-55.5555555555556,4,2,1,65,0,0
48068,-66.6666666666667,4,2,1,65,0,0
49656,-50,4,2,1,65,0,0
50185,-50,4,2,2,65,0,0
50362,-50,4,2,1,65,0,0
50538,-133.333333333333,4,2,1,65,0,0
50891,-66.6666666666667,4,2,1,75,0,0
51068,-66.6666666666667,4,2,2,75,0,0
56185,-100,4,2,2,75,0,0
56538,-55.5555555555556,4,2,1,75,0,0
56627,-55.5555555555556,4,2,2,75,0,0
62185,-50,4,2,1,75,0,0
62450,-50,4,2,1,5,0,0
62472,-50,4,2,1,75,0,0
62803,-50,4,2,1,5,0,0
62825,-50,4,2,1,75,0,0
65274,-50,4,2,1,5,0,0
65296,-50,4,2,1,75,0,0
70215,-50,4,2,1,5,0,0
70237,-50,4,2,1,75,0,0
70568,-50,4,2,1,5,0,0
70590,-50,4,2,1,75,0,0
73744,-50,4,2,1,5,0,0
73766,-50,4,2,1,75,0,0
74097,-50,4,2,1,5,0,0
74119,-50,4,2,1,75,0,0
78332,-50,4,2,1,5,0,0
78354,-50,4,2,1,75,0,0
81862,-50,4,2,1,5,0,0
81884,-50,4,2,1,75,0,0
81950,-66.6666666666667,4,2,1,75,0,0
82215,-66.6666666666667,4,2,1,5,0,0
82237,-66.6666666666667,4,2,1,75,0,0
82568,-66.6666666666667,4,2,1,5,0,0
82590,-66.6666666666667,4,2,1,75,0,0
82921,-66.6666666666667,4,2,1,5,0,0
82943,-66.6666666666667,4,2,1,75,0,0
83274,-66.6666666666667,4,2,1,5,0,0
83296,-66.6666666666667,4,2,1,75,0,0
83627,-66.6666666666667,4,2,1,5,0,0
83649,-66.6666666666667,4,2,1,75,0,0
83979,-66.6666666666667,4,2,1,5,0,0
84001,-66.6666666666667,4,2,1,75,0,0
84068,-55.5555555555556,4,2,1,75,0,0
84156,-55.5555555555556,4,2,1,5,0,0
84178,-55.5555555555556,4,2,1,75,0,0
84332,-55.5555555555556,4,2,1,5,0,0
84354,-55.5555555555556,4,2,1,75,0,0
84774,-83.3333333333333,4,2,1,65,0,0
89891,-83.3333333333333,4,2,2,65,0,0
90244,-83.3333333333333,4,2,1,65,0,0
95715,-500,4,2,1,40,0,0
96068,-100,4,2,1,65,0,0
105950,-50,4,2,1,65,0,0
106127,-66.6666666666667,4,2,1,65,0,0
106656,-100,4,2,1,65,0,0
107009,-66.6666666666667,4,2,1,65,0,0
107362,-66.6666666666667,4,2,1,65,0,0
109127,-100,4,2,1,65,0,0
109832,-55.5555555555556,4,2,1,65,0,0
110186,-66.6666666666667,4,2,1,65,0,0
112479,-66.6666666666667,4,2,2,65,0,0
112832,-66.6666666666667,4,2,1,65,0,0
114774,-100,4,2,1,65,0,0
115479,-55.5555555555556,4,2,1,65,0,0
115833,-66.6666666666667,4,2,1,65,0,0
116891,-55.5555555555556,4,2,1,65,0,0
117068,-66.6666666666667,4,2,1,65,0,0
117421,-50,4,2,1,65,0,0
117950,-50,4,2,1,45,0,0
118127,-50,4,2,1,50,0,0
118303,-50,4,2,1,55,0,0
118479,-50,4,2,1,60,0,0
118656,-66.6666666666667,4,2,2,65,0,0
118744,-66.6666666666667,4,2,2,65,0,0
118766,-66.6666666666667,4,2,2,65,0,0
119009,-55.5555555555556,4,2,1,65,0,0
119185,-55.5555555555556,4,2,2,65,0,0
123950,-83.3333333333333,4,2,2,65,0,0
124303,-55.5555555555556,4,2,1,65,0,0
124391,-55.5555555555556,4,2,2,65,0,0
129597,-133.333333333333,4,2,2,65,0,0
129950,-66.6666666666667,4,2,1,65,0,0
130038,-66.6666666666667,4,2,2,65,0,0
132994,-66.6666666666667,4,2,2,5,0,0
133016,-66.6666666666667,4,2,2,65,0,0
135244,-100,4,2,2,65,0,0
135597,-66.6666666666667,4,2,1,65,0,0
135685,-66.6666666666667,4,2,2,65,0,0
138641,-66.6666666666667,4,2,2,5,0,0
138663,-66.6666666666667,4,2,2,65,0,0
141244,-100,4,2,1,65,0,0
141332,-100,4,2,2,65,0,0
143715,-100,4,2,2,65,0,0
144068,-111.111111111111,4,2,2,65,0,0
144421,-125,4,2,2,65,0,0
144774,-166.666666666667,4,2,2,65,0,0
146538,-100,4,2,2,65,0,0
149715,-100,4,2,2,65,0,0
150068,-111.111111111111,4,2,2,65,0,0
150421,-125,4,2,2,65,0,0
150774,-166.666666666667,4,2,2,65,0,0
152009,-125,4,2,2,65,0,0
152185,-83.3333333333333,4,2,2,65,0,0
152538,-100,4,2,2,65,0,0
155891,-83.3333333333333,4,2,2,65,0,0
156597,-71.4285714285714,4,2,2,65,0,0
157127,-83.3333333333333,4,2,2,65,0,0
157832,-66.6666666666667,4,2,2,65,0,0
158097,-100,4,2,2,5,0,0
158119,-100,4,2,2,65,0,0
158185,-66.6666666666667,4,2,1,65,0,0
158450,-66.6666666666667,4,2,1,5,0,0
158472,-66.6666666666667,4,2,1,75,0,0
158803,-66.6666666666667,4,2,1,5,0,0
158825,-66.6666666666667,4,2,1,75,0,0
159156,-66.6666666666667,4,2,1,5,0,0
159178,-66.6666666666667,4,2,1,75,0,0
159509,-66.6666666666667,4,2,1,5,0,0
159531,-66.6666666666667,4,2,1,75,0,0
159597,-55.5555555555556,4,2,1,65,0,0
159685,-55.5555555555556,4,2,1,5,0,0
159707,-55.5555555555556,4,2,1,65,0,0
159862,-55.5555555555556,4,2,1,5,0,0
159884,-55.5555555555556,4,2,1,65,0,0
160038,-55.5555555555556,4,2,1,5,0,0
160060,-55.5555555555556,4,2,1,65,0,0
160215,-55.5555555555556,4,2,1,5,0,0
160237,-55.5555555555556,4,2,1,65,0,0
161009,-333.333333333333,4,2,1,40,0,0
161274,-333.333333333333,4,2,1,5,0,0
161296,-333.333333333333,4,2,1,65,0,0
161362,-50,4,2,1,75,0,0
161627,-50,4,2,1,5,0,0
161649,-50,4,2,1,75,0,0
164097,-50,4,2,1,5,0,0
164119,-50,4,2,1,75,0,0
169038,-50,4,2,1,5,0,0
169060,-50,4,2,1,75,0,0
169391,-50,4,2,1,5,0,0
169413,-50,4,2,1,75,0,0
172568,-50,4,2,1,5,0,0
172590,-50,4,2,1,75,0,0
172921,-50,4,2,1,5,0,0
172943,-50,4,2,1,75,0,0
177156,-50,4,2,1,5,0,0
177178,-50,4,2,1,75,0,0
180685,-50,4,2,1,5,0,0
180707,-50,4,2,1,75,0,0
182803,-50,4,2,1,5,0,0
182825,-50,4,2,1,75,0,0
183597,-50,4,2,1,60,0,0

[Colours]
Combo1 : 192,192,192
Combo2 : 128,128,128

[HitObjects]
0,294,1480,6,0,B|36:267|36:267|76:264|119:307,1,129.999995231629,2|2,0:0|0:0,0:0:0:0:
22,373,2009,1,2,0:0:0:0:
82,220,2185,2,0,P|73:176|37:95,1,129.999995231629,2|2,0:0|0:0,0:0:0:0:
33,110,2715,6,0,P|62:133|93:144,1,64.9999976158143,2|0,0:0|0:0,0:0:0:0:
169,233,3068,2,0,P|203:219|228:198,1,64.9999976158143,2|0,0:0|0:0,0:0:0:0:
257,0,3421,1,2,0:0:0:0:
179,123,3597,2,0,P|143:75|175:22,1,129.999995231629,2|2,0:0|0:0,0:0:0:0:
470,118,4303,6,0,B|484:145|484:145|422:148|382:108,1,129.999995231629,2|2,0:0|0:0,0:0:0:0:
373,30,4832,1,0,0:0:0:0:
319,168,5009,2,0,P|305:116|293:98,2,64.9999976158143,2|2|2,0:0|0:0|0:0,0:0:0:0:
291,256,5538,6,0,P|322:261|352:275,1,64.9999976158143,2|0,0:0|0:0,0:0:0:0:
219,158,5891,2,0,P|189:214|200:278,1,129.999995231629,2|2,0:0|0:0,0:0:0:0:
190,291,6421,2,0,P|181:259|167:230,1,64.9999976158143,2|2,0:0|0:0,0:0:0:0:
313,176,6774,2,0,P|321:207|335:236,1,64.9999976158143,2|2,0:0|0:0,0:0:0:0:
491,338,7127,6,0,B|469:350|469:350|423:312|357:327,1,129.999995231629,2|2,0:0|0:0,0:0:0:0:
508,243,7656,1,2,0:0:0:0:
425,384,7832,2,0,P|412:325|421:249,1,129.999995231629,2|2,0:0|0:0,0:0:0:0:
404,140,8362,2,0,P|432:154|458:175,1,64.9999976158143,2|0,0:0|0:0,0:0:0:0:
473,168,8715,5,2,0:0:0:0:
255,368,9068,1,2,0:0:0:0:
334,384,9244,2,0,P|353:357|365:319,1,64.9999976158143,2|0,0:0|0:0,0:0:0:0:
255,289,9597,2,0,P|235:245|203:195,1,97.4999964237214,2|0,0:0|0:0,0:0:0:0:
261,281,9950,6,0,P|214:277|181:288,1,64.9999976158143,2|0,0:0|0:0,0:0:0:0:
104,192,10215,1,0,0:0:0:0:
104,192,10303,2,0,B|79:193|79:193|76:185|76:185|39:175,1,64.9999976158143,2|0,0:0|0:0,0:0:0:0:
255,96,10656,2,0,B|290:134|290:134|303:133|303:133|301:147|301:147|335:186,1,129.999995231629,2|2,0:0|0:0,0:0:0:0:
509,223,11009,2,0,B|513:203|513:203|512:184,1,38.9999985694886,2|0,0:0|0:0,0:0:0:0:
425,168,11362,6,0,B|452:96|452:96|500:195|477:309,1,292.500000429154,4|0,3:2|0:0,0:0:0:0:
409,250,11715,6,0,B|479:218|479:218|442:322|346:386,1,292.500000429154,4|0,3:2|0:0,0:0:0:0:
339,300,12068,6,0,B|411:327|411:327|312:375|198:352,1,292.500000429154,4|0,3:2|0:0,0:0:0:0:
257,284,12421,6,0,B|288:354|288:354|184:317|120:221,1,292.500000429154,4|0,3:2|0:0,0:0:0:0:
210,216,12774,6,0,B|183:288|183:288|135:189|158:75,1,292.500000429154,4|0,3:2|0:0,0:0:0:0:
226,134,13127,6,0,B|155:165|155:165|192:61|288:-2,1,292.500000429154,4|0,3:2|0:0,0:0:0:0:
296,84,13480,6,0,B|224:57|224:57|323:9|437:32,1,292.500000429154,4|0,3:2|0:0,0:0:0:0:
378,100,13833,6,0,B|346:29|346:29|450:66|514:162,1,292.500000429154,4|0,3:2|0:0,0:0:0:0:
425,168,14185,6,0,B|405:209|357:220|357:220|366:192,1,116.999992137909,4|0,3:2|0:0,0:0:0:0:
434,31,14362,6,0,B|454:-10|502:-21|502:-21|493:7,1,116.999992137909,0|0,3:2|0:0,0:0:0:0:
450,257,14538,6,0,B|470:298|518:309|518:309|509:281,1,116.999992137909,4|0,3:2|0:0,0:0:0:0:
378,100,14715,6,0,B|358:59|310:48|310:48|319:76,1,116.999992137909,0|0,3:2|0:0,0:0:0:0:
277,239,14891,5,4,3:2:0:0:
260,234,14979,1,0,3:2:0:0:
251,220,15067,1,0,3:2:0:0:
260,207,15155,1,0,3:2:0:0:
275,205,15244,5,4,3:2:0:0:
187,166,15332,1,0,3:2:0:0:
119,220,15421,1,0,3:2:0:0:
51,180,15509,1,0,3:0:0:0:
5,204,15597,5,0,0:0:0:0:
256,192,15685,12,0,16921,0:0:0:0:
453,384,17009,5,6,3:2:0:0:
406,292,17185,1,0,0:0:0:0:
311,282,17362,1,10,3:2:0:0:
324,186,17538,1,0,0:0:0:0:
351,371,17715,5,2,3:2:0:0:
333,379,17803,1,0,0:0:0:0:
228,220,17979,5,2,0:0:0:0:
210,212,18067,1,8,3:2:0:0:
80,361,18244,2,0,P|89:322|119:295,1,64.9999976158143,2|0,0:0|0:0,0:0:0:0:
185,297,18421,5,0,3:2:0:0:
260,135,18597,2,0,P|228:80|153:72,1,129.999995231629,2|8,0:0|3:2,0:0:0:0:
69,95,18950,5,2,0:0:0:0:
58,86,19038,1,2,0:0:0:0:
49,79,19127,2,0,P|36:114|39:150,1,64.9999976158143,2|0,3:2|0:0,0:0:0:0:
115,195,19303,2,0,P|146:186|171:167,1,64.9999976158143,2|0,0:0|0:0,0:0:0:0:
166,67,19479,2,0,B|225:32|287:75|287:75|284:111|260:135,1,194.999992847443,10|0,3:2|0:0,0:0:0:0:
365,205,19832,6,0,P|345:231|337:263,1,64.9999976158143,2|0,3:2|0:0,0:0:0:0:
373,341,20009,1,2,0:0:0:0:
332,353,20097,1,2,0:0:0:0:
291,338,20185,2,0,P|388:375|417:274,1,233.999984275818,10|0,3:2|0:0,0:0:0:0:
455,198,20538,5,2,3:2:0:0:
476,186,20627,1,0,0:0:0:0:
337,263,20803,5,2,0:0:0:0:
316,251,20892,1,8,3:2:0:0:
458,352,21068,5,2,0:0:0:0:
462,368,21156,1,0,0:0:0:0:
467,384,21244,2,0,L|483:309,1,64.9999976158143,0|0,3:2|0:0,0:0:0:0:
370,173,21421,2,0,L|354:98,1,64.9999976158143,2|0,0:0|0:0,0:0:0:0:
386,31,21597,6,0,L|370:106,1,64.9999976158143,10|0,3:2|0:0,0:0:0:0:
224,210,21774,2,0,L|240:285,1,64.9999976158143,2|0,0:0|0:0,0:0:0:0:
256,359,21950,1,2,3:2:0:0:
104,78,22127,6,0,B|55:49|55:49|143:72,1,129.999995231629,8|0,0:0|0:0,0:0:0:0:
149,141,22303,2,0,B|284:213|284:213|73:146,1,350.999976413728,8|0,3:2|0:0,0:0:0:0:
23,183,22656,6,0,P|18:165|28:116,2,64.9999976158143,6|0|0,3:2|0:0|0:0,0:0:0:0:
33,362,23009,2,0,P|-4:265|97:236,1,233.999984275818,10|0,3:2|0:0,0:0:0:0:
147,306,23362,5,2,3:2:0:0:
171,298,23450,1,0,0:0:0:0:
321,369,23627,5,2,0:0:0:0:
345,377,23715,1,8,3:2:0:0:
213,158,23891,2,0,L|233:226,1,64.9999976158143,2|0,0:0|0:0,0:0:0:0:
262,305,24068,5,0,3:2:0:0:
325,144,24244,2,0,L|449:183,1,129.999995231629,2|8,0:0|3:2,0:0:0:0:
393,300,24597,5,2,0:0:0:0:
406,288,24685,1,2,0:0:0:0:
417,277,24774,2,0,L|349:297,1,64.9999976158143,2|0,3:2|0:0,0:0:0:0:
262,305,24950,2,0,L|282:237,1,64.9999976158143,2|0,0:0|0:0,0:0:0:0:
447,183,25127,2,0,B|479:170|479:170|412:168|412:168|381:172|381:172|325:144,1,194.999992847443,10|0,3:2|0:0,0:0:0:0:
244,57,25479,6,0,B|237:30|237:30|228:25|228:25|216:-22,1,64.9999976158143,2|0,3:2|0:0,0:0:0:0:
175,106,25656,5,2,0:0:0:0:
129,112,25744,1,2,0:0:0:0:
98,77,25832,2,0,B|176:32|230:96|230:96|247:154,1,194.999992847443,8|0,3:2|0:0,0:0:0:0:
160,210,26185,5,2,3:2:0:0:
148,235,26274,1,0,0:0:0:0:
251,337,26450,5,2,0:0:0:0:
239,312,26539,1,8,3:2:0:0:
46,301,26715,5,2,0:0:0:0:
31,314,26803,1,0,0:0:0:0:
17,326,26891,2,0,L|94:317,1,64.9999976158143,0|0,3:2|0:0,0:0:0:0:
279,235,27068,5,2,0:0:0:0:
331,249,27156,1,2,0:0:0:0:
381,262,27244,2,0,B|398:286|398:286|413:293|413:293|426:315,1,64.9999976158143,2|0,3:2|0:0,0:0:0:0:
450,217,27421,2,0,B|467:192|467:192|482:186|482:186|495:164,1,64.9999976158143,2|0,0:0|0:0,0:0:0:0:
409,129,27597,6,0,B|408:90|408:90|389:64|389:64|384:5,2,129.999995231629,2|0|0,3:2|0:0|0:0,0:0:0:0:
426,307,28127,1,2,0:0:0:0:
505,326,28303,6,0,B|439:336|439:336|434:345|434:345|422:339|422:339|339:352,1,155.999989517212,6|0,3:2|0:0,0:0:0:0:
220,287,28656,2,0,L|177:276,3,38.9999973793031,2|0|0|0,0:0|0:0|0:0|0:0,0:0:0:0:
233,279,28832,1,2,0:0:0:0:
267,357,29009,1,2,0:0:0:0:
238,384,29362,5,2,0:0:0:0:
293,221,29538,1,2,0:0:0:0:
232,168,29715,2,0,P|229:119|220:72,1,97.5000001430512,2|0,0:0|0:0,0:0:0:0:
263,4,30068,2,0,P|231:40|204:81,1,97.5000001430512,2|0,0:0|0:0,0:0:0:0:
126,89,30421,2,0,P|173:98|222:101,1,97.5000001430512,2|0,0:0|0:0,0:0:0:0:
385,35,30774,2,0,P|396:32|409:31,6,24.3750000357628,2|0|0|0|0|0|0,0:0|0:0|0:0|0:0|0:0|0:0|0:0,0:0:0:0:
345,105,31127,2,0,B|333:137|333:137|371:237|371:237|350:256|319:246,1,195.000000286102,2|2,0:0|0:0,0:0:0:0:
475,181,31656,6,0,P|497:178|505:179,3,24.3750000357628
465,191,31832,2,0,P|419:183|360:184,1,97.5000001430512,2|2,0:0|0:0,0:0:0:0:
235,268,32185,6,0,P|232:246|233:238,3,24.3750000357628,2|0|0|0,0:0|0:0|0:0|0:0,0:0:0:0:
245,281,32362,1,2,0:0:0:0:
320,94,32715,1,2,0:0:0:0:
122,124,33068,1,2,0:0:0:0:
221,136,33244,6,0,P|173:147|134:175,1,97.5000001430512,2|2,0:0|0:0,0:0:0:0:
189,360,33597,1,2,0:0:0:0:
71,270,33774,2,0,B|82:259|117:259|117:259|100:279|91:302,1,97.5000001430512,2|0,0:0|0:0,0:0:0:0:
7,326,33950,6,0,B|72:336|72:336|78:345|78:345|89:339|89:339|173:352,1,155.999989517212,2|0,3:2|0:0,0:0:0:0:
389,326,34303,2,0,P|410:318|434:301,3,38.9999973793031,2|0|0|0,0:0|0:0|0:0|0:0,0:0:0:0:
340,384,34479,2,0,B|321:379|321:379|300:291,1,77.9999947586062,2|0,3:2|0:0,0:0:0:0:
230,302,34656,6,0,B|240:235|240:235|234:224|234:224|243:218|243:218|253:153,1,155.999989517212,2|0,3:2|0:0,0:0:0:0:
128,50,35009,2,0,P|136:29|153:5,3,38.9999973793031,2|0|0|0,0:2|0:0|0:0|0:0,0:0:0:0:
207,77,35185,6,0,B|142:87|142:87|136:96|136:96|125:90|125:90|58:100,1,155.999989517212,2|0,3:2|0:2,0:0:0:0:
101,196,35538,6,0,B|91:261|91:261|98:270|98:270|88:278|88:278|78:345,1,155.999989517212,2|0,3:2|0:0,0:0:0:0:
190,104,35891,2,0,B|228:145|228:145|229:165,1,77.9999947586062,2|0,3:2|0:0,0:0:0:0:
208,254,36068,6,0,B|273:244|273:244|279:235|279:235|290:241|290:241|357:231,1,155.999989517212,2|0,3:2|0:0,0:0:0:0:
429,88,36421,2,0,P|447:81|464:71,6,38.9999973793031,2|0|0|0|0|0|0,0:0|0:0|0:0|0:0|0:0|0:0|0:0,0:0:0:0:
397,0,36774,6,0,B|387:65|387:65|378:71|378:71|384:82|384:82|374:149,1,155.999989517212,2|0,3:2|0:0,0:0:0:0:
470,360,37127,1,2,0:0:0:0:
350,322,37303,2,0,B|345:303|345:303|257:282,1,77.9999947586062,2|0,3:2|0:0,0:0:0:0:
230,352,37479,6,0,B|165:362|165:362|159:371|159:371|148:365|148:365|81:375,2,155.999989517212,2|2|2,3:2|0:0|0:0,0:0:0:0:
429,376,38009,5,8,3:2:0:0:
441,292,38097,1,8,3:2:0:0:
454,213,38185,2,0,B|429:162|429:162|344:145,1,116.999992137909,2|0,3:2|0:0,0:0:0:0:
312,221,38362,2,0,P|264:162|273:42,1,195.000000286102,12|0,0:2|3:2,0:0:0:0:
491,90,38715,6,0,L|377:71,1,97.5000001430512,2|0,0:0|0:0,0:0:0:0:
344,0,38891,6,0,B|296:10|296:10|283:57,1,97.5000001430512,2|0,3:2|0:0,0:0:0:0:
225,150,39068,2,0,B|178:136|178:136|168:89,1,97.5000001430512,2|0,0:2|0:0,0:0:0:0:
77,17,39244,5,10,0:0:0:0:
90,61,39333,1,8,0:0:0:0:
74,100,39421,1,10,0:0:0:0:
54,140,39509,1,8,0:0:0:0:
70,185,39597,6,0,B|-2:85|-2:85|45:91|45:91|44:122,1,195.000000286102,6|2,3:2|0:0,0:0:0:0:
44,310,39862,1,0,0:0:0:0:
63,314,39950,2,0,L|98:374,4,48.7500000715256,10|0|0|0|0,3:2|0:0|0:0|0:0|0:0,0:0:0:0:
135,262,40215,1,2,0:0:0:0:
120,255,40303,6,0,P|162:228|227:221,1,97.5000001430512,2|0,3:2|0:0,0:0:0:0:
320,375,40568,2,0,P|293:333|286:268,1,97.5000001430512,2|10,0:0|3:2,0:0:0:0:
465,206,40832,2,0,P|423:233|358:240,1,97.5000001430512,2|0,0:0|0:0,0:0:0:0:
296,181,41009,5,0,3:2:0:0:
209,342,41185,2,0,P|256:322|286:276,1,97.5000001430512,2|0,0:0|0:0,0:0:0:0:
249,104,41362,2,0,P|166:151|213:220,1,194.999992847443,10|0,3:2|0:0,0:0:0:0:
221,229,41715,6,0,P|253:277|181:297,1,129.999995231629,2|0,3:2|0:0,0:0:0:0:
422,68,42068,2,0,B|537:3|537:3|365:144,1,350.999976413728,8|0,3:2|0:0,0:0:0:0:
352,142,42421,6,0,B|338:218|338:218|403:268|403:268|396:217,1,195.000000286102,2|2,3:2|0:0,0:0:0:0:
309,54,42685,1,0,0:0:0:0:
302,35,42774,2,0,L|229:-8,4,48.7500000715256,10|0|0|0|0,3:2|0:0|0:0|0:0|0:0,0:0:0:0:
403,70,43038,1,2,0:0:0:0:
410,47,43127,6,0,L|316:73,1,97.5000001430512,2|0,3:2|0:0,0:0:0:0:
261,143,43303,2,0,L|167:116,1,97.5000001430512,2|0,0:0|0:0,0:0:0:0:
69,149,43479,2,0,B|50:81|50:81|69:99,1,97.5000001430512,10|0,3:2|0:0,0:0:0:0:
191,214,43656,2,0,B|229:350|229:350|190:312,1,195.000000286102,2|0,0:0|3:2,0:0:0:0:
23,236,44009,5,2,0:0:0:0:
16,252,44097,1,2,0:0:0:0:
10,264,44185,2,0,P|73:258|121:229,1,97.5000001430512,10|0,3:2|0:0,0:0:0:0:
189,312,44362,2,0,P|238:313|283:332,1,97.5000001430512,2|0,0:0|0:0,0:0:0:0:
371,384,44538,1,2,3:2:0:0:
512,106,44715,6,0,B|486:91|486:91|483:133|515:171,1,97.5000001430512,8|0,0:0|0:0,0:0:0:0:
433,319,44891,2,0,B|485:349|485:349|491:265|427:189,1,195.000000286102,8|2,3:2|0:0,0:0:0:0:
509,17,45244,6,0,P|448:142|404:142,1,195.000000286102,6|2,3:2|0:0,0:0:0:0:
318,114,45509,1,0,0:0:0:0:
302,131,45597,2,0,P|307:154|322:173,4,48.7500000715256,10|0|0|0|0,3:2|0:0|0:0|0:0|0:0,0:0:0:0:
374,21,45862,1,2,0:0:0:0:
383,40,45950,6,0,P|335:40|288:26,1,97.5000001430512,2|0,3:2|0:0,0:0:0:0:
143,65,46215,2,0,P|185:88|218:124,1,97.5000001430512,2|10,0:0|3:2,0:0:0:0:
300,295,46479,2,0,P|299:246|313:199,1,97.5000001430512,2|0,0:0|0:0,0:0:0:0:
318,114,46656,5,0,3:2:0:0:
494,106,46832,2,0,P|448:121|409:151,1,97.5000001430512,2|0,0:0|0:0,0:0:0:0:
446,286,47009,2,0,P|379:264|452:265,1,194.999992847443,10|0,3:2|0:0,0:0:0:0:
496,342,47362,6,0,P|537:364|500:336,1,129.999995231629,2|0,3:2|0:0,0:0:0:0:
146,304,47715,2,0,B|110:335|96:380|96:380|185:330|286:330|286:330|253:335|231:354,1,350.999976413728,8|0,3:2|0:0,0:0:0:0:
221,363,48068,6,0,B|261:297|228:226|228:226|233:256|220:284,1,195.000000286102,2|2,3:2|0:0,0:0:0:0:
66,337,48332,1,0,0:0:0:0:
45,347,48421,2,0,P|19:342|-11:315,4,48.7500000715256,10|0|0|0|0,3:2|0:0|0:0|0:0|0:0,0:0:0:0:
79,245,48685,1,2,0:0:0:0:
65,230,48774,6,0,P|48:139|43:99,1,97.5000001430512,2|0,3:2|0:0,0:0:0:0:
287,18,48950,2,0,P|270:109|265:149,1,97.5000001430512,2|0,0:0|0:0,0:0:0:0:
204,182,49127,2,0,P|213:229|221:277,1,97.5000001430512,10|0,3:2|0:0,0:0:0:0:
468,374,49303,2,0,P|477:326|485:278,1,97.5000001430512,2|0,0:0|0:0,0:0:0:0:
438,88,49479,6,0,B|424:47|424:47|431:100,1,97.5000001430512,0|0,3:2|0:0,0:0:0:0:
462,171,49656,2,0,P|405:201|381:260,1,129.999995231629,2|0,3:0|0:0,0:0:0:0:
295,213,49832,2,0,P|349:246|412:237,1,129.999995231629,10|0,3:2|0:0,0:0:0:0:
384,160,50009,2,0,P|386:96|347:46,1,129.999995231629,0|0,3:2|0:0,0:0:0:0:
255,50,50185,5,2,3:2:0:0:
255,50,50538,2,0,L|211:42,6,24.3750000357628,2|0|0|0|0|0|0,0:0|0:0|0:0|0:0|0:0|0:0|0:0,0:0:0:0:
299,126,50891,5,6,3:2:0:0:
229,290,51244,1,10,0:0:0:0:
145,311,51421,5,2,3:2:0:0:
381,151,51597,1,2,3:2:0:0:
336,259,51774,5,2,0:0:0:0:
345,262,51862,1,2,3:2:0:0:
354,265,51950,1,10,0:0:0:0:
324,6,52127,1,2,3:2:0:0:
472,192,52303,2,0,L|440:402,2,195.000000286102,2|0|10,0:0|3:2|0:0,0:0:0:0:
421,313,52832,6,0,B|417:343|417:343|401:371|355:379,1,97.5000001430512,0|0,3:2|0:0,0:0:0:0:
244,242,53009,2,0,B|240:212|240:212|224:184|178:176,1,97.5000001430512,2|0,3:2|0:0,0:0:0:0:
28,280,53185,6,0,L|125:267,1,97.5000001430512,8|0,0:0|0:0,0:0:0:0:
308,354,53362,2,0,L|370:362,3,48.7500000715256,10|0|0|0,0:0|0:0|0:0|0:0,0:0:0:0:
302,335,53538,6,0,B|271:330|271:330|236:348|223:375,1,97.5000001430512,0|0,3:2|0:0,0:0:0:0:
113,247,53715,2,0,B|82:252|82:252|47:234|28:194,1,97.5000001430512,2|0,3:2|0:0,0:0:0:0:
94,119,54068,5,10,0:0:0:0:
157,343,54244,1,2,0:0:0:0:
313,199,54421,5,2,3:2:0:0:
334,217,54509,1,2,0:0:0:0:
261,46,54686,5,2,3:2:0:0:
216,116,54774,2,0,P|193:158|178:204,1,97.5000001430512,10|0,0:0|0:0,0:0:0:0:
243,294,54950,2,0,P|227:187|177:98,1,195.000000286102,2|0,3:2|0:0,0:0:0:0:
218,292,55303,6,0,P|202:245|178:204,1,97.5000001430512,2|0,3:2|0:0,0:0:0:0:
78,346,55479,2,0,P|135:354|175:373,1,97.5000001430512,10|0,0:0|0:0,0:0:0:0:
293,354,55656,2,0,P|331:324|360:285,1,97.5000001430512,2|0,3:2|0:0,0:0:0:0:
475,323,55832,6,0,B|498:309|498:309|461:295|429:333,1,97.5000001430512,2|0,3:2|0:0,0:0:0:0:
345,287,56009,2,0,B|326:265|326:265|332:220|358:188,1,97.5000001430512,8|0,0:0|0:0,0:0:0:0:
432,91,56185,6,0,P|421:63|410:52,7,32.4999988079071,10|0|0|0|0|0|0|0,0:0|0:0|0:0|0:0|0:0|0:0|0:0|0:0,0:0:0:0:
439,105,56538,6,0,B|441:161|376:182|376:182|333:137|246:136,1,233.999984275819,6|0,3:2|0:0,0:0:0:0:
442,192,56891,2,0,P|383:171|354:106,1,116.999992137909,10|0,3:2|0:0,0:0:0:0:
263,51,57068,2,0,P|204:72|175:137,1,116.999992137909,2|0,0:0|0:0,0:0:0:0:
95,224,57244,2,0,B|59:244|5:231|5:231|26:210,1,116.999992137909,2|0,3:2|0:0,0:0:0:0:
123,302,57421,5,2,0:0:0:0:
135,311,57509,1,2,0:0:0:0:
147,319,57597,2,0,P|131:256|114:206,1,116.999992137909,10|0,3:2|0:0,0:0:0:0:
0,137,57774,2,0,P|14:81|32:25,1,116.999992137909,2|0,0:0|0:0,0:0:0:0:
177,116,57950,6,0,P|290:88|402:53,1,233.999984275819,2|0,3:2|0:0,0:0:0:0:
467,281,58303,2,0,P|356:243|241:218,1,233.999984275819,10|0,3:2|0:0,0:0:0:0:
263,51,58656,6,0,P|184:137|99:217,1,233.999984275819,2|8,3:2|0:0,0:0:0:0:
348,204,59009,2,0,P|434:282|511:370,1,233.999984275819,10|0,3:2|0:0,0:0:0:0:
179,336,59362,6,0,B|151:326|134:293|134:293|178:282|210:288|210:288|239:311|264:367,1,233.999984275819,2|0,3:2|0:0,0:0:0:0:
274,357,59715,2,0,B|214:356|151:380|149:386,1,116.999992137909,10|0,3:2|0:0,0:0:0:0:
29,238,59891,2,0,P|104:247|152:264,1,116.999992137909,2|0,0:0|0:0,0:0:0:0:
276,185,60068,6,0,B|286:157|319:140|319:140|330:184|324:216|324:216|301:245|245:270,1,233.999984275819,2|0,3:2|0:0,0:0:0:0:
243,257,60421,2,0,P|206:155|196:137,1,116.999992137909,10|0,3:2|0:0,0:0:0:0:
203,56,60597,6,0,B|231:46|248:13|248:13|204:2|172:8|172:8|143:31|119:84,1,233.999984275819,2|0,3:2|0:0,0:0:0:0:
137,89,60950,6,0,P|161:77|191:68,2,58.4999960689546,10|0|0,3:2|0:0|0:0,0:0:0:0:
278,103,61127,6,0,P|295:103|335:112,2,58.4999960689546,10|0|0,3:2|0:0|0:0,0:0:0:0:
359,197,61303,6,0,P|387:217|403:234,2,58.4999960689546,10|0|0,3:2|0:0|0:0,0:0:0:0:
381,323,61479,5,10,3:2:0:0:
381,323,62185,6,0,B|420:316|440:287|440:287|356:248|332:170|332:170|409:135|422:53,1,389.999985694885,6|0,3:2|0:0,0:0:0:0:
354,0,62538,2,0,P|440:189|477:378,1,389.999985694885,10|0,3:2|0:0,0:0:0:0:
477,366,62891,1,2,3:2:0:0:
308,280,63068,5,2,0:0:0:0:
296,285,63156,1,2,0:0:0:0:
286,290,63244,2,0,P|224:276|147:261,1,129.999995231629,8|0,3:2|0:0,0:0:0:0:
63,310,63421,2,0,B|39:312|39:312|33:254|67:210,1,129.999995231629,2|0,2:2|0:0,0:0:0:0:
125,37,63597,6,0,B|165:160|165:160,1,129.999995231629,0|0,3:2|0:0,0:0:0:0:
279,382,63774,2,0,P|300:320|319:258,1,129.999995231629,2|0,2:2|0:0,0:0:0:0:
267,173,63950,2,0,P|362:85|471:14,1,259.999990463257,10|2,3:2|0:0,0:0:0:0:
496,129,64215,1,2,0:0:0:0:
511,137,64303,5,0,3:2:0:0:
259,34,64479,1,2,0:0:0:0:
497,240,64656,2,0,P|479:177|455:116,1,129.999995231629,8|0,3:2|0:0,0:0:0:0:
386,20,64832,2,0,P|362:80|344:143,1,129.999995231629,2|0,2:2|0:0,0:0:0:0:
401,267,65009,6,0,B|276:325|127:282|127:282|176:271|235:276,1,389.999985694885,0|0,3:2|0:0,0:0:0:0:
403,354,65362,2,0,P|366:304|295:243,1,129.999995231629,8|0,3:2|0:0,0:0:0:0:
60,376,65538,1,2,2:0:0:0:
51,366,65627,1,2,0:0:0:0:
41,355,65715,2,0,P|103:335|168:329,1,129.999995231629,0|0,3:2|0:0,0:0:0:0:
288,346,65891,5,2,2:2:0:0:
138,0,66068,2,0,P|114:126|152:249,1,259.999990463257,8|2,3:2|2:2,0:0:0:0:
245,365,66332,1,2,0:0:0:0:
230,384,66421,5,0,3:2:0:0:
266,53,66597,1,2,0:0:0:0:
403,354,66774,2,0,P|422:292|428:227,1,129.999995231629,8|0,3:2|0:0,0:0:0:0:
219,223,66950,5,2,0:3:0:0:
209,214,67038,1,2,0:3:0:0:
198,204,67127,2,0,P|181:142|173:58,1,129.999995231629,0|0,3:2|0:0,0:0:0:0:
341,11,67303,2,0,P|358:73|366:157,1,129.999995231629,2|0,2:2|0:0,0:0:0:0:
511,259,67479,2,0,P|409:203|267:150,1,259.999990463257,8|2,3:2|2:2,0:0:0:0:
61,348,67832,6,0,B|29:376|29:376|80:370|111:346,1,129.999995231629,4|0,3:2|0:0,0:0:0:0:
0,182,68009,2,0,P|36:235|92:267,1,129.999995231629,2|0,2:2|0:0,0:0:0:0:
230,235,68185,2,0,P|265:289|278:352,1,129.999995231629,8|0,3:2|0:0,0:0:0:0:
197,74,68362,2,0,P|161:128|148:191,1,129.999995231629,2|0,2:2|0:0,0:0:0:0:
180,319,68538,2,0,P|293:313|432:371,1,259.999990463257,0|2,3:2|0:0,0:0:0:0:
451,36,68891,6,0,B|483:8|483:8|432:14|401:38,1,129.999995231629,8|0,3:2|0:0,0:0:0:0:
339,214,69068,2,0,P|396:167|419:115,1,129.999995231629,2|0,2:2|0:0,0:0:0:0:
270,9,69244,2,0,P|250:83|270:157,1,129.999995231629,0|0,3:2|0:0,0:0:0:0:
428,236,69421,2,0,P|415:173|370:127,1,129.999995231629,2|0,2:2|0:0,0:0:0:0:
230,223,69597,2,0,P|101:225|-8:159,1,259.999990463257,8|2,3:2|0:0,0:0:0:0:
30,4,69862,1,0,0:0:0:0:
48,7,69950,6,0,P|134:182|173:374,1,389.999985694885,0|0,3:2|0:0,0:0:0:0:
273,384,70303,6,0,P|359:209|398:17,1,389.999985694885,10|0,3:2|0:0,0:0:0:0:
470,88,70656,6,0,B|443:110|443:110|379:129|316:101|316:101|325:96|325:96|256:37|166:70|166:70|173:74|173:74|115:107|69:74|69:74|39:69|5:86,2,519.999980926514,0|8|0,3:2|3:2|3:2,0:0:0:0:
231,142,71538,1,2,0:0:0:0:
399,195,71715,6,0,P|394:130|373:68,1,129.999995231629,8|0,3:2|0:0,0:0:0:0:
288,17,71891,2,0,P|265:142|321:258,2,259.999990463257,2|0|2,2:2|3:2|2:2,0:0:0:0:
479,344,72421,6,0,P|420:372|357:384,1,129.999995231629,10|0,3:2|0:0,0:0:0:0:
273,345,72597,2,0,P|370:262|498:253,2,259.999990463257,2|0|2,2:2|3:2|2:2,0:0:0:0:
91,249,73127,6,0,P|39:212|37:150,1,129.999995231629,8|0,3:2|0:0,0:0:0:0:
239,50,73303,2,0,P|205:105|187:167,1,129.999995231629,2|0,2:2|0:0,0:0:0:0:
182,339,73479,6,0,B|218:280|219:213|219:213|94:154|91:42|91:42|131:76,1,389.999985694885,4|0,3:2|0:0,0:0:0:0:
170,0,73832,2,0,P|165:163|78:375,1,389.999985694885,10|0,3:2|0:0,0:0:0:0:
80,371,74185,1,2,3:2:0:0:
261,225,74362,5,2,2:0:0:0:
273,230,74450,1,2,0:0:0:0:
283,235,74538,2,0,P|345:221|422:206,1,129.999995231629,10|0,3:2|0:0,0:0:0:0:
499,284,74715,2,0,B|468:330|425:350|425:350|419:321,1,129.999995231629,2|0,2:2|0:0,0:0:0:0:
279,331,74891,6,0,B|319:208,1,129.999995231629,0|0,3:2|0:0,0:0:0:0:
446,42,75068,2,0,P|467:104|486:166,1,129.999995231629,2|0,2:2|0:0,0:0:0:0:
419,321,75244,2,0,P|301:267|179:223,1,259.999990463257,10|2,3:2|0:0,0:0:0:0:
69,281,75509,1,2,0:0:0:0:
46,290,75597,5,2,3:2:0:0:
251,137,75774,1,2,0:0:0:0:
178,333,75950,6,0,P|163:269|141:208,1,129.999995231629,10|0,3:2|0:0,0:0:0:0:
63,193,76127,2,0,P|71:127|73:63,1,129.999995231629,2|0,2:2|0:0,0:0:0:0:
0,11,76303,2,0,P|86:169|153:257,1,259.999990463257,0|2,3:2|0:0,0:0:0:0:
329,201,76656,6,0,P|391:222|454:235,1,129.999995231629,10|0,3:2|0:0,0:0:0:0:
512,362,76832,2,0,P|450:337|385:324,1,129.999995231629,2|0,2:2|0:0,0:0:0:0:
306,358,77009,2,0,P|380:251|475:148,1,259.999990463257,0|2,3:2|0:0,0:0:0:0:
176,50,77362,6,0,P|197:112|210:175,1,129.999995231629,10|0,3:2|0:0,0:0:0:0:
268,262,77538,2,0,P|289:199|302:136,1,129.999995231629,2|0,2:2|0:0,0:0:0:0:
367,74,77715,2,0,P|246:32|88:-4,1,259.999990463257,0|2,3:2|0:0,0:0:0:0:
0,367,78068,6,0,B|78:299|185:267|185:267|125:196|18:208,1,389.999985694885,10|0,3:2|0:0,0:0:0:0:
46,278,78421,2,0,P|110:290|168:320,1,129.999995231629,0|0,3:2|0:0,0:0:0:0:
234,381,78597,2,0,P|294:374|300:314,1,129.999995231629,2|0,2:2|0:0,0:0:0:0:
227,257,78774,2,0,P|215:193|185:135,1,129.999995231629,10|0,3:2|0:0,0:0:0:0:
122,65,78950,2,0,P|130:5|190:0,1,129.999995231629,2|0,2:2|0:0,0:0:0:0:
263,53,79127,6,0,P|76:186|48:-22,2,519.999980926514,6|10|2,3:2|3:2|3:2,0:0:0:0:
335,0,80009,1,2,0:0:0:0:
343,8,80097,1,2,0:0:0:0:
353,16,80185,2,0,P|378:103|389:164,1,129.999995231629,8|0,3:2|0:0,0:0:0:0:
227,255,80362,2,0,P|243:197|274:116,1,129.999995231629,2|0,0:0|0:0,0:0:0:0:
470,163,80538,6,0,P|512:335|349:192,2,519.999980926514,2|10|2,3:2|3:2|3:2,0:0:0:0:
385,141,81421,1,0,0:0:0:0:
428,351,81597,2,0,B|493:261|366:215|229:334|229:334|288:246,1,389.999985694885,10|0,3:2|0:0,0:0:0:0:
355,301,81950,6,0,B|301:292|292:229|292:229|331:155|288:84|213:57,1,292.500000429154,6|0,3:2|0:0,0:0:0:0:
372,110,82303,6,0,B|337:152|278:128|278:128|234:57|151:59|90:111,1,292.500000429154,4|0,3:2|0:0,0:0:0:0:
211,0,82656,6,0,B|230:50|180:89|180:89|96:93|56:165|71:244,1,292.500000429154,4|0,3:2|0:0,0:0:0:0:
37,80,83009,6,0,B|90:88|99:151|99:151|60:225|103:296|178:323,1,292.500000429154,4|0,3:2|0:0,0:0:0:0:
23,274,83362,6,0,B|57:231|116:255|116:255|160:326|243:324|304:272,1,292.500000429154,4|0,3:2|0:0,0:0:0:0:
178,382,83715,6,0,B|158:331|208:292|208:292|292:288|332:216|317:137,1,292.500000429154,6|0,3:2|0:0,0:0:0:0:
353,301,84068,6,0,P|324:228|272:212,1,116.999992137909,2|0,3:2|0:0,0:0:0:0:
207,278,84244,2,0,P|236:351|288:367,1,116.999992137909,2|0,3:2|0:0,0:0:0:0:
407,368,84421,5,2,0:2:0:0:
424,375,84509,1,2,0:0:0:0:
462,347,84597,5,2,0:0:0:0:
470,362,84685,1,2,0:0:0:0:
512,384,84774,5,6,3:2:0:0:
226,79,89891,6,0,L|235:172,1,77.9999947586062,8|0,0:0|0:0,0:0:0:0:
289,222,90068,2,0,B|276:383|276:383|266:294,1,233.999984275818,8|0,3:2|0:0,0:0:0:0:
256,0,90421,5,6,3:2:0:0:
38,22,95715,6,2,P|26:41|22:64,1,45.49999833107,2|0,0:1|0:1,0:1:0:0:
35,75,96068,5,6,3:2:0:0:
116,112,96244,1,2,0:0:0:0:
195,56,96421,2,0,P|266:44|334:54,1,129.999995231629,2|2,3:2|0:0,0:0:0:0:
114,28,96774,2,0,P|192:65|238:113,1,129.999995231629,2|2,3:2|0:0,0:0:0:0:
323,50,97039,1,2,0:0:0:0:
323,50,97127,2,0,P|339:70|366:120,1,64.9999976158143,2|0,3:2|0:0,0:0:0:0:
471,120,97303,2,0,P|477:184|463:247,1,129.999995231629,2|2,0:0|3:2,0:0:0:0:
433,50,97656,5,2,0:0:0:0:
512,183,97832,2,0,P|465:231|394:271,1,129.999995231629,2|0,3:2|0:0,0:0:0:0:
304,348,98185,2,0,P|348:231|468:252,1,259.999990463257,2|0,3:2|3:2,0:0:0:0:
328,275,98715,5,2,0:0:0:0:
512,344,98891,2,0,P|465:296|394:256,1,129.999995231629,2|2,3:2|0:0,0:0:0:0:
245,301,99244,1,2,3:2:0:0:
316,243,99421,1,2,0:0:0:0:
306,349,99597,2,0,P|241:330|159:331,1,129.999995231629,2|2,3:2|0:0,0:0:0:0:
78,292,99862,1,2,0:0:0:0:
78,292,99950,2,0,P|42:318|13:353,1,64.9999976158143,2|0,3:2|0:0,0:0:0:0:
151,371,100127,2,0,P|157:306|143:242,1,129.999995231629,2|0,0:0|3:2,0:0:0:0:
49,373,100479,5,2,0:0:0:0:
177,328,100656,2,0,P|139:276|83:245,1,129.999995231629,2|0,3:2|0:0,0:0:0:0:
283,203,101009,6,0,P|249:218|219:254,1,64.9999976158143,2|0,3:2|0:0,0:0:0:0:
258,325,101185,2,0,B|289:345|289:345|268:297,1,64.9999976158143,2|0,0:3|0:0,0:0:0:0:
238,246,101362,2,0,P|174:232|227:137,1,194.999992847443,2|0,3:3|0:0,0:0:0:0:
226,0,101715,6,0,P|242:3|258:9,2,32.4999988079071,2|0|0,3:2|0:0|0:0,0:0:0:0:
176,59,101891,2,0,P|143:53|112:44,1,64.9999976158143,2|0,0:0|0:0,0:0:0:0:
112,106,102068,2,0,P|185:99|254:102,1,129.999995231629,2|2,3:2|0:0,0:0:0:0:
414,213,102421,2,0,P|375:160|344:103,1,129.999995231629,2|2,3:2|0:0,0:0:0:0:
408,36,102685,1,2,0:0:0:0:
408,36,102774,2,0,P|397:73|378:108,1,64.9999976158143,2|0,3:2|0:0,0:0:0:0:
484,253,102950,2,0,P|447:242|352:197,1,129.999995231629,2|0,0:0|3:2,0:0:0:0:
466,147,103303,5,2,0:0:0:0:
279,189,103479,2,0,P|289:125|316:65,1,129.999995231629,2|0,3:2|0:0,0:0:0:0:
363,204,103832,2,0,P|362:265|191:331,1,259.999990463257,2|0,3:2|3:2,0:0:0:0:
309,273,104362,5,2,0:0:0:0:
270,379,104538,2,0,P|199:366|138:389,1,129.999995231629,2|2,3:2|0:0,0:0:0:0:
73,273,104891,2,0,P|26:327|15:392,1,129.999995231629,2|2,3:2|0:0,0:0:0:0:
181,264,105244,5,2,3:2:0:0:
45,71,105421,1,2,0:0:0:0:
188,179,105597,1,2,3:2:0:0:
96,244,105774,2,0,P|61:242|20:250,1,64.9999976158143,2|0,0:0|0:0,0:0:0:0:
141,169,105950,6,0,P|152:103|131:28,1,129.999995231629,0|0,3:2|0:0,0:0:0:0:
61,65,106127,2,0,P|53:113|59:161,1,97.5000001430512,2|0,0:0|0:0,0:0:0:0:
206,222,106303,2,0,P|299:123|223:11,1,292.500000429154,2|0,0:0|0:0,0:0:0:0:
129,123,106656,6,0,B|75:116|75:116|140:61|219:108,1,194.999992847443,2|0,0:0|0:0,0:0:0:0:
269,166,107009,2,0,B|323:185|359:162|359:162|381:113|381:113|438:98,1,194.999992847443,2|0,0:0|0:0,0:0:0:0:
491,351,107362,6,0,B|436:385|436:385|471:259,1,195.000000286102,6|2,3:2|0:0,0:0:0:0:
509,181,107627,1,0,0:0:0:0:
491,168,107715,2,0,L|442:178,4,48.7500000715256,10|0|0|0|0,3:2|0:0|0:0|0:0|0:0,0:0:0:0:
380,244,107979,1,2,0:0:0:0:
359,233,108068,6,0,P|344:187|342:139,1,97.5000001430512,2|0,3:2|0:0,0:0:0:0:
142,151,108332,2,0,P|166:148|236:171,1,97.5000001430512,2|8,0:0|3:2,0:0:0:0:
332,0,108597,2,0,P|300:35|259:61,1,97.5000001430512,2|0,0:0|0:0,0:0:0:0:
165,26,108774,5,0,3:2:0:0:
337,229,108950,2,0,P|289:219|246:196,1,97.5000001430512,2|0,0:0|0:0,0:0:0:0:
165,246,109127,2,0,P|120:262|130:348,1,129.999995231629,10|2,3:2|0:0,0:0:0:0:
82,261,109391,5,0,0:0:0:0:
97,257,109479,2,0,P|151:268|231:322,1,129.999995231629,2|2,3:2|0:0,0:0:0:0:
433,368,109832,2,0,P|509:311|355:279,1,350.999976413728,10|0,3:2|0:0,0:0:0:0:
271,242,110185,1,2,3:2:0:0:
452,252,110362,6,0,P|466:193|460:143,1,97.5000001430512,2|0,0:0|0:0,0:0:0:0:
390,77,110538,2,0,P|361:42|340:34,4,48.7500000715256,10|0|0|0|0,3:2|0:0|0:0|0:0|0:0,0:0:0:0:
474,64,110803,1,2,0:0:0:0:
486,78,110891,2,0,P|421:97|276:81,1,195.000000286102,0|2,3:2|0:0,0:0:0:0:
52,39,111244,1,10,3:2:0:0:
243,0,111421,2,0,P|323:69|365:156,1,195.000000286102,2|0,0:0|3:2,0:0:0:0:
188,140,111774,5,2,0:0:0:0:
178,145,111862,1,2,0:0:0:0:
167,151,111950,2,0,P|109:130|59:122,1,97.5000001430512,10|0,3:2|0:0,0:0:0:0:
13,259,112127,2,0,P|70:238|120:230,1,97.5000001430512,2|0,0:0|0:0,0:0:0:0:
179,295,112303,1,2,3:2:0:0:
279,150,112479,6,0,B|278:113|247:94|247:94|266:103|289:93,1,97.5000001430512,8|0,0:0|0:0,0:0:0:0:
251,331,112656,2,0,B|253:257|315:219|315:219|277:237|256:225,1,195.000000286102,10|0,3:2|0:0,0:0:0:0:
508,274,113009,6,0,P|414:256|335:308,1,195.000000286102,6|0,3:2|0:0,0:0:0:0:
416,369,113274,1,0,0:0:0:0:
434,351,113362,2,0,L|441:283,4,48.7500000715256,8|0|0|0|0,3:2|0:0|0:0|0:0|0:0,0:0:0:0:
316,290,113627,1,2,0:0:0:0:
335,308,113715,6,0,P|342:247|354:196,1,97.5000001430512,2|0,3:2|0:0,0:0:0:0:
258,14,113979,2,0,P|294:63|330:101,1,97.5000001430512,2|8,0:0|3:2,0:0:0:0:
512,210,114244,2,0,P|496:163|476:119,1,97.5000001430512,2|0,0:0|0:0,0:0:0:0:
467,22,114421,5,0,3:2:0:0:
285,104,114597,2,0,P|329:123|375:139,1,97.5000001430512,2|0,0:0|0:0,0:0:0:0:
341,38,114774,2,0,P|282:33|248:101,1,129.999995231629,10|2,3:2|0:0,0:0:0:0:
223,174,115038,5,0,0:0:0:0:
208,170,115126,2,0,P|154:181|74:235,1,129.999995231629,2|2,3:2|0:0,0:0:0:0:
108,54,115479,2,0,B|89:2|-4:6|0:78|0:78|114:80|169:154,1,350.999976413728,10|0,3:2|0:0,0:0:0:0:
191,257,115832,1,2,3:2:0:0:
26,162,116009,6,0,P|5:222|27:289,1,97.5000001430512,2|0,0:0|0:0,0:0:0:0:
74,341,116185,2,0,P|45:376|24:384,4,48.7500000715256,10|0|0|0|2,3:2|0:0|0:0|0:0|0:0,0:0:0:0:
0,286,116450,1,2,0:0:0:0:
16,270,116538,2,0,P|68:252|134:233,1,97.5000001430512,0|0,3:2|0:0,0:0:0:0:
374,336,116715,6,0,B|407:326|407:326|340:369,1,97.5000001430512,2|0,3:2|0:0,0:0:0:0:
297,283,116891,2,0,P|326:229|407:256,1,116.999992137909,8|0,3:2|0:0,0:0:0:0:
511,186,117068,6,0,P|494:282|475:378,1,195.000000286102,2|0,3:0|3:2,0:0:0:0:
496,52,117421,6,0,P|433:69|371:90,1,129.999995231629,2|0,3:0|0:0,0:0:0:0:
304,46,117597,2,0,P|373:67|442:87,1,129.999995231629,8|0,3:2|0:0,0:0:0:0:
480,10,117774,2,0,P|460:79|441:147,1,129.999995231629,2|0,3:0|0:2,0:0:0:0:
447,226,117950,5,10,3:2:0:0:
410,215,118038,1,8,0:2:0:0:
378,194,118126,1,10,0:2:0:0:
342,201,118214,1,8,0:2:0:0:
288,255,118303,5,10,3:2:0:0:
214,234,118391,1,8,0:2:0:0:
150,192,118479,1,10,0:2:0:0:
78,205,118567,1,8,0:2:0:0:
46,289,118656,6,0,B|91:268|91:268|113:209,1,97.5000001430512,2|0,3:2|0:0,0:0:0:0:
107,223,119009,6,0,P|86:168|77:110,1,116.999992137909,6|0,3:2|0:0,0:0:0:0:
240,0,119185,2,0,P|218:54|209:111,1,116.999992137909,2|0,0:0|0:0,0:0:0:0:
348,213,119362,2,0,B|412:186|412:186|423:151|385:108,1,116.999992137909,2|0,3:2|0:0,0:0:0:0:
325,117,119538,5,2,0:0:0:0:
316,105,119626,1,2,0:0:0:0:
308,93,119714,2,0,P|369:105|421:126,1,116.999992137909,10|0,3:2|0:0,0:0:0:0:
509,250,119891,2,0,P|455:272|398:283,1,116.999992137909,2|0,0:0|0:0,0:0:0:0:
268,172,120068,6,0,P|163:235|73:315,1,233.999984275819,2|0,3:2|0:0,0:0:0:0:
355,372,120421,2,0,B|151:315|366:195|118:145,1,350.999976413728,10|0,3:2|0:0,0:0:0:0:
48,167,120774,2,0,P|107:175|175:202,1,116.999992137909,2|0,3:2|0:0,0:0:0:0:
287,303,120950,2,0,P|228:295|160:268,1,116.999992137909,8|0,0:0|0:0,0:0:0:0:
199,86,121127,2,0,P|282:39|341:235,1,350.999976413728,10|0,3:2|0:0,0:0:0:0:
285,180,121479,6,0,P|273:146|283:118,2,58.4999960689546,2|0|0,3:2|0:0|0:0,0:0:0:0:
479,147,121832,2,0,P|411:142|341:142,1,116.999992137909,10|0,3:2|0:0,0:0:0:0:
289,261,122009,2,0,P|229:300|169:327,1,116.999992137909,2|0,0:0|0:0,0:0:0:0:
138,225,122185,5,2,3:2:0:0:
120,208,122274,1,2,0:0:0:0:
302,12,122450,5,2,0:0:0:0:
364,63,122538,2,0,P|386:112|399:175,1,116.999992137909,10|0,3:2|0:0,0:0:0:0:
512,277,122715,2,0,P|390:321|345:236,1,233.999984275819,2|0,0:0|3:2,0:0:0:0:
14,375,123068,6,0,P|26:317|32:259,1,116.999992137909,2|0,0:0|0:0,0:0:0:0:
111,174,123244,2,0,P|151:218|184:264,1,116.999992137909,10|0,3:2|0:0,0:0:0:0:
253,375,123421,2,0,P|194:369|137:356,1,116.999992137909,2|0,0:0|0:0,0:0:0:0:
218,162,123597,6,0,B|238:124|270:100|270:100|255:139,1,116.999992137909,2|0,3:2|0:0,0:0:0:0:
52,107,123774,2,0,B|74:126|74:126|121:121|160:87,1,116.999992137909,8|0,2:2|0:0,0:0:0:0:
363,82,123950,2,0,P|358:66|334:37,7,38.9999973793031,10|0|0|0|0|0|0|0,3:2|0:0|0:0|0:0|0:0|0:0|0:0|0:0,0:0:0:0:
355,94,124303,6,0,B|352:143|402:173|402:173|536:145,1,233.999984275819,6|0,3:2|0:0,0:0:0:0:
413,8,124656,2,0,P|379:54|381:112,1,116.999992137909,10|0,3:2|0:0,0:0:0:0:
479,204,124832,2,0,P|512:250|510:308,1,116.999992137909,2|0,0:0|0:0,0:0:0:0:
314,363,125009,2,0,B|294:327|307:273|307:273|328:294,1,116.999992137909,2|0,3:2|0:0,0:0:0:0:
376,229,125185,5,2,0:0:0:0:
377,211,125274,1,2,0:0:0:0:
378,196,125362,2,0,P|325:220|236:245,1,116.999992137909,10|0,3:2|0:0,0:0:0:0:
512,347,125538,2,0,P|459:322|370:297,1,116.999992137909,2|0,0:0|0:0,0:0:0:0:
170,330,125715,6,0,P|135:218|106:104,1,233.999984275819,2|0,3:2|0:0,0:0:0:0:
432,71,126068,2,0,P|352:157|268:238,1,233.999984275819,10|0,3:2|0:0,0:0:0:0:
172,159,126421,6,0,P|143:272|108:384,1,233.999984275819,2|8,3:2|0:0,0:0:0:0:
282,154,126774,2,0,P|394:121|508:96,1,233.999984275819,10|0,3:2|0:0,0:0:0:0:
212,69,127127,6,0,B|174:54|157:17|157:17|232:47|277:30|277:30|297:-19,1,233.999984275819,2|0,3:2|0:0,0:0:0:0:
300,0,127479,2,0,P|249:47|231:125,1,116.999992137909,10|0,3:2|0:0,0:0:0:0:
388,192,127656,2,0,P|439:145|457:67,1,116.999992137909,2|0,0:0|0:0,0:0:0:0:
353,96,127832,6,0,B|317:105|317:105|236:273|363:207|286:373|286:373|256:383,1,350.999976413728,2|0,3:2|0:0,0:0:0:0:
112,268,128185,6,0,B|174:274|266:289|241:285,1,116.999992137909,10|0,3:2|0:0,0:0:0:0:
379,291,128362,2,0,P|304:302|257:306,1,116.999992137909
259,203,128538,5,2,3:2:0:0:
259,203,128891,1,2,3:2:0:0:
259,203,129244,1,2,3:2:0:0:
247,383,129597,6,0,L|216:375,7,24.3750000357628,2|0|0|0|0|0|0|0,0:0|0:0|0:0|0:0|0:0|0:0|0:0|0:0,0:0:0:0:
328,344,129950,6,0,B|290:356|240:361|240:361|229:351|229:351|186:350|128:366,1,195.000000286102,6|0,3:2|0:0,0:0:0:0:
433,339,130303,2,0,P|353:266|256:292,1,195.000000286102,8|2,3:2|0:0,0:0:0:0:
172,184,130568,1,2,0:0:0:0:
162,207,130656,2,0,P|176:261|196:312,1,97.5000001430512,2|0,3:2|0:0,0:0:0:0:
271,182,130832,5,2,0:0:0:0:
248,141,130921,1,2,0:0:0:0:
227,98,131009,2,0,P|165:67|128:52,1,97.5000001430512,8|0,3:2|0:0,0:0:0:0:
90,164,131185,2,0,P|31:186|31:245,1,97.5000001430512,2|0,0:0|0:0,0:0:0:0:
69,279,131362,2,0,P|74:205|30:56,2,195.000000286102,0|2|10,3:2|0:0|3:2,0:0:0:0:
319,338,131891,6,0,P|276:314|239:283,1,97.5000001430512,2|0,0:0|0:0,0:0:0:0:
207,374,132068,2,0,P|279:309|380:275,1,195.000000286102,2|2,3:2|0:0,0:0:0:0:
370,276,132303,1,2,0:0:0:0:
370,276,132362,1,2,0:0:0:0:
370,276,132421,2,0,P|410:288|490:289,1,97.5000001430512,10|0,3:2|0:0,0:0:0:0:
512,180,132597,2,0,P|485:221|452:256,1,97.5000001430512,2|0,0:0|0:0,0:0:0:0:
401,173,132774,1,2,3:2:0:0:
461,384,132950,6,0,P|434:370|390:367,1,48.7500000715256,2|0,0:0|0:0,0:0:0:0:
331,109,133127,2,0,P|303:133|267:202,1,97.5000001430512,10|0,3:2|0:0,0:0:0:0:
146,182,133303,2,0,P|124:251|128:407,1,195.000000286102,2|0,0:0|3:2,0:0:0:0:
4,196,133656,5,2,0:0:0:0:
46,212,133744,1,2,0:0:0:0:
85,237,133832,2,0,P|117:264|156:303,1,97.5000001430512,10|0,3:2|0:0,0:0:0:0:
274,266,134009,2,0,P|343:287|499:283,1,195.000000286102,2|0,0:0|3:2,0:0:0:0:
15,314,134362,5,2,0:0:0:0:
206,375,134538,2,0,P|203:326|195:278,1,97.5000001430512,10|0,3:2|0:0,0:0:0:0:
136,177,134715,2,0,P|138:128|180:89,1,97.5000001430512,2|0,0:0|0:0,0:0:0:0:
276,72,134891,6,0,B|299:43|294:14|294:14|276:-2|276:-2|251:10,1,97.5000001430512,2|0,3:2|0:0,0:0:0:0:
232,169,135068,2,0,B|264:212|264:212|318:200,1,97.5000001430512,8|0,0:0|0:0,0:0:0:0:
463,108,135244,6,0,L|517:96,7,32.4999988079071,10|0|0|0|0|0|0|0,3:2|0:0|0:0|0:0|0:0|0:0|0:0|0:0,0:0:0:0:
439,16,135597,6,0,B|414:33|414:33|435:96|397:171|397:171|418:204,1,195.000000286102,6|0,3:2|0:0,0:0:0:0:
499,334,135950,2,0,P|438:339|400:329,1,97.5000001430512,8|0,3:2|0:0,0:0:0:0:
286,344,136127,5,2,0:0:0:0:
306,357,136215,1,2,0:0:0:0:
326,369,136303,2,0,P|394:307|480:342,1,195.000000286102,2|0,3:2|0:0,0:0:0:0:
310,241,136568,5,2,0:0:0:0:
298,195,136657,1,10,3:2:0:0:
289,148,136744,1,2,0:0:0:0:
278,103,136832,2,0,P|226:57|194:32,1,97.5000001430512,2|0,0:0|0:0,0:0:0:0:
180,155,137009,2,0,P|93:200|0:224,2,195.000000286102,0|2|10,3:2|0:0|3:2,0:0:0:0:
184,384,137538,6,0,P|139:363|92:351,1,97.5000001430512,2|0,0:0|0:0,0:0:0:0:
140,285,137715,2,0,P|94:198|70:104,1,195.000000286102,2|2,3:2|0:0,0:0:0:0:
70,104,137950,1,2,0:0:0:0:
70,104,138009,1,2,0:0:0:0:
70,104,138068,2,0,P|99:65|113:19,1,97.5000001430512,10|0,3:2|0:0,0:0:0:0:
4,175,138244,2,0,P|17:128|47:90,1,97.5000001430512,2|0,0:0|0:0,0:0:0:0:
166,121,138421,1,2,3:2:0:0:
34,293,138597,6,0,P|19:273|2:256,1,48.7500000715256,2|0,0:0|0:0,0:0:0:0:
216,202,138774,2,0,P|225:250|227:299,1,97.5000001430512,10|0,3:2|0:0,0:0:0:0:
303,367,138950,2,0,P|369:269|389:191,1,195.000000286102,2|0,0:0|3:2,0:0:0:0:
435,299,139303,6,0,P|386:296|339:284,1,97.5000001430512,2|0,0:0|0:0,0:0:0:0:
256,137,139479,2,0,P|215:110|181:75,1,97.5000001430512,10|0,3:2|0:0,0:0:0:0:
345,60,139656,2,0,P|287:138|259:231,1,195.000000286102,2|0,3:2|0:0,0:0:0:0:
441,375,140009,5,2,3:2:0:0:
173,284,140185,1,2,3:2:0:0:
251,19,140362,1,2,3:2:0:0:
255,370,140538,1,2,3:2:0:0:
255,370,141244,6,0,P|267:230|236:100,2,259.999990463257,6|10|10,3:2|3:2|3:2,0:0:0:0:
162,369,142127,1,2,0:0:0:0:
306,282,142303,1,10,3:2:0:0:
385,327,142479,1,2,0:0:0:0:
255,370,142656,6,0,P|197:351|115:333,1,129.999995231629,10|2,3:2|0:0,0:0:0:0:
127,236,143009,2,0,P|65:256|1:270,1,129.999995231629,10|0,3:2|0:0,0:0:0:0:
250,109,143362,2,0,B|304:120|342:141|342:141|320:147|304:154,1,129.999995231629,10|0,3:2|0:0,0:0:0:0:
224,36,143715,6,0,P|212:88|187:167,1,129.999995231629,10|0,3:2|0:0,0:0:0:0:
301,161,144068,2,0,P|333:217|371:260,1,116.999992137909,10|0,3:2|0:0,0:0:0:0:
215,245,144421,2,0,P|170:280|124:304,1,103.999996185303,10|0,3:2|0:0,0:0:0:0:
343,341,144774,2,0,P|416:367|495:380,1,155.999989517212,10|10,3:2|3:2,0:0:0:0:
423,315,145303,1,0,0:0:0:0:
254,367,145479,5,10,3:2:0:0:
254,367,145832,1,10,3:2:0:0:
254,367,146185,1,10,3:2:0:0:
254,367,146538,2,0,P|269:312|212:304,1,129.999995231629,10|0,3:2|0:0,0:0:0:0:
257,370,146891,6,0,P|245:230|276:100,2,259.999990463257,10|10|10,3:2|3:2|3:2,0:0:0:0:
345,384,147774,1,2,0:0:0:0:
201,300,147950,1,10,3:2:0:0:
120,329,148127,1,2,0:0:0:0:
257,370,148303,6,0,P|298:322|336:265,1,129.999995231629,10|2,3:2|0:0,0:0:0:0:
197,260,148656,2,0,B|181:170|98:170|98:170|129:180|141:202,1,194.999992847443,10|0,3:2|0:0,0:0:0:0:
75,246,149009,2,0,B|38:269|27:326|27:326|13:289,1,129.999995231629,10|0,3:2|0:0,0:0:0:0:
23,82,149362,6,0,P|83:58|147:51,1,129.999995231629,10|0,3:2|0:0,0:0:0:0:
316,143,149715,2,0,P|373:150|447:183,1,129.999995231629,10|0,3:2|0:0,0:0:0:0:
95,112,150068,6,0,P|145:131|199:173,1,116.999992137909,10|0,3:2|0:0,0:0:0:0:
367,206,150421,2,0,B|418:262|399:362|399:362|384:311,1,207.999992370606,10|10,3:2|3:2,0:0:0:0:
447,261,150950,1,0,0:0:0:0:
255,370,151127,5,8,3:2:0:0:
255,370,151480,1,8,3:2:0:0:
255,370,151833,1,8,3:2:0:0:
221,296,152009,6,0,P|237:267|238:244,1,51.9999980926514
272,176,152185,2,0,P|202:125|166:37,1,155.999989517212,10|2,3:2|0:0,0:0:0:0:
327,0,152538,6,0,P|244:85|90:139,2,259.999990463257,10|10|10,3:2|3:2|3:2,0:0:0:0:
171,64,153421,1,2,0:0:0:0:
79,39,153597,1,10,3:2:0:0:
180,197,153774,1,2,0:0:0:0:
127,272,153950,2,0,P|74:313|11:338,1,129.999995231629,10|2,3:2|0:0,0:0:0:0:
54,219,154303,2,0,P|157:237|236:293,1,194.999992847443,10|0,3:2|0:0,0:0:0:0:
230,287,154656,2,0,P|287:292|309:223,1,129.999995231629,10|0,3:2|0:0,0:0:0:0:
331,27,155009,5,10,3:2:0:0:
464,104,155185,2,0,P|491:159|514:230,1,129.999995231629,2|8,0:0|3:2,0:0:0:0:
510,225,155715,5,10,3:2:0:0:
326,131,155891,2,0,P|259:112|149:102,1,155.999989517212,2|8,0:0|3:2,0:0:0:0:
173,102,156421,5,10,3:2:0:0:
398,233,156597,2,0,P|457:304|502:403,1,181.999987770081,2|8,0:0|3:2,0:0:0:0:
496,384,157127,2,0,P|535:311|431:337,1,233.999984275818,10|0,3:2|0:0,0:0:0:0:
431,320,157479,2,0,P|351:330|323:249,1,155.999989517212,10|2,3:2|0:0,0:0:0:0:
396,80,157832,2,0,B|437:65|485:104|485:104|497:38|442:1,1,195.000000286102,10|2,3:2|0:0,0:0:0:0:
420,162,158185,6,0,B|423:211|423:211|325:128|246:100|246:100|176:129,1,292.500000429154,6|0,3:2|0:0,0:0:0:0:
226,1,158538,6,0,B|275:-3|275:-3|192:95|164:174|164:174|193:244,1,292.500000429154,6|0,3:2|0:0,0:0:0:0:
67,194,158891,6,0,B|63:144|63:144|161:227|240:255|240:255|310:226,1,292.500000429154,6|0,3:2|0:0,0:0:0:0:
260,358,159244,6,0,B|210:361|210:361|293:263|321:184|321:184|292:114,1,292.500000429154,6|0,3:2|0:0,0:0:0:0:
418,163,159597,6,0,P|384:254|353:310,1,116.999992137909,6|0,3:2|0:0,0:0:0:0:
176,204,159774,2,0,P|85:238|29:269,1,116.999992137909,2|0,3:2|0:0,0:0:0:0:
260,357,159950,6,0,P|204:339|151:315,1,116.999992137909,6|0,3:2|0:0,0:0:0:0:
309,154,160127,2,0,P|290:98|266:45,1,116.999992137909,2|0,3:2|0:0,0:0:0:0:
134,106,160303,5,4,3:2:0:0:
122,93,160391,1,0,3:2:0:0:
130,77,160479,1,0,3:2:0:0:
148,76,160568,1,0,3:2:0:0:
75,154,160656,5,0,3:2:0:0:
46,88,160744,1,0,3:2:0:0:
79,22,160832,1,0,3:2:0:0:
151,1,160921,1,0,3:2:0:0:
211,121,161009,6,2,P|218:97|224:64,1,58.4999960689546,2|2,0:1|0:1,0:1:0:0:
237,52,161362,6,0,P|176:204|324:153,1,389.999985694885,14|0,3:2|0:0,0:0:0:0:
321,165,161715,1,2,3:2:0:0:
442,14,161891,5,2,0:0:0:0:
452,22,161979,1,2,0:0:0:0:
461,30,162068,2,0,P|450:85|440:167,1,129.999995231629,8|0,3:2|0:0,0:0:0:0:
463,319,162244,2,0,B|444:338|444:338|378:335|366:284,1,129.999995231629,2|0,0:0|0:0,0:0:0:0:
310,158,162421,6,0,P|255:169|173:179,1,129.999995231629,0|0,3:2|0:0,0:0:0:0:
239,384,162597,2,0,P|250:329|260:247,1,129.999995231629,2|0,0:0|0:0,0:0:0:0:
176,87,162774,2,0,P|73:71|8:224,1,259.999990463257,8|2,3:2|0:0,0:0:0:0:
94,230,163038,1,2,0:0:0:0:
102,247,163127,5,0,3:2:0:0:
256,40,163303,1,2,0:0:0:0:
176,269,163479,2,0,P|145:213|122:152,1,129.999995231629,8|0,3:2|0:0,0:0:0:0:
255,118,163656,2,0,P|288:62|329:12,1,129.999995231629,2|0,0:0|0:0,0:0:0:0:
446,74,163832,6,0,B|507:77|538:101|538:101|479:233|362:113|330:353,1,389.999985694885,2|0,3:2|0:0,0:0:0:0:
512,334,164185,2,0,P|478:263|412:208,1,129.999995231629,10|0,3:2|0:0,0:0:0:0:
223,321,164362,1,2,0:0:0:0:
218,304,164450,1,2,0:0:0:0:
213,290,164538,2,0,P|291:283|372:313,1,129.999995231629,0|0,3:2|0:0,0:0:0:0:
396,382,164715,5,2,0:0:0:0:
101,132,164891,2,0,P|121:260|163:383,1,259.999990463257,8|0,3:2|0:0,0:0:0:0:
276,384,165156,1,2,0:0:0:0:
293,368,165244,5,0,3:2:0:0:
29,80,165421,1,2,0:0:0:0:
7,384,165597,2,0,P|63:341|99:277,1,129.999995231629,8|0,3:2|0:0,0:0:0:0:
51,169,165774,5,2,0:3:0:0:
67,164,165862,1,2,0:3:0:0:
82,159,165951,2,0,P|136:194|174:246,1,129.999995231629,2|0,3:2|0:0,0:0:0:0:
358,295,166127,2,0,P|303:259|265:207,1,129.999995231629,2|0,0:0|0:0,0:0:0:0:
196,97,166303,2,0,P|222:225|180:346,1,259.999990463257,10|2,3:2|0:0,0:0:0:0:
469,14,166656,6,0,B|497:-18|497:-18|491:33|467:64,1,129.999995231629,4|0,3:2|0:0,0:0:0:0:
251,20,166832,2,0,P|312:41|376:34,1,129.999995231629,2|0,0:0|0:0,0:0:0:0:
454,270,167009,2,0,P|458:206|485:147,1,129.999995231629,8|0,3:2|0:0,0:0:0:0:
334,15,167185,2,0,P|358:74|403:120,1,129.999995231629,2|0,0:0|0:0,0:0:0:0:
337,375,167362,2,0,P|368:252|301:145,1,259.999990463257,0|2,3:2|0:0,0:0:0:0:
42,357,167715,6,0,B|14:389|14:389|20:338|44:307,1,129.999995231629,8|0,3:2|0:0,0:0:0:0:
118,201,167891,2,0,P|139:262|132:326,1,129.999995231629,2|0,0:0|0:0,0:0:0:0:
13,230,168068,2,0,P|-8:169|-1:105,1,129.999995231629,0|0,3:2|0:0,0:0:0:0:
181,3,168244,2,0,P|202:64|195:128,1,129.999995231629,2|0,0:0|0:0,0:0:0:0:
215,319,168421,2,0,P|113:242|99:117,1,259.999990463257,8|2,3:2|0:0,0:0:0:0:
0,12,168685,1,0,0:0:0:0:
17,0,168774,6,0,P|271:40|416:80,1,389.999985694885,0|0,3:2|0:0,0:0:0:0:
481,155,169127,2,0,P|246:259|116:335,1,389.999985694885,10|0,3:2|0:0,0:0:0:0:
258,382,169479,6,0,B|292:330|276:265|276:265|289:257|289:257|303:199|240:146|240:146|187:135|187:135|161:81|200:5|263:1|291:15,2,519.999980926514,0|8|0,3:2|3:2|3:2,0:0:0:0:
266,97,170362,1,2,0:0:0:0:
323,252,170538,6,0,P|258:247|196:226,1,129.999995231629,8|0,3:2|0:0,0:0:0:0:
134,282,170715,2,0,P|56:181|53:50,2,259.999990463257,2|0|2,0:0|3:2|0:0,0:0:0:0:
488,146,171244,6,0,P|423:151|361:172,1,129.999995231629,8|0,3:2|0:0,0:0:0:0:
299,116,171421,2,0,P|221:216|218:347,2,259.999990463257,2|0|2,0:0|3:2|0:0,0:0:0:0:
512,384,171950,6,0,P|467:338|458:274,1,129.999995231629,10|0,3:2|0:0,0:0:0:0:
390,127,172127,2,0,P|410:65|415:0,1,129.999995231629,2|0,0:0|0:0,0:0:0:0:
413,338,172303,6,0,B|345:301|328:252|328:252|461:222|482:87|482:87|445:67,1,389.999985694885,6|0,3:2|0:0,0:0:0:0:
415,0,172656,2,0,P|403:193|299:361,1,389.999985694885,10|0,3:2|0:0,0:0:0:0:
302,357,173009,1,2,3:2:0:0:
270,193,173185,5,2,0:0:0:0:
258,198,173273,1,2,0:0:0:0:
248,203,173361,2,0,P|186:189|109:174,1,129.999995231629,10|0,3:2|0:0,0:0:0:0:
70,273,173538,2,0,B|17:298|4:341|4:341|36:377,1,129.999995231629,2|0,0:0|0:0,0:0:0:0:
171,277,173714,6,0,P|148:195|131:154,1,129.999995231629,2|0,3:2|0:0,0:0:0:0:
277,0,173891,2,0,P|296:62|316:123,1,129.999995231629,2|0,0:0|0:0,0:0:0:0:
466,173,174067,2,0,P|332:183|210:89,1,259.999990463257,10|2,3:2|0:0,0:0:0:0:
143,40,174332,1,0,0:0:0:0:
135,23,174421,5,0,3:2:0:0:
23,270,174597,1,2,0:0:0:0:
0,0,174774,6,0,P|14:63|45:119,1,129.999995231629,10|0,3:2|0:0,0:0:0:0:
113,187,174950,2,0,P|111:253|80:324,1,129.999995231629,2|0,0:0|0:0,0:0:0:0:
8,358,175127,2,0,P|66:282|222:189,1,259.999990463257,0|0,3:2|0:0,0:0:0:0:
422,294,175479,6,0,P|366:260|322:213,1,129.999995231629,10|0,3:2|0:0,0:0:0:0:
452,74,175656,2,0,P|433:136|431:200,1,129.999995231629,2|0,0:0|0:0,0:0:0:0:
508,271,175832,2,0,P|386:315|257:314,1,259.999990463257,0|0,3:2|0:0,0:0:0:0:
326,123,176185,6,0,P|265:98|201:91,1,129.999995231629,10|0,3:2|0:0,0:0:0:0:
79,225,176362,2,0,P|143:218|203:193,1,129.999995231629,2|0,0:0|0:0,0:0:0:0:
323,214,176538,2,0,P|259:101|159:19,1,259.999990463257,0|0,3:2|0:0,0:0:0:0:
78,321,176891,6,0,B|25:360|-19:352|-19:352|16:251|62:234|62:234|141:239|196:206,1,389.999985694885,10|0,3:2|0:0,0:0:0:0:
287,322,177244,2,0,P|227:344|167:286,1,129.999995231629,0|0,3:2|0:0,0:0:0:0:
191,219,177421,2,0,P|157:156|149:75,1,129.999995231629,2|0,0:0|0:0,0:0:0:0:
40,18,177597,2,0,P|18:78|76:138,1,129.999995231629,10|0,3:2|0:0,0:0:0:0:
137,108,177774,2,0,P|199:142|280:150,1,129.999995231629,2|0,0:0|0:0,0:0:0:0:
345,111,177950,6,0,P|461:328|265:282,2,519.999980926514,6|10|2,3:2|3:2|3:2,0:0:0:0:
386,197,178832,1,2,0:0:0:0:
397,203,178921,1,2,0:0:0:0:
407,208,179009,2,0,P|419:146|438:79,1,129.999995231629,8|0,3:2|0:0,0:0:0:0:
226,24,179185,2,0,P|238:87|256:150,1,129.999995231629,2|0,0:0|0:0,0:0:0:0:
204,310,179362,6,0,P|137:122|307:226,2,519.999980926514,2|10|2,3:2|3:2|3:2,0:0:0:0:
147,239,180244,1,0,0:0:0:0:
2,290,180421,2,0,P|195:277|352:388,1,389.999985694885,10|0,3:2|0:0,0:0:0:0:
350,384,180774,6,0,P|424:340|315:316,1,259.999990463257,0|0,3:2|0:0,0:0:0:0:
144,315,181127,2,0,P|104:173|220:265,1,389.999985694885,10|0,3:2|0:0,0:0:0:0:
237,344,181479,2,0,P|225:388|249:350,2,129.999995231629,0|0|0,3:2|0:0|0:0,0:0:0:0:
414,2,181832,6,0,P|377:70|351:134,1,129.999995231629,10|0,3:2|0:0,0:0:0:0:
266,136,182009,2,0,B|305:183|299:256|299:256|336:193|427:189,2,259.999990463257,0|0|0,0:0|3:2|0:0,0:0:0:0:
474,243,182538,6,0,P|174:235|31:223,1,389.999985694885,14|0,3:2|3:2,0:0:0:0:
53,373,182891,6,0,P|25:314|0:255,1,129.999995231629,2|0,3:2|0:0,0:0:0:0:
164,22,183068,6,0,P|134:80|107:139,1,129.999995231629,2|0,3:2|0:0,0:0:0:0:
265,357,183244,6,0,P|237:298|210:240,1,129.999995231629,2|0,3:2|0:0,0:0:0:0:
380,77,183421,6,0,P|353:136|327:196,1,129.999995231629,2|0,3:2|0:0,0:0:0:0:
385,282,183597,5,2,0:0:0:0:
405,164,184127,1,2,0:0:0:0:
405,164,184303,1,2,0:0:0:0:
269,314,184832,5,2,0:0:0:0:
302,223,185185,1,2,0:0:0:0:
141,338,185538,5,2,0:0:0:0:
199,268,185715,1,2,0:0:0:0:
199,268,186068,1,2,0:0:0:0:
38,360,186421,5,2,0:0:0:0:
