osu file format v14

[General]
AudioFilename: audio.mp3
AudioLeadIn: 0
PreviewTime: 65384
Countdown: 0
SampleSet: Soft
StackLeniency: 0.4
Mode: 0
LetterboxInBreaks: 0
WidescreenStoryboard: 0

[Editor]
DistanceSpacing: 0.7
BeatDivisor: 8
GridSize: 32
TimelineZoom: 2.599999

[Metadata]
Title:Reason For Existence
TitleUnicode:生きるよすが
Artist:Tsukuyomi
ArtistUnicode:月詠み
Creator:Petal
Version:Ascension
Source:
Tags:ikiru yosuga 1st Story Yue ユリイ・カノン yurry canon yurrycanon Epoch とうかさ toukasa なおk naodoramu japanese j-pop pop rock j-rock piano koldnoodl noodle MiyohashiKoori matha shii 6th digital single
BeatmapID:3473962
BeatmapSetID:1700193

[Difficulty]
HPDrainRate:5
CircleSize:4
OverallDifficulty:9
ApproachRate:9.6
SliderMultiplier:2.4
SliderTickRate:1

[Events]
//Background and Video events
0,0,"bg.jpg",0,0
//Break Periods
2,98738,99918
2,100643,103251
//Storyboard Layer 0 (Background)
//Storyboard Layer 1 (Fail)
//Storyboard Layer 2 (Pass)
//Storyboard Layer 3 (Foreground)
//Storyboard Layer 4 (Overlay)
//Storyboard Sound Samples

[TimingPoints]
-508,476.190476190476,4,2,1,20,1,0
682,-250,4,2,1,20,0,0
1396,-125,4,2,1,30,0,0
2230,-100,4,2,1,30,0,0
2825,-166.666666666667,4,2,1,30,0,0
3301,-125,4,2,1,30,0,0
4134,-100,4,2,1,30,0,0
4730,-166.666666666667,4,2,1,30,0,0
5206,-125,4,2,1,30,0,0
6039,-100,4,2,1,30,0,0
6634,-166.666666666667,4,2,1,30,0,0
7111,-125,4,2,1,30,0,0
9015,-100,4,2,1,35,0,0
9491,-125,4,2,1,35,0,0
9849,-100,4,2,1,35,0,0
10206,-125,4,2,1,35,0,0
11396,-125,4,2,1,35,0,0
11753,-100,4,2,1,35,0,0
12349,-166.666666666667,4,2,1,35,0,0
12825,-125,4,2,1,35,0,0
13658,-100,4,2,1,35,0,0
15682,-100,4,2,1,50,0,0
16634,-125,4,2,1,30,0,0
18539,-125,4,2,1,50,0,0
19968,-250,4,2,1,50,0,0
20384,-250,4,2,1,5,0,0
20444,-71.4285714285714,4,2,2,65,0,0
20563,-71.4285714285714,4,2,1,65,0,0
21277,-58.8235294117647,4,2,1,65,0,0
21456,-58.8235294117647,4,2,1,5,0,0
21515,-62.5,4,2,1,65,0,0
21575,-62.5,4,2,1,5,0,0
21634,-71.4285714285714,4,2,1,65,0,0
23182,-58.8235294117647,4,2,1,65,0,0
23361,-58.8235294117647,4,2,1,5,0,0
23420,-62.5,4,2,1,65,0,0
23480,-62.5,4,2,1,5,0,0
23539,-71.4285714285714,4,2,1,65,0,0
25087,-58.8235294117647,4,2,1,65,0,0
25265,-58.8235294117647,4,2,1,5,0,0
25325,-62.5,4,2,1,65,0,0
25384,-62.5,4,2,1,5,0,0
25444,-71.4285714285714,4,2,1,65,0,0
26277,-50,4,2,1,65,0,0
26456,-50,4,2,1,5,0,0
26515,-50,4,2,1,65,0,0
26634,-71.4285714285714,4,2,1,65,0,0
26991,-55.5555555555556,4,2,1,65,0,0
27170,-55.5555555555556,4,2,1,5,0,0
27230,-62.5,4,2,1,65,0,0
27289,-62.5,4,2,1,5,0,0
27349,-71.4285714285714,4,2,1,65,0,0
28896,-58.8235294117647,4,2,1,65,0,0
29075,-58.8235294117647,4,2,1,5,0,0
29134,-62.5,4,2,1,65,0,0
29194,-62.5,4,2,1,5,0,0
29253,-71.4285714285714,4,2,1,65,0,0
30801,-58.8235294117647,4,2,1,65,0,0
30980,-58.8235294117647,4,2,1,5,0,0
31039,-62.5,4,2,1,65,0,0
31099,-62.5,4,2,1,5,0,0
31158,-71.4285714285714,4,2,1,65,0,0
32706,-58.8235294117647,4,2,1,65,0,0
32884,-58.8235294117647,4,2,1,5,0,0
32944,-62.5,4,2,1,65,0,0
33003,-62.5,4,2,1,5,0,0
33063,-71.4285714285714,4,2,1,65,0,0
33896,-50,4,2,1,65,0,0
34075,-50,4,2,1,5,0,0
34134,-50,4,2,1,65,0,0
34253,-71.4285714285714,4,2,1,65,0,0
34611,-55.5555555555556,4,2,1,65,0,0
34789,-55.5555555555556,4,2,1,5,0,0
34849,-62.5,4,2,1,65,0,0
34908,-62.5,4,2,1,5,0,0
34968,-71.4285714285714,4,2,1,65,0,0
35682,-250,4,2,2,40,0,0
35801,-250,4,2,1,40,0,0
37111,-125,4,2,1,40,0,0
37587,-100,4,2,1,40,0,0
38420,-125,4,2,1,40,0,0
39491,-125,4,2,1,40,0,0
41396,-100,4,2,1,40,0,0
42230,-125,4,2,1,40,0,0
42587,-100,4,2,1,40,0,0
42825,-125,4,2,1,40,0,0
43301,-100,4,2,1,45,0,0
44730,-125,4,2,1,45,0,0
46039,-100,4,2,1,45,0,0
46634,-71.4285714285714,4,2,1,45,0,0
46813,-71.4285714285714,4,2,1,5,0,0
46872,-100,4,2,1,45,0,0
48539,-125,4,2,1,45,0,0
49491,-45.4545454545455,4,2,1,50,0,0
49670,-45.4545454545455,4,2,1,5,0,0
49730,-45.4545454545455,4,2,1,50,0,0
50206,-62.5,4,2,1,50,0,0
50920,-71.4285714285714,4,2,1,50,0,0
52587,-71.4285714285714,4,2,1,50,0,0
53063,-83.3333333333333,4,2,1,50,0,0
53301,-66.6666666666667,4,2,1,50,0,0
53480,-66.6666666666667,4,2,1,5,0,0
53539,-83.3333333333333,4,2,1,50,0,0
54253,-66.6666666666667,4,2,1,50,0,0
54432,-66.6666666666667,4,2,1,5,0,0
54491,-66.6666666666667,4,2,1,50,0,0
54730,-71.4285714285714,4,2,1,50,0,0
56396,-66.6666666666667,4,2,1,50,0,0
56872,-83.3333333333333,4,2,1,50,0,0
57111,-66.6666666666667,4,2,1,50,0,0
57289,-66.6666666666667,4,2,1,5,0,0
57349,-66.6666666666667,4,2,1,50,0,0
57468,-71.4285714285714,4,2,1,50,0,0
57825,-100,4,2,1,50,0,0
58063,-66.6666666666667,4,2,1,50,0,0
58539,-71.4285714285714,4,2,1,50,0,0
60206,-62.5,4,2,1,50,0,0
60384,-62.5,4,2,1,5,0,0
60444,-55.5555555555556,4,2,1,50,0,0
60622,-55.5555555555556,4,2,1,5,0,0
60682,-100,4,2,1,50,0,0
60920,-55.5555555555556,4,2,1,50,0,0
61099,-55.5555555555556,4,2,1,5,0,0
61158,-100,4,2,1,50,0,0
61396,-45.4545454545455,4,2,1,50,0,0
62349,-83.3333333333333,4,2,1,60,0,0
63301,-62.5,4,2,1,60,0,0
63539,-55.5555555555556,4,2,1,60,0,0
63777,-50,4,2,1,60,0,0
64015,-45.4545454545455,4,2,1,60,0,0
64194,-45.4545454545455,4,2,1,5,0,0
64253,-55.5555555555556,4,2,1,65,0,0
66158,238.095238095238,4,2,1,20,1,0
66158,-100,4,2,2,75,0,1
66336,-100,4,2,1,5,0,1
66396,-125,4,2,1,75,0,1
66991,-100,4,2,1,75,0,1
67169,-100,4,2,1,5,0,1
67229,-100,4,2,1,75,0,1
67348,-125,4,2,1,75,0,1
67824,-100,4,2,1,75,0,1
68003,-100,4,2,1,5,0,1
68062,-125,4,2,1,75,0,1
68896,-100,4,2,1,75,0,1
69074,-100,4,2,1,5,0,1
69134,-100,4,2,1,75,0,1
69253,-125,4,2,1,75,0,1
69729,-83.3333333333333,4,2,1,75,0,1
69908,-83.3333333333333,4,2,1,5,0,1
69967,-125,4,2,1,75,0,1
70800,-100,4,2,1,75,0,1
71158,-125,4,2,1,75,0,1
71634,-100,4,2,1,75,0,1
71812,-100,4,2,1,5,0,1
71872,-83.3333333333333,4,2,1,75,0,1
72050,-83.3333333333333,4,2,1,5,0,1
72110,-83.3333333333333,4,2,1,75,0,1
73479,-83.3333333333333,4,2,1,5,0,1
73538,-125,4,2,1,75,0,1
74253,-83.3333333333333,4,2,1,75,0,1
74431,-83.3333333333333,4,2,1,5,0,1
74491,-125,4,2,1,75,0,1
75443,-100,4,2,1,75,0,1
75622,-100,4,2,1,5,0,1
75681,-125,4,2,1,75,0,1
76515,-100,4,2,1,75,0,1
76693,-100,4,2,1,5,0,1
76753,-100,4,2,1,75,0,1
76872,-125,4,2,1,75,0,1
77348,-100,4,2,1,75,0,1
77527,-100,4,2,1,5,0,1
77586,-125,4,2,1,75,0,1
78419,-100,4,2,1,75,0,1
78777,-125,4,2,1,75,0,1
79253,-100,4,2,1,75,0,1
79431,-100,4,2,1,5,0,1
79491,-100,4,2,1,75,0,1
79967,-125,4,2,1,75,0,1
80324,-83.3333333333333,4,2,1,75,0,1
80681,-83.3333333333333,4,2,1,75,0,0
81396,-83.3333333333333,4,2,2,75,0,1
81574,-83.3333333333333,4,2,1,5,0,1
81634,-125,4,2,1,75,0,1
81872,-100,4,2,1,75,0,1
82050,-100,4,2,1,5,0,1
82110,-100,4,2,1,75,0,1
82586,-125,4,2,1,75,0,1
82824,-100,4,2,1,75,0,1
83003,-100,4,2,1,5,0,1
83062,-125,4,2,1,75,0,1
83300,-100,4,2,1,75,0,1
83777,-125,4,2,1,75,0,1
85205,-83.3333333333333,4,2,1,75,0,1
85384,-83.3333333333333,4,2,1,5,0,1
85443,-125,4,2,1,75,0,1
85681,-100,4,2,1,75,0,1
85860,-100,4,2,1,5,0,1
85919,-100,4,2,1,75,0,1
86396,-125,4,2,1,75,0,1
86634,-100,4,2,1,75,0,1
86812,-100,4,2,1,5,0,1
86872,-125,4,2,1,75,0,1
87110,-83.3333333333333,4,2,1,75,0,1
87348,-125,4,2,1,75,0,1
87943,-83.3333333333333,4,2,1,75,0,1
88122,-83.3333333333333,4,2,1,5,0,1
88181,-83.3333333333333,4,2,1,75,0,1
89193,-83.3333333333333,4,2,1,5,0,1
89253,-125,4,2,1,75,0,1
89491,-100,4,2,1,75,0,1
89669,-100,4,2,1,5,0,1
89729,-100,4,2,1,75,0,1
90205,-125,4,2,1,75,0,1
90443,-100,4,2,1,75,0,1
90622,-100,4,2,1,5,0,1
90681,-125,4,2,1,75,0,1
90919,-100,4,2,1,75,0,1
91396,-125,4,2,1,75,0,1
91753,-100,4,2,1,75,0,1
92824,476.190476190476,4,2,1,20,1,0
92824,-83.3333333333333,4,2,1,65,0,0
93300,-62.5,4,2,1,65,0,0
93478,-62.5,4,2,1,5,0,0
93538,-62.5,4,2,1,65,0,0
93657,-62.5,4,2,1,65,0,0
94014,-71.4285714285714,4,2,1,65,0,0
94728,-62.5,4,2,1,65,0,0
94907,-62.5,4,2,1,5,0,0
94966,-55.5555555555556,4,2,1,65,0,0
95145,-55.5555555555556,4,2,1,5,0,0
95204,-50,4,2,1,65,0,0
95383,-50,4,2,1,5,0,0
95443,-45.4545454545455,4,2,1,65,0,0
95621,-45.4545454545455,4,2,1,5,0,0
95681,-45.4545454545455,4,2,1,65,0,0
98538,-45.4545454545455,4,2,1,35,0,0
100443,-45.4545454545455,4,2,1,20,0,0
103776,-45.4545454545455,4,2,1,35,0,0
104252,-76.9230769230769,4,2,1,35,0,0
105085,-66.6666666666667,4,2,1,35,0,0
105443,-76.9230769230769,4,2,1,35,0,0
106990,-66.6666666666667,4,2,1,35,0,0
107347,-76.9230769230769,4,2,1,35,0,0
109966,-76.9230769230769,4,2,1,50,0,0
110443,-50,4,2,1,50,0,0
110621,-50,4,2,1,5,0,0
110681,-50,4,2,1,50,0,0
110800,-71.4285714285714,4,2,1,50,0,0
111871,-83.3333333333333,4,2,1,50,0,0
113300,-125,4,2,1,50,0,0
113538,-166.666666666667,4,2,1,50,0,0
113776,-83.3333333333333,4,2,1,50,0,0
114966,-71.4285714285714,4,2,1,50,0,0
115681,-83.3333333333333,4,2,1,50,0,0
117109,-125,4,2,1,50,0,0
117347,-166.666666666667,4,2,1,50,0,0
117585,-83.3333333333333,4,2,1,50,0,0
118776,-71.4285714285714,4,2,1,50,0,0
119490,-83.3333333333333,4,2,1,50,0,0
120919,-125,4,2,1,50,0,0
121157,-166.666666666667,4,2,1,50,0,0
121395,-83.3333333333333,4,2,1,50,0,0
122585,-71.4285714285714,4,2,1,50,0,0
123776,-83.3333333333333,4,2,1,50,0,0
124728,-125,4,2,1,50,0,0
124966,-166.666666666667,4,2,1,50,0,0
125204,-83.3333333333333,4,2,1,50,0,0
125681,-71.4285714285714,4,2,1,50,0,0
125859,-71.4285714285714,4,2,1,5,0,0
125919,-71.4285714285714,4,2,1,50,0,0
126633,-62.5,4,2,1,50,0,0
127109,-71.4285714285714,4,2,1,60,0,0
127585,-62.5,4,2,1,60,0,0
127764,-62.5,4,2,1,5,0,0
127823,-62.5,4,2,1,60,0,0
127943,-71.4285714285714,4,2,1,60,0,0
129490,-62.5,4,2,1,60,0,0
129847,-71.4285714285714,4,2,1,60,0,0
130204,-100,4,2,1,60,0,0
130443,-71.4285714285714,4,2,1,60,0,0
130681,-100,4,2,1,60,0,0
130919,-71.4285714285714,4,2,1,60,0,0
131395,-62.5,4,2,1,60,0,0
131574,-62.5,4,2,1,5,0,0
131633,-62.5,4,2,1,60,0,0
131752,-71.4285714285714,4,2,1,60,0,0
133062,-100,4,2,1,60,0,0
133300,-71.4285714285714,4,2,1,60,0,0
134252,-62.5,4,2,1,60,0,0
134431,-62.5,4,2,1,5,0,0
134490,-100,4,2,1,60,0,0
134728,-71.4285714285714,4,2,1,60,0,0
135204,-62.5,4,2,1,60,0,0
135383,-62.5,4,2,1,5,0,0
135443,-62.5,4,2,1,60,0,0
135562,-71.4285714285714,4,2,1,60,0,0
137109,-62.5,4,2,1,60,0,0
137466,-71.4285714285714,4,2,1,60,0,0
138062,-100,4,2,1,50,0,0
138300,-125,4,2,1,40,0,0
138538,-125,4,2,1,30,0,0
140443,-41.6666666666667,4,2,1,65,0,0
140621,-41.6666666666667,4,2,1,5,0,0
140681,-100,4,2,1,65,0,0
140859,-100,4,2,1,5,0,0
140919,-83.3333333333333,4,2,1,65,0,0
141097,-83.3333333333333,4,2,1,5,0,0
141157,-71.4285714285714,4,2,1,65,0,0
141335,-71.4285714285714,4,2,1,5,0,0
141395,-71.4285714285714,4,2,1,65,0,0
141573,-71.4285714285714,4,2,1,5,0,0
141633,-71.4285714285714,4,2,1,65,0,0
141812,-71.4285714285714,4,2,1,5,0,0
141871,-62.5,4,2,1,65,0,0
142050,-62.5,4,2,1,5,0,0
142109,-62.5,4,2,1,65,0,0
142347,-62.5,4,2,3,75,0,1
142466,-62.5,4,2,11,75,0,1
142585,-62.5,4,2,12,75,0,1
142704,-62.5,4,2,13,75,0,1
142823,-62.5,4,2,10,75,0,1
142943,-62.5,4,2,12,75,0,1
143062,-62.5,4,2,13,75,0,1
143181,-62.5,4,2,14,75,0,1
143300,-62.5,4,2,1,75,0,1
143419,-62.5,4,2,15,75,0,1
143538,-62.5,4,2,16,75,0,1
143657,-62.5,4,2,17,75,0,1
143776,-62.5,4,2,13,75,0,1
143895,-62.5,4,2,18,75,0,1
144014,-62.5,4,2,17,75,0,1
144133,-62.5,4,2,18,75,0,1
144252,-62.5,4,2,23,75,0,1
144371,-62.5,4,2,12,75,0,1
144490,-62.5,4,2,19,75,0,1
144609,-62.5,4,2,20,75,0,1
144728,-50,4,2,21,75,0,1
144907,-50,4,2,1,5,0,1
144966,-62.5,4,2,20,75,0,1
145085,-62.5,4,2,13,75,0,1
145204,-62.5,4,2,1,75,0,1
145323,-62.5,4,2,13,75,0,1
145443,-62.5,4,2,16,75,0,1
145562,-62.5,4,2,13,75,0,1
145681,-62.5,4,2,15,75,0,1
145800,-62.5,4,2,18,75,0,1
145919,-62.5,4,2,20,75,0,1
146038,-62.5,4,2,15,75,0,1
146157,-62.5,4,2,10,75,0,1
146276,-62.5,4,2,11,75,0,1
146395,-62.5,4,2,12,75,0,1
146514,-62.5,4,2,13,75,0,1
146633,-62.5,4,2,10,75,0,1
146752,-62.5,4,2,12,75,0,1
146871,-62.5,4,2,13,75,0,1
146990,-62.5,4,2,14,75,0,1
147109,-62.5,4,2,1,75,0,1
147228,-62.5,4,2,15,75,0,1
147347,-62.5,4,2,16,75,0,1
147466,-62.5,4,2,17,75,0,1
147585,-62.5,4,2,13,75,0,1
147704,-62.5,4,2,18,75,0,1
147823,-62.5,4,2,17,75,0,1
147942,-62.5,4,2,18,75,0,1
148062,-62.5,4,2,23,75,0,1
148181,-50,4,2,12,75,0,1
148359,-50,4,2,1,5,0,1
148419,-50,4,2,20,75,0,1
148538,-50,4,2,16,75,0,1
148657,-50,4,2,20,75,0,1
148776,-50,4,2,11,75,0,1
148895,-35.7142857142857,4,2,22,75,0,1
149073,-40,4,2,1,5,0,1
149133,-40,4,2,13,75,0,1
149252,-40,4,2,16,75,0,1
149371,-40,4,2,13,75,0,1
149490,-62.5,4,2,24,75,0,1
149609,-62.5,4,2,1,75,0,1
149728,-62.5,4,2,22,75,0,0
149847,-62.5,4,2,1,75,0,0
149966,-38.4615384615385,4,2,4,75,0,1
150145,-45.4545454545455,4,2,1,5,0,1
150204,-45.4545454545455,4,2,30,75,0,1
150323,-62.5,4,2,16,75,0,1
150443,-62.5,4,2,1,75,0,1
150562,-62.5,4,2,11,75,0,1
150681,-62.5,4,2,1,75,0,1
150800,-62.5,4,2,10,75,0,1
150839,-62.5,4,2,1,75,0,1
151038,-62.5,4,2,10,75,0,1
151157,-62.5,4,2,31,75,0,1
151276,-62.5,4,2,1,75,0,1
151395,-62.5,4,2,10,75,0,1
151633,-62.5,4,2,31,75,0,1
151712,-62.5,4,2,10,75,0,1
151871,-35.7142857142857,4,2,16,75,0,1
152050,-50,4,2,1,5,0,1
152109,-50,4,2,32,75,0,1
152228,-62.5,4,2,12,75,0,1
152347,-62.5,4,2,1,75,0,1
152466,-62.5,4,2,14,75,0,1
152585,-62.5,4,2,1,75,0,1
152704,-45.4545454545455,4,2,16,75,0,1
152883,-45.4545454545455,4,2,1,5,0,1
152943,-45.4545454545455,4,2,1,75,0,1
153062,-45.4545454545455,4,2,33,75,0,1
153181,-45.4545454545455,4,2,22,75,0,1
153300,-45.4545454545455,4,2,16,75,0,1
153419,-45.4545454545455,4,2,15,75,0,1
153538,-45.4545454545455,4,2,34,75,0,1
153657,-45.4545454545455,4,2,15,75,0,1
153776,-45.4545454545455,4,2,21,75,0,1
153895,-45.4545454545455,4,2,20,75,0,1
154014,-45.4545454545455,4,2,32,75,0,1
154133,-45.4545454545455,4,2,12,75,0,1
154252,-45.4545454545455,4,2,21,75,0,1
154371,-45.4545454545455,4,2,12,75,0,1
154490,-45.4545454545455,4,2,34,75,0,1
154609,-62.5,4,2,10,75,0,1
154728,-62.5,4,2,1,75,0,1
154847,-62.5,4,2,16,75,0,1
154966,-62.5,4,2,35,75,0,1
155085,-62.5,4,2,1,75,0,1
155204,-50,4,2,16,75,0,1
155383,-50,4,2,1,5,0,1
155443,-50,4,2,34,75,0,1
155562,-50,4,2,12,75,0,1
155681,-50,4,2,21,75,0,1
155800,-50,4,2,20,75,0,1
155919,-50,4,2,32,75,0,1
156038,-50,4,2,12,75,0,1
156157,-50,4,2,1,75,0,1
156276,-50,4,2,21,75,0,1
156395,-50,4,2,30,75,0,1
156514,-62.5,4,2,13,75,0,0
156633,-62.5,4,2,1,75,0,0
156752,-62.5,4,2,21,75,0,0
156871,-62.5,4,2,36,75,0,0
156990,-62.5,4,2,1,75,0,0
158062,-125,4,2,1,55,0,0
158419,-100,4,2,1,55,0,0
159014,-100,4,2,1,55,0,0
159252,-125,4,2,1,55,0,0
159490,-100,4,2,1,55,0,0
159966,-83.3333333333333,4,2,1,55,0,0
160323,-100,4,2,1,55,0,0
160919,-83.3333333333333,4,2,1,55,0,0
161395,-100,4,2,1,55,0,0
162585,-83.3333333333333,4,2,1,55,0,0
163300,-125,4,2,1,55,0,0
163776,-71.4285714285714,4,2,1,55,0,0
164133,-100,4,2,1,55,0,0
164966,-71.4285714285714,4,2,1,55,0,0
165204,-83.3333333333333,4,2,1,55,0,0
165681,-125,4,2,1,55,0,0
166038,-100,4,2,1,55,0,0
166633,-100,4,2,1,55,0,0
166871,-125,4,2,1,55,0,0
167109,-100,4,2,1,55,0,0
167585,-83.3333333333333,4,2,1,55,0,0
167943,-100,4,2,1,55,0,0
168538,-83.3333333333333,4,2,1,55,0,0
168776,-125,4,2,1,55,0,0
169847,-83.3333333333333,4,2,1,20,0,0
170919,-55.5555555555556,4,2,1,60,0,0
171276,-38.4615384615385,4,2,1,60,0,0
172824,238.095238095238,4,2,1,20,1,0
172824,-100,4,2,1,70,0,0
173657,-76.9230769230769,4,2,1,70,0,1
174014,-125,4,2,1,70,0,1
174728,-125,4,2,1,70,0,0
175502,-125,4,2,1,5,0,0
175562,-62.5,4,2,1,70,0,1
175740,-62.5,4,2,1,5,0,1
175800,-62.5,4,2,1,70,0,0
175919,-125,4,2,1,70,0,0
176216,-125,4,2,1,5,0,0
176276,-125,4,2,1,70,0,0
176335,-125,4,2,1,5,0,0
176395,-100,4,2,1,70,0,0
176454,-100,4,2,1,5,0,0
176514,-100,4,2,1,70,0,0
176574,-100,4,2,1,5,0,0
176633,-83.3333333333333,4,2,2,80,0,1
176812,-83.3333333333333,4,2,1,5,0,1
176871,-125,4,2,1,80,0,1
177109,-100,4,2,1,80,0,1
177288,-100,4,2,1,5,0,1
177347,-100,4,2,1,80,0,1
177824,-125,4,2,1,80,0,1
178062,-100,4,2,1,80,0,1
178240,-100,4,2,1,5,0,1
178300,-125,4,2,1,80,0,1
178538,-71.4285714285714,4,2,1,80,0,1
178716,-71.4285714285714,4,2,1,5,0,1
178776,-71.4285714285714,4,2,1,80,0,1
179371,-83.3333333333333,4,2,1,80,0,1
180145,-83.3333333333333,4,2,1,5,0,1
180204,-125,4,2,1,80,0,1
180919,-83.3333333333333,4,2,1,80,0,1
181097,-83.3333333333333,4,2,1,5,0,1
181157,-83.3333333333333,4,2,1,80,0,1
181276,-100,4,2,1,80,0,1
181633,-125,4,2,1,80,0,1
182109,-100,4,2,1,80,0,1
182288,-100,4,2,1,5,0,1
182347,-125,4,2,1,80,0,1
182824,-100,4,2,1,80,0,1
183002,-100,4,2,1,5,0,1
183062,-100,4,2,1,80,0,1
183181,-100,4,2,1,80,0,1
183538,-125,4,2,1,80,0,1
184014,-100,4,2,1,80,0,1
184193,-100,4,2,1,5,0,1
184252,-125,4,2,1,80,0,1
184728,-100,4,2,1,80,0,1
184907,-100,4,2,1,5,0,1
184966,-100,4,2,1,80,0,1
185085,-100,4,2,1,80,0,1
185443,-125,4,2,1,80,0,1
185919,-100,4,2,1,80,0,1
186097,-100,4,2,1,5,0,1
186157,-100,4,2,1,80,0,0
186990,-71.4285714285714,4,2,1,80,0,1
187169,-71.4285714285714,4,2,1,5,0,1
187228,-71.4285714285714,4,2,1,80,0,1
187347,-71.4285714285714,4,2,1,80,0,0
188062,-71.4285714285714,4,2,2,80,0,1
188240,-71.4285714285714,4,2,2,5,0,1
188300,-71.4285714285714,4,2,1,80,0,1
188478,-71.4285714285714,4,2,1,5,0,1
188538,-125,4,2,1,80,0,1
188895,-83.3333333333333,4,2,1,80,0,1
189074,-83.3333333333333,4,2,1,5,0,1
189133,-83.3333333333333,4,2,1,80,0,1
189252,-125,4,2,1,80,0,1
189728,-83.3333333333333,4,2,1,80,0,1
189907,-83.3333333333333,4,2,1,5,0,1
189966,-83.3333333333333,4,2,1,80,0,1
190145,-83.3333333333333,4,2,1,5,0,1
190204,-125,4,2,1,80,0,1
190443,-83.3333333333333,4,2,1,80,0,1
190621,-83.3333333333333,4,2,1,5,0,1
190681,-83.3333333333333,4,2,1,80,0,1
190800,-100,4,2,1,80,0,1
190978,-100,4,2,1,5,0,1
191038,-100,4,2,1,80,0,1
191157,-125,4,2,1,80,0,1
191633,-100,4,2,1,80,0,1
191812,-100,4,2,1,5,0,1
191871,-83.3333333333333,4,2,1,80,0,1
192050,-83.3333333333333,4,2,1,5,0,1
192109,-125,4,2,1,80,0,1
192347,-100,4,2,1,80,0,1
192526,-100,4,2,1,5,0,1
192585,-100,4,2,1,80,0,1
192883,-100,4,2,1,5,0,1
192943,-100,4,2,1,80,0,1
193062,-125,4,2,1,80,0,1
193538,-83.3333333333333,4,2,1,80,0,1
193716,-83.3333333333333,4,2,1,5,0,1
193776,-71.4285714285714,4,2,1,80,0,1
193954,-71.4285714285714,4,2,1,5,0,1
194014,-71.4285714285714,4,2,1,80,0,1
194609,-83.3333333333333,4,2,1,80,0,1
194788,-83.3333333333333,4,2,1,5,0,1
194847,-83.3333333333333,4,2,1,80,0,1
195204,-83.3333333333333,4,2,1,80,0,1
195383,-83.3333333333333,4,2,1,5,0,1
195443,-125,4,2,1,80,0,1
196157,-83.3333333333333,4,2,1,80,0,1
196335,-83.3333333333333,4,2,1,5,0,1
196395,-83.3333333333333,4,2,1,80,0,1
196514,-83.3333333333333,4,2,1,80,0,1
196871,-125,4,2,1,80,0,1
197347,-100,4,2,1,80,0,1
197526,-100,4,2,1,5,0,1
197585,-83.3333333333333,4,2,1,80,0,1
197764,-83.3333333333333,4,2,1,5,0,1
197824,-125,4,2,1,80,0,1
198062,-83.3333333333333,4,2,1,80,0,1
198240,-83.3333333333333,4,2,1,5,0,1
198300,-83.3333333333333,4,2,1,80,0,1
198419,-100,4,2,1,80,0,1
198597,-100,4,2,1,5,0,1
198657,-100,4,2,1,80,0,1
198776,-125,4,2,1,80,0,1
199252,-100,4,2,1,80,0,1
199431,-100,4,2,1,5,0,1
199490,-83.3333333333333,4,2,1,80,0,1
199669,-83.3333333333333,4,2,1,5,0,1
199728,-125,4,2,1,80,0,1
199966,-100,4,2,1,80,0,1
200145,-100,4,2,1,5,0,1
200204,-100,4,2,1,80,0,1
200324,-100,4,2,1,80,0,1
200502,-100,4,2,1,5,0,1
200562,-100,4,2,1,80,0,1
200681,-125,4,2,1,80,0,1
201157,-83.3333333333333,4,2,1,80,0,1
201335,-83.3333333333333,4,2,1,5,0,1
201395,-83.3333333333333,4,2,1,80,0,1
202585,-83.3333333333333,4,2,1,80,0,0
203300,-71.4285714285714,4,2,2,80,0,1
203478,-71.4285714285714,4,2,1,5,0,1
203538,-125,4,2,1,80,0,1
203776,-100,4,2,1,80,0,1
203954,-100,4,2,1,5,0,1
204014,-100,4,2,1,80,0,1
204490,-125,4,2,1,80,0,1
204728,-100,4,2,1,80,0,1
204907,-100,4,2,1,5,0,1
204966,-125,4,2,1,80,0,1
205204,-100,4,2,1,80,0,1
205681,-125,4,2,1,80,0,1
207109,-83.3333333333333,4,2,1,80,0,1
207288,-83.3333333333333,4,2,1,5,0,1
207347,-125,4,2,1,80,0,1
207585,-100,4,2,1,80,0,1
207764,-100,4,2,1,5,0,1
207824,-100,4,2,1,80,0,1
207943,-83.3333333333333,4,2,1,80,0,1
208300,-125,4,2,1,80,0,1
208538,-83.3333333333333,4,2,1,80,0,1
208716,-83.3333333333333,4,2,1,5,0,1
208776,-125,4,2,1,80,0,1
209014,-71.4285714285714,4,2,1,80,0,1
210026,-71.4285714285714,4,2,1,5,0,1
210085,-71.4285714285714,4,2,1,80,0,1
210919,-71.4285714285714,4,2,1,80,0,1
211097,-71.4285714285714,4,2,1,5,0,1
211157,-125,4,2,1,80,0,1
211395,-100,4,2,1,80,0,1
211574,-100,4,2,1,5,0,1
211633,-100,4,2,1,80,0,1
212109,-125,4,2,1,80,0,1
212347,-100,4,2,1,80,0,1
212526,-100,4,2,1,5,0,1
212585,-125,4,2,1,80,0,1
212824,-83.3333333333333,4,2,1,80,0,1
213300,-125,4,2,1,80,0,1
213657,-71.4285714285714,4,2,1,80,0,1
214728,476.190476190476,4,2,1,65,1,0
214728,-83.3333333333333,4,2,1,65,0,0
215204,-55.5555555555556,4,2,1,65,0,0
215382,-55.5555555555556,4,2,1,5,0,0
215442,-55.5555555555556,4,2,1,65,0,0
215918,-66.6666666666667,4,2,1,65,0,0
216632,-62.5,4,2,1,65,0,0
216811,-62.5,4,2,1,5,0,0
216870,-55.5555555555556,4,2,1,65,0,0
217049,-55.5555555555556,4,2,1,5,0,0
217108,-50,4,2,1,65,0,0
217287,-50,4,2,1,5,0,0
217347,-45.4545454545455,4,2,1,65,0,0
217525,-45.4545454545455,4,2,1,5,0,0
217585,-45.4545454545455,4,2,1,65,0,0
218537,-62.5,4,2,1,70,0,0
222347,-50,4,2,1,70,0,0
222823,-55.5555555555556,4,2,1,70,0,0
223001,-55.5555555555556,4,2,1,5,0,0
223061,-55.5555555555556,4,2,1,70,0,0
223537,-62.5,4,2,1,70,0,0
224370,-45.4545454545455,4,2,1,70,0,0
225085,-50,4,2,1,70,0,0
225263,-50,4,2,1,5,0,0
225323,-50,4,2,1,70,0,0
225442,-45.4545454545455,4,2,1,70,0,0
225620,-45.4545454545455,4,2,1,5,0,0
225680,-45.4545454545455,4,2,1,70,0,0
225918,-62.5,4,2,1,70,0,0
226156,-45.4545454545455,4,2,1,70,0,0
226335,-45.4545454545455,4,2,1,5,0,0
226394,-45.4545454545455,4,2,1,70,0,0
226632,-62.5,4,2,1,70,0,0
229966,-41.6666666666667,4,2,1,70,0,0
230144,-41.6666666666667,4,2,1,5,0,0
230204,-41.6666666666667,4,2,1,70,0,0
230442,-58.8235294117647,4,2,1,70,0,0
230799,-52.6315789473684,4,2,1,70,0,0
231156,-62.5,4,2,1,70,0,0
231989,-40,4,2,1,70,0,0
232168,-40,4,2,1,5,0,0
232228,-40,4,2,1,70,0,0
232347,-58.8235294117647,4,2,1,70,0,0
232704,-50,4,2,1,70,0,0
233061,-58.8235294117647,4,2,1,70,0,0

[Colours]
Combo1 : 255,128,128
Combo2 : 159,198,255
Combo3 : 232,189,236
Combo4 : 122,147,250

[HitObjects]
75,65,682,5,2,0:0:0:0:
26,6,920,1,2,0:0:0:0:
0,111,1158,1,2,0:0:0:0:
62,158,1396,6,0,L|175:143,1,96,2|2,0:0|0:0,0:0:0:0:
165,153,1872,2,0,L|174:105,1,48,2|0,0:0|0:0,0:0:0:0:
173,15,2111,1,2,0:0:0:0:
165,21,2230,2,0,P|196:80|309:66,1,180,2|2,0:0|0:0,0:0:0:0:
477,192,2825,6,0,L|536:180,1,35.9999989013672,2|0,0:0|0:0,0:0:0:0:
467,190,3063,2,0,L|431:197,1,35.9999989013672,2|0,0:0|0:0,0:0:0:0:
341,248,3301,6,0,L|361:135,1,96,2|2,0:0|0:0,0:0:0:0:
365,146,3777,2,0,L|375:89,1,48,2|0,0:0|0:0,0:0:0:0:
435,323,4015,1,2,0:0:0:0:
438,310,4134,2,0,P|357:281|296:341,1,180,2|0,0:0|0:0,0:0:0:0:
0,215,4730,6,0,L|10:261,1,35.9999989013672,2|0,0:0|0:0,0:0:0:0:
24,293,4968,2,0,L|16:257,1,35.9999989013672,2|0,0:0|0:0,0:0:0:0:
71,166,5206,6,0,L|180:186,1,96,2|2,0:0|0:0,0:0:0:0:
172,174,5682,2,0,L|163:116,1,48,2|0,0:0|0:0,0:0:0:0:
225,59,5920,1,2,0:0:0:0:
230,71,6039,2,0,P|146:85|97:16,1,180,2|2,0:0|0:0,0:0:0:0:
340,118,6634,6,0,L|375:110,1,35.9999989013672,2|0,0:0|0:0,0:0:0:0:
330,115,6872,2,0,L|294:122,1,35.9999989013672,2|0,0:0|0:0,0:0:0:0:
422,45,7111,6,0,L|396:210,1,144,2|0,0:0|0:0,0:0:0:0:
391,195,7587,2,0,L|457:209,1,48,2|0,0:0|0:0,0:0:0:0:
245,259,7825,1,2,0:0:0:0:
241,247,7944,2,0,L|374:277,1,96,2|0,0:0|0:0,0:0:0:0:
374,335,8301,5,2,0:0:0:0:
248,357,8539,1,2,0:0:0:0:
122,379,8777,1,2,0:0:0:0:
0,212,9015,6,0,P|42:276|148:236,1,180,2|0,3:2|0:0,0:0:0:0:
201,223,9491,2,0,L|190:166,1,48,2|0,3:2|0:0,0:0:0:0:
167,24,9730,1,2,0:0:0:0:
123,105,9849,2,0,L|284:81,1,120,2|0,3:2|0:0,0:0:0:0:
252,92,10206,2,0,B|269:67|269:67|256:-11,2,96,2|2|2,0:0|3:2|0:0,0:0:0:0:
423,147,10920,6,0,L|443:247,1,96,2|2,3:2|0:0,0:0:0:0:
434,248,11396,2,0,L|494:263,1,48,2|0,3:2|0:0,0:0:0:0:
313,281,11634,1,2,0:0:0:0:
382,327,11753,2,0,P|310:310|248:387,1,180,2|0,0:0|0:0,0:0:0:0:
100,203,12349,6,0,L|146:210,1,35.9999989013672,2|0,3:2|0:0,0:0:0:0:
182,208,12587,2,0,L|146:202,1,35.9999989013672,2|0,0:0|0:0,0:0:0:0:
28,144,12825,6,0,L|11:257,1,96,2|2,3:2|0:0,0:0:0:0:
6,246,13301,2,0,L|-1:295,1,48,2|0,3:2|0:0,0:0:0:0:
149,384,13539,1,2,0:0:0:0:
78,322,13658,2,0,L|201:293,1,120,2|0,3:2|0:0,0:0:0:0:
204,299,14015,5,2,0:0:0:0:
239,152,14253,1,2,3:2:0:0:
274,5,14491,1,2,0:0:0:0:
331,56,14730,5,2,0:0:0:0:
331,56,15682,5,6,3:2:0:0:
258,78,15801,1,2,0:0:0:0:
324,146,15920,5,10,0:0:0:0:
318,133,16039,1,2,0:0:0:0:
247,86,16158,5,10,0:0:0:0:
406,133,16277,1,10,0:0:0:0:
336,47,16396,5,10,0:0:0:0:
299,219,16515,1,10,0:0:0:0:
371,257,16634,5,6,3:2:0:0:
378,265,16753,2,0,L|424:254,1,48,2|0,0:0|0:0,0:0:0:0:
255,333,16991,2,0,L|243:280,1,48,2|0,0:0|3:0,0:0:0:0:
447,329,17230,5,2,0:0:0:0:
445,338,17349,1,2,0:0:0:0:
443,347,17468,2,0,L|396:357,1,48,2|0,0:0|0:0,0:0:0:0:
250,343,17706,2,0,L|203:353,1,48,2|0,0:0|0:0,0:0:0:0:
58,238,17944,1,2,0:0:0:0:
111,302,18063,5,2,3:2:0:0:
117,285,18182,1,2,0:0:0:0:
0,188,18301,5,2,0:0:0:0:
6,171,18420,1,2,0:0:0:0:
82,154,18539,5,6,3:2:0:0:
27,365,18658,1,10,0:0:0:0:
0,292,18896,5,10,3:2:0:0:
194,344,19015,1,10,0:0:0:0:
220,272,19253,5,10,0:0:0:0:
414,220,19372,1,10,3:2:0:0:
393,293,19611,5,10,0:0:0:0:
332,21,19730,1,10,0:0:0:0:
393,88,19968,6,0,L|305:106,1,84,2|0,3:2|0:0,0:0:0:0:
300,98,20444,6,0,L|322:186,1,83.9999974365235,6|0,3:2|0:0,0:0:0:0:
370,366,20682,5,2,3:2:0:0:
374,380,20801,1,2,3:2:0:0:
226,292,20920,2,0,L|324:312,1,83.9999974365235,10|0,0:0|0:0,0:0:0:0:
441,206,21158,5,2,0:0:0:0:
512,238,21277,2,0,P|449:301|376:252,1,153.000002918243,2|0,3:2|0:0,0:0:0:0:
386,284,21515,6,0,L|374:237,1,48,2|0,3:2|0:0,0:0:0:0:
238,162,21634,2,0,L|336:182,1,83.9999974365235,2|0,3:2|0:0,0:0:0:0:
37,384,21872,5,10,0:0:0:0:
47,262,21992,1,8,3:0:0:0:
110,365,22111,1,10,0:0:0:0:
0,319,22230,1,4,3:0:0:0:
116,290,22349,6,0,L|127:192,1,83.9999974365235,2|0,3:2|0:0,0:0:0:0:
146,20,22587,5,2,3:2:0:0:
148,7,22706,1,2,3:2:0:0:
17,96,22825,2,0,P|55:102|90:66,1,83.9999974365235,10|0,0:0|0:0,0:0:0:0:
286,81,23063,5,2,0:0:0:0:
254,9,23182,2,0,L|236:170,1,153.000002918243,2|0,3:2|0:0,0:0:0:0:
230,169,23420,6,0,L|285:159,1,48,2|0,3:2|0:0,0:0:0:0:
450,53,23539,2,0,L|335:73,1,83.9999974365235,2|0,3:2|0:0,0:0:0:0:
331,279,23777,5,10,0:0:0:0:
414,191,23897,1,8,3:0:0:0:
398,312,24016,1,10,0:0:0:0:
340,204,24135,1,4,3:0:0:0:
448,256,24253,6,0,L|537:239,1,83.9999974365235,6|0,3:2|0:0,0:0:0:0:
225,316,24491,5,2,3:2:0:0:
221,302,24611,1,2,3:2:0:0:
331,279,24730,2,0,L|315:361,1,83.9999974365235,10|0,0:0|0:0,0:0:0:0:
58,195,24968,5,2,0:0:0:0:
36,269,25087,2,0,P|124:261|134:173,1,153.000002918243,2|0,3:2|0:0,0:0:0:0:
154,201,25325,6,0,L|149:141,1,48,2|0,3:2|0:0,0:0:0:0:
285,120,25444,2,0,P|238:115|221:67,1,83.9999974365235,2|0,3:2|0:0,0:0:0:0:
7,26,25682,5,10,0:0:0:0:
82,122,25802,1,8,3:0:0:0:
77,0,25921,1,10,0:0:0:0:
11,101,26040,1,4,3:0:0:0:
122,58,26158,5,6,3:2:0:0:
344,181,26277,2,0,B|358:160|356:133|341:114|320:106|320:106|297:97|283:74|285:49|297:31,1,180,14|0,0:0|0:0,0:0:0:0:
308,28,26515,5,2,0:0:0:0:
450,90,26634,2,0,B|457:79|474:78|474:78|436:68|412:102,1,83.9999974365235,10|0,0:0|3:0,0:0:0:0:
265,201,26872,5,10,0:0:0:0:
438,232,26991,2,0,P|365:221|309:299,1,161.999995056153,2|0,3:2|0:0,0:0:0:0:
299,285,27230,6,0,L|310:347,1,48,2|0,3:2|0:0,0:0:0:0:
165,253,27349,2,0,P|146:245|135:187,1,83.9999974365235,10|0,0:0|0:0,0:0:0:0:
375,374,27587,6,0,P|393:366|404:308,1,83.9999974365235,2|0,3:2|3:0,0:0:0:0:
218,333,27825,2,0,L|112:350,1,83.9999974365235,10|0,0:0|0:0,0:0:0:0:
0,177,28063,6,0,P|18:183|64:145,1,83.9999974365235,6|0,3:2|0:0,0:0:0:0:
186,23,28301,5,2,3:2:0:0:
182,7,28420,1,2,3:2:0:0:
43,59,28539,2,0,L|144:82,1,83.9999974365235,10|0,0:0|0:0,0:0:0:0:
347,94,28777,5,2,0:0:0:0:
373,21,28896,2,0,P|283:20|266:106,1,153.000002918243,2|0,3:2|0:0,0:0:0:0:
252,77,29134,6,0,L|266:126,1,48,2|0,3:2|0:0,0:0:0:0:
384,168,29253,2,0,P|426:137|405:89,1,83.9999974365235,2|0,3:2|0:0,0:0:0:0:
213,259,29491,5,10,0:0:0:0:
328,287,29611,1,4,3:0:0:0:
218,333,29730,1,10,0:0:0:0:
281,230,29849,1,8,3:0:0:0:
291,353,29968,6,0,P|330:347|355:379,1,83.9999974365235,2|0,3:2|0:0,0:0:0:0:
510,208,30206,5,2,3:2:0:0:
506,192,30325,1,2,3:2:0:0:
408,313,30444,2,0,P|448:315|471:282,1,83.9999974365235,10|0,0:0|0:0,0:0:0:0:
325,63,30682,5,2,0:0:0:0:
369,124,30801,2,0,P|279:124|257:37,1,153.000002918243,2|0,3:2|0:0,0:0:0:0:
239,70,31039,6,0,L|187:81,1,48,2|0,3:2|0:0,0:0:0:0:
57,98,31158,2,0,L|73:15,1,83.9999974365235,2|0,3:2|0:0,0:0:0:0:
213,259,31396,5,10,0:0:0:0:
150,156,31516,1,8,3:0:0:0:
140,279,31635,1,10,0:0:0:0:
218,185,31754,1,4,3:0:0:0:
103,213,31872,6,0,L|20:196,1,83.9999974365235,6|0,3:2|0:0,0:0:0:0:
317,278,32111,5,2,3:2:0:0:
321,264,32231,1,2,3:2:0:0:
213,259,32349,2,0,L|229:341,1,83.9999974365235,10|0,0:0|0:0,0:0:0:0:
385,219,32587,5,2,0:0:0:0:
317,173,32706,2,0,P|407:173|429:86,1,153.000002918243,2|0,3:2|0:0,0:0:0:0:
443,119,32944,6,0,L|427:37,1,48,2|0,3:2|0:0,0:0:0:0:
310,36,33063,2,0,P|276:79|309:122,1,83.9999974365235,2|0,3:2|0:0,0:0:0:0:
477,384,33301,5,10,0:0:0:0:
461,263,33421,1,8,3:0:0:0:
402,372,33540,1,10,0:0:0:0:
512,318,33659,1,4,3:0:0:0:
395,296,33777,5,2,3:2:0:0:
150,371,33896,2,0,B|136:350|138:323|153:304|174:296|174:296|197:287|211:264|209:239|197:221,1,180,14|0,0:0|0:0,0:0:0:0:
186,215,34134,5,2,0:0:0:0:
331,341,34253,2,0,P|284:340|268:294,1,83.9999974365235,10|0,0:0|0:0,0:0:0:0:
194,204,34491,5,10,0:0:0:0:
6,219,34611,2,0,P|85:217|112:139,1,161.999995056153,2|0,3:2|0:0,0:0:0:0:
121,138,34849,6,0,L|108:77,1,48,2|0,3:2|0:0,0:0:0:0:
259,6,34968,2,0,P|306:7|322:53,1,83.9999974365235,10|0,0:0|0:0,0:0:0:0:
345,171,35206,5,2,3:2:0:0:
473,133,35325,1,0,3:0:0:0:
375,95,35444,5,2,3:2:0:0:
413,261,35563,1,8,0:0:0:0:
477,146,35682,5,6,3:2:0:0:
497,221,36158,5,2,3:2:0:0:
413,261,36634,6,0,L|363:250,1,48,2|2,3:2|0:0,0:0:0:0:
182,309,37111,2,0,P|164:299|190:306,1,96,2|2,3:2|0:0,0:0:0:0:
219,384,37587,6,0,B|199:339|248:308|248:308|295:277|262:208,1,180,2|0,3:2|0:0,0:0:0:0:
198,199,38063,5,2,3:2:0:0:
325,76,38301,1,2,0:0:0:0:
334,87,38420,2,0,P|295:146|230:123,1,144,2|2,0:0|0:0,0:0:0:0:
78,34,39015,2,0,P|60:24|86:31,1,96,2|2,3:2|0:0,0:0:0:0:
225,138,39491,6,0,P|186:79|121:102,1,144,2|0,3:2|0:0,0:0:0:0:
20,227,39968,5,2,3:2:0:0:
111,195,40087,1,2,0:0:0:0:
58,142,40206,1,2,0:0:0:0:
51,135,40325,2,0,P|68:219|84:314,1,144,2|2,0:0|0:0,0:0:0:0:
217,299,40920,2,0,P|235:289|209:296,1,96,2|2,3:2|0:0,0:0:0:0:
11,312,41396,6,0,P|66:293|141:378,1,180,2|0,3:2|0:0,0:0:0:0:
218,384,41872,5,2,3:2:0:0:
320,294,42111,1,2,0:0:0:0:
326,306,42230,2,0,L|344:203,1,96,2|0,0:0|0:0,0:0:0:0:
352,216,42587,2,0,L|427:204,1,60,2|0,0:3|0:0,0:0:0:0:
512,119,42825,2,0,P|457:106|439:150,1,96,2|2,3:2|0:0,0:0:0:0:
203,59,43301,6,0,L|215:-20,1,60,6|0,3:2|0:0,0:0:0:0:
358,137,43539,1,2,0:0:0:0:
361,124,43658,1,2,0:0:0:0:
328,101,43777,2,0,L|249:114,1,60,2|0,3:2|0:0,0:0:0:0:
56,151,44015,1,2,0:0:0:0:
47,138,44134,2,0,P|88:115|177:196,1,180,2|2,0:0|0:3,0:0:0:0:
331,383,44730,6,0,P|343:368|336:336,1,48,10|0,0:0|0:0,0:0:0:0:
328,338,44968,2,0,P|316:353|323:385,1,48,2|0,0:0|0:0,0:0:0:0:
351,268,45206,6,0,P|316:287|241:219,1,144,2|0,3:2|0:0,0:0:0:0:
177,188,45682,5,2,3:2:0:0:
370,5,45920,1,2,0:0:0:0:
377,16,46039,2,0,L|355:145,1,120,2|0,0:0|0:0,0:0:0:0:
414,191,46396,2,0,L|482:179,1,60,2|0,0:3|0:0,0:0:0:0:
285,48,46634,6,0,P|250:31|198:110,1,125.999996154785,10|0,0:0|0:0,0:0:0:0:
187,73,46872,2,0,L|127:83,1,60,2|0,0:0|0:0,0:0:0:0:
11,19,47111,6,0,B|46:-12|46:-12|13:120,1,180,2|0,3:2|0:0,0:0:0:0:
21,259,47587,5,2,3:2:0:0:
98,244,47706,1,2,0:0:0:0:
82,169,47825,1,2,0:0:0:0:
72,177,47944,2,0,B|69:224|126:238|126:238|181:251|173:327,1,180,2|0,0:0|0:3,0:0:0:0:
307,306,48539,6,0,P|287:304|265:328,1,48,10|0,0:0|0:0,0:0:0:0:
271,334,48777,2,0,P|290:335|312:311,1,48,2|0,0:0|0:0,0:0:0:0:
487,281,49015,5,2,3:0:0:0:
454,262,49134,1,10,0:0:0:0:
417,269,49253,1,8,3:0:0:0:
395,299,49372,1,4,3:0:0:0:
370,375,49491,6,0,P|347:293|273:181,1,198.000006042481,14|0,0:0|0:0,0:0:0:0:
221,236,49730,1,10,0:0:0:0:
415,99,49849,6,0,B|457:86|464:48|464:48|489:118|432:136|432:133|432:130|360:151|392:222,1,264.000008056641,10|8,0:0|0:0,0:0:0:0:
299,270,50206,6,0,P|268:238|304:192,1,96,6|0,3:2|0:0,0:0:0:0:
383,24,50444,5,8,0:0:0:0:
257,65,50563,1,8,0:0:0:0:
307,7,50682,5,8,3:0:0:0:
332,85,50801,1,10,0:0:0:0:
154,34,50920,6,0,L|56:52,1,83.9999974365235,6|0,3:2|0:0,0:0:0:0:
0,138,51158,1,2,3:2:0:0:
60,44,51277,2,0,L|78:142,1,83.9999974365235,2|8,0:0|0:0,0:0:0:0:
105,301,51634,5,2,3:2:0:0:
108,316,51753,1,8,0:0:0:0:
56,204,51872,6,0,L|154:222,1,83.9999974365235,2|0,0:0|0:0,0:0:0:0:
210,308,52110,1,2,3:0:0:0:
150,214,52229,2,0,L|132:312,1,83.9999974365235,2|8,0:0|0:0,0:0:0:0:
375,381,52587,6,0,P|460:349|437:194,1,251.999992309571,6|8,3:2|0:0,0:0:0:0:
317,181,53063,6,0,L|401:162,1,71.9999978027344,2|0,3:2|0:0,0:0:0:0:
503,89,53301,2,0,P|500:36|411:21,1,135.000005149841,10|0,0:0|0:0,0:0:0:0:
423,22,53539,5,2,3:2:0:0:
328,91,53658,2,0,P|277:77|236:156,1,143.999995605469,10|0,0:0|0:0,0:0:0:0:
145,18,54015,6,0,L|229:-1,1,71.9999978027344,2|0,3:0|0:0,0:0:0:0:
102,178,54253,2,0,P|49:173|37:85,1,135.000005149841,10|0,0:0|0:0,0:0:0:0:
154,99,54491,5,10,0:0:0:0:
150,112,54611,1,8,0:0:0:0:
95,186,54730,6,0,L|118:284,1,83.9999974365235,6|0,3:2|0:0,0:0:0:0:
142,383,54968,1,2,3:2:0:0:
21,280,55087,2,0,L|119:257,1,83.9999974365235,2|8,0:0|0:0,0:0:0:0:
286,276,55444,5,2,3:2:0:0:
302,271,55563,1,8,0:0:0:0:
193,315,55682,6,0,L|212:233,1,83.9999974365235,2|0,0:0|0:0,0:0:0:0:
278,368,55920,1,2,3:0:0:0:
204,222,56039,2,0,L|286:241,1,83.9999974365235,2|8,0:0|0:0,0:0:0:0:
508,70,56396,6,0,B|538:21|489:-48|406:-19|398:46|431:78|431:78|445:92|440:116|421:127|404:121,1,270.000010299683,12|8,0:0|0:0,0:0:0:0:
297,156,56872,6,0,L|379:175,1,71.9999978027344,2|0,3:2|0:0,0:0:0:0:
331,13,57111,2,0,P|278:6|248:91,1,135.000005149841,10|0,0:0|0:0,0:0:0:0:
249,79,57349,5,2,3:2:0:0:
167,150,57468,2,0,P|126:154|102:88,1,83.9999974365235,2|8,0:0|0:0,0:0:0:0:
0,67,57706,5,8,0:0:0:0:
9,59,57825,2,0,L|23:125,1,60,2|0,3:2|0:0,0:0:0:0:
55,258,58063,6,0,P|116:219|87:117,1,180.000006866455,10|0,0:0|3:0,0:0:0:0:
138,332,58539,6,0,P|176:330|208:369,1,83.9999974365235,6|0,3:2|0:0,0:0:0:0:
277,265,58777,1,0,3:0:0:0:
215,372,58896,2,0,P|253:374|285:335,1,83.9999974365235,2|8,0:0|0:0,0:0:0:0:
349,215,59253,5,2,3:2:0:0:
345,197,59372,1,8,0:0:0:0:
450,331,59491,6,0,P|412:333|380:294,1,83.9999974365235,2|0,0:0|0:0,0:0:0:0:
449,203,59730,1,2,3:0:0:0:
368,298,59849,2,0,P|354:262|381:219,1,83.9999974365235,2|8,0:0|0:0,0:0:0:0:
461,197,60206,6,0,B|476:160|435:133|435:133|396:107|424:49,1,144,2|0,3:0|0:3,0:0:0:0:
459,0,60444,6,0,P|404:54|323:14,1,161.999995056153,14|0,0:0|0:0,0:0:0:0:
246,11,60682,2,0,L|261:73,1,60,2|0,3:2|0:0,0:0:0:0:
39,66,60920,6,0,P|94:120|175:80,1,161.999995056153,14|0,0:0|0:0,0:0:0:0:
252,77,61158,2,0,L|237:139,1,60,2|0,3:2|0:0,0:0:0:0:
337,364,61396,6,0,P|387:310|266:353,1,396.000012084961,14|0,0:0|0:0,0:0:0:0:
1,222,61872,5,10,0:0:0:0:
3,234,61991,1,8,0:0:0:0:
6,247,62110,1,8,3:0:0:0:
9,260,62229,1,4,3:0:0:0:
68,308,62349,6,0,P|102:310|130:268,1,71.9999978027344,6|0,3:2|0:0,0:0:0:0:
190,194,62587,2,0,P|163:173|129:178,1,71.9999978027344,2|0,0:0|0:0,0:0:0:0:
201,266,62825,6,0,P|213:234|197:203,1,71.9999978027344,2|0,3:2|0:0,0:0:0:0:
86,106,63063,2,0,P|57:124|59:174,1,71.9999978027344,10|0,0:0|0:0,0:0:0:0:
195,382,63301,6,0,P|209:362|189:382,1,96,10|0,0:0|0:0,0:0:0:0:
322,314,63539,6,0,P|306:282|316:319,1,107.999996704102,10|0,0:0|0:0,0:0:0:0:
301,107,63777,6,0,P|268:104|304:113,1,120,10|0,0:0|0:0,0:0:0:0:
503,74,64015,6,0,B|473:53|466:18|479:-14|479:-14|466:19|437:41|401:31,1,198.000006042481,10|0,0:0|0:0,0:0:0:0:
303,19,64253,6,0,B|331:10|361:24|376:49|377:76|377:76|377:106|398:131|427:139|453:133,1,215.999993408203,6|0,3:2|0:0,0:0:0:0:
503,74,64611,2,0,B|478:68|449:76|428:101|428:131|428:131|427:158|412:183|382:197|354:188,1,215.999993408203,6|0,3:2|0:0,0:0:0:0:
177,74,64968,5,6,3:2:0:0:
355,90,66158,6,0,P|340:58|426:73,1,180,14|0,3:2|0:0,0:0:0:0:
490,107,66396,2,0,L|470:211,1,96,10|0,0:0|0:0,0:0:0:0:
323,272,66634,6,0,P|285:240|311:182,1,96,2|0,3:2|0:0,0:0:0:0:
396,232,66872,5,10,0:0:0:0:
325,347,66991,2,0,B|339:326|337:299|322:280|301:272|301:272|278:263|264:240|266:215|278:197,1,180,2|0,3:2|0:0,0:0:0:0:
233,132,67229,1,0,3:0:0:0:
396,232,67348,6,0,P|369:266|311:254,1,96,10|0,0:0|0:0,0:0:0:0:
153,143,67586,2,0,L|178:37,1,96,2|0,3:2|3:0,0:0:0:0:
278,198,67824,2,0,B|199:218|199:218|192:237|192:237|97:262,1,180,10|0,0:0|0:0,0:0:0:0:
61,310,68062,6,0,P|34:268|55:214,1,96,2|0,3:2|0:0,0:0:0:0:
248,291,68300,2,0,L|225:384,1,96,10|0,0:0|0:0,0:0:0:0:
0,145,68538,6,0,P|46:147|75:109,1,96,2|0,3:2|0:0,0:0:0:0:
233,132,68777,5,10,0:0:0:0:
52,3,68896,2,0,B|47:43|47:43|103:67|103:67|147:84|179:44,1,180,2|0,3:2|0:0,0:0:0:0:
232,0,69134,5,0,3:0:0:0:
376,120,69253,2,0,P|330:122|301:84,1,96,10|0,0:0|0:0,0:0:0:0:
153,172,69491,6,0,L|173:284,1,96,2|0,3:2|3:0,0:0:0:0:
436,345,69729,2,0,B|476:304|476:304|289:345,1,215.999993408203,10|0,0:0|0:0,0:0:0:0:
252,378,69967,6,0,B|235:363|235:363|251:270,1,96,2|0,3:2|0:0,0:0:0:0:
419,185,70205,5,10,0:0:0:0:
492,207,70324,1,2,3:2:0:0:
320,259,70443,2,0,L|301:158,1,96,2|0,3:2|0:0,0:0:0:0:
409,27,70681,5,10,0:0:0:0:
246,105,70800,2,0,P|235:35|310:107,1,240,2|0,3:2|3:0,0:0:0:0:
229,205,71158,6,0,L|122:184,1,96,10|0,0:0|0:0,0:0:0:0:
55,27,71396,2,0,L|76:134,1,96,2|0,3:2|3:0,0:0:0:0:
109,317,71634,2,0,P|49:315|52:206,1,180,10|0,0:0|0:0,0:0:0:0:
48,206,71872,6,0,B|65:201|95:209|116:235|117:266|117:266|117:294|133:320|164:334|194:326,1,215.999993408203,6|0,3:2|0:0,0:0:0:0:
256,280,72110,5,10,0:0:0:0:
340,376,72229,1,8,0:0:0:0:
334,275,72348,5,10,0:0:0:0:
346,380,72467,1,8,0:0:0:0:
401,320,72586,5,10,0:0:0:0:
352,384,72705,2,0,P|320:207|382:112,1,287.999991210938,6|0,3:2|3:0,0:0:0:0:
403,7,73062,5,10,0:0:0:0:
442,191,73181,1,8,0:0:0:0:
323,23,73300,6,0,P|365:94|512:87,1,215.999993408203,6|0,3:2|0:0,0:0:0:0:
278,119,73538,2,0,P|225:115|194:156,1,96,14|0,0:0|0:0,0:0:0:0:
11,197,73777,5,10,3:2:0:0:
171,240,73896,1,8,0:0:0:0:
119,137,74015,5,8,0:0:0:0:
80,328,74134,1,8,0:0:0:0:
23,276,74253,6,0,B|38:268|69:270|95:292|101:323|101:323|106:350|126:373|159:381|187:368,1,215.999993408203,6|0,3:2|0:0,0:0:0:0:
197,371,74491,2,0,P|231:336|211:279,1,96,10|2,0:0|3:2,0:0:0:0:
119,137,74729,6,0,L|101:30,1,96,2|0,0:0|3:0,0:0:0:0:
335,174,74967,2,0,P|324:218|282:237,1,96,10|0,0:0|0:0,0:0:0:0:
203,94,75205,6,0,L|221:-13,1,96,2|0,3:2|3:0,0:0:0:0:
23,164,75443,2,0,B|98:183|98:183|109:203|109:203|204:228,1,180,10|0,0:0|0:0,0:0:0:0:
224,292,75681,6,0,P|230:338|197:371,1,96,2|0,3:2|0:0,0:0:0:0:
381,291,75919,2,0,L|477:314,1,96,10|0,0:0|0:0,0:0:0:0:
322,2,76158,6,0,L|306:96,1,96,2|0,3:2|0:0,0:0:0:0:
280,237,76396,5,10,0:0:0:0:
457,127,76515,2,0,B|462:167|462:167|406:191|406:191|362:208|330:168,1,180,2|0,3:2|0:0,0:0:0:0:
306,96,76753,5,0,3:0:0:0:
132,178,76872,2,0,P|180:189|219:135,1,96,8|0,0:0|0:0,0:0:0:0:
381,291,77110,6,0,L|358:387,1,96,2|0,3:2|0:0,0:0:0:0:
121,186,77348,2,0,P|78:119|138:43,1,180,10|0,0:0|0:0,0:0:0:0:
194,2,77586,6,0,L|302:24,1,96,6|0,3:2|0:0,0:0:0:0:
439,118,77824,2,0,B|458:103|458:103|470:19,1,96,10|0,0:0|0:0,0:0:0:0:
315,108,78062,2,0,L|293:216,1,96,2|0,3:2|0:0,0:0:0:0:
256,384,78300,5,10,0:0:0:0:
381,291,78419,2,0,B|280:313|280:313|267:351|267:351|153:375,1,240,2|0,3:2|3:0,0:0:0:0:
17,282,78777,6,0,P|4:236|44:195,1,96,10|0,0:0|0:0,0:0:0:0:
210,183,79015,2,0,L|188:291,1,96,2|0,3:2|0:0,0:0:0:0:
0,101,79253,2,0,P|51:170|148:134,1,180,10|0,0:0|0:0,0:0:0:0:
181,90,79491,5,6,3:2:0:0:
140,0,79610,1,8,0:0:0:0:
245,20,79729,5,8,3:0:0:0:
210,183,79848,1,4,3:0:0:0:
279,143,79967,6,0,L|390:171,1,96,10|0,0:0|3:0,0:0:0:0:
509,196,80205,1,10,0:0:0:0:
346,79,80324,6,0,B|385:79|402:53|402:53|465:120|412:170|409:167|406:164|350:214|410:275,1,287.999991210938,6|0,3:2|3:0,0:0:0:0:
463,293,80681,5,8,0:0:0:0:
370,356,80800,1,8,0:0:0:0:
403,248,80919,5,6,3:2:0:0:
485,383,81038,1,8,0:0:0:0:
316,278,81158,5,10,0:0:0:0:
324,275,81277,1,8,0:0:0:0:
314,268,81396,6,0,B|297:261|266:266|243:290|240:321|240:321|237:349|219:374|187:385|158:374,1,215.999993408203,14|0,3:2|0:0,0:0:0:0:
56,335,81634,2,0,B|48:322|29:321|29:321|71:310|97:348,1,96,10|0,0:0|0:0,0:0:0:0:
166,366,81872,6,0,B|172:350|167:322|146:301|117:298|117:298|92:296|69:279|59:250|69:224,1,180,2|0,3:2|0:0,0:0:0:0:
124,189,82110,1,10,0:0:0:0:
31,90,82229,6,0,B|9:152|62:181|109:172|175:131|136:71|96:59,1,240,2|0,3:2|3:0,0:0:0:0:
283,71,82586,6,0,B|296:60|299:42|292:28|292:28|275:36|268:55|273:73|285:84,1,96,10|0,0:0|0:0,0:0:0:0:
226,128,82824,2,0,B|210:128|181:181|232:208|269:216|314:192|294:143,1,180,2|0,3:2|0:0,0:0:0:0:
470,142,83062,6,0,B|503:147|514:118|514:118|489:110|473:124,1,96,10|0,0:0|0:0,0:0:0:0:
379,14,83300,6,0,P|410:68|444:259,1,240,2|8,3:2|0:0,0:0:0:0:
365,228,83658,1,0,0:0:0:0:
481,325,83777,6,0,P|421:317|367:291,1,96,2|0,3:2|0:0,0:0:0:0:
226,128,84015,5,10,0:0:0:0:
190,250,84134,2,0,P|250:242|304:216,1,96,2|0,3:2|0:0,0:0:0:0:
417,70,84372,5,0,3:0:0:0:
363,16,84491,1,8,0:0:0:0:
342,87,84610,1,0,3:0:0:0:
470,142,84729,6,0,P|493:86|497:26,1,96,2|0,3:2|3:0,0:0:0:0:
282,228,84967,2,0,P|290:275|309:318,1,96,10|0,0:0|0:0,0:0:0:0:
395,152,85205,6,0,B|378:159|347:154|324:130|321:99|321:99|318:71|300:46|268:35|239:46,1,215.999993408203,6|0,3:2|0:0,0:0:0:0:
49,89,85443,2,0,B|41:76|22:75|22:75|64:64|90:102,1,96,10|0,0:0|0:0,0:0:0:0:
142,171,85681,6,0,B|135:155|140:127|161:107|189:104|189:104|214:102|236:85|246:57|236:31,1,180,2|0,3:2|0:0,0:0:0:0:
175,8,85919,1,10,0:0:0:0:
58,182,86038,6,0,B|77:250|123:255|179:235|179:235|120:209|146:190|147:194|167:180|119:154,1,240,2|0,3:2|3:0,0:0:0:0:
282,228,86396,6,0,B|295:217|298:199|291:185|291:185|274:193|267:212|272:230|284:241,1,96,10|0,0:0|0:0,0:0:0:0:
207,323,86634,2,0,B|235:310|209:271|307:297|301:342|256:359|326:405|380:379,1,180,2|0,3:2|0:0,0:0:0:0:
467,191,86872,6,0,B|477:159|451:143|451:143|438:166|449:184,1,96,10|0,0:0|0:0,0:0:0:0:
430,337,87110,6,0,P|432:226|499:314,1,287.999991210938,6|8,3:2|0:0,0:0:0:0:
263,30,87586,5,2,3:2:0:0:
335,1,87705,1,0,3:0:0:0:
375,66,87824,1,10,0:0:0:0:
277,160,87943,6,0,B|260:167|229:162|206:138|203:107|203:107|200:79|182:54|150:43|121:54,1,215.999993408203,6|0,3:2|0:0,0:0:0:0:
68,104,88181,1,0,3:0:0:0:
134,158,88300,5,10,0:0:0:0:
118,169,88419,1,8,0:0:0:0:
160,235,88538,5,10,0:0:0:0:
82,240,88657,1,8,0:0:0:0:
152,313,88777,5,10,0:0:0:0:
10,266,88896,1,8,0:0:0:0:
91,365,89015,6,0,B|177:351|177:351|211:377|211:377|315:358,1,215.999993408203,6|0,3:2|0:0,0:0:0:0:
433,275,89253,2,0,B|441:262|460:261|460:261|418:250|392:288,1,96,10|0,0:0|0:0,0:0:0:0:
376,370,89491,6,0,B|332:354|332:354|319:258|319:258|271:235,1,180,2|0,3:2|0:0,0:0:0:0:
241,179,89729,1,10,0:0:0:0:
489,159,89848,6,0,B|521:153|565:96|503:50|457:37|402:61|418:125,1,240,2|0,3:2|3:0,0:0:0:0:
319,129,90205,6,0,B|316:145|325:161|339:167|339:167|347:150|340:131|325:121|309:120,1,96,10|0,0:0|0:0,0:0:0:0:
327,47,90443,2,0,B|341:1|294:-18|258:-7|209:24|243:74|259:73,1,180,2|0,3:2|0:0,0:0:0:0:
108,131,90681,6,0,B|82:153|98:180|98:180|120:166|119:144,1,96,10|0,0:0|0:0,0:0:0:0:
92,42,90919,6,0,P|142:103|163:267,1,240,6|8,3:2|0:0,0:0:0:0:
129,331,91277,1,0,0:0:0:0:
0,241,91396,6,0,P|52:243|95:273,1,96,2|0,3:2|0:0,0:0:0:0:
304,250,91634,5,10,0:0:0:0:
249,384,91753,2,0,P|255:265|322:167,1,240,6|0,3:2|0:0,0:0:0:0:
322,27,92110,5,10,0:0:0:0:
398,177,92229,1,10,0:0:0:0:
478,60,92348,5,8,3:0:0:0:
283,97,92467,1,4,3:0:0:0:
399,82,92586,5,4,3:0:0:0:
389,78,92705,1,4,3:0:0:0:
392,90,92824,6,0,B|382:106|382:138|401:165|432:174|432:174|459:181|481:204|487:238|471:265,1,215.999993408203,6|0,3:2|3:0,0:0:0:0:
422,380,93300,6,0,P|363:369|402:307,1,144,10|0,0:0|0:0,0:0:0:0:
394,295,93538,1,2,3:2:0:0:
479,272,93657,6,0,P|390:283|277:303,1,192,10|0,0:0|0:0,0:0:0:0:
198,207,94014,6,0,P|188:172|226:136,1,83.9999974365235,2|0,3:2|0:0,0:0:0:0:
275,197,94252,2,0,P|249:223|199:208,1,83.9999974365235,10|0,0:0|0:0,0:0:0:0:
228,137,94490,2,0,P|263:145|275:196,1,83.9999974365235,10|8,0:0|0:0,0:0:0:0:
4,70,94728,6,0,B|27:58|37:32|30:9|30:9|35:34|58:50|29:84,1,143.999995605469,6|0,3:2|0:0,0:0:0:0:
41,84,94966,6,0,B|69:90|97:75|107:49|107:49|94:75|102:105|69:123,1,161.999995056153,8|0,0:0|0:0,0:0:0:0:
66,131,95204,6,0,B|85:160|121:171|151:159|151:159|118:168|126:233|69:215,1,180,8|0,0:0|0:0,0:0:0:0:
82,226,95443,6,0,B|74:262|93:297|125:311|125:311|93:293|50:348|17:298,1,198.000006042481,8|0,0:0|0:0,0:0:0:0:
0,191,95681,5,14,0:0:0:0:
204,274,96157,5,6,3:2:0:0:
256,192,96633,5,6,3:2:0:0:
256,192,96752,12,2,98538,0:0:0:0:
256,192,100443,5,2,0:3:0:0:
485,62,103776,5,8,3:0:0:0:
419,21,104014,1,4,3:0:0:0:
423,10,104252,6,0,L|331:31,1,77.9999964294435,6|0,3:2|0:0,0:0:0:0:
188,72,104490,5,2,0:0:0:0:
175,66,104609,1,2,0:0:0:0:
250,11,104728,2,0,L|274:102,1,77.9999964294435,10|0,0:0|0:0,0:0:0:0:
434,222,104966,5,2,0:0:0:0:
489,164,105085,2,0,P|425:184|351:113,1,180.000006866455,2|2,0:0|0:0,0:0:0:0:
202,186,105443,2,0,L|278:168,1,77.9999964294435,2|0,0:3|0:0,0:0:0:0:
425,384,105681,5,10,0:0:0:0:
425,302,105800,1,2,0:0:0:0:
377,368,105919,1,2,0:0:0:0:
454,343,106039,1,2,0:0:0:0:
377,318,106157,6,0,L|300:335,1,77.9999964294435,2|0,3:2|0:0,0:0:0:0:
130,336,106395,5,2,0:0:0:0:
117,330,106514,1,2,0:0:0:0:
192,275,106633,2,0,L|212:374,1,77.9999964294435,10|0,0:0|0:0,0:0:0:0:
31,186,106871,5,2,0:0:0:0:
86,244,106990,2,0,B|100:223|98:196|83:177|62:169|62:169|39:160|25:137|27:112|39:94,1,180,2|2,0:0|0:0,0:0:0:0:
175,23,107347,2,0,P|177:-8|168:22,1,77.9999964294435,2|0,0:3|0:0,0:0:0:0:
202,186,107585,5,10,0:0:0:0:
173,108,107704,1,2,0:0:0:0:
241,154,107823,1,2,0:0:0:0:
160,157,107943,1,2,0:0:0:0:
224,107,108061,6,0,L|300:89,1,77.9999964294435,2|2,3:2|0:3,0:0:0:0:
452,48,108300,5,2,0:0:0:0:
466,44,108419,1,2,0:0:0:0:
367,26,108538,2,0,L|388:116,1,77.9999964294435,10|0,0:0|0:0,0:0:0:0:
419,245,108776,5,2,0:0:0:0:
476,194,108895,2,0,L|503:202,4,19.4999991073609,2|2|2|2|2,0:3|0:3|0:3|0:3|3:3,0:0:0:0:
326,309,109133,1,2,0:0:0:0:
268,244,109252,2,0,L|344:226,1,77.9999964294435,2|0,0:3|0:0,0:0:0:0:
483,384,109490,5,10,0:0:0:0:
483,302,109609,1,2,0:0:0:0:
435,368,109728,1,2,0:0:0:0:
512,343,109848,1,2,0:0:0:0:
435,318,109966,5,6,3:2:0:0:
280,372,110085,1,8,0:0:0:0:
326,309,110204,5,8,3:0:0:0:
293,380,110324,1,4,3:0:0:0:
194,313,110443,6,0,B|180:292|182:265|197:246|218:238|218:238|241:229|255:206|253:181|241:163,1,180,10|0,0:0|0:0,0:0:0:0:
230,157,110681,5,10,0:0:0:0:
93,212,110800,2,0,P|128:207|164:248,1,83.9999974365235,10|0,0:0|3:0,0:0:0:0:
268,244,111038,5,10,0:0:0:0:
149,127,111157,2,0,L|165:42,1,83.9999974365235,2|8,3:2|0:0,0:0:0:0:
412,43,111395,5,10,0:0:0:0:
293,88,111514,1,8,0:0:0:0:
403,119,111633,5,8,3:0:0:0:
348,0,111753,1,4,3:0:0:0:
486,89,111871,6,0,L|476:160,1,71.9999978027344,6|0,3:2|0:0,0:0:0:0:
353,251,112109,5,2,0:3:0:0:
348,238,112228,1,2,0:0:0:0:
376,219,112347,2,0,L|467:241,1,71.9999978027344,10|0,0:0|0:0,0:0:0:0:
361,371,112585,1,2,0:3:0:0:
308,313,112704,2,0,P|244:304|192:372,1,143.999995605469,2|0,0:0|0:0,0:0:0:0:
121,384,113062,6,0,L|104:313,1,71.9999978027344,2|0,0:3|0:0,0:0:0:0:
209,231,113300,2,0,L|162:220,1,48,10|0,0:0|0:0,0:0:0:0:
96,306,113538,2,0,L|88:270,1,35.9999989013672,2|0,0:3|0:3,0:0:0:0:
0,162,113776,6,0,P|61:181|113:120,1,143.999995605469,2|2,3:2|0:3,0:0:0:0:
294,70,114252,6,0,L|275:-21,1,71.9999978027344,10|0,0:0|0:0,0:0:0:0:
203,57,114490,1,2,0:3:0:0:
305,80,114609,2,0,P|253:75|195:158,1,143.999995605469,10|0,0:0|0:0,0:0:0:0:
112,130,114966,2,0,B|134:122|159:130|172:149|174:170|174:170|177:193|195:212|218:216|238:210,2,167.999994873047,2|10|2,0:3|0:0|0:3,0:0:0:0:
361,16,115681,6,0,L|336:179,1,143.999995605469,2|2,3:2|0:3,0:0:0:0:
439,284,116157,6,0,L|523:263,1,71.9999978027344,10|0,0:0|0:0,0:0:0:0:
447,195,116395,1,2,0:3:0:0:
432,271,116514,2,0,P|381:291|325:211,1,143.999995605469,10|0,0:0|0:0,0:0:0:0:
246,204,116871,6,0,L|234:276,1,71.9999978027344,2|0,0:3|0:0,0:0:0:0:
336,384,117109,2,0,L|288:377,1,48,10|0,0:0|0:0,0:0:0:0:
225,277,117347,2,0,L|217:323,1,35.9999989013672,2|0,0:3|0:3,0:0:0:0:
177,375,117585,6,0,P|108:356|112:271,1,143.999995605469,2|2,3:2|0:3,0:0:0:0:
182,107,118062,6,0,L|170:179,1,71.9999978027344,10|0,0:0|0:0,0:0:0:0:
98,292,118300,1,2,0:3:0:0:
34,248,118419,2,0,P|36:175|119:161,1,143.999995605469,2|0,0:3|0:0,0:0:0:0:
170,178,118776,2,0,B|243:164|243:164|247:152|247:152|343:135,2,167.999994873047,2|10|2,0:3|0:0|0:3,0:0:0:0:
413,377,119490,6,0,L|428:294,1,71.9999978027344,6|0,3:2|0:0,0:0:0:0:
292,254,119728,5,2,0:3:0:0:
286,241,119847,1,2,0:0:0:0:
313,221,119966,2,0,L|404:239,1,71.9999978027344,10|0,0:0|0:0,0:0:0:0:
512,49,120204,1,2,0:3:0:0:
500,124,120323,2,0,P|436:133|384:65,1,143.999995605469,10|0,0:0|0:0,0:0:0:0:
335,17,120681,6,0,L|264:2,1,71.9999978027344,2|0,0:3|0:0,0:0:0:0:
238,138,120919,2,0,L|224:74,1,48,10|0,0:0|0:0,0:0:0:0:
254,8,121157,2,0,L|207:-1,1,35.9999989013672,2|0,0:3|0:0,0:0:0:0:
71,76,121395,6,0,B|93:59|102:35|97:14|97:14|102:36|120:55|154:55,1,143.999995605469,2|2,3:2|0:3,0:0:0:0:
114,319,121871,6,0,P|69:322|45:296,1,71.9999978027344,10|0,0:0|0:0,0:0:0:0:
140,247,122109,1,2,0:0:0:0:
38,307,122228,2,0,P|20:272|78:199,1,143.999995605469,2|0,0:3|0:0,0:0:0:0:
140,247,122585,2,0,B|163:249|185:234|193:213|189:192|189:192|186:169|198:146|220:136|241:137,2,167.999994873047,2|10|2,0:3|0:0|0:3,0:0:0:0:
77,199,123181,1,8,0:0:0:0:
220,222,123300,6,0,B|243:220|265:235|273:256|269:277|269:277|266:300|278:323|300:333|321:332,1,167.999994873047,2|2,3:2|0:3,0:0:0:0:
512,283,123776,6,0,P|515:238|489:214,1,71.9999978027344,10|0,0:0|0:0,0:0:0:0:
433,156,124014,1,2,0:3:0:0:
500,207,124133,2,0,P|465:189|392:247,1,143.999995605469,2|0,0:3|0:0,0:0:0:0:
324,184,124490,6,0,L|343:93,1,71.9999978027344,2|0,0:3|0:0,0:0:0:0:
485,75,124728,2,0,L|434:64,1,48,10|0,0:0|0:0,0:0:0:0:
331,105,124966,2,0,L|340:59,1,35.9999989013672,2|0,0:3|0:0,0:0:0:0:
292,7,125204,6,0,P|235:-10|193:73,1,143.999995605469,2|2,3:2|0:3,0:0:0:0:
0,163,125681,6,0,P|42:182|76:110,1,125.999996154785,10|0,0:0|0:0,0:0:0:0:
91,116,125919,5,2,0:3:0:0:
155,190,126038,2,0,P|123:123|112:17,1,167.999994873047,10|0,0:0|0:0,0:0:0:0:
242,180,126395,2,0,P|233:221|215:258,1,83.9999974365235,2|0,0:3|0:0,0:0:0:0:
61,380,126633,6,0,P|21:333|129:356,1,288,10|0,0:0|0:0,0:0:0:0:
325,348,127109,6,0,P|283:345|243:332,1,83.9999974365235,6|0,3:2|0:0,0:0:0:0:
131,351,127347,2,0,P|144:325|136:355,1,83.9999974365235,2|0,0:0|0:0,0:0:0:0:
333,355,127585,6,0,P|358:312|323:228,1,144,10|0,0:0|0:0,0:0:0:0:
317,238,127823,5,2,0:0:0:0:
479,227,127943,2,0,P|448:173|337:159,1,167.999994873047,2|0,3:2|0:0,0:0:0:0:
337,146,128300,6,0,P|318:115|340:66,1,83.9999974365235,2|0,3:2|0:0,0:0:0:0:
504,41,128538,2,0,P|518:26|496:40,1,83.9999974365235,10|0,0:0|0:0,0:0:0:0:
327,61,128776,2,0,P|350:33|404:39,1,83.9999974365235,2|0,0:0|0:0,0:0:0:0:
407,204,129014,5,2,3:2:0:0:
479,227,129133,2,0,P|448:173|337:159,1,167.999994873047,10|0,0:0|0:0,0:0:0:0:
144,27,129490,2,0,P|128:9|153:25,1,96,10|0,0:0|0:0,0:0:0:0:
234,106,129728,5,2,0:0:0:0:
243,28,129847,2,0,P|212:82|101:96,1,167.999994873047,2|0,3:2|0:0,0:0:0:0:
59,216,130204,6,0,P|36:211|18:173,1,60,2|0,3:2|0:0,0:0:0:0:
114,101,130443,2,0,L|133:198,1,83.9999974365235,10|0,0:0|0:0,0:0:0:0:
244,288,130681,2,0,P|267:283|285:245,1,60,2|0,0:0|0:0,0:0:0:0:
139,188,130919,6,0,L|158:285,1,83.9999974365235,0|0,3:0|0:0,0:0:0:0:
298,250,131157,2,0,P|305:211|268:174,1,83.9999974365235,2|0,0:0|0:0,0:0:0:0:
73,324,131395,6,0,P|126:309|187:394,1,144,10|0,0:0|0:0,0:0:0:0:
197,370,131633,5,2,0:0:0:0:
310,245,131752,2,0,P|351:287|301:389,1,167.999994873047,2|0,3:2|0:0,0:0:0:0:
305,380,132109,6,0,P|272:347|298:298,1,83.9999974365235,2|0,3:2|0:0,0:0:0:0:
436,241,132347,2,0,P|450:226|428:240,1,83.9999974365235,10|0,0:0|0:0,0:0:0:0:
294,309,132585,2,0,P|327:276|301:227,1,83.9999974365235,2|0,0:0|0:0,0:0:0:0:
484,140,132824,6,0,P|462:98|408:108,1,83.9999974365235,2|0,3:2|0:0,0:0:0:0:
352,56,133062,2,0,L|340:129,1,60,2|0,0:0|0:0,0:0:0:0:
197,45,133300,2,0,P|218:3|272:13,1,83.9999974365235,10|0,0:0|0:0,0:0:0:0:
66,130,133538,5,2,0:0:0:0:
143,158,133657,2,0,P|86:101|130:19,1,167.999994873047,2|8,3:2|0:0,0:0:0:0:
259,111,134014,6,0,L|242:209,1,83.9999974365235,2|0,3:2|0:0,0:0:0:0:
78,280,134252,2,0,P|125:237|209:284,1,144,14|0,0:0|0:0,0:0:0:0:
206,263,134490,2,0,L|193:337,1,60,10|0,0:0|0:0,0:0:0:0:
362,338,134728,6,0,P|405:341|434:306,1,83.9999974365235,6|0,3:2|0:0,0:0:0:0:
512,213,134966,2,0,P|499:187|507:217,1,83.9999974365235,2|0,0:0|0:0,0:0:0:0:
423,304,135204,6,0,P|371:259|388:172,1,144,10|0,0:0|0:0,0:0:0:0:
384,184,135443,5,2,0:0:0:0:
244,193,135562,2,0,P|276:122|376:113,1,167.999994873047,2|0,3:2|0:0,0:0:0:0:
370,106,135919,6,0,P|392:68|368:23,1,83.9999974365235,2|0,3:2|0:0,0:0:0:0:
216,26,136157,2,0,P|202:11|224:25,1,83.9999974365235,10|0,0:0|0:0,0:0:0:0:
389,31,136395,2,0,P|359:-1|309:7,1,83.9999974365235,2|0,0:0|0:0,0:0:0:0:
107,112,136633,5,2,3:2:0:0:
43,71,136752,2,0,P|104:60|186:136,1,167.999994873047,10|0,0:0|0:0,0:0:0:0:
344,215,137109,2,0,P|360:197|335:213,1,96,10|0,0:0|0:0,0:0:0:0:
241,242,137347,5,2,0:0:0:0:
250,164,137466,2,0,P|219:218|108:232,1,167.999994873047,2|0,3:2|0:0,0:0:0:0:
61,291,137823,6,0,P|30:284|6:233,1,83.9999974365235,2|0,3:2|0:0,0:0:0:0:
191,321,138062,2,0,L|175:393,1,60,10|0,0:0|0:0,0:0:0:0:
121,237,138300,2,0,L|173:224,1,48,2|0,0:0|0:0,0:0:0:0:
241,242,138538,5,2,3:0:0:0:
277,371,139371,5,2,0:3:0:0:
509,186,140443,6,0,B|524:168|524:168|505:87|505:87|438:136|438:136|438:164,1,215.999993408203,6|0,3:2|0:0,0:0:0:0:
442,237,140681,6,0,P|412:200|366:203,1,90,10|0,0:0|0:0,0:0:0:0:
368,190,140919,6,0,P|311:197|286:248,1,107.999996704102,10|0,0:0|0:0,0:0:0:0:
208,226,141157,2,0,P|196:291|243:336,1,125.999996154785,10|0,0:0|0:0,0:0:0:0:
281,247,141395,6,0,P|240:198|253:139,1,125.999996154785,10|0,0:0|0:0,0:0:0:0:
212,68,141633,2,0,P|258:17|325:24,1,125.999996154785,10|0,0:0|0:0,0:0:0:0:
260,136,141871,6,0,P|192:92|133:121,1,144,10|0,0:0|0:0,0:0:0:0:
126,117,142109,5,8,0:0:0:0:
136,128,142228,1,8,0:0:0:0:
114,202,142347,5,14,3:2:0:0:
0,262,142466,1,2,0:0:0:0:
54,149,142585,5,2,0:0:0:0:
111,285,142704,1,2,3:2:0:0:
0,384,142823,1,10,0:0:0:0:
183,249,142942,5,2,0:0:0:0:
120,378,143062,1,2,3:2:0:0:
7,275,143181,2,0,L|111:297,1,96,2|0,3:2|0:0,0:0:0:0:
334,254,143419,5,2,3:2:0:0:
322,242,143538,1,2,3:2:0:0:
317,258,143657,1,2,0:0:0:0:
281,322,143776,5,2,3:2:0:0:
369,182,143895,1,2,3:2:0:0:
255,207,144014,1,10,0:0:0:0:
390,296,144133,1,2,3:2:0:0:
325,252,144252,5,2,3:2:0:0:
233,383,144371,2,0,L|140:364,1,96,2|2,0:0|0:0,0:0:0:0:
10,249,144609,5,2,3:2:0:0:
13,327,144728,2,0,P|104:333|138:244,1,180,10|0,0:0|0:0,0:0:0:0:
81,214,144966,5,2,3:2:0:0:
255,207,145085,2,0,P|201:198|183:152,1,96,2|0,3:2|0:0,0:0:0:0:
159,13,145323,5,2,3:2:0:0:
148,0,145442,1,2,3:2:0:0:
142,16,145561,1,2,0:0:0:0:
69,49,145681,5,2,3:2:0:0:
200,73,145800,1,2,3:2:0:0:
122,113,145919,1,10,0:0:0:0:
206,86,146038,1,2,3:2:0:0:
443,93,146157,5,6,3:2:0:0:
336,147,146276,1,2,0:0:0:0:
404,65,146395,5,2,0:0:0:0:
469,173,146514,1,2,3:2:0:0:
358,241,146633,1,10,0:0:0:0:
424,141,146752,5,2,0:0:0:0:
450,283,146871,1,2,3:2:0:0:
298,300,146990,2,0,L|203:274,1,96,2|0,3:2|0:0,0:0:0:0:
471,371,147228,5,2,3:2:0:0:
503,273,147347,1,2,3:2:0:0:
408,243,147466,1,2,0:0:0:0:
503,362,147585,5,2,3:2:0:0:
385,278,147704,1,2,3:2:0:0:
291,381,147823,1,10,0:0:0:0:
363,349,147943,1,2,0:0:0:0:
289,288,148062,5,2,3:2:0:0:
372,358,148181,2,0,B|381:344|384:319|370:295|347:288|347:288|324:278|307:258|305:229|319:208,1,180,14|0,0:0|0:0,0:0:0:0:
329,206,148419,1,2,3:2:0:0:
491,76,148538,5,10,0:0:0:0:
386,35,148657,1,2,3:2:0:0:
456,6,148776,1,10,0:0:0:0:
260,159,148895,6,0,P|268:55|325:132,1,251.999992309571,6|0,3:2|0:0,0:0:0:0:
329,206,149133,5,2,3:2:0:0:
419,107,149252,1,14,0:0:0:0:
336,131,149371,1,2,0:0:0:0:
482,252,149490,5,2,3:2:0:0:
335,216,149609,1,8,0:0:0:0:
473,210,149728,5,2,3:2:0:0:
378,283,149847,1,8,0:0:0:0:
486,384,149966,6,0,P|459:288|423:367,1,233.999989288331,6|0,3:2|0:0,0:0:0:0:
346,384,150204,5,2,0:0:0:0:
178,244,150323,2,0,B|161:237|162:225|165:224|168:223|167:210|163:199|163:199|202:207|188:243,1,96,2|8,0:0|0:0,0:0:0:0:
250,383,150562,6,0,L|274:283,1,96,2|2,0:0|0:3,0:0:0:0:
329,66,150800,2,0,L|338:25,3,32,2|2|2|2,0:0|0:0|0:0|3:2,0:0:0:0:
220,142,151038,5,2,0:0:0:0:
330,233,151157,2,0,P|365:238|405:179,1,96,2|0,0:0|0:0,0:0:0:0:
222,59,151395,5,10,0:0:0:0:
205,50,151474,1,2,0:0:0:0:
187,56,151553,1,2,0:0:0:0:
178,70,151633,1,2,0:0:0:0:
161,78,151712,1,2,0:0:0:0:
143,72,151791,1,2,0:0:0:0:
123,0,151871,6,0,B|121:62|60:67|61:63|61:59|16:47|-15:106|4:140|27:153|65:163|87:147|90:110,1,251.999992309571,2|0,3:2|0:0,0:0:0:0:
144,180,152109,5,2,0:0:0:0:
3,326,152228,2,0,B|-1:349|21:355|21:353|21:352|40:350|46:375|37:383|28:389|13:385|6:379|11:368,1,96,2|8,0:0|0:0,0:0:0:0:
149,282,152466,6,0,P|98:283|73:246,1,96,2|2,0:0|0:3,0:0:0:0:
220,142,152704,2,0,B|236:138|263:147|280:172|278:201|278:201|276:226|288:252|315:267|343:261,1,198.000006042481,2|0,0:0|0:0,0:0:0:0:
353,254,152943,1,8,0:0:0:0:
456,0,153062,5,2,0:0:0:0:
371,73,153181,1,2,0:0:0:0:
454,109,153300,1,10,0:0:0:0:
407,165,153419,1,2,0:0:0:0:
452,206,153538,1,2,0:0:0:0:
436,242,153657,1,10,0:0:0:0:
450,254,153776,5,6,3:2:0:0:
343,260,153895,1,2,0:0:0:0:
430,372,154014,5,2,0:0:0:0:
334,271,154133,1,2,0:0:0:0:
257,384,154252,5,10,0:0:0:0:
465,342,154371,1,2,0:0:0:0:
328,253,154490,1,2,0:0:0:0:
339,382,154609,6,0,L|358:263,1,96,2|0,0:0|3:0,0:0:0:0:
371,161,154847,5,2,0:0:0:0:
512,263,154966,2,0,P|474:268|431:216,1,96,2|0,0:0|0:0,0:0:0:0:
259,132,155204,6,0,P|324:143|390:55,1,180,10|0,0:0|0:0,0:0:0:0:
401,51,155443,5,2,0:0:0:0:
388,45,155562,1,2,0:0:0:0:
455,118,155681,5,2,3:2:0:0:
387,168,155800,1,2,0:0:0:0:
467,124,155919,5,2,0:0:0:0:
305,64,156038,1,2,0:0:0:0:
318,220,156157,5,8,0:0:0:0:
400,39,156276,1,2,0:0:0:0:
267,144,156395,1,2,0:0:0:0:
481,130,156514,6,0,L|357:156,1,96,10|0,0:0|3:0,0:0:0:0:
184,179,156752,5,10,0:0:0:0:
325,305,156871,2,0,P|340:267|306:212,1,96,2|0,0:0|0:0,0:0:0:0:
0,129,157109,5,10,0:0:0:0:
132,90,157228,1,8,0:0:0:0:
35,0,157347,1,10,0:0:0:0:
77,143,157466,1,8,0:0:0:0:
55,72,157585,5,6,3:2:0:0:
184,179,158062,6,0,L|167:283,1,96,10|2,0:0|0:0,0:0:0:0:
92,291,158419,2,0,B|114:279|142:286|158:305|162:328|162:328|167:353|188:370|214:373|234:364,1,180,2|2,0:0|0:0,0:0:0:0:
351,203,159014,2,0,L|338:281,1,60,10|0,0:0|0:0,0:0:0:0:
348,268,159252,2,0,L|337:329,1,48,2|0,0:0|0:0,0:0:0:0:
394,373,159490,6,0,P|443:381|479:267,1,180,2|0,3:2|0:0,0:0:0:0:
429,231,159966,2,0,L|442:148,1,71.9999978027344,10|0,0:0|0:0,0:0:0:0:
397,17,160204,5,2,0:0:0:0:
481,30,160323,2,0,B|458:19|431:25|416:44|412:66|412:66|407:90|386:108|361:110|341:102,1,180,2|2,0:0|0:3,0:0:0:0:
62,73,160919,6,0,P|28:39|76:71,1,215.999993408203,10|0,0:0|0:0,0:0:0:0:
95,146,161395,6,0,L|228:168,2,120,2|2|10,3:2|0:0|0:0,0:0:0:0:
20,231,162109,1,2,0:0:0:0:
13,219,162228,2,0,L|135:239,1,120,2|0,0:0|0:0,0:0:0:0:
201,285,162585,2,0,P|150:273|91:344,2,143.999995605469,2|10|2,0:0|0:0|0:0,0:0:0:0:
381,384,163300,6,0,L|388:329,1,48,2|0,3:2|0:0,0:0:0:0:
492,294,163538,2,0,L|437:284,1,48,2|0,0:0|0:0,0:0:0:0:
267,238,163776,2,0,P|297:244|338:200,1,83.9999974365235,10|0,0:0|0:0,0:0:0:0:
252,159,164014,1,2,0:0:0:0:
347,215,164133,2,0,P|363:168|304:122,1,120,2|0,0:0|0:0,0:0:0:0:
286,53,164490,5,2,0:0:0:0:
279,44,164609,1,2,0:0:0:0:
290,41,164728,2,0,L|370:57,1,60,10|0,0:0|0:0,0:0:0:0:
485,68,164966,2,0,P|454:63|431:8,1,83.9999974365235,2|0,0:0|0:0,0:0:0:0:
277,57,165204,6,0,B|250:44|218:52|199:74|194:101|194:101|188:130|163:151|133:154|109:144,1,215.999993408203,6|0,3:2|0:0,0:0:0:0:
12,114,165681,6,0,P|0:88|21:114,1,96,10|2,0:0|0:0,0:0:0:0:
69,206,166038,2,0,L|103:6,1,180,2|2,0:0|0:0,0:0:0:0:
206,149,166633,2,0,L|193:227,1,60,10|0,0:0|0:0,0:0:0:0:
203,214,166871,2,0,L|192:275,1,48,2|0,0:0|0:0,0:0:0:0:
125,300,167109,6,0,P|181:284|244:375,1,180,2|0,3:2|0:0,0:0:0:0:
324,384,167585,2,0,L|412:370,1,71.9999978027344,10|0,0:0|0:0,0:0:0:0:
474,340,167823,5,2,0:0:0:0:
405,381,167943,2,0,B|394:358|400:331|419:316|441:312|441:312|465:307|483:286|485:261|477:241,1,180,2|2,0:0|0:3,0:0:0:0:
495,46,168538,6,0,P|493:83|462:109,1,71.9999978027344,10|0,0:0|0:0,0:0:0:0:
406,149,168776,2,0,P|407:179|433:201,1,48,2|0,0:3|0:0,0:0:0:0:
477,242,169014,5,6,3:2:0:0:
256,192,169847,12,2,170681,0:0:0:0:
333,171,170919,6,0,P|365:91|288:158,1,215.999993408203,14|0,0:0|0:0,0:0:0:0:
195,140,171276,2,0,P|146:22|261:122,1,389.999982147218,14|0,0:0|0:0,0:0:0:0:
256,192,171633,5,14,3:2:0:0:
256,192,172824,5,6,3:2:0:0:
401,242,172943,1,8,0:0:0:0:
319,258,173062,5,8,3:0:0:0:
316,246,173181,1,4,3:0:0:0:
379,168,173300,5,10,0:0:0:0:
268,317,173419,1,0,3:0:0:0:
209,263,173538,5,10,0:0:0:0:
419,325,173657,2,0,P|340:313|331:99,1,311.999985717774,6|0,3:2|3:0,0:0:0:0:
418,24,174014,6,0,L|311:42,1,96,10|0,0:0|3:0,0:0:0:0:
482,188,174252,2,0,B|460:168|460:168|474:82,1,96,10|0,0:0|3:0,0:0:0:0:
130,0,174490,2,0,L|151:110,1,96,10|0,0:0|3:0,0:0:0:0:
304,205,174728,5,10,0:0:0:0:
265,185,174807,1,8,0:0:0:0:
224,198,174886,1,8,0:0:0:0:
202,236,174966,5,8,3:0:0:0:
205,250,175046,1,8,3:0:0:0:
209,263,175125,1,4,3:0:0:0:
197,273,175204,5,0,3:0:0:0:
183,269,175264,5,8,3:0:0:0:
180,279,175324,5,4,3:0:0:0:
155,288,175383,5,0,3:0:0:0:
84,310,175443,6,0,L|25:327,1,48,10|0,0:0|0:0,0:0:0:0:
0,251,175562,6,0,B|-26:196|30:129|114:166|117:235|79:266|79:266|63:279|67:305|86:317|103:313,1,288,4|0,3:2|0:0,0:0:0:0:
141,360,175800,5,0,3:0:0:0:
307,291,175919,2,0,P|323:250|300:201,1,96,10|0,0:0|0:0,0:0:0:0:
52,45,176157,6,0,L|32:-16,1,48,10|0,3:2|0:0,0:0:0:0:
122,95,176276,2,0,L|183:114,1,48,8|0,0:0|0:0,0:0:0:0:
47,56,176395,6,0,P|31:58|6:109,1,60,10|0,0:0|0:0,0:0:0:0:
186,99,176514,2,0,L|245:79,1,60,8|0,0:0|0:0,0:0:0:0:
413,46,176633,6,0,B|409:33|416:18|416:18|421:-11|334:-37|320:41|313:82|360:110,1,215.999993408203,6|0,3:2|0:0,0:0:0:0:
373,173,176871,5,10,0:0:0:0:
478,88,176990,1,2,0:0:0:0:
512,247,177109,6,0,B|488:257|463:250|446:232|442:209|442:209|438:185|417:168|392:166|371:174,1,180,2|0,3:2|0:0,0:0:0:0:
303,204,177347,5,10,0:0:0:0:
401,313,177466,2,0,P|421:215|495:61,1,240,2|0,3:2|3:0,0:0:0:0:
242,79,177824,6,0,B|225:72|226:60|229:59|232:58|231:45|227:34|227:34|266:42|252:78,1,96,10|0,0:0|0:0,0:0:0:0:
303,204,178062,2,0,B|279:194|254:201|237:219|233:242|233:242|229:266|208:283|183:285|162:277,1,180,2|0,3:2|0:0,0:0:0:0:
102,327,178300,2,0,B|93:317|76:309|76:309|63:278|100:240,1,96,10|0,0:0|0:0,0:0:0:0:
255,61,178538,6,0,B|270:50|253:37|256:31|255:34|253:20|272:10|267:6|267:6|180:11|152:110|212:157,1,251.999992309571,6|0,3:2|0:0,0:0:0:0:
215,218,178776,5,10,0:0:0:0:
99,158,178895,1,8,0:0:0:0:
164,277,179014,5,10,0:0:0:0:
92,152,179133,1,8,0:0:0:0:
91,249,179252,5,10,0:0:0:0:
86,146,179371,2,0,P|220:178|274:319,1,287.999991210938,14|0,0:0|3:0,0:0:0:0:
372,379,179728,5,10,0:0:0:0:
208,339,179847,1,8,0:0:0:0:
438,320,179966,6,0,P|314:315|283:422,1,215.999993408203,4|0,3:2|0:0,0:0:0:0:
325,172,180204,2,0,P|354:213|405:204,1,96,10|0,0:0|0:0,0:0:0:0:
466,15,180443,5,10,3:2:0:0:
436,149,180562,1,8,0:0:0:0:
512,84,180681,5,8,3:2:0:0:
330,38,180800,1,8,0:0:0:0:
399,85,180919,6,0,B|369:72|339:81|318:103|314:131|314:131|309:160|283:180|253:183|229:169,1,215.999993408203,6|0,3:2|0:0,0:0:0:0:
190,108,181157,5,10,0:0:0:0:
39,286,181276,2,0,B|27:259|-7:255|-7:255|62:246|96:286|96:286|85:331|137:369,1,240,2|0,3:2|3:0,0:0:0:0:
229,384,181633,6,0,P|273:351|258:291,1,96,10|0,0:0|0:0,0:0:0:0:
156,180,181871,2,0,P|112:213|127:273,1,96,2|0,3:2|3:0,0:0:0:0:
335,236,182109,2,0,B|261:254|261:254|246:282|246:282|157:306,1,180,10|0,0:0|0:0,0:0:0:0:
367,361,182347,6,0,L|461:379,1,96,2|0,3:2|0:0,0:0:0:0:
445,176,182585,2,0,P|428:144|428:179,1,96,10|0,0:0|0:0,0:0:0:0:
355,368,182824,6,0,P|301:329|363:229,1,180,2|0,3:2|0:0,0:0:0:0:
412,254,183062,5,10,0:0:0:0:
417,45,183181,2,0,B|395:41|378:12|378:12|383:99|482:127|529:67,1,240,2|0,3:2|3:0,0:0:0:0:
302,63,183538,6,0,P|256:67|230:22,1,96,8|0,0:0|0:0,0:0:0:0:
0,186,183776,6,0,L|114:165,1,96,2|0,3:2|0:0,0:0:0:0:
237,21,184014,2,0,P|182:-13|166:77,1,180,10|0,0:0|0:0,0:0:0:0:
210,137,184252,6,0,L|227:231,1,96,6|0,3:2|0:0,0:0:0:0:
48,97,184490,2,0,P|32:65|61:86,1,96,10|0,0:0|0:0,0:0:0:0:
238,237,184728,2,0,P|183:203|167:293,1,180,2|0,3:2|0:0,0:0:0:0:
108,350,184966,5,10,0:0:0:0:
289,353,185085,2,0,P|351:302|244:248,1,240,2|0,3:2|3:0,0:0:0:0:
190,384,185443,6,0,L|168:260,1,96,10|0,0:0|0:0,0:0:0:0:
317,151,185681,2,0,P|334:128|314:151,1,96,2|0,3:2|3:0,0:0:0:0:
13,213,185919,2,0,P|92:222|134:125,1,180,10|0,0:0|0:0,0:0:0:0:
194,91,186157,5,6,3:2:0:0:
65,3,186276,1,8,0:0:0:0:
184,77,186395,5,8,3:0:0:0:
59,148,186514,1,4,3:0:0:0:
207,0,186633,5,10,0:0:0:0:
151,154,186752,1,8,3:0:0:0:
268,55,186871,5,10,0:0:0:0:
100,80,186990,2,0,B|137:71|170:87|190:117|188:150|188:150|188:185|214:213|248:223|279:211,1,251.999992309571,6|0,3:2|0:0,0:0:0:0:
317,151,187228,1,0,3:0:0:0:
389,187,187347,5,10,0:0:0:0:
428,123,187466,1,8,0:0:0:0:
417,259,187585,5,6,3:2:0:0:
503,193,187704,1,8,0:0:0:0:
387,326,187824,5,10,0:0:0:0:
512,313,187943,1,8,0:0:0:0:
324,368,188062,6,0,B|244:369|202:281|249:188|366:233|321:317,1,251.999992309571,6|0,3:2|0:0,0:0:0:0:
387,326,188300,2,0,B|273:342|273:342|264:361|264:361|130:381,1,251.999992309571,14|0,0:0|0:0,0:0:0:0:
33,334,188538,6,0,B|16:322|16:322|65:301|89:350,1,96,2|0,3:2|0:0,0:0:0:0:
217,132,188776,5,10,0:0:0:0:
95,220,188895,2,0,B|38:236|38:236|-11:211|-12:134|43:102,1,215.999993408203,2|0,3:2|0:0,0:0:0:0:
58,32,189133,1,0,3:0:0:0:
286,172,189252,6,0,P|316:141|300:77,1,96,10|0,0:0|0:0,0:0:0:0:
130,0,189490,2,0,L|152:104,1,96,2|0,3:2|3:0,0:0:0:0:
312,246,189728,2,0,P|253:312|229:227,1,215.999993408203,10|0,0:0|0:0,0:0:0:0:
286,172,189966,6,0,B|312:148|312:148|372:164|372:164|374:157|374:157|372:164|372:164|433:181|433:181|449:232,1,215.999993408203,2|0,3:2|0:0,0:0:0:0:
501,377,190204,2,0,B|528:324|528:324|490:356,1,96,10|0,0:0|0:0,0:0:0:0:
458,76,190443,6,0,L|402:311,1,215.999993408203,2|0,3:2|0:0,0:0:0:0:
385,360,190681,5,10,0:0:0:0:
229,226,190800,2,0,B|146:244|146:244|137:260|137:260|40:283,1,180,2|0,3:2|0:0,0:0:0:0:
0,233,191038,5,0,3:0:0:0:
152,384,191157,2,0,B|171:353|171:353|158:295,1,96,8|0,0:0|0:0,0:0:0:0:
224,95,191395,6,0,B|251:42|251:42|213:74,1,96,2|0,3:2|0:0,0:0:0:0:
84,149,191633,2,0,P|24:147|27:38,1,180,10|0,0:0|0:0,0:0:0:0:
23,34,191871,6,0,B|40:29|70:37|91:63|92:94|92:94|92:122|108:148|139:162|169:154,1,215.999993408203,6|0,3:2|0:0,0:0:0:0:
224,95,192109,2,0,B|251:42|251:42|213:74,1,96,10|0,0:0|0:0,0:0:0:0:
311,245,192347,2,0,P|371:243|368:134,1,180,2|0,3:2|0:0,0:0:0:0:
378,67,192585,5,10,0:0:0:0:
251,177,192704,2,0,B|268:253|268:253|264:264|264:264|287:380,1,180,2|0,3:2|0:0,0:0:0:0:
355,384,192943,1,0,3:0:0:0:
85,296,193062,6,0,L|197:275,1,96,10|0,0:0|0:0,0:0:0:0:
380,142,193300,2,0,P|327:128|304:81,1,96,2|0,3:2|3:0,0:0:0:0:
451,373,193538,2,0,P|481:296|404:356,1,215.999993408203,10|0,0:0|0:0,0:0:0:0:
355,384,193776,6,0,P|443:344|452:157,1,251.999992309571,12|0,0:0|0:0,0:0:0:0:
450,0,194014,5,10,0:0:0:0:
380,142,194133,1,8,0:0:0:0:
503,54,194252,5,10,0:0:0:0:
372,136,194371,1,8,0:0:0:0:
511,129,194490,5,10,0:0:0:0:
364,130,194609,2,0,B|347:125|317:133|296:159|295:190|295:190|295:218|279:244|248:258|218:250,1,215.999993408203,14|0,0:0|0:0,0:0:0:0:
164,196,194847,1,0,3:0:0:0:
89,335,194966,5,10,0:0:0:0:
7,160,195085,1,8,0:0:0:0:
157,210,195204,6,0,B|92:210|39:240|39:240|-3:220|7:146,1,215.999993408203,6|0,3:2|0:0,0:0:0:0:
199,41,195443,2,0,B|215:29|226:1|226:1|241:29|213:59,1,96,10|0,0:0|0:0,0:0:0:0:
188,122,195681,5,10,0:0:0:0:
106,0,195800,1,8,0:0:0:0:
286,101,195919,5,8,0:0:0:0:
94,138,196038,1,8,0:0:0:0:
224,46,196157,6,0,P|246:135|379:123,1,215.999993408203,6|0,3:2|0:0,0:0:0:0:
397,79,196395,5,10,0:0:0:0:
503,276,196514,2,0,P|534:221|432:267,1,287.999991210938,2|0,3:2|3:0,0:0:0:0:
189,376,196871,6,0,P|159:340|182:280,1,96,10|0,0:0|0:0,0:0:0:0:
357,291,197109,2,0,L|331:403,1,96,2|0,3:2|3:0,0:0:0:0:
123,228,197347,2,0,P|208:251|257:162,1,180,10|0,0:0|0:0,0:0:0:0:
356,145,197585,6,0,B|330:169|330:169|270:153|270:153|268:160|268:160|270:153|270:153|209:136|209:136|193:85,1,215.999993408203,2|0,3:2|0:0,0:0:0:0:
17,40,197824,2,0,B|44:-11|44:-11|40:36,1,96,10|0,0:0|0:0,0:0:0:0:
292,48,198062,6,0,L|81:97,1,215.999993408203,2|0,3:2|0:0,0:0:0:0:
24,148,198300,5,10,0:0:0:0:
133,7,198419,2,0,B|151:85|151:85|162:92|162:92|185:183,1,180,2|0,3:2|0:0,0:0:0:0:
123,228,198657,5,0,3:0:0:0:
272,367,198776,2,0,L|163:341,1,96,10|0,0:0|0:0,0:0:0:0:
43,304,199014,6,0,B|26:248|26:248|56:284,1,96,2|0,3:2|3:0,0:0:0:0:
187,355,199252,2,0,P|247:353|244:244,1,180,10|0,0:0|0:0,0:0:0:0:
248,240,199490,6,0,B|231:235|201:243|180:269|179:300|179:300|179:328|163:354|132:368|102:360,1,215.999993408203,6|0,3:2|0:0,0:0:0:0:
43,304,199728,2,0,B|26:248|26:248|56:284,1,96,10|0,0:0|0:0,0:0:0:0:
360,292,199966,2,0,P|386:238|288:189,1,180,2|0,3:2|0:0,0:0:0:0:
239,230,200204,5,10,0:0:0:0:
131,7,200324,2,0,B|207:24|207:24|217:43|217:43|320:64,1,180,2|0,3:2|0:0,0:0:0:0:
355,11,200562,1,0,3:0:0:0:
441,151,200681,6,0,P|467:114|434:44,1,96,10|0,0:0|0:0,0:0:0:0:
148,108,200919,2,0,L|264:133,1,96,2|0,3:2|3:0,0:0:0:0:
512,225,201157,2,0,P|427:200|362:306,1,215.999993408203,10|0,0:0|0:0,0:0:0:0:
304,344,201395,5,6,3:2:0:0:
239,230,201514,1,8,0:0:0:0:
224,337,201633,5,8,3:0:0:0:
351,283,201752,1,4,3:0:0:0:
137,278,201871,5,10,0:0:0:0:
311,354,201990,1,0,3:0:0:0:
154,187,202109,5,10,0:0:0:0:
228,350,202228,2,0,P|249:260|308:61,1,287.999991210938,6|0,3:2|3:0,0:0:0:0:
464,0,202585,5,8,0:0:0:0:
479,155,202704,1,8,0:0:0:0:
368,27,202824,5,6,3:2:0:0:
453,78,202943,1,8,0:0:0:0:
323,160,203062,5,10,0:0:0:0:
437,84,203181,1,8,0:0:0:0:
211,0,203300,6,0,B|190:-6|153:3|128:35|126:73|126:73|126:107|107:138|69:156|33:146,1,251.999992309571,14|0,3:2|0:0,0:0:0:0:
23,18,203538,2,0,B|15:5|-4:4|-4:4|38:-7|64:31,1,96,14|0,0:0|0:0,0:0:0:0:
155,263,203776,6,0,B|159:247|152:218|128:199|99:198|99:198|73:198|49:183|36:154|46:127,1,180,2|0,3:2|0:0,2:0:0:0:
93,89,204014,1,10,0:0:0:0:
323,160,204133,6,0,B|345:222|292:251|245:242|179:201|218:141|258:129,1,240,2|0,3:2|3:0,0:0:0:0:
478,180,204490,6,0,B|493:172|500:156|497:140|497:140|479:144|467:160|467:179|476:193,1,96,10|0,0:0|0:0,0:0:0:0:
424,330,204728,2,0,B|433:343|406:397|355:370|327:345|321:294|372:282,1,180,2|0,3:2|0:0,0:0:0:0:
323,76,204966,6,0,B|322:42|291:36|291:36|288:62|304:76,1,96,10|0,0:0|0:0,0:0:0:0:
437,251,205204,6,0,P|356:259|205:339,1,240,2|8,3:2|0:0,0:0:0:0:
192,226,205562,1,0,0:0:0:0:
150,382,205681,6,0,P|127:343|121:262,1,96,2|0,3:2|0:0,0:0:0:0:
141,11,205919,5,10,0:0:0:0:
280,152,206038,2,0,P|234:146|165:104,1,96,2|0,3:2|0:0,0:0:0:0:
0,199,206276,5,0,3:0:0:0:
57,148,206395,1,8,0:0:0:0:
74,224,206514,1,0,3:0:0:0:
190,125,206633,6,0,P|210:81|217:34,1,96,2|0,3:2|3:0,0:0:0:0:
13,277,206871,2,0,P|19:324|40:367,1,96,10|0,0:0|0:0,0:0:0:0:
359,246,207109,6,0,B|341:241|310:249|289:276|287:308|287:308|287:337|271:363|239:378|208:370,1,215.999993408203,6|0,3:2|0:0,0:0:0:0:
192,226,207347,2,0,B|184:212|166:210|166:210|208:202|231:241,1,96,8|0,0:0|0:0,0:0:0:0:
462,366,207585,6,0,B|467:351|460:325|438:307|411:306|411:306|387:306|365:292|353:266|360:240,1,180,2|0,3:2|0:0,0:0:0:0:
421,197,207824,1,10,0:0:0:0:
512,23,207943,6,0,B|508:-39|402:-44|381:52|449:74|449:71|449:68|494:97|470:130|470:130|450:138|457:103|427:98,1,287.999991210938,2|0,3:2|3:0,0:0:0:0:
223,30,208300,6,0,B|210:19|207:1|214:-13|214:-13|231:-5|238:14|233:32|221:43,1,96,10|0,0:0|0:0,0:0:0:0:
364,105,208538,2,0,B|332:96|345:47|254:96|268:142|319:151|268:231|282:103|192:142,1,215.999993408203,2|0,3:2|0:0,0:0:0:0:
26,43,208776,6,0,B|-6:35|-8:5|-8:5|17:6|28:24,1,96,10|0,0:0|0:0,0:0:0:0:
97,256,209014,6,0,P|115:143|36:252,1,335.999989746094,6|8,3:2|0:0,0:0:0:0:
306,354,209490,5,6,3:2:0:0:
208,136,209609,1,0,3:0:0:0:
75,331,209728,1,10,0:0:0:0:
232,239,209847,6,0,B|252:233|288:241|313:273|315:310|315:310|315:343|333:374|371:391|406:382,1,251.999992309571,6|0,3:2|0:0,0:0:0:0:
465,331,210085,1,0,3:0:0:0:
401,278,210204,5,10,0:0:0:0:
417,267,210323,1,8,0:0:0:0:
362,191,210442,5,10,0:0:0:0:
441,192,210561,1,8,0:0:0:0:
379,66,210681,5,10,0:0:0:0:
512,165,210800,1,8,0:0:0:0:
483,4,210919,6,0,B|378:16|378:16|358:57|358:57|238:76,1,251.999992309571,6|0,3:2|0:0,0:0:0:0:
37,15,211157,2,0,B|29:1|11:-1|11:-1|53:-9|76:30,1,96,10|0,0:0|0:0,0:0:0:0:
252,149,211395,6,0,P|160:136|169:44,1,180,2|0,3:2|0:0,0:0:0:0:
213,10,211633,1,10,0:0:0:0:
29,265,211752,6,0,B|-26:232|-5:175|36:152|113:141|122:211|99:247,1,240,2|0,3:2|3:0,0:0:0:0:
195,343,212109,6,0,B|198:359|190:375|176:383|176:383|168:366|172:347|187:335|203:333,1,96,10|0,0:0|0:0,0:0:0:0:
195,207,212347,2,0,B|182:197|188:137|246:145|281:159|304:205|260:234,1,180,2|0,3:2|0:0,0:0:0:0:
441,337,212585,6,0,B|473:345|475:375|475:375|450:374|439:356,1,96,10|0,0:0|0:0,0:0:0:0:
458,100,212824,6,0,P|405:177|349:388,1,287.999991210938,6|8,3:2|0:0,0:0:0:0:
265,230,213181,1,0,0:0:0:0:
508,263,213300,6,0,P|460:253|409:212,1,96,2|0,3:2|0:0,0:0:0:0:
307,0,213538,5,10,0:0:0:0:
257,152,213657,2,0,P|217:80|339:133,1,335.999989746094,6|0,3:2|0:0,0:0:0:0:
268,307,214014,5,10,0:0:0:0:
421,226,214133,1,10,0:0:0:0:
265,230,214252,5,8,3:0:0:0:
349,376,214371,1,4,3:0:0:0:
381,296,214490,5,4,3:0:0:0:
372,289,214609,1,4,3:0:0:0:
367,299,214728,6,0,B|351:289|319:289|292:308|283:339|283:339|276:366|253:388|219:394|192:378,1,215.999993408203,6|0,3:2|3:0,0:0:0:0:
4,318,215204,6,0,B|31:306|43:279|38:251|38:251|42:280|62:302|92:300,1,161.999995056153,10|0,0:0|0:0,0:0:0:0:
160,268,215442,5,2,3:2:0:0:
62,384,215561,2,0,P|76:282|104:144,1,215.999993408203,10|0,0:0|0:0,0:0:0:0:
227,98,215918,6,0,B|221:108|228:128|228:128|212:158|155:149,1,90.0000034332277,2|0,3:2|0:0,0:0:0:0:
199,23,216156,2,0,B|211:21|225:6|225:6|259:4|280:59,1,90.0000034332277,10|0,0:0|0:0,0:0:0:0:
145,81,216394,2,0,B|138:71|118:66|118:66|99:38|136:-7,1,90.0000034332277,10|8,0:0|0:0,0:0:0:0:
494,105,216632,6,0,B|496:48|430:48|430:48|411:73|421:111,1,144,6|0,3:2|0:0,0:0:0:0:
410,99,216870,6,0,B|366:53|315:106|315:106|321:140|358:161,1,161.999995056153,8|0,0:0|0:0,0:0:0:0:
325,183,217108,6,0,B|261:182|264:256|264:256|292:276|334:263,1,180,8|0,0:0|0:0,0:0:0:0:
420,271,217347,6,0,B|386:310|392:354|431:378|431:378|475:373|491:326,1,198.000006042481,8|0,0:0|0:0,0:0:0:0:
512,192,217585,5,14,0:0:0:0:
256,352,218061,5,14,3:2:0:0:
0,192,218537,6,0,L|118:173,1,96,6|0,3:2|0:0,0:0:0:0:
279,217,218775,5,2,3:2:0:0:
298,212,218894,1,2,3:2:0:0:
183,11,219013,2,0,L|162:132,1,96,10|0,0:0|0:0,0:0:0:0:
133,263,219251,5,2,3:2:0:0:
88,99,219370,2,0,P|126:173|236:137,1,192,2|0,3:2|3:0,0:0:0:0:
350,31,219728,6,0,P|352:7|345:34,1,96,2|0,3:2|0:0,0:0:0:0:
418,217,219966,5,2,3:2:0:0:
501,131,220086,1,2,3:2:0:0:
381,154,220205,1,10,0:0:0:0:
491,206,220324,1,2,3:2:0:0:
433,99,220442,6,0,L|449:-2,1,96,2|0,3:2|0:0,0:0:0:0:
290,120,220680,5,2,3:2:0:0:
309,115,220799,1,2,3:2:0:0:
418,217,220918,2,0,L|317:201,1,96,10|0,0:0|0:0,0:0:0:0:
166,105,221156,5,2,3:2:0:0:
259,309,221275,2,0,L|294:93,1,192,2|0,3:2|3:0,0:0:0:0:
112,41,221632,6,0,P|104:7|121:36,1,96,2|0,3:2|0:0,0:0:0:0:
95,241,221870,5,2,3:2:0:0:
19,145,221989,1,2,3:2:0:0:
136,177,222108,1,10,0:0:0:0:
22,221,222227,1,2,3:2:0:0:
89,122,222347,6,0,P|152:156|240:27,1,240,6|0,3:2|3:0,0:0:0:0:
305,0,222704,5,0,3:0:0:0:
406,176,222823,2,0,P|450:148|401:45,1,161.999995056153,10|0,0:0|0:0,0:0:0:0:
352,66,223061,5,2,3:2:0:0:
501,234,223180,2,0,P|422:211|276:184,1,215.999993408203,2|0,3:2|3:0,0:0:0:0:
178,318,223537,6,0,B|171:328|179:348|179:348|162:379|103:370,1,96,2|0,3:2|0:0,0:0:0:0:
75,314,223775,5,2,3:2:0:0:
83,301,223894,1,0,3:0:0:0:
2,265,224013,5,10,0:0:0:0:
116,224,224132,1,0,3:0:0:0:
17,138,224251,5,2,3:2:0:0:
169,299,224370,2,0,P|210:205|192:31,1,264.000008056641,14|0,0:0|0:0,0:0:0:0:
125,0,224728,5,8,0:0:0:0:
302,98,224847,1,0,3:0:0:0:
178,150,224966,5,10,0:0:0:0:
268,9,225085,2,0,P|353:8|391:103,1,180,2|0,3:2|0:0,0:0:0:0:
459,123,225323,5,0,3:0:0:0:
478,8,225442,2,0,P|431:78|420:222,1,198.000006042481,10|0,0:0|0:0,0:0:0:0:
476,236,225680,5,2,3:2:0:0:
309,327,225799,1,0,3:0:0:0:
348,223,225918,2,0,P|359:263|411:313,1,96,10|0,0:0|0:0,0:0:0:0:
512,358,226156,6,0,B|521:340|521:340|426:307|358:388,1,198.000006042481,6|0,3:2|0:0,0:0:0:0:
238,365,226394,5,2,3:2:0:0:
229,347,226513,1,2,3:2:0:0:
343,235,226632,2,0,P|295:228|255:203,1,96,10|0,0:0|0:0,0:0:0:0:
52,321,226870,5,2,3:2:0:0:
111,193,226989,2,0,P|139:256|149:413,1,192,2|0,3:2|3:0,0:0:0:0:
8,239,227347,6,0,P|0:205|17:234,1,96,2|0,3:2|0:0,0:0:0:0:
214,128,227585,5,2,3:2:0:0:
199,10,227705,1,2,3:2:0:0:
141,117,227824,1,10,0:0:0:0:
251,65,227943,1,2,3:2:0:0:
131,42,228061,6,0,P|83:48|43:73,1,96,2|0,3:2|0:0,0:0:0:0:
349,94,228299,5,2,3:2:0:0:
354,75,228418,1,2,3:2:0:0:
214,128,228537,2,0,P|253:153|301:159,1,96,10|0,0:0|0:0,0:0:0:0:
445,38,228775,5,2,3:2:0:0:
401,258,228894,2,0,P|395:178|339:53,1,192,2|0,3:2|3:0,0:0:0:0:
510,217,229251,6,0,P|518:183|501:212,1,96,2|0,3:2|0:0,0:0:0:0:
247,383,229489,5,2,3:2:0:0:
262,265,229609,1,2,3:2:0:0:
320,372,229728,1,10,0:0:0:0:
210,320,229847,1,2,3:2:0:0:
330,297,229966,6,0,B|161:270|161:270|116:243,1,215.999993408203,6|0,3:2|0:0,0:0:0:0:
29,113,230204,5,2,3:2:0:0:
33,93,230323,1,2,3:2:0:0:
187,153,230442,2,0,L|74:182,1,102.000001945496,10|0,0:0|0:0,0:0:0:0:
168,12,230680,5,2,3:2:0:0:
317,142,230799,2,0,P|344:72|250:114,1,227.999993911743,2|0,3:2|3:0,0:0:0:0:
71,23,231156,6,0,P|69:-11|80:19,1,96,2|0,3:2|0:0,0:0:0:0:
70,297,231394,5,2,3:2:0:0:
13,190,231514,1,2,3:2:0:0:
122,246,231633,1,10,0:0:0:0:
2,265,231752,1,2,3:2:0:0:
87,178,231870,5,2,3:2:0:0:
270,352,231989,2,0,P|318:270|301:106,1,225,14|0,0:0|0:0,0:0:0:0:
246,99,232228,5,2,0:0:0:0:
407,234,232347,2,0,P|453:226|511:166,1,102.000001945496,10|0,0:0|3:0,0:0:0:0:
357,0,232585,5,10,0:0:0:0:
165,131,232704,2,0,P|149:53|239:114,1,240,2|0,3:2|3:0,0:0:0:0:
462,123,233061,6,0,P|415:115|357:55,1,102.000001945496,10|0,0:0|3:0,0:0:0:0:
166,293,233299,5,10,3:2:0:0:
297,223,233418,1,10,0:0:0:0:
165,215,233537,5,8,0:0:0:0:
259,368,233656,1,8,0:0:0:0:
