osu file format v14

[General]
AudioFilename: audio.mp3
AudioLeadIn: 0
PreviewTime: 141057
Countdown: 0
SampleSet: Normal
StackLeniency: 0.7
Mode: 1
LetterboxInBreaks: 0
WidescreenStoryboard: 1

[Editor]
Bookmarks: 11733,24706,35084,45463,55841,66219,76598,86976,99949,110327,120706,131084,146652,152165,162219,172598
DistanceSpacing: 3
BeatDivisor: 4
GridSize: 32
TimelineZoom: 2

[Metadata]
Title:Yume to Shiriseba
TitleUnicode:夢と知りせば
Artist:Tsukuyomi
ArtistUnicode:月詠み
Creator:arcpotato
Version:Zhuosh's Muzukashii
Source:ドラゴンネスト2:エボリューション
Tags:zhuosh shiri seba dragon nest 2: evolution dragonnest2: video game videogame ツクヨミ 2943 ユリイカノン ユリイ・カノン yurry canon cannon yurrycanon yue エポック epoch とうかさ toukasa なおk naok 1st ep extended play japanese rock j-rock jrock j-pop jpop pop female vocals if i knew it was a dream another moon アナザームーン
BeatmapID:4401311
BeatmapSetID:2097877

[Difficulty]
HPDrainRate:6
CircleSize:2
OverallDifficulty:5
ApproachRate:10
SliderMultiplier:1.4
SliderTickRate:1

[Events]
//Background and Video events
0,0,"111470340_p0.jpg",0,10
Video,-149,"output.mp4"
//Break Periods
2,125932,130634
//Storyboard Layer 0 (Background)
//Storyboard Layer 1 (Fail)
//Storyboard Layer 2 (Pass)
//Storyboard Layer 3 (Foreground)
//Storyboard Layer 4 (Overlay)
//Storyboard Sound Samples

[TimingPoints]
1355,324.324324324324,4,1,0,75,1,0
11733,-100,4,1,0,90,0,0
24706,324.324324324324,4,1,0,50,1,0
24706,-100,4,1,0,50,0,0
35074,-100,4,1,0,90,0,0
45615,-100,4,1,0,75,0,0
54331,-100,4,1,0,90,0,0
55841,-100,4,1,0,100,0,1
85678,-100,4,1,0,100,0,0
86885,-100,4,1,0,90,0,0
99949,324.324324324324,4,1,0,60,1,0
99949,-100,4,1,0,60,0,0
110277,-100,4,1,0,75,0,0
120655,-100,4,1,0,90,0,0
125844,-100,4,1,0,40,0,0
131064,-100,4,1,0,75,0,0
140230,-100,4,1,0,90,0,0
146651,-100,4,1,0,100,0,1
151840,-100,4,1,0,100,0,0
152165,-100,4,1,0,100,0,1
171300,-100,4,1,0,100,0,0
172547,-100,4,1,0,90,0,0

[HitObjects]
349,170,1355,5,0,0:0:0:0:
349,170,1679,1,8,0:0:0:0:
307,156,1841,1,0,0:0:0:0:
307,156,2327,1,0,0:0:0:0:
357,167,2652,1,8,0:0:0:0:
357,167,2976,1,8,0:0:0:0:
357,167,3138,1,0,0:0:0:0:
357,167,3625,1,8,0:0:0:0:
370,187,3787,1,0,0:0:0:0:
357,167,3949,1,8,0:0:0:0:
357,167,4273,1,0,0:0:0:0:
357,167,4436,1,8,0:0:0:0:
375,174,4922,1,8,0:0:0:0:
374,173,5246,1,0,0:0:0:0:
262,181,5895,1,0,0:0:0:0:
262,181,6057,1,0,0:0:0:0:
262,181,6219,1,8,0:0:0:0:
262,181,6382,1,8,0:0:0:0:
262,181,6544,1,0,0:0:0:0:
308,147,6868,1,8,0:0:0:0:
305,163,7030,1,8,0:0:0:0:
305,163,7192,1,0,0:0:0:0:
304,163,7354,1,0,0:0:0:0:
304,163,7517,1,8,0:0:0:0:
304,163,7679,1,0,0:0:0:0:
304,163,7841,1,8,0:0:0:0:
312,162,8165,1,8,0:0:0:0:
312,162,8327,1,0,0:0:0:0:
312,162,8490,1,8,0:0:0:0:
312,162,8652,1,8,0:0:0:0:
312,162,8814,1,0,0:0:0:0:
312,162,9138,1,8,0:0:0:0:
324,178,9300,1,8,0:0:0:0:
324,178,9463,1,0,0:0:0:0:
223,172,9544,1,0,0:0:0:0:
324,178,9625,1,0,0:0:0:0:
235,170,9787,1,8,0:0:0:0:
235,170,9949,1,0,0:0:0:0:
324,178,10111,1,8,0:0:0:0:
254,176,10192,1,8,0:0:0:0:
263,165,10273,1,8,0:0:0:0:
299,155,11409,1,0,0:0:0:0:
264,164,11733,1,12,0:0:0:0:
298,129,12057,1,0,0:0:0:0:
292,135,12219,1,8,0:0:0:0:
289,138,12544,1,8,0:0:0:0:
288,140,12625,1,8,0:0:0:0:
288,140,12706,1,8,0:0:0:0:
288,140,12868,1,0,0:0:0:0:
288,140,13030,1,8,0:0:0:0:
286,144,13192,1,0,0:0:0:0:
281,138,13354,1,0,0:0:0:0:
281,138,13517,1,8,0:0:0:0:
304,119,13841,1,8,0:0:0:0:
304,119,13922,1,8,0:0:0:0:
304,119,14003,1,8,0:0:0:0:
290,124,14165,1,8,0:0:0:0:
290,124,14327,1,0,0:0:0:0:
290,124,14652,1,0,0:0:0:0:
290,124,14814,1,8,0:0:0:0:
290,124,15138,1,0,0:0:0:0:
290,124,15219,1,0,0:0:0:0:
290,124,15300,1,0,0:0:0:0:
290,124,15463,1,12,0:0:0:0:
249,130,15787,1,0,0:0:0:0:
231,127,15949,1,8,0:0:0:0:
249,130,16111,1,4,0:0:0:0:
283,198,16436,1,0,0:0:0:0:
249,130,16598,1,0,0:0:0:0:
249,130,16760,1,0,0:0:0:0:
249,130,16922,1,12,0:0:0:0:
264,127,17409,1,8,0:0:0:0:
268,112,17733,1,8,0:0:0:0:
268,112,17814,1,8,0:0:0:0:
267,112,17895,1,8,0:0:0:0:
263,111,18057,1,0,0:0:0:0:
261,111,18219,1,8,0:0:0:0:
108,162,18382,1,0,0:0:0:0:
261,111,18544,1,0,0:0:0:0:
260,112,18706,1,8,0:0:0:0:
261,111,19030,1,8,0:0:0:0:
272,141,19111,1,8,0:0:0:0:
261,111,19192,1,8,0:0:0:0:
251,112,19354,1,8,0:0:0:0:
251,112,19517,1,0,0:0:0:0:
251,112,19841,1,0,0:0:0:0:
251,112,20003,1,8,0:0:0:0:
251,112,20327,1,0,0:0:0:0:
251,112,20409,1,0,0:0:0:0:
251,112,20490,1,0,0:0:0:0:
220,127,20652,1,12,0:0:0:0:
216,117,20976,1,8,0:0:0:0:
213,119,21138,1,0,0:0:0:0:
212,116,21300,1,8,0:0:0:0:
240,113,21625,1,0,0:0:0:0:
240,113,21787,1,8,0:0:0:0:
240,113,21868,1,8,0:0:0:0:
240,113,21949,1,8,0:0:0:0:
238,112,22111,1,4,0:0:0:0:
280,141,22436,1,0,0:0:0:0:
280,141,22922,1,8,0:0:0:0:
280,141,23084,1,0,0:0:0:0:
280,141,23246,1,12,0:0:0:0:
287,122,23571,1,8,0:0:0:0:
285,129,23652,1,8,0:0:0:0:
284,129,23733,1,8,0:0:0:0:
284,129,23895,1,0,0:0:0:0:
252,126,24057,1,8,0:0:0:0:
252,126,24219,1,8,0:0:0:0:
252,126,24382,1,8,0:0:0:0:
252,126,24544,1,8,0:0:0:0:
217,148,24706,1,4,0:0:0:0:
279,140,25030,1,0,0:0:0:0:
279,140,25192,1,8,0:0:0:0:
279,140,25516,1,0,0:0:0:0:
279,140,25841,1,8,0:0:0:0:
279,140,26165,1,8,0:0:0:0:
279,140,26327,1,0,0:0:0:0:
323,131,26814,1,0,0:0:0:0:
323,131,26976,1,8,0:0:0:0:
323,131,27138,1,0,0:0:0:0:
323,131,27300,1,8,0:0:0:0:
323,131,27624,1,8,0:0:0:0:
323,131,27787,1,0,0:0:0:0:
323,131,28111,1,0,0:0:0:0:
323,131,28435,1,8,0:0:0:0:
323,131,29084,1,8,0:0:0:0:
323,131,29246,1,8,0:0:0:0:
323,131,29408,1,0,0:0:0:0:
323,131,29570,1,0,0:0:0:0:
323,131,29895,1,8,0:0:0:0:
323,131,30219,1,0,0:0:0:0:
323,131,30381,1,8,0:0:0:0:
323,131,30705,1,8,0:0:0:0:
323,131,31030,1,0,0:0:0:0:
323,131,31354,1,8,0:0:0:0:
323,131,31516,1,0,0:0:0:0:
323,131,32003,1,8,0:0:0:0:
323,131,32165,1,0,0:0:0:0:
323,131,32327,1,8,0:0:0:0:
323,131,32489,1,0,0:0:0:0:
323,131,32814,1,0,0:0:0:0:
323,131,32976,1,8,0:0:0:0:
323,131,33300,1,8,0:0:0:0:
323,131,33462,1,0,0:0:0:0:
323,131,33624,1,8,0:0:0:0:
309,128,34435,1,12,0:0:0:0:
309,127,34597,1,12,0:0:0:0:
309,128,34760,1,12,0:0:0:0:
304,160,35084,1,4,0:0:0:0:
321,119,35408,1,8,0:0:0:0:
321,119,35570,1,0,0:0:0:0:
303,123,35895,1,0,0:0:0:0:
303,123,36057,1,8,0:0:0:0:
303,123,36219,1,0,0:0:0:0:
303,123,36543,1,0,0:0:0:0:
303,123,36705,1,8,0:0:0:0:
287,126,37192,1,0,0:0:0:0:
275,128,37354,1,8,0:0:0:0:
275,128,37516,1,0,0:0:0:0:
275,128,37678,1,0,0:0:0:0:
274,122,38003,1,8,0:0:0:0:
274,122,38165,1,0,0:0:0:0:
275,128,38489,1,8,0:0:0:0:
275,128,38651,1,0,0:0:0:0:
274,122,38814,1,12,0:0:0:0:
274,122,39138,1,0,0:0:0:0:
261,116,39300,1,8,0:0:0:0:
263,113,39624,1,0,0:0:0:0:
263,113,39787,1,8,0:0:0:0:
263,113,39949,1,8,0:0:0:0:
263,113,40111,1,8,0:0:0:0:
261,116,40273,1,4,0:0:0:0:
255,128,40597,1,8,0:0:0:0:
255,128,40760,1,0,0:0:0:0:
255,128,41084,1,0,0:0:0:0:
255,128,41246,1,8,0:0:0:0:
255,128,41408,1,0,0:0:0:0:
255,128,41733,1,0,0:0:0:0:
255,128,41895,1,8,0:0:0:0:
211,121,42381,1,0,0:0:0:0:
211,121,42543,1,8,0:0:0:0:
211,121,42705,1,8,0:0:0:0:
211,121,42868,1,0,0:0:0:0:
211,121,43192,1,8,0:0:0:0:
211,121,43354,1,0,0:0:0:0:
229,119,43678,1,0,0:0:0:0:
200,149,43760,1,0,0:0:0:0:
229,119,43841,1,0,0:0:0:0:
229,119,44003,1,12,0:0:0:0:
249,144,44327,1,0,0:0:0:0:
249,144,44489,1,8,0:0:0:0:
249,144,44651,1,0,0:0:0:0:
249,144,44976,1,8,0:0:0:0:
249,144,45057,1,8,0:0:0:0:
249,144,45138,1,8,0:0:0:0:
249,144,45300,1,8,0:0:0:0:
271,141,45462,1,4,0:0:0:0:
335,174,45787,1,0,0:0:0:0:
302,154,46111,1,8,0:0:0:0:
302,154,46435,1,8,0:0:0:0:
302,154,46597,1,0,0:0:0:0:
302,154,46922,1,8,0:0:0:0:
302,154,47084,1,0,0:0:0:0:
302,154,47246,1,0,0:0:0:0:
302,154,47408,1,8,0:0:0:0:
302,154,47733,1,8,0:0:0:0:
302,154,48057,1,0,0:0:0:0:
302,154,48381,1,0,0:0:0:0:
302,154,48705,1,8,0:0:0:0:
302,154,49030,1,0,0:0:0:0:
302,154,49192,1,8,0:0:0:0:
324,163,49516,1,8,0:0:0:0:
302,154,49678,1,0,0:0:0:0:
302,154,49841,1,0,0:0:0:0:
302,154,50003,1,8,0:0:0:0:
302,154,50165,1,0,0:0:0:0:
257,149,50327,1,8,0:0:0:0:
257,149,50489,1,8,0:0:0:0:
257,149,50651,1,4,0:0:0:0:
268,134,50976,1,8,0:0:0:0:
289,142,51300,1,0,0:0:0:0:
289,142,51462,1,0,0:0:0:0:
289,142,51624,1,8,0:0:0:0:
289,142,51787,1,0,0:0:0:0:
289,142,52111,1,0,0:0:0:0:
289,142,52273,1,8,0:0:0:0:
289,142,52597,1,0,0:0:0:0:
289,142,52760,1,0,0:0:0:0:
289,142,52922,1,8,0:0:0:0:
289,142,53084,1,0,0:0:0:0:
289,142,53165,1,0,0:0:0:0:
289,142,53246,1,0,0:0:0:0:
289,142,53570,1,8,0:0:0:0:
264,135,53733,1,0,0:0:0:0:
289,142,53895,1,8,0:0:0:0:
270,131,53976,1,8,0:0:0:0:
289,142,54057,1,8,0:0:0:0:
289,142,54219,1,0,0:0:0:0:
289,142,54381,1,12,0:0:0:0:
289,142,54705,1,12,0:0:0:0:
289,142,54868,1,12,0:0:0:0:
267,156,55192,1,4,0:0:0:0:
267,156,55354,1,4,0:0:0:0:
239,93,55841,1,12,0:0:0:0:
329,152,56165,1,0,0:0:0:0:
329,152,56327,1,8,0:0:0:0:
116,37,56408,1,8,0:0:0:0:
329,152,56489,1,8,0:0:0:0:
293,155,56651,1,0,0:0:0:0:
329,152,56814,1,8,0:0:0:0:
298,171,56976,1,0,0:0:0:0:
299,171,57300,1,0,0:0:0:0:
299,171,57462,1,8,0:0:0:0:
299,171,57624,1,0,0:0:0:0:
299,171,57705,1,0,0:0:0:0:
299,171,57787,1,0,0:0:0:0:
298,170,57949,1,0,0:0:0:0:
299,171,58111,1,8,0:0:0:0:
299,171,58273,1,8,0:0:0:0:
299,171,58435,1,0,0:0:0:0:
156,119,58760,1,8,0:0:0:0:
156,119,58922,1,0,0:0:0:0:
156,119,59084,1,8,0:0:0:0:
298,170,59246,1,8,0:0:0:0:
297,152,59327,1,8,0:0:0:0:
299,171,59408,1,8,0:0:0:0:
313,183,59570,1,4,0:0:0:0:
276,171,59895,1,0,0:0:0:0:
327,155,60057,1,8,0:0:0:0:
351,145,60219,1,0,0:0:0:0:
325,133,60381,1,8,0:0:0:0:
322,133,60543,1,8,0:0:0:0:
322,148,60705,1,0,0:0:0:0:
327,155,60787,1,0,0:0:0:0:
331,157,60868,1,0,0:0:0:0:
327,155,61030,1,12,0:0:0:0:
308,84,61516,1,0,0:0:0:0:
309,119,61678,1,8,0:0:0:0:
308,84,61841,1,8,0:0:0:0:
309,119,62003,1,0,0:0:0:0:
309,119,62165,1,8,0:0:0:0:
309,119,62489,1,8,0:0:0:0:
309,119,62651,1,0,0:0:0:0:
309,119,62814,1,8,0:0:0:0:
289,118,63138,1,8,0:0:0:0:
289,118,63219,1,8,0:0:0:0:
289,118,63300,1,8,0:0:0:0:
289,118,63462,1,0,0:0:0:0:
289,118,63624,1,12,0:0:0:0:
322,150,63949,1,8,0:0:0:0:
285,144,64111,1,0,0:0:0:0:
285,144,64273,1,8,0:0:0:0:
285,144,64435,1,0,0:0:0:0:
285,144,64516,1,0,0:0:0:0:
285,144,64597,1,0,0:0:0:0:
285,144,64760,1,8,0:0:0:0:
285,144,65084,1,8,0:0:0:0:
285,144,65246,1,8,0:0:0:0:
291,153,65408,1,0,0:0:0:0:
274,129,65570,1,8,0:0:0:0:
184,111,65651,1,8,0:0:0:0:
285,136,65733,1,8,0:0:0:0:
291,153,65895,1,0,0:0:0:0:
291,153,65976,1,0,0:0:0:0:
291,153,66057,1,0,0:0:0:0:
299,88,66219,1,12,0:0:0:0:
292,121,66705,1,8,0:0:0:0:
291,121,66787,1,8,0:0:0:0:
283,115,66868,1,8,0:0:0:0:
279,135,67030,1,0,0:0:0:0:
276,142,67192,1,8,0:0:0:0:
276,142,67354,1,0,0:0:0:0:
276,142,67678,1,0,0:0:0:0:
276,142,67841,1,8,0:0:0:0:
276,142,68003,1,0,0:0:0:0:
276,142,68084,1,0,0:0:0:0:
276,142,68165,1,0,0:0:0:0:
276,142,68327,1,0,0:0:0:0:
276,142,68489,1,8,0:0:0:0:
276,142,68651,1,8,0:0:0:0:
276,142,68814,1,0,0:0:0:0:
276,142,69138,1,8,0:0:0:0:
276,142,69300,1,0,0:0:0:0:
226,152,69462,1,8,0:0:0:0:
181,105,69624,1,8,0:0:0:0:
181,105,69705,1,8,0:0:0:0:
181,105,69787,1,8,0:0:0:0:
226,152,69949,1,4,0:0:0:0:
163,135,70273,1,0,0:0:0:0:
227,144,70435,1,8,0:0:0:0:
285,124,70597,1,0,0:0:0:0:
227,144,70760,1,8,0:0:0:0:
227,144,70922,1,8,0:0:0:0:
227,144,71084,1,0,0:0:0:0:
227,144,71165,1,0,0:0:0:0:
227,144,71246,1,0,0:0:0:0:
227,144,71408,1,12,0:0:0:0:
241,127,71895,1,0,0:0:0:0:
276,120,72057,1,8,0:0:0:0:
241,127,72219,1,8,0:0:0:0:
276,120,72381,1,0,0:0:0:0:
276,120,72543,1,8,0:0:0:0:
276,120,72868,1,8,0:0:0:0:
276,120,73030,1,0,0:0:0:0:
293,98,73192,1,8,0:0:0:0:
274,168,73516,1,0,0:0:0:0:
190,159,73597,1,0,0:0:0:0:
274,168,73678,1,0,0:0:0:0:
274,168,73841,1,0,0:0:0:0:
274,168,74003,1,12,0:0:0:0:
293,166,74327,1,8,0:0:0:0:
274,168,74489,1,0,0:0:0:0:
218,174,74651,1,8,0:0:0:0:
121,146,74814,1,0,0:0:0:0:
239,197,74976,1,8,0:0:0:0:
248,158,75138,1,0,0:0:0:0:
274,160,75219,1,0,0:0:0:0:
323,200,75300,1,0,0:0:0:0:
218,137,75462,1,8,0:0:0:0:
218,137,75787,1,8,0:0:0:0:
235,158,75949,1,4,0:0:0:0:
235,158,76111,1,4,0:0:0:0:
235,158,76273,1,4,0:0:0:0:
235,158,76597,1,12,0:0:0:0:
224,148,76922,1,8,0:0:0:0:
249,149,77084,1,0,0:0:0:0:
249,149,77570,1,8,0:0:0:0:
279,179,77733,1,8,0:0:0:0:
279,179,77814,1,8,0:0:0:0:
286,147,77895,1,8,0:0:0:0:
311,169,78219,1,8,0:0:0:0:
311,169,78381,1,0,0:0:0:0:
264,164,78705,1,0,0:0:0:0:
264,164,78868,1,8,0:0:0:0:
264,164,79030,1,8,0:0:0:0:
264,164,79192,1,0,0:0:0:0:
318,182,79354,1,0,0:0:0:0:
264,164,79516,1,8,0:0:0:0:
264,164,79678,1,0,0:0:0:0:
247,163,80003,1,0,0:0:0:0:
247,163,80165,1,8,0:0:0:0:
247,163,80327,1,0,0:0:0:0:
247,163,80408,1,0,0:0:0:0:
247,163,80489,1,0,0:0:0:0:
247,163,80733,1,8,0:0:0:0:
247,163,80976,1,0,0:0:0:0:
247,163,81138,1,8,0:0:0:0:
247,163,81381,1,8,0:0:0:0:
247,163,81624,1,0,0:0:0:0:
247,163,81787,1,12,0:0:0:0:
277,145,82273,1,8,0:0:0:0:
277,145,82597,1,0,0:0:0:0:
277,145,82760,1,8,0:0:0:0:
277,145,82922,1,0,0:0:0:0:
277,145,83003,1,0,0:0:0:0:
277,145,83084,1,0,0:0:0:0:
321,170,83246,1,0,0:0:0:0:
277,145,83408,1,8,0:0:0:0:
245,140,83570,1,0,0:0:0:0:
268,167,83895,1,0,0:0:0:0:
268,167,84057,1,8,0:0:0:0:
150,154,84219,1,0,0:0:0:0:
268,167,84381,1,8,0:0:0:0:
277,156,84705,1,8,0:0:0:0:
285,164,84868,1,8,0:0:0:0:
285,164,85030,1,0,0:0:0:0:
292,189,85192,1,8,0:0:0:0:
292,189,85354,1,0,0:0:0:0:
212,157,85516,1,0,0:0:0:0:
244,131,85678,1,8,0:0:0:0:
263,138,85841,1,0,0:0:0:0:
244,131,86003,1,8,0:0:0:0:
138,161,86084,1,8,0:0:0:0:
293,169,86165,1,8,0:0:0:0:
154,163,86327,1,0,0:0:0:0:
296,159,86976,1,12,0:0:0:0:
298,129,87300,1,0,0:0:0:0:
292,135,87462,1,8,0:0:0:0:
289,138,87787,1,8,0:0:0:0:
288,140,87868,1,8,0:0:0:0:
288,140,87949,1,8,0:0:0:0:
288,140,88111,1,0,0:0:0:0:
288,140,88273,1,8,0:0:0:0:
220,133,88435,1,0,0:0:0:0:
281,138,88597,1,0,0:0:0:0:
281,138,88760,1,8,0:0:0:0:
304,119,89084,1,8,0:0:0:0:
304,119,89165,1,8,0:0:0:0:
304,119,89246,1,8,0:0:0:0:
290,124,89408,1,8,0:0:0:0:
290,124,89570,1,0,0:0:0:0:
290,124,89895,1,0,0:0:0:0:
290,124,90057,1,8,0:0:0:0:
290,124,90381,1,0,0:0:0:0:
290,124,90462,1,0,0:0:0:0:
290,124,90543,1,0,0:0:0:0:
290,124,90705,1,12,0:0:0:0:
249,130,91030,1,0,0:0:0:0:
231,127,91192,1,8,0:0:0:0:
249,130,91354,1,4,0:0:0:0:
249,130,91678,1,0,0:0:0:0:
249,130,91841,1,0,0:0:0:0:
249,130,92003,1,0,0:0:0:0:
249,130,92165,1,12,0:0:0:0:
264,127,92651,1,8,0:0:0:0:
268,112,92976,1,8,0:0:0:0:
268,112,93057,1,8,0:0:0:0:
267,112,93138,1,8,0:0:0:0:
263,111,93300,1,0,0:0:0:0:
261,111,93462,1,8,0:0:0:0:
219,159,93624,1,0,0:0:0:0:
268,112,93787,1,0,0:0:0:0:
260,112,93949,1,8,0:0:0:0:
263,111,94273,1,8,0:0:0:0:
261,111,94354,1,8,0:0:0:0:
261,111,94435,1,8,0:0:0:0:
251,112,94597,1,8,0:0:0:0:
251,112,94760,1,4,0:0:0:0:
251,112,95084,1,0,0:0:0:0:
251,112,95246,1,8,0:0:0:0:
251,112,95570,1,0,0:0:0:0:
251,112,95651,1,0,0:0:0:0:
251,112,95733,1,0,0:0:0:0:
220,127,95895,1,12,0:0:0:0:
216,117,96219,1,8,0:0:0:0:
213,119,96381,1,0,0:0:0:0:
212,116,96543,1,12,0:0:0:0:
240,113,96868,1,0,0:0:0:0:
240,113,97030,1,8,0:0:0:0:
240,113,97111,1,8,0:0:0:0:
240,113,97192,1,8,0:0:0:0:
238,112,97354,1,4,0:0:0:0:
280,141,97678,1,0,0:0:0:0:
280,141,98165,1,8,0:0:0:0:
280,141,98327,1,0,0:0:0:0:
280,141,98489,1,8,0:0:0:0:
231,112,98814,1,8,0:0:0:0:
231,112,98895,1,8,0:0:0:0:
231,112,98976,1,8,0:0:0:0:
245,116,99300,1,8,0:0:0:0:
245,116,99462,1,0,0:0:0:0:
245,116,99624,1,8,0:0:0:0:
245,116,99787,1,8,0:0:0:0:
217,148,99949,1,4,0:0:0:0:
306,190,100273,1,0,0:0:0:0:
314,216,100435,1,8,0:0:0:0:
311,203,100759,1,8,0:0:0:0:
311,169,101084,1,0,0:0:0:0:
309,158,101408,1,8,0:0:0:0:
309,158,101570,1,0,0:0:0:0:
350,121,102057,1,8,0:0:0:0:
318,165,102381,1,8,0:0:0:0:
318,165,102543,1,0,0:0:0:0:
318,165,102867,1,0,0:0:0:0:
326,172,103030,1,8,0:0:0:0:
358,194,103354,1,0,0:0:0:0:
358,194,103678,1,8,0:0:0:0:
363,182,104327,1,8,0:0:0:0:
363,182,104489,1,8,0:0:0:0:
363,182,104651,1,0,0:0:0:0:
363,182,104813,1,0,0:0:0:0:
363,182,105138,1,8,0:0:0:0:
363,182,105462,1,0,0:0:0:0:
363,182,105624,1,8,0:0:0:0:
363,182,105949,1,8,0:0:0:0:
363,182,106273,1,0,0:0:0:0:
363,182,106597,1,8,0:0:0:0:
363,182,106759,1,0,0:0:0:0:
363,182,107246,1,8,0:0:0:0:
363,182,107408,1,0,0:0:0:0:
363,182,107570,1,0,0:0:0:0:
363,182,107732,1,8,0:0:0:0:
363,182,108057,1,0,0:0:0:0:
363,182,108219,1,8,0:0:0:0:
370,182,108543,1,0,0:0:0:0:
372,182,108867,1,8,0:0:0:0:
283,146,109192,1,8,0:0:0:0:
283,146,109354,1,0,0:0:0:0:
283,146,109516,1,8,0:0:0:0:
307,174,110327,1,4,0:0:0:0:
305,187,110651,1,0,0:0:0:0:
303,189,110976,1,8,0:0:0:0:
305,187,111462,1,0,0:0:0:0:
303,189,111786,1,0,0:0:0:0:
303,189,111948,1,0,0:0:0:0:
305,187,112273,1,8,0:0:0:0:
305,201,112921,1,0,0:0:0:0:
305,202,113246,1,0,0:0:0:0:
305,201,113570,1,8,0:0:0:0:
305,202,114057,1,4,0:0:0:0:
305,201,114381,1,0,0:0:0:0:
311,198,114543,1,8,0:0:0:0:
312,197,114705,1,0,0:0:0:0:
311,197,115030,1,0,0:0:0:0:
312,197,115192,1,8,0:0:0:0:
297,165,115273,1,8,0:0:0:0:
297,165,115354,1,8,0:0:0:0:
296,164,115516,1,4,0:0:0:0:
297,165,115840,1,8,0:0:0:0:
306,128,116003,1,8,0:0:0:0:
297,165,116165,1,0,0:0:0:0:
297,165,116327,1,0,0:0:0:0:
297,165,116651,1,8,0:0:0:0:
297,165,116976,1,0,0:0:0:0:
297,165,117138,1,8,0:0:0:0:
297,165,117462,1,0,0:0:0:0:
278,117,117624,1,0,0:0:0:0:
278,117,117786,1,8,0:0:0:0:
278,117,117948,1,0,0:0:0:0:
278,117,118030,1,0,0:0:0:0:
278,117,118111,1,0,0:0:0:0:
278,117,118435,1,8,0:0:0:0:
297,165,118597,1,8,0:0:0:0:
317,141,118678,1,8,0:0:0:0:
317,141,118759,1,8,0:0:0:0:
344,148,118921,1,0,0:0:0:0:
344,148,119084,1,0,0:0:0:0:
344,148,119246,1,12,0:0:0:0:
306,154,119570,1,0,0:0:0:0:
306,154,119732,1,8,0:0:0:0:
306,154,119894,1,4,0:0:0:0:
303,146,120219,1,8,0:0:0:0:
302,146,120381,1,0,0:0:0:0:
302,146,120462,1,0,0:0:0:0:
302,146,120543,1,0,0:0:0:0:
326,179,120705,1,12,0:0:0:0:
271,171,120867,1,12,0:0:0:0:
260,137,122003,1,12,0:0:0:0:
260,137,122165,1,12,0:0:0:0:
306,135,122489,1,0,0:0:0:0:
306,135,122570,1,0,0:0:0:0:
306,135,122651,1,0,0:0:0:0:
306,135,122813,1,0,0:0:0:0:
306,135,122976,1,0,0:0:0:0:
306,135,123138,1,0,0:0:0:0:
306,135,123300,1,12,0:0:0:0:
296,133,123462,1,12,0:0:0:0:
273,121,124597,1,0,0:0:0:0:
273,121,124759,1,0,0:0:0:0:
273,121,124921,1,8,0:0:0:0:
273,121,125246,1,0,0:0:0:0:
273,121,125408,1,0,0:0:0:0:
273,121,125489,1,0,0:0:0:0:
273,121,125570,1,0,0:0:0:0:
273,121,125732,1,8,0:0:0:0:
267,145,131084,5,4,0:0:0:0:
335,174,131408,1,0,0:0:0:0:
302,154,131732,1,8,0:0:0:0:
302,154,132057,1,8,0:0:0:0:
302,154,132219,1,0,0:0:0:0:
302,154,132543,1,8,0:0:0:0:
302,154,132705,1,0,0:0:0:0:
302,154,132867,1,0,0:0:0:0:
302,154,133030,1,8,0:0:0:0:
302,154,133354,1,8,0:0:0:0:
302,154,133678,1,0,0:0:0:0:
302,154,134003,1,0,0:0:0:0:
302,154,134327,1,8,0:0:0:0:
302,154,134651,1,0,0:0:0:0:
302,154,134813,1,8,0:0:0:0:
304,145,135138,1,8,0:0:0:0:
302,154,135300,1,0,0:0:0:0:
302,154,135462,1,0,0:0:0:0:
302,154,135624,1,8,0:0:0:0:
302,154,135786,1,0,0:0:0:0:
257,149,135948,1,8,0:0:0:0:
257,149,136111,1,8,0:0:0:0:
257,149,136273,1,4,0:0:0:0:
268,134,136597,1,8,0:0:0:0:
289,142,136921,1,0,0:0:0:0:
289,142,137084,1,0,0:0:0:0:
289,142,137246,1,8,0:0:0:0:
289,142,137408,1,0,0:0:0:0:
289,142,137732,1,0,0:0:0:0:
289,142,137894,1,8,0:0:0:0:
289,142,138219,1,8,0:0:0:0:
289,142,138381,1,0,0:0:0:0:
289,142,138543,1,8,0:0:0:0:
166,149,138867,1,0,0:0:0:0:
166,149,139030,1,0,0:0:0:0:
166,149,139192,1,8,0:0:0:0:
166,149,139354,1,0,0:0:0:0:
280,138,139516,1,8,0:0:0:0:
280,138,139597,1,8,0:0:0:0:
280,138,139678,1,8,0:0:0:0:
300,142,139840,1,0,0:0:0:0:
300,142,139921,1,0,0:0:0:0:
271,145,140003,1,0,0:0:0:0:
309,160,140327,1,12,0:0:0:0:
309,160,140489,1,12,0:0:0:0:
307,160,140813,1,4,0:0:0:0:
307,160,140976,1,4,0:0:0:0:
293,142,141462,1,12,0:0:0:0:
293,127,142597,1,12,0:0:0:0:
285,127,143732,1,8,0:0:0:0:
285,127,144057,1,4,0:0:0:0:
283,126,145192,1,4,0:0:0:0:
210,138,145516,1,8,0:0:0:0:
275,142,145678,1,8,0:0:0:0:
275,142,145840,1,8,0:0:0:0:
275,142,146003,1,0,0:0:0:0:
275,142,146165,1,8,0:0:0:0:
275,142,146327,1,0,0:0:0:0:
275,142,146408,1,0,0:0:0:0:
275,142,146489,1,0,0:0:0:0:
283,126,146651,1,12,0:0:0:0:
206,138,146976,1,8,0:0:0:0:
308,84,147138,1,0,0:0:0:0:
309,119,147300,1,8,0:0:0:0:
308,84,147462,1,8,0:0:0:0:
309,119,147624,1,0,0:0:0:0:
309,119,147786,1,8,0:0:0:0:
309,119,148111,1,8,0:0:0:0:
309,119,148273,1,0,0:0:0:0:
309,119,148435,1,8,0:0:0:0:
289,118,148759,1,8,0:0:0:0:
289,118,148840,1,8,0:0:0:0:
289,118,148921,1,8,0:0:0:0:
289,118,149084,1,0,0:0:0:0:
289,118,149246,1,12,0:0:0:0:
322,150,149570,1,8,0:0:0:0:
285,144,149732,1,0,0:0:0:0:
285,144,149894,1,8,0:0:0:0:
285,144,150057,1,0,0:0:0:0:
285,144,150138,1,0,0:0:0:0:
285,144,150219,1,0,0:0:0:0:
285,144,150381,1,8,0:0:0:0:
281,118,150705,1,8,0:0:0:0:
281,118,150867,1,0,0:0:0:0:
281,118,151030,1,8,0:0:0:0:
278,119,151354,1,0,0:0:0:0:
273,120,151516,1,8,0:0:0:0:
273,120,151597,1,8,0:0:0:0:
273,120,151678,1,8,0:0:0:0:
273,120,151840,1,0,0:0:0:0:
273,120,151921,1,0,0:0:0:0:
273,120,152003,1,0,0:0:0:0:
278,119,152165,1,12,0:0:0:0:
279,135,152651,1,0,0:0:0:0:
276,142,152813,1,8,0:0:0:0:
276,142,152976,1,0,0:0:0:0:
276,142,153300,1,0,0:0:0:0:
276,142,153462,1,8,0:0:0:0:
276,142,153786,1,0,0:0:0:0:
276,142,153948,1,0,0:0:0:0:
276,142,154111,1,8,0:0:0:0:
150,138,154273,1,8,0:0:0:0:
276,142,154435,1,0,0:0:0:0:
261,125,154516,1,0,0:0:0:0:
261,125,154597,1,0,0:0:0:0:
276,142,154759,1,8,0:0:0:0:
276,142,154921,1,0,0:0:0:0:
226,152,155084,1,8,0:0:0:0:
181,105,155246,1,8,0:0:0:0:
181,105,155327,1,8,0:0:0:0:
181,105,155408,1,8,0:0:0:0:
226,152,155570,1,4,0:0:0:0:
173,152,155894,1,0,0:0:0:0:
227,144,156057,1,8,0:0:0:0:
285,124,156219,1,0,0:0:0:0:
227,144,156381,1,8,0:0:0:0:
227,144,156543,1,8,0:0:0:0:
227,144,156705,1,0,0:0:0:0:
227,144,156786,1,0,0:0:0:0:
227,144,156867,1,0,0:0:0:0:
227,144,157030,1,12,0:0:0:0:
241,127,157516,1,0,0:0:0:0:
276,120,157678,1,8,0:0:0:0:
241,127,157840,1,8,0:0:0:0:
276,120,158003,1,0,0:0:0:0:
276,120,158165,1,8,0:0:0:0:
276,120,158489,1,8,0:0:0:0:
276,120,158651,1,0,0:0:0:0:
293,98,158813,1,8,0:0:0:0:
274,168,159138,1,0,0:0:0:0:
190,159,159219,1,0,0:0:0:0:
274,168,159300,1,0,0:0:0:0:
274,168,159462,1,0,0:0:0:0:
274,168,159624,1,12,0:0:0:0:
293,166,159948,1,8,0:0:0:0:
274,168,160111,1,0,0:0:0:0:
218,174,160273,1,8,0:0:0:0:
121,146,160435,1,0,0:0:0:0:
239,197,160597,1,8,0:0:0:0:
248,158,160759,1,0,0:0:0:0:
274,160,160840,1,0,0:0:0:0:
323,200,160921,1,0,0:0:0:0:
218,137,161084,1,8,0:0:0:0:
218,137,161408,1,8,0:0:0:0:
235,158,161570,1,4,0:0:0:0:
235,158,161732,1,4,0:0:0:0:
235,158,161894,1,4,0:0:0:0:
235,158,162219,1,12,0:0:0:0:
224,148,162543,1,8,0:0:0:0:
249,149,162705,1,0,0:0:0:0:
249,149,163192,1,8,0:0:0:0:
198,174,163354,1,8,0:0:0:0:
198,174,163435,1,8,0:0:0:0:
286,147,163516,1,8,0:0:0:0:
311,169,163840,1,8,0:0:0:0:
311,169,164003,1,0,0:0:0:0:
264,164,164327,1,0,0:0:0:0:
264,164,164489,1,8,0:0:0:0:
264,164,164651,1,8,0:0:0:0:
264,164,164813,1,0,0:0:0:0:
318,182,164976,1,0,0:0:0:0:
264,164,165138,1,8,0:0:0:0:
264,164,165300,1,0,0:0:0:0:
247,163,165624,1,0,0:0:0:0:
247,163,165786,1,8,0:0:0:0:
247,163,165948,1,0,0:0:0:0:
247,163,166030,1,0,0:0:0:0:
247,163,166111,1,0,0:0:0:0:
247,163,166354,1,8,0:0:0:0:
247,163,166597,1,0,0:0:0:0:
247,163,166759,1,8,0:0:0:0:
275,153,166921,1,0,0:0:0:0:
169,156,167003,1,0,0:0:0:0:
275,153,167084,1,0,0:0:0:0:
247,163,167246,1,0,0:0:0:0:
247,163,167408,1,12,0:0:0:0:
277,145,167894,1,8,0:0:0:0:
277,145,168219,1,8,0:0:0:0:
277,145,168381,1,0,0:0:0:0:
277,145,168543,1,8,0:0:0:0:
277,145,168624,1,8,0:0:0:0:
277,145,168705,1,8,0:0:0:0:
321,170,168867,1,0,0:0:0:0:
277,145,169030,1,8,0:0:0:0:
245,140,169192,1,0,0:0:0:0:
268,167,169516,1,0,0:0:0:0:
268,167,169678,1,8,0:0:0:0:
150,154,169840,1,0,0:0:0:0:
268,167,170003,1,12,0:0:0:0:
277,156,170327,1,8,0:0:0:0:
268,167,170489,1,8,0:0:0:0:
268,167,170651,1,0,0:0:0:0:
268,167,170813,1,8,0:0:0:0:
268,167,170976,1,0,0:0:0:0:
266,164,171138,1,0,0:0:0:0:
244,131,171300,1,8,0:0:0:0:
263,138,171462,1,0,0:0:0:0:
244,131,171624,1,8,0:0:0:0:
138,161,171705,1,8,0:0:0:0:
293,169,171786,1,8,0:0:0:0:
154,163,171948,1,0,0:0:0:0:
260,163,172597,1,12,0:0:0:0:
298,129,172921,1,0,0:0:0:0:
292,135,173084,1,8,0:0:0:0:
289,138,173408,1,8,0:0:0:0:
288,140,173489,1,8,0:0:0:0:
288,140,173570,1,8,0:0:0:0:
288,140,173732,1,0,0:0:0:0:
79,142,173894,1,8,0:0:0:0:
240,147,174057,1,0,0:0:0:0:
281,138,174219,1,0,0:0:0:0:
281,138,174381,1,8,0:0:0:0:
304,119,174705,1,8,0:0:0:0:
304,119,174786,1,8,0:0:0:0:
304,119,174867,1,8,0:0:0:0:
290,124,175030,1,8,0:0:0:0:
290,124,175192,1,0,0:0:0:0:
290,124,175516,1,0,0:0:0:0:
290,124,175678,1,8,0:0:0:0:
290,124,176003,1,0,0:0:0:0:
290,124,176084,1,0,0:0:0:0:
290,124,176165,1,0,0:0:0:0:
290,124,176327,1,12,0:0:0:0:
249,130,176651,1,0,0:0:0:0:
231,127,176813,1,8,0:0:0:0:
249,130,176976,1,4,0:0:0:0:
248,158,177300,1,0,0:0:0:0:
249,130,177462,1,0,0:0:0:0:
249,130,177624,1,0,0:0:0:0:
249,130,177786,1,12,0:0:0:0:
264,127,178273,1,8,0:0:0:0:
268,112,178597,1,8,0:0:0:0:
268,112,178678,1,8,0:0:0:0:
267,112,178759,1,8,0:0:0:0:
263,111,178921,1,0,0:0:0:0:
261,111,179084,1,8,0:0:0:0:
213,147,179246,1,0,0:0:0:0:
268,112,179408,1,0,0:0:0:0:
260,112,179570,1,8,0:0:0:0:
263,111,179894,1,8,0:0:0:0:
261,111,179976,1,8,0:0:0:0:
261,111,180057,1,8,0:0:0:0:
251,112,180219,1,8,0:0:0:0:
251,112,180381,1,0,0:0:0:0:
251,112,180705,1,0,0:0:0:0:
251,112,180867,1,8,0:0:0:0:
251,112,181192,1,0,0:0:0:0:
251,112,181273,1,0,0:0:0:0:
251,112,181354,1,0,0:0:0:0:
220,127,181516,1,12,0:0:0:0:
216,117,181840,1,8,0:0:0:0:
213,119,182003,1,0,0:0:0:0:
212,116,182165,1,12,0:0:0:0:
240,113,182489,1,0,0:0:0:0:
240,113,182651,1,8,0:0:0:0:
240,113,182732,1,8,0:0:0:0:
240,113,182813,1,8,0:0:0:0:
238,112,182976,1,4,0:0:0:0:
280,141,183300,1,8,0:0:0:0:
280,141,183786,1,8,0:0:0:0:
280,141,183948,1,0,0:0:0:0:
280,141,184111,1,12,0:0:0:0:
231,112,184435,1,8,0:0:0:0:
231,112,184516,1,8,0:0:0:0:
231,112,184597,1,8,0:0:0:0:
259,147,184759,1,0,0:0:0:0:
259,147,184921,1,8,0:0:0:0:
259,147,185084,1,8,0:0:0:0:
259,147,185246,1,8,0:0:0:0:
259,147,185408,1,8,0:0:0:0:
