osu file format v14

[General]
AudioFilename: audio.mp3
AudioLeadIn: 0
PreviewTime: 141057
Countdown: 0
SampleSet: Normal
StackLeniency: 0.7
Mode: 1
LetterboxInBreaks: 0
WidescreenStoryboard: 1

[Editor]
Bookmarks: 11733,24706,35084,45463,55841,99949,110327,131084
DistanceSpacing: 3.1
BeatDivisor: 4
GridSize: 32
TimelineZoom: 1.3

[Metadata]
Title:Yume to Shiriseba
TitleUnicode:夢と知りせば
Artist:Tsukuyomi
ArtistUnicode:月詠み
Creator:arcpotato
Version:Oni
Source:ドラゴンネスト2:エボリューション
Tags:zhuosh shiri seba dragon nest 2: evolution dragonnest2: video game videogame ツクヨミ 2943 ユリイカノン ユリイ・カノン yurry canon cannon yurrycanon yue エポック epoch とうかさ toukasa なおk naok 1st ep extended play japanese rock j-rock jrock j-pop jpop pop female vocals if i knew it was a dream another moon アナザームーン
BeatmapID:4408733
BeatmapSetID:2097877

[Difficulty]
HPDrainRate:5.5
CircleSize:2
OverallDifficulty:5.5
ApproachRate:10
SliderMultiplier:1.4
SliderTickRate:1

[Events]
//Background and Video events
0,0,"111470340_p0.jpg",0,10
Video,-149,"output.mp4"
//Break Periods
2,125932,130634
//Storyboard Layer 0 (Background)
//Storyboard Layer 1 (Fail)
//Storyboard Layer 2 (Pass)
//Storyboard Layer 3 (Foreground)
//Storyboard Layer 4 (Overlay)
//Storyboard Sound Samples

[TimingPoints]
1355,324.324324324324,4,1,0,75,1,0
1355,-125,4,1,0,75,0,0
6528,-125,4,1,0,75,0,0
6852,-121.21495,4,1,0,75,0,0
7014,-119.40711,4,1,0,75,0,0
7176,-117.65238,4,1,0,75,0,0
7338,-115.9485,4,1,0,75,0,0
7501,-114.283195,4,1,0,75,0,0
7663,-112.674835,4,1,0,75,0,0
7825,-111.11111,4,1,0,75,0,0
7987,-109.590195,4,1,0,75,0,0
8149,-108.11037,4,1,0,75,0,0
8311,-106.66996,4,1,0,75,0,0
8474,-105.258896,4,1,0,75,0,0
8636,-103.89298,4,1,0,75,0,0
8798,-102.56207,4,1,0,75,0,0
8960,-101.26483,4,1,0,75,0,0
9122,-100,4,1,0,75,0,0
11393,-111.111111111111,4,1,0,75,0,0
11717,-100,4,1,0,90,0,0
15447,-90.9090909090909,4,1,0,90,0,0
15609,-100,4,1,0,90,0,0
16095,-90.9090909090909,4,1,0,90,0,0
16420,-100,4,1,0,90,0,0
16906,-90.9090909090909,4,1,0,90,0,0
16987,-100,4,1,0,90,0,0
20555,-90.9090909090909,4,1,0,90,0,0
20798,-100,4,1,0,90,0,0
22095,-90.9090909090909,4,1,0,90,0,0
22257,-100,4,1,0,90,0,0
24041,-90.9090909090909,4,1,0,90,0,0
24706,324.324324324324,4,1,0,40,1,0
24706,-90.9090909090909,4,1,0,40,0,0
24858,-125,4,1,0,40,0,0
34338,-83.3333333333333,4,1,0,100,0,0
35068,-111.111111111111,4,1,0,90,0,0
43906,-90.9090909090909,4,1,0,90,0,0
44149,-111.111111111111,4,1,0,90,0,0
45366,-90.9090909090909,4,1,0,90,0,0
45609,-125,4,1,0,75,0,0
50636,-111.111111111111,4,1,0,75,0,0
54325,-83.3333333333333,4,1,0,100,0,0
54528,-111.111111111111,4,1,0,100,0,0
54609,-83.3333333333333,4,1,0,100,0,0
55841,-97.5609756097561,4,1,0,100,0,1
63609,-90.9090909090909,4,1,0,100,0,1
66366,-97.5609756097561,4,1,0,100,0,1
73987,-90.9090909090909,4,1,0,100,0,1
75933,-80,4,1,0,100,0,1
76582,-97.5609756097561,4,1,0,100,0,1
84366,-90.9090909090909,4,1,0,100,0,1
85678,-90.90909,4,1,0,100,0,0
85750,-89.8782,4,1,0,100,0,0
85831,-88.87043,4,1,0,100,0,0
85993,-86.9212,4,1,0,100,0,0
86074,-85.9783,4,1,0,100,0,0
86155,-85.05565,4,1,0,100,0,0
86236,-84.15257,4,1,0,100,0,0
86311,-83.3333333333333,4,1,0,100,0,0
86879,-100,4,1,0,90,0,0
90609,-90.9090909090909,4,1,0,90,0,0
90852,-100,4,1,0,90,0,0
91257,-90.9090909090909,4,1,0,90,0,0
91500,-100,4,1,0,90,0,0
92068,-90.9090909090909,4,1,0,90,0,0
92311,-100,4,1,0,90,0,0
95798,-90.9090909090909,4,1,0,90,0,0
96041,-100,4,1,0,90,0,0
96447,-90.9090909090909,4,1,0,90,0,0
96690,-100,4,1,0,90,0,0
97298,-90.9090909090909,4,1,0,90,0,0
97541,-100,4,1,0,90,0,0
98798,-100,4,1,0,90,0,0
98879,-101.50167,4,1,0,88,0,0
98960,-103.04912,4,1,0,86,0,0
99122,-106.29005,4,1,0,81,0,0
99284,-109.74143,4,1,0,77,0,0
99447,-113.448,4,1,0,72,0,0
99609,-117.388504,4,1,0,68,0,0
99771,-121.61261,4,1,0,63,0,0
99949,324.324324324324,4,1,0,60,1,0
99949,-125,4,1,0,60,0,0
110393,-142.857142857143,4,1,0,75,0,0
115020,-142.73152,4,1,0,75,0,0
115182,-139.42169,4,1,0,75,0,0
115263,-137.82368,4,1,0,75,0,0
115344,-136.2619,4,1,0,75,0,0
115501,-117.647056228374,4,1,0,75,0,0
119149,-105.263155817175,4,1,0,75,0,0
119393,-117.647058823529,4,1,0,75,0,0
119798,-105.263155817175,4,1,0,75,0,0
120042,-117.647058823529,4,1,0,75,0,0
120649,-90.9090909090909,4,1,0,100,0,0
122311,-111.111111111111,4,1,0,75,0,0
123284,-90.9090909090909,4,1,0,100,0,0
123609,-111.111111111111,4,1,0,75,0,0
124582,-111.11111,4,1,0,75,0,0
124906,-107.91622,4,1,0,100,0,0
125230,-104.89993,4,1,0,75,0,0
125393,-103.445335,4,1,0,75,0,0
125474,-102.73741,4,1,0,75,0,0
125555,-102.03911,4,1,0,75,0,0
125717,-100.670586,4,1,0,75,0,0
125798,-100,4,1,0,75,0,0
125838,-142.857142857143,4,1,0,40,0,0
131068,-125,4,1,0,75,0,0
136257,-111.111111111111,4,1,0,75,0,0
140230,-83.3333333333333,4,1,0,100,0,0
141447,-100,4,1,0,90,0,0
142744,-111.111111111111,4,1,0,75,0,0
144041,-100,4,1,0,90,0,0
145344,-111.028336,4,1,0,90,0,0
145507,-109.146454,4,1,0,91,0,0
145669,-107.32731,4,1,0,93,0,0
145831,-105.56781,4,1,0,94,0,0
145993,-103.86507,4,1,0,95,0,0
146155,-102.21638,4,1,0,96,0,0
146317,-100.61922,4,1,0,98,0,0
146480,-99.06179,4,1,0,99,0,0
146651,-97.56097,4,1,0,100,0,1
149230,-90.9090909090909,4,1,0,100,0,1
151344,-91.16124,4,1,0,100,0,1
151426,-93.265045,4,1,0,100,0,1
151507,-95.44075,4,1,0,100,0,1
151588,-97.7204,4,1,0,100,0,1
151669,-100.111595,4,1,0,100,0,1
151750,-102.62277,4,1,0,100,0,1
151831,-105.26316,4,1,0,100,0,1
151921,-108.108108108108,4,1,0,100,0,1
152003,-111.111111111111,4,1,0,100,0,1
152149,-97.5609756097561,4,1,0,100,0,1
159609,-90.9090909090909,4,1,0,100,0,1
161555,-80,4,1,0,100,0,1
162203,-97.5609756097561,4,1,0,100,0,1
169987,-90.9090909090909,4,1,0,100,0,1
171300,-90.90909,4,1,0,100,0,0
171366,-89.86722,4,1,0,100,0,0
171447,-88.861244,4,1,0,100,0,0
171528,-82.89163,4,1,0,100,0,0
171609,-86.915375,4,1,0,100,0,0
171690,-85.97406,4,1,0,100,0,0
171771,-85.0529,4,1,0,100,0,0
171852,-84.15129,4,1,0,100,0,0
171933,-83.3333333333333,4,1,0,100,0,0
172541,-100,4,1,0,90,0,0
176230,-90.9090909090909,4,1,0,90,0,0
176473,-100,4,1,0,90,0,0
176879,-90.9090909090909,4,1,0,90,0,0
177122,-100,4,1,0,90,0,0
177690,-90.9090909090909,4,1,0,90,0,0
177933,-100,4,1,0,90,0,0
181420,-90.9090909090909,4,1,0,90,0,0
181663,-100,4,1,0,90,0,0
182068,-90.9090909090909,4,1,0,90,0,0
182311,-100,4,1,0,90,0,0
182960,-90.9090909090909,4,1,0,90,0,0
183203,-100,4,1,0,90,0,0
184906,-90.9090909090909,4,1,0,90,0,0

[HitObjects]
256,192,1355,5,0,0:0:0:0:
256,192,1679,1,0,0:0:0:0:
256,192,1841,1,8,0:0:0:0:
256,192,2003,1,0,0:0:0:0:
256,192,2327,1,0,0:0:0:0:
256,192,2652,1,8,0:0:0:0:
256,192,2976,1,0,0:0:0:0:
256,192,3138,1,0,0:0:0:0:
256,192,3300,1,8,0:0:0:0:
256,192,3625,1,0,0:0:0:0:
256,192,3787,1,8,0:0:0:0:
256,192,3949,1,0,0:0:0:0:
256,192,4273,1,8,0:0:0:0:
256,192,4436,1,0,0:0:0:0:
256,192,4598,1,8,0:0:0:0:
256,192,4922,1,0,0:0:0:0:
256,192,5246,1,8,0:0:0:0:
256,192,5895,1,8,0:0:0:0:
256,192,6057,1,0,0:0:0:0:
256,192,6219,1,8,0:0:0:0:
256,192,6382,1,8,0:0:0:0:
256,192,6544,1,0,0:0:0:0:
256,192,6868,1,0,0:0:0:0:
256,192,7030,1,0,0:0:0:0:
256,192,7192,1,8,0:0:0:0:
256,192,7517,1,0,0:0:0:0:
256,192,7679,1,0,0:0:0:0:
256,192,7841,1,8,0:0:0:0:
256,192,8003,1,0,0:0:0:0:
256,192,8165,1,8,0:0:0:0:
256,192,8327,1,8,0:0:0:0:
256,192,8490,1,0,0:0:0:0:
256,192,8814,1,8,0:0:0:0:
256,192,8976,1,0,0:0:0:0:
256,192,9138,1,8,0:0:0:0:
256,192,9219,1,8,0:0:0:0:
256,192,9300,1,8,0:0:0:0:
256,192,9463,1,0,0:0:0:0:
256,192,9625,1,8,0:0:0:0:
256,192,9706,1,8,0:0:0:0:
256,192,9787,1,0,0:0:0:0:
256,192,9949,1,0,0:0:0:0:
288,192,10111,1,8,0:0:0:0:
256,192,10192,1,8,0:0:0:0:
256,192,10273,1,8,0:0:0:0:
256,192,10354,1,8,0:0:0:0:
288,192,11409,1,0,0:0:0:0:
288,192,11733,1,12,0:0:0:0:
288,192,11895,1,0,0:0:0:0:
256,192,12057,1,0,0:0:0:0:
256,192,12219,1,8,0:0:0:0:
256,192,12544,1,0,0:0:0:0:
256,192,12625,1,0,0:0:0:0:
256,192,12706,1,8,0:0:0:0:
256,192,12868,1,0,0:0:0:0:
256,192,13030,1,8,0:0:0:0:
256,192,13192,1,8,0:0:0:0:
256,192,13354,1,0,0:0:0:0:
256,192,13517,1,8,0:0:0:0:
288,192,13841,1,8,0:0:0:0:
288,192,13922,1,0,0:0:0:0:
288,192,14003,1,8,0:0:0:0:
288,192,14165,1,0,0:0:0:0:
288,192,14327,1,8,0:0:0:0:
288,192,14490,1,8,0:0:0:0:
256,192,14652,1,0,0:0:0:0:
288,192,14814,1,8,0:0:0:0:
288,192,15138,1,0,0:0:0:0:
288,192,15219,1,0,0:0:0:0:
288,192,15300,1,8,0:0:0:0:
288,192,15463,1,4,0:0:0:0:
256,192,15787,1,8,0:0:0:0:
256,192,15949,1,8,0:0:0:0:
256,192,16111,1,4,0:0:0:0:
256,192,16436,1,8,0:0:0:0:
256,192,16517,1,0,0:0:0:0:
256,192,16598,1,0,0:0:0:0:
256,192,16760,1,8,0:0:0:0:
256,192,16922,1,4,0:0:0:0:
256,192,17084,1,8,0:0:0:0:
256,192,17246,1,0,0:0:0:0:
256,192,17409,1,8,0:0:0:0:
256,192,17733,1,8,0:0:0:0:
256,192,17814,1,0,0:0:0:0:
256,192,17895,1,8,0:0:0:0:
256,192,18057,1,0,0:0:0:0:
256,192,18219,1,8,0:0:0:0:
256,192,18382,1,8,0:0:0:0:
256,192,18544,1,0,0:0:0:0:
256,192,18706,1,8,0:0:0:0:
256,192,19030,1,0,0:0:0:0:
256,192,19111,1,0,0:0:0:0:
256,192,19192,1,8,0:0:0:0:
256,192,19354,1,0,0:0:0:0:
256,192,19517,1,8,0:0:0:0:
256,192,19679,1,0,0:0:0:0:
256,192,19841,1,0,0:0:0:0:
256,192,20003,1,8,0:0:0:0:
256,192,20327,1,0,0:0:0:0:
256,192,20409,1,8,0:0:0:0:
256,192,20490,1,0,0:0:0:0:
288,192,20652,1,12,0:0:0:0:
256,192,20976,1,8,0:0:0:0:
288,192,21138,1,0,0:0:0:0:
256,192,21300,1,8,0:0:0:0:
256,192,21625,1,0,0:0:0:0:
288,192,21787,1,8,0:0:0:0:
288,192,21868,1,8,0:0:0:0:
288,192,21949,1,0,0:0:0:0:
288,192,22111,1,12,0:0:0:0:
288,192,22436,1,0,0:0:0:0:
288,192,22760,1,8,0:0:0:0:
288,192,22922,1,0,0:0:0:0:
288,192,23084,1,0,0:0:0:0:
288,192,23246,1,12,0:0:0:0:
288,192,23571,1,0,0:0:0:0:
256,192,23652,1,0,0:0:0:0:
256,192,23733,1,8,0:0:0:0:
288,192,23895,1,8,0:0:0:0:
288,192,24057,1,4,0:0:0:0:
288,192,24219,1,4,0:0:0:0:
288,192,24382,1,4,0:0:0:0:
256,192,24544,1,4,0:0:0:0:
256,192,24706,1,12,0:0:0:0:
288,192,25030,1,0,0:0:0:0:
288,192,25192,1,8,0:0:0:0:
288,192,25516,1,0,0:0:0:0:
288,192,25841,1,8,0:0:0:0:
288,192,26165,1,8,0:0:0:0:
288,192,26327,1,0,0:0:0:0:
288,192,26814,1,8,0:0:0:0:
288,192,26976,1,8,0:0:0:0:
288,192,27138,1,0,0:0:0:0:
288,192,27300,1,8,0:0:0:0:
288,192,27624,1,0,0:0:0:0:
288,192,27787,1,8,0:0:0:0:
288,192,28111,1,0,0:0:0:0:
288,192,28435,1,8,0:0:0:0:
288,192,29084,1,8,0:0:0:0:
288,192,29246,1,8,0:0:0:0:
288,192,29408,1,0,0:0:0:0:
288,192,29570,1,8,0:0:0:0:
288,192,29895,1,0,0:0:0:0:
288,192,30219,1,8,0:0:0:0:
288,192,30381,1,0,0:0:0:0:
288,192,30705,1,8,0:0:0:0:
288,192,31030,1,0,0:0:0:0:
288,192,31354,1,0,0:0:0:0:
288,192,31516,1,8,0:0:0:0:
288,192,32003,1,0,0:0:0:0:
288,192,32165,1,0,0:0:0:0:
288,192,32327,1,8,0:0:0:0:
288,192,32489,1,0,0:0:0:0:
288,192,32814,1,0,0:0:0:0:
288,192,32976,1,8,0:0:0:0:
288,192,33300,1,8,0:0:0:0:
288,192,33462,1,0,0:0:0:0:
288,192,33624,1,8,0:0:0:0:
288,192,34435,1,4,0:0:0:0:
288,192,34597,1,4,0:0:0:0:
288,192,34760,1,12,0:0:0:0:
288,192,35084,1,4,0:0:0:0:
288,192,35408,1,0,0:0:0:0:
288,192,35570,1,8,0:0:0:0:
288,192,35733,1,0,0:0:0:0:
288,192,35895,1,8,0:0:0:0:
288,192,35976,1,8,0:0:0:0:
288,192,36057,1,0,0:0:0:0:
288,192,36219,1,8,0:0:0:0:
224,192,36381,1,8,0:0:0:0:
288,192,36543,1,0,0:0:0:0:
288,192,36705,1,8,0:0:0:0:
288,192,37192,1,8,0:0:0:0:
288,192,37354,1,8,0:0:0:0:
288,192,37516,1,0,0:0:0:0:
288,192,37678,1,8,0:0:0:0:
262,193,37760,1,0,0:0:0:0:
288,192,37841,1,0,0:0:0:0:
288,192,38003,1,8,0:0:0:0:
288,192,38165,1,0,0:0:0:0:
288,192,38246,1,0,0:0:0:0:
288,192,38327,1,8,0:0:0:0:
288,192,38489,1,0,0:0:0:0:
288,192,38651,1,0,0:0:0:0:
256,192,38814,1,12,0:0:0:0:
288,192,39138,1,0,0:0:0:0:
288,192,39300,1,8,0:0:0:0:
288,192,39462,1,0,0:0:0:0:
288,192,39543,1,8,0:0:0:0:
288,192,39624,1,0,0:0:0:0:
288,192,39787,1,8,0:0:0:0:
288,192,39949,1,8,0:0:0:0:
288,192,40111,1,8,0:0:0:0:
288,192,40273,1,4,0:0:0:0:
256,192,40597,1,8,0:0:0:0:
256,192,40760,1,0,0:0:0:0:
256,192,40841,1,0,0:0:0:0:
256,192,40922,1,8,0:0:0:0:
256,192,41084,1,0,0:0:0:0:
256,192,41246,1,8,0:0:0:0:
256,192,41408,1,8,0:0:0:0:
256,192,41489,1,8,0:0:0:0:
256,192,41570,1,0,0:0:0:0:
256,192,41733,1,8,0:0:0:0:
256,160,41895,1,8,0:0:0:0:
256,160,42057,1,0,0:0:0:0:
256,160,42381,1,0,0:0:0:0:
256,160,42543,1,0,0:0:0:0:
256,160,42705,1,8,0:0:0:0:
256,160,42868,1,0,0:0:0:0:
256,160,42949,1,0,0:0:0:0:
256,160,43030,1,8,0:0:0:0:
256,160,43192,1,0,0:0:0:0:
256,160,43354,1,8,0:0:0:0:
256,192,43678,1,8,0:0:0:0:
256,192,43841,1,0,0:0:0:0:
256,192,44003,1,12,0:0:0:0:
256,192,44327,1,0,0:0:0:0:
256,192,44489,1,0,0:0:0:0:
256,192,44651,1,8,0:0:0:0:
256,192,44976,1,0,0:0:0:0:
256,192,45057,1,0,0:0:0:0:
256,192,45138,1,8,0:0:0:0:
256,192,45300,1,0,0:0:0:0:
256,192,45462,1,12,0:0:0:0:
256,192,45787,1,0,0:0:0:0:
256,192,46111,1,8,0:0:0:0:
256,192,46435,1,0,0:0:0:0:
256,192,46597,1,8,0:0:0:0:
256,192,46922,1,8,0:0:0:0:
256,192,47084,1,0,0:0:0:0:
256,192,47246,1,0,0:0:0:0:
256,192,47408,1,8,0:0:0:0:
256,192,47733,1,0,0:0:0:0:
256,192,48057,1,8,0:0:0:0:
256,192,48381,1,0,0:0:0:0:
256,192,48543,1,0,0:0:0:0:
256,192,48705,1,8,0:0:0:0:
256,192,49030,1,8,0:0:0:0:
256,192,49192,1,0,0:0:0:0:
256,192,49516,1,8,0:0:0:0:
256,192,49678,1,8,0:0:0:0:
256,192,49841,1,0,0:0:0:0:
256,192,50003,1,8,0:0:0:0:
256,192,50327,1,0,0:0:0:0:
256,192,50489,1,0,0:0:0:0:
256,192,50651,1,12,0:0:0:0:
256,192,50976,1,0,0:0:0:0:
256,192,51138,1,0,0:0:0:0:
256,192,51300,1,8,0:0:0:0:
256,192,51462,1,8,0:0:0:0:
256,192,51624,1,0,0:0:0:0:
256,192,51787,1,8,0:0:0:0:
256,192,52111,1,8,0:0:0:0:
256,192,52273,1,0,0:0:0:0:
256,192,52597,1,8,0:0:0:0:
256,192,52760,1,8,0:0:0:0:
256,192,52922,1,0,0:0:0:0:
256,192,53246,1,12,0:0:0:0:
288,192,53570,1,0,0:0:0:0:
256,192,53733,1,8,0:0:0:0:
256,192,53895,1,8,0:0:0:0:
288,192,54057,1,0,0:0:0:0:
288,192,54219,1,8,0:0:0:0:
288,192,54381,1,4,0:0:0:0:
288,192,54705,1,12,0:0:0:0:
288,192,54868,1,12,0:0:0:0:
288,192,55192,1,4,0:0:0:0:
288,192,55354,1,4,0:0:0:0:
256,192,55841,1,12,0:0:0:0:
256,192,56165,1,0,0:0:0:0:
256,192,56327,1,8,0:0:0:0:
256,192,56408,1,8,0:0:0:0:
256,192,56489,1,0,0:0:0:0:
256,192,56651,1,8,0:0:0:0:
256,192,56814,1,0,0:0:0:0:
256,192,56976,1,8,0:0:0:0:
256,192,57300,1,8,0:0:0:0:
256,192,57462,1,0,0:0:0:0:
256,192,57624,1,8,0:0:0:0:
256,192,57705,1,0,0:0:0:0:
256,192,57787,1,8,0:0:0:0:
256,160,57868,1,8,0:0:0:0:
256,192,57949,1,0,0:0:0:0:
256,160,58111,1,8,0:0:0:0:
256,192,58273,1,0,0:0:0:0:
256,192,58435,1,8,0:0:0:0:
256,192,58760,1,0,0:0:0:0:
256,192,58922,1,8,0:0:0:0:
256,192,59003,1,8,0:0:0:0:
256,192,59084,1,0,0:0:0:0:
256,192,59246,1,0,0:0:0:0:
256,192,59408,1,8,0:0:0:0:
256,192,59570,1,4,0:0:0:0:
256,192,59895,1,8,0:0:0:0:
256,192,60057,1,0,0:0:0:0:
256,192,60138,1,0,0:0:0:0:
256,192,60219,1,0,0:0:0:0:
256,192,60381,1,8,0:0:0:0:
256,192,60543,1,0,0:0:0:0:
256,192,60705,1,8,0:0:0:0:
256,192,60787,1,8,0:0:0:0:
256,192,60868,1,0,0:0:0:0:
256,192,61030,1,12,0:0:0:0:
256,192,61354,1,8,0:0:0:0:
256,192,61516,1,0,0:0:0:0:
256,192,61678,1,8,0:0:0:0:
265,202,61760,1,8,0:0:0:0:
256,192,61841,1,0,0:0:0:0:
271,168,62003,1,8,0:0:0:0:
256,192,62165,1,0,0:0:0:0:
256,192,62246,1,0,0:0:0:0:
256,192,62327,1,8,0:0:0:0:
256,192,62408,1,0,0:0:0:0:
256,192,62489,1,8,0:0:0:0:
256,192,62651,1,0,0:0:0:0:
256,192,62814,1,8,0:0:0:0:
256,192,63138,1,8,0:0:0:0:
288,192,63219,1,8,0:0:0:0:
256,192,63300,1,0,0:0:0:0:
256,192,63462,1,0,0:0:0:0:
256,192,63624,1,12,0:0:0:0:
256,192,63787,1,0,0:0:0:0:
256,192,63868,1,0,0:0:0:0:
256,160,63949,1,8,0:0:0:0:
256,192,64111,1,0,0:0:0:0:
256,192,64273,1,8,0:0:0:0:
256,192,64354,1,8,0:0:0:0:
256,192,64435,1,0,0:0:0:0:
256,192,64597,1,8,0:0:0:0:
256,192,64760,1,0,0:0:0:0:
224,192,64841,1,0,0:0:0:0:
256,192,64922,1,8,0:0:0:0:
256,192,65084,1,0,0:0:0:0:
256,192,65246,1,8,0:0:0:0:
256,192,65408,1,0,0:0:0:0:
256,192,65570,1,8,0:0:0:0:
256,160,65895,1,8,0:0:0:0:
256,160,65976,1,8,0:0:0:0:
256,192,66057,1,0,0:0:0:0:
256,192,66219,1,12,0:0:0:0:
256,192,66543,1,0,0:0:0:0:
256,192,66705,1,8,0:0:0:0:
256,192,66787,1,0,0:0:0:0:
256,192,66868,1,8,0:0:0:0:
256,192,67030,1,0,0:0:0:0:
256,192,67192,1,8,0:0:0:0:
256,192,67354,1,0,0:0:0:0:
256,192,67678,1,8,0:0:0:0:
256,192,67841,1,0,0:0:0:0:
256,192,68003,1,8,0:0:0:0:
256,192,68084,1,8,0:0:0:0:
256,192,68165,1,0,0:0:0:0:
256,192,68246,1,0,0:0:0:0:
256,192,68327,1,8,0:0:0:0:
256,192,68489,1,0,0:0:0:0:
256,192,68651,1,0,0:0:0:0:
256,192,68814,1,8,0:0:0:0:
256,192,69138,1,0,0:0:0:0:
256,192,69300,1,8,0:0:0:0:
256,192,69381,1,0,0:0:0:0:
256,192,69462,1,8,0:0:0:0:
256,192,69624,1,0,0:0:0:0:
256,192,69787,1,8,0:0:0:0:
256,192,69949,1,4,0:0:0:0:
256,192,70273,1,8,0:0:0:0:
256,192,70435,1,0,0:0:0:0:
256,192,70516,1,0,0:0:0:0:
256,192,70597,1,8,0:0:0:0:
256,192,70760,1,0,0:0:0:0:
256,192,70922,1,8,0:0:0:0:
256,192,71084,1,0,0:0:0:0:
256,192,71165,1,0,0:0:0:0:
256,192,71246,1,0,0:0:0:0:
256,192,71408,1,12,0:0:0:0:
256,192,71733,1,0,0:0:0:0:
268,188,71895,1,8,0:0:0:0:
256,192,72057,1,0,0:0:0:0:
269,196,72138,1,0,0:0:0:0:
256,192,72219,1,8,0:0:0:0:
256,192,72381,1,0,0:0:0:0:
256,192,72543,1,8,0:0:0:0:
256,192,72624,1,8,0:0:0:0:
256,192,72705,1,0,0:0:0:0:
256,192,72787,1,0,0:0:0:0:
256,192,72868,1,8,0:0:0:0:
256,192,73030,1,0,0:0:0:0:
256,192,73192,1,8,0:0:0:0:
256,192,73516,1,0,0:0:0:0:
256,192,73597,1,0,0:0:0:0:
256,192,73678,1,8,0:0:0:0:
256,192,73841,1,8,0:0:0:0:
256,192,74003,1,4,0:0:0:0:
256,192,74165,1,8,0:0:0:0:
256,192,74246,1,8,0:0:0:0:
256,192,74327,1,0,0:0:0:0:
256,192,74489,1,8,0:0:0:0:
256,192,74651,1,0,0:0:0:0:
256,192,74733,1,8,0:0:0:0:
256,192,74814,1,0,0:0:0:0:
256,192,74976,1,8,0:0:0:0:
256,192,75138,1,0,0:0:0:0:
224,192,75219,1,0,0:0:0:0:
256,192,75300,1,8,0:0:0:0:
256,192,75462,1,0,0:0:0:0:
256,192,75624,1,8,0:0:0:0:
256,192,75787,1,0,0:0:0:0:
256,192,75949,1,12,0:0:0:0:
256,192,76111,1,12,0:0:0:0:
256,192,76273,1,4,0:0:0:0:
256,192,76597,1,12,0:0:0:0:
224,192,76760,1,0,0:0:0:0:
256,192,76922,1,8,0:0:0:0:
256,192,77003,1,0,0:0:0:0:
256,192,77084,1,8,0:0:0:0:
256,192,77165,1,8,0:0:0:0:
256,192,77246,1,0,0:0:0:0:
256,192,77408,1,8,0:0:0:0:
256,192,77570,1,0,0:0:0:0:
256,192,77651,1,0,0:0:0:0:
256,192,77733,1,8,0:0:0:0:
256,192,77895,1,0,0:0:0:0:
256,192,77976,1,0,0:0:0:0:
256,192,78057,1,0,0:0:0:0:
256,192,78219,1,8,0:0:0:0:
256,192,78381,1,0,0:0:0:0:
256,192,78705,1,0,0:0:0:0:
256,192,78868,1,8,0:0:0:0:
256,192,78949,1,8,0:0:0:0:
256,192,79030,1,0,0:0:0:0:
256,192,79192,1,8,0:0:0:0:
256,192,79354,1,0,0:0:0:0:
256,192,79516,1,8,0:0:0:0:
256,192,79597,1,8,0:0:0:0:
256,192,79678,1,8,0:0:0:0:
256,192,79841,1,0,0:0:0:0:
256,160,80003,1,0,0:0:0:0:
256,160,80165,1,8,0:0:0:0:
256,192,80489,1,8,0:0:0:0:
256,192,80733,1,0,0:0:0:0:
256,160,80814,1,8,0:0:0:0:
256,192,80976,1,8,0:0:0:0:
256,160,81138,1,0,0:0:0:0:
256,160,81381,1,8,0:0:0:0:
256,160,81462,1,0,0:0:0:0:
256,160,81624,1,8,0:0:0:0:
256,160,81787,1,4,0:0:0:0:
256,160,82111,1,8,0:0:0:0:
256,160,82273,1,0,0:0:0:0:
256,160,82354,1,0,0:0:0:0:
256,160,82435,1,8,0:0:0:0:
256,160,82516,1,8,0:0:0:0:
256,160,82597,1,8,0:0:0:0:
256,160,82760,1,0,0:0:0:0:
256,160,82922,1,8,0:0:0:0:
256,160,83084,1,0,0:0:0:0:
256,160,83165,1,0,0:0:0:0:
256,160,83246,1,8,0:0:0:0:
256,160,83408,1,0,0:0:0:0:
256,160,83570,1,8,0:0:0:0:
256,128,83895,1,0,0:0:0:0:
256,128,84057,1,8,0:0:0:0:
256,128,84138,1,8,0:0:0:0:
256,128,84219,1,0,0:0:0:0:
256,160,84381,1,12,0:0:0:0:
256,192,84543,1,0,0:0:0:0:
256,192,84705,1,8,0:0:0:0:
256,192,84787,1,8,0:0:0:0:
256,192,84868,1,0,0:0:0:0:
256,192,85030,1,8,0:0:0:0:
256,192,85192,1,0,0:0:0:0:
256,192,85273,1,0,0:0:0:0:
256,192,85354,1,8,0:0:0:0:
224,160,85516,1,0,0:0:0:0:
256,160,85678,1,8,0:0:0:0:
256,192,85760,1,8,0:0:0:0:
256,160,85841,1,0,0:0:0:0:
256,192,86003,1,8,0:0:0:0:
256,192,86084,1,0,0:0:0:0:
256,192,86165,1,8,0:0:0:0:
256,192,86246,1,8,0:0:0:0:
256,192,86327,1,0,0:0:0:0:
288,192,86976,1,12,0:0:0:0:
288,192,87138,1,0,0:0:0:0:
256,192,87300,1,0,0:0:0:0:
256,192,87462,1,8,0:0:0:0:
256,192,87787,1,0,0:0:0:0:
256,192,87868,1,8,0:0:0:0:
256,192,87949,1,0,0:0:0:0:
256,192,88111,1,8,0:0:0:0:
256,192,88273,1,8,0:0:0:0:
256,192,88435,1,0,0:0:0:0:
256,192,88597,1,0,0:0:0:0:
256,192,88760,1,8,0:0:0:0:
288,192,89084,1,0,0:0:0:0:
288,192,89165,1,0,0:0:0:0:
288,192,89246,1,8,0:0:0:0:
288,192,89408,1,0,0:0:0:0:
288,192,89570,1,8,0:0:0:0:
288,192,89733,1,8,0:0:0:0:
256,192,89895,1,0,0:0:0:0:
288,192,90057,1,8,0:0:0:0:
288,192,90381,1,0,0:0:0:0:
288,192,90462,1,0,0:0:0:0:
288,192,90543,1,8,0:0:0:0:
288,192,90705,1,4,0:0:0:0:
256,192,91030,1,8,0:0:0:0:
256,192,91192,1,8,0:0:0:0:
256,192,91354,1,4,0:0:0:0:
256,192,91678,1,8,0:0:0:0:
256,192,91760,1,8,0:0:0:0:
256,192,91841,1,0,0:0:0:0:
256,192,92003,1,8,0:0:0:0:
256,192,92165,1,4,0:0:0:0:
256,192,92327,1,8,0:0:0:0:
256,192,92489,1,0,0:0:0:0:
256,192,92651,1,8,0:0:0:0:
256,192,92976,1,8,0:0:0:0:
256,192,93057,1,0,0:0:0:0:
256,192,93138,1,8,0:0:0:0:
256,192,93300,1,0,0:0:0:0:
256,192,93462,1,8,0:0:0:0:
256,192,93624,1,8,0:0:0:0:
256,192,93787,1,0,0:0:0:0:
256,192,93949,1,8,0:0:0:0:
256,192,94273,1,0,0:0:0:0:
256,192,94354,1,0,0:0:0:0:
256,192,94435,1,8,0:0:0:0:
256,192,94597,1,0,0:0:0:0:
256,192,94760,1,12,0:0:0:0:
256,192,94922,1,0,0:0:0:0:
256,192,95084,1,8,0:0:0:0:
256,192,95246,1,8,0:0:0:0:
256,192,95570,1,0,0:0:0:0:
256,192,95651,1,8,0:0:0:0:
256,192,95733,1,0,0:0:0:0:
288,192,95895,1,12,0:0:0:0:
256,192,96219,1,8,0:0:0:0:
288,192,96381,1,0,0:0:0:0:
256,192,96543,1,12,0:0:0:0:
256,192,96868,1,0,0:0:0:0:
288,192,97030,1,8,0:0:0:0:
288,192,97111,1,8,0:0:0:0:
288,192,97192,1,0,0:0:0:0:
288,192,97354,1,12,0:0:0:0:
288,192,97678,1,0,0:0:0:0:
288,192,98003,1,8,0:0:0:0:
288,192,98165,1,0,0:0:0:0:
288,192,98327,1,0,0:0:0:0:
288,192,98489,1,12,0:0:0:0:
288,192,98814,1,0,0:0:0:0:
256,192,98895,1,0,0:0:0:0:
256,192,98976,1,8,0:0:0:0:
288,192,99138,1,8,0:0:0:0:
288,192,99300,1,0,0:0:0:0:
288,192,99462,1,0,0:0:0:0:
256,192,99624,1,0,0:0:0:0:
288,192,99787,1,0,0:0:0:0:
256,192,99949,1,8,0:0:0:0:
288,192,100273,1,0,0:0:0:0:
288,192,100435,1,8,0:0:0:0:
288,192,100759,1,8,0:0:0:0:
288,192,101084,1,0,0:0:0:0:
288,192,101408,1,0,0:0:0:0:
288,192,101570,1,8,0:0:0:0:
288,192,102057,1,8,0:0:0:0:
288,192,102381,1,0,0:0:0:0:
288,192,102543,1,8,0:0:0:0:
288,192,102867,1,0,0:0:0:0:
288,192,103030,1,0,0:0:0:0:
288,192,103354,1,0,0:0:0:0:
288,192,103678,1,8,0:0:0:0:
256,192,104327,1,8,0:0:0:0:
256,192,104489,1,8,0:0:0:0:
256,192,104651,1,0,0:0:0:0:
256,192,104813,1,0,0:0:0:0:
256,192,105138,1,8,0:0:0:0:
256,192,105462,1,0,0:0:0:0:
256,192,105624,1,8,0:0:0:0:
256,192,105949,1,8,0:0:0:0:
256,192,106273,1,0,0:0:0:0:
256,192,106597,1,8,0:0:0:0:
256,192,106759,1,0,0:0:0:0:
256,192,107246,1,8,0:0:0:0:
256,192,107408,1,8,0:0:0:0:
256,192,107570,1,0,0:0:0:0:
256,192,107732,1,8,0:0:0:0:
256,192,108057,1,0,0:0:0:0:
256,192,108219,1,8,0:0:0:0:
256,192,108543,1,0,0:0:0:0:
256,192,108867,1,8,0:0:0:0:
256,192,109192,1,0,0:0:0:0:
256,192,109354,1,8,0:0:0:0:
256,192,109516,1,4,0:0:0:0:
288,192,109840,1,0,0:0:0:0:
288,192,110003,1,8,0:0:0:0:
256,192,110327,1,4,0:0:0:0:
256,192,110976,1,8,0:0:0:0:
256,192,111300,1,0,0:0:0:0:
256,192,111462,1,0,0:0:0:0:
256,192,111786,1,8,0:0:0:0:
256,192,111948,1,0,0:0:0:0:
256,192,112273,1,8,0:0:0:0:
256,192,112921,1,0,0:0:0:0:
256,192,113246,1,0,0:0:0:0:
256,192,113570,1,8,0:0:0:0:
256,192,113894,1,0,0:0:0:0:
256,192,114057,1,12,0:0:0:0:
256,192,114381,1,0,0:0:0:0:
256,192,114705,1,8,0:0:0:0:
256,192,115030,1,0,0:0:0:0:
256,192,115192,1,0,0:0:0:0:
256,192,115273,1,0,0:0:0:0:
256,192,115354,1,0,0:0:0:0:
256,192,115516,1,12,0:0:0:0:
256,192,115678,1,0,0:0:0:0:
288,192,115840,1,0,0:0:0:0:
288,192,116003,1,8,0:0:0:0:
288,192,116165,1,0,0:0:0:0:
288,192,116327,1,0,0:0:0:0:
288,192,116489,1,8,0:0:0:0:
288,192,116813,1,8,0:0:0:0:
288,192,116894,1,8,0:0:0:0:
288,192,116976,1,0,0:0:0:0:
288,192,117138,1,8,0:0:0:0:
288,192,117300,1,8,0:0:0:0:
288,192,117462,1,0,0:0:0:0:
288,192,117543,1,0,0:0:0:0:
288,192,117624,1,8,0:0:0:0:
288,192,117786,1,0,0:0:0:0:
288,192,118111,1,0,0:0:0:0:
288,192,118192,1,0,0:0:0:0:
288,192,118273,1,8,0:0:0:0:
288,192,118435,1,0,0:0:0:0:
288,192,118597,1,8,0:0:0:0:
288,192,118678,1,8,0:0:0:0:
288,192,118759,1,0,0:0:0:0:
288,192,118921,1,8,0:0:0:0:
288,192,119084,1,0,0:0:0:0:
288,192,119246,1,12,0:0:0:0:
288,224,119570,1,8,0:0:0:0:
288,224,119732,1,0,0:0:0:0:
288,224,119894,1,12,0:0:0:0:
288,192,120219,1,0,0:0:0:0:
288,192,120381,1,8,0:0:0:0:
288,192,120462,1,8,0:0:0:0:
288,192,120543,1,8,0:0:0:0:
288,192,120705,1,4,0:0:0:0:
288,192,120867,1,4,0:0:0:0:
288,192,122003,1,12,0:0:0:0:
288,192,122165,1,12,0:0:0:0:
288,192,122489,1,0,0:0:0:0:
288,192,122813,1,0,0:0:0:0:
288,192,122976,1,8,0:0:0:0:
288,192,123138,1,8,0:0:0:0:
288,192,123300,1,4,0:0:0:0:
288,192,123462,1,4,0:0:0:0:
288,192,124597,1,0,0:0:0:0:
288,192,124921,1,12,0:0:0:0:
288,192,125246,1,0,0:0:0:0:
288,192,125408,1,0,0:0:0:0:
288,192,125489,1,0,0:0:0:0:
288,192,125570,1,8,0:0:0:0:
288,192,125732,1,0,0:0:0:0:
256,192,131084,5,12,0:0:0:0:
288,192,131732,1,0,0:0:0:0:
288,192,132057,1,8,0:0:0:0:
288,192,132219,1,0,0:0:0:0:
288,192,132543,1,0,0:0:0:0:
288,192,132705,1,8,0:0:0:0:
288,192,133030,1,0,0:0:0:0:
288,192,133354,1,0,0:0:0:0:
288,192,133678,1,8,0:0:0:0:
288,192,134327,1,0,0:0:0:0:
288,192,134651,1,8,0:0:0:0:
288,192,134813,1,0,0:0:0:0:
288,192,135138,1,0,0:0:0:0:
288,192,135462,1,0,0:0:0:0:
288,192,135624,1,8,0:0:0:0:
288,192,135948,1,0,0:0:0:0:
288,192,136111,1,0,0:0:0:0:
288,192,136273,1,12,0:0:0:0:
256,192,136597,1,8,0:0:0:0:
256,192,136921,1,0,0:0:0:0:
256,192,137084,1,0,0:0:0:0:
256,192,137246,1,8,0:0:0:0:
256,192,137408,1,0,0:0:0:0:
256,192,137732,1,0,0:0:0:0:
256,192,137894,1,8,0:0:0:0:
256,192,138219,1,0,0:0:0:0:
256,192,138543,1,12,0:0:0:0:
256,160,138867,1,0,0:0:0:0:
256,192,138948,1,0,0:0:0:0:
256,192,139030,1,8,0:0:0:0:
256,192,139192,1,0,0:0:0:0:
256,192,139354,1,8,0:0:0:0:
256,192,139516,1,0,0:0:0:0:
256,192,139597,1,8,0:0:0:0:
256,192,139678,1,0,0:0:0:0:
256,192,139759,1,0,0:0:0:0:
256,192,139840,1,8,0:0:0:0:
256,192,140003,1,0,0:0:0:0:
256,192,140327,1,12,0:0:0:0:
256,192,140489,1,12,0:0:0:0:
256,192,140813,1,4,0:0:0:0:
256,192,140976,1,4,0:0:0:0:
256,192,141462,1,12,0:0:0:0:
256,192,142597,1,4,0:0:0:0:
256,192,143570,1,8,0:0:0:0:
256,192,143732,1,0,0:0:0:0:
256,192,144057,1,12,0:0:0:0:
256,192,145192,1,4,0:0:0:0:
256,192,145516,1,0,0:0:0:0:
256,192,145678,1,0,0:0:0:0:
256,192,145840,1,8,0:0:0:0:
256,192,146003,1,8,0:0:0:0:
256,192,146165,1,8,0:0:0:0:
256,192,146327,1,8,0:0:0:0:
256,192,146489,1,0,0:0:0:0:
256,192,146651,1,12,0:0:0:0:
288,160,146976,1,0,0:0:0:0:
288,160,147138,1,8,0:0:0:0:
256,192,147300,1,0,0:0:0:0:
256,192,147381,1,0,0:0:0:0:
256,192,147462,1,8,0:0:0:0:
256,192,147624,1,0,0:0:0:0:
256,192,147786,1,8,0:0:0:0:
256,192,147867,1,8,0:0:0:0:
256,192,147948,1,0,0:0:0:0:
256,192,148030,1,0,0:0:0:0:
256,192,148111,1,8,0:0:0:0:
256,192,148273,1,8,0:0:0:0:
256,192,148435,1,0,0:0:0:0:
256,192,148759,1,0,0:0:0:0:
288,192,148840,1,8,0:0:0:0:
256,224,148921,1,0,0:0:0:0:
256,192,149084,1,8,0:0:0:0:
256,192,149246,1,4,0:0:0:0:
256,192,149408,1,8,0:0:0:0:
256,192,149489,1,8,0:0:0:0:
256,160,149570,1,0,0:0:0:0:
256,192,149732,1,8,0:0:0:0:
256,192,149894,1,0,0:0:0:0:
256,192,149976,1,0,0:0:0:0:
256,192,150057,1,8,0:0:0:0:
256,192,150219,1,0,0:0:0:0:
256,192,150381,1,8,0:0:0:0:
224,192,150462,1,8,0:0:0:0:
256,192,150543,1,0,0:0:0:0:
256,192,150705,1,8,0:0:0:0:
256,192,150867,1,0,0:0:0:0:
256,192,151030,1,8,0:0:0:0:
256,192,151192,1,8,0:0:0:0:
256,192,151354,1,0,0:0:0:0:
256,160,151516,1,8,0:0:0:0:
256,192,151597,1,8,0:0:0:0:
256,192,151678,1,0,0:0:0:0:
256,192,151759,1,0,0:0:0:0:
256,192,151840,1,8,0:0:0:0:
298,191,151921,1,8,0:0:0:0:
304,174,152003,1,0,0:0:0:0:
256,192,152165,1,12,0:0:0:0:
256,192,152327,1,0,0:0:0:0:
256,192,152408,1,8,0:0:0:0:
256,192,152489,1,0,0:0:0:0:
256,192,152651,1,8,0:0:0:0:
256,192,152813,1,8,0:0:0:0:
256,192,152976,1,0,0:0:0:0:
256,192,153300,1,8,0:0:0:0:
256,192,153462,1,0,0:0:0:0:
256,192,153624,1,8,0:0:0:0:
256,192,153705,1,0,0:0:0:0:
256,192,153786,1,8,0:0:0:0:
256,192,153867,1,8,0:0:0:0:
256,192,153948,1,0,0:0:0:0:
256,192,154111,1,8,0:0:0:0:
256,192,154273,1,0,0:0:0:0:
256,192,154435,1,12,0:0:0:0:
256,192,154759,1,0,0:0:0:0:
256,192,154921,1,0,0:0:0:0:
256,192,155084,1,8,0:0:0:0:
256,192,155165,1,8,0:0:0:0:
256,192,155246,1,0,0:0:0:0:
256,192,155408,1,8,0:0:0:0:
256,192,155570,1,4,0:0:0:0:
256,192,155894,1,8,0:0:0:0:
256,192,156057,1,0,0:0:0:0:
256,192,156138,1,0,0:0:0:0:
256,192,156219,1,0,0:0:0:0:
256,192,156381,1,8,0:0:0:0:
256,192,156543,1,0,0:0:0:0:
256,192,156705,1,8,0:0:0:0:
256,192,156786,1,8,0:0:0:0:
256,192,156867,1,8,0:0:0:0:
256,192,157030,1,4,0:0:0:0:
256,192,157354,1,8,0:0:0:0:
268,188,157516,1,0,0:0:0:0:
256,192,157678,1,8,0:0:0:0:
269,196,157759,1,0,0:0:0:0:
256,192,157840,1,8,0:0:0:0:
256,192,158003,1,0,0:0:0:0:
256,192,158165,1,8,0:0:0:0:
256,192,158246,1,8,0:0:0:0:
256,192,158327,1,8,0:0:0:0:
256,192,158408,1,8,0:0:0:0:
256,192,158489,1,0,0:0:0:0:
256,192,158651,1,8,0:0:0:0:
256,192,158813,1,0,0:0:0:0:
256,192,159138,1,0,0:0:0:0:
256,192,159219,1,0,0:0:0:0:
256,192,159300,1,8,0:0:0:0:
256,192,159462,1,0,0:0:0:0:
256,192,159624,1,12,0:0:0:0:
256,192,159786,1,0,0:0:0:0:
256,192,159867,1,0,0:0:0:0:
256,192,159948,1,8,0:0:0:0:
256,192,160111,1,0,0:0:0:0:
256,192,160273,1,8,0:0:0:0:
256,192,160354,1,8,0:0:0:0:
256,192,160435,1,0,0:0:0:0:
256,192,160597,1,8,0:0:0:0:
256,192,160759,1,0,0:0:0:0:
224,192,160840,1,0,0:0:0:0:
256,192,160921,1,8,0:0:0:0:
256,192,161084,1,0,0:0:0:0:
256,192,161246,1,8,0:0:0:0:
256,192,161408,1,0,0:0:0:0:
256,192,161570,1,12,0:0:0:0:
256,192,161732,1,12,0:0:0:0:
256,192,161894,1,4,0:0:0:0:
256,192,162219,1,12,0:0:0:0:
224,192,162381,1,0,0:0:0:0:
256,192,162543,1,8,0:0:0:0:
256,160,162624,1,8,0:0:0:0:
256,160,162705,1,0,0:0:0:0:
256,192,162786,1,8,0:0:0:0:
256,192,162867,1,0,0:0:0:0:
256,192,163030,1,8,0:0:0:0:
256,192,163192,1,0,0:0:0:0:
256,160,163354,1,0,0:0:0:0:
256,160,163516,1,8,0:0:0:0:
256,192,163597,1,8,0:0:0:0:
256,192,163678,1,0,0:0:0:0:
256,192,163840,1,8,0:0:0:0:
256,192,164003,1,0,0:0:0:0:
256,192,164327,1,0,0:0:0:0:
256,192,164489,1,8,0:0:0:0:
256,160,164570,1,0,0:0:0:0:
256,160,164651,1,8,0:0:0:0:
256,160,164813,1,0,0:0:0:0:
256,160,164976,1,8,0:0:0:0:
256,160,165138,1,0,0:0:0:0:
256,192,165219,1,0,0:0:0:0:
256,192,165300,1,8,0:0:0:0:
256,192,165462,1,0,0:0:0:0:
256,160,165624,1,0,0:0:0:0:
256,160,165786,1,8,0:0:0:0:
256,160,166111,1,0,0:0:0:0:
256,160,166354,1,8,0:0:0:0:
256,160,166435,1,0,0:0:0:0:
256,192,166597,1,12,0:0:0:0:
256,160,166759,1,0,0:0:0:0:
224,160,166921,1,0,0:0:0:0:
256,160,167003,1,0,0:0:0:0:
256,160,167084,1,0,0:0:0:0:
256,160,167246,1,8,0:0:0:0:
256,160,167408,1,4,0:0:0:0:
256,160,167732,1,8,0:0:0:0:
256,160,167894,1,0,0:0:0:0:
256,160,167976,1,8,0:0:0:0:
256,160,168057,1,8,0:0:0:0:
256,160,168138,1,8,0:0:0:0:
256,160,168219,1,0,0:0:0:0:
256,160,168381,1,8,0:0:0:0:
256,160,168543,1,0,0:0:0:0:
256,160,168705,1,8,0:0:0:0:
256,160,168786,1,8,0:0:0:0:
256,160,168867,1,8,0:0:0:0:
256,160,169030,1,0,0:0:0:0:
256,160,169192,1,8,0:0:0:0:
256,128,169516,1,0,0:0:0:0:
256,128,169678,1,8,0:0:0:0:
256,128,169759,1,8,0:0:0:0:
256,128,169840,1,0,0:0:0:0:
256,160,170003,1,12,0:0:0:0:
256,192,170165,1,0,0:0:0:0:
256,192,170327,1,8,0:0:0:0:
256,192,170408,1,8,0:0:0:0:
256,192,170489,1,0,0:0:0:0:
256,192,170651,1,8,0:0:0:0:
256,192,170813,1,0,0:0:0:0:
256,192,170894,1,8,0:0:0:0:
256,192,170976,1,8,0:0:0:0:
256,160,171138,1,0,0:0:0:0:
256,160,171300,1,8,0:0:0:0:
256,192,171381,1,8,0:0:0:0:
256,192,171462,1,8,0:0:0:0:
256,192,171624,1,0,0:0:0:0:
256,192,171705,1,0,0:0:0:0:
256,192,171786,1,8,0:0:0:0:
256,192,171867,1,8,0:0:0:0:
256,192,171948,1,0,0:0:0:0:
288,192,172597,1,12,0:0:0:0:
288,192,172759,1,0,0:0:0:0:
256,192,172921,1,0,0:0:0:0:
256,192,173084,1,8,0:0:0:0:
256,192,173408,1,0,0:0:0:0:
256,192,173489,1,0,0:0:0:0:
256,192,173570,1,8,0:0:0:0:
256,192,173732,1,0,0:0:0:0:
256,192,173894,1,8,0:0:0:0:
256,192,174057,1,8,0:0:0:0:
256,192,174219,1,0,0:0:0:0:
256,192,174381,1,8,0:0:0:0:
288,192,174705,1,8,0:0:0:0:
288,192,174786,1,0,0:0:0:0:
288,192,174867,1,8,0:0:0:0:
288,192,175030,1,0,0:0:0:0:
288,192,175192,1,8,0:0:0:0:
288,192,175354,1,8,0:0:0:0:
256,192,175516,1,0,0:0:0:0:
288,192,175678,1,8,0:0:0:0:
288,192,176003,1,0,0:0:0:0:
288,192,176084,1,0,0:0:0:0:
288,192,176165,1,8,0:0:0:0:
288,192,176327,1,4,0:0:0:0:
256,192,176651,1,8,0:0:0:0:
256,192,176813,1,8,0:0:0:0:
256,192,176976,1,4,0:0:0:0:
256,192,177300,1,8,0:0:0:0:
256,192,177381,1,8,0:0:0:0:
256,192,177462,1,0,0:0:0:0:
256,192,177624,1,8,0:0:0:0:
256,192,177786,1,4,0:0:0:0:
256,192,177948,1,8,0:0:0:0:
256,192,178111,1,0,0:0:0:0:
256,192,178273,1,8,0:0:0:0:
256,192,178597,1,8,0:0:0:0:
256,192,178678,1,0,0:0:0:0:
256,192,178759,1,8,0:0:0:0:
256,192,178921,1,0,0:0:0:0:
256,192,179084,1,8,0:0:0:0:
256,192,179246,1,8,0:0:0:0:
256,192,179408,1,0,0:0:0:0:
256,192,179570,1,8,0:0:0:0:
256,192,179894,1,0,0:0:0:0:
256,192,179976,1,0,0:0:0:0:
256,192,180057,1,8,0:0:0:0:
256,192,180219,1,0,0:0:0:0:
256,192,180381,1,8,0:0:0:0:
256,192,180543,1,0,0:0:0:0:
256,192,180705,1,8,0:0:0:0:
256,192,180867,1,8,0:0:0:0:
256,192,181192,1,0,0:0:0:0:
256,192,181273,1,8,0:0:0:0:
256,192,181354,1,0,0:0:0:0:
288,192,181516,1,12,0:0:0:0:
256,192,181840,1,8,0:0:0:0:
288,192,182003,1,0,0:0:0:0:
256,192,182165,1,12,0:0:0:0:
256,192,182489,1,0,0:0:0:0:
288,192,182651,1,8,0:0:0:0:
288,192,182732,1,8,0:0:0:0:
288,192,182813,1,0,0:0:0:0:
288,192,182976,1,12,0:0:0:0:
288,192,183300,1,0,0:0:0:0:
288,192,183624,1,8,0:0:0:0:
288,192,183786,1,0,0:0:0:0:
288,192,183948,1,0,0:0:0:0:
288,192,184111,1,12,0:0:0:0:
288,192,184435,1,0,0:0:0:0:
256,192,184516,1,0,0:0:0:0:
256,192,184597,1,8,0:0:0:0:
288,192,184759,1,8,0:0:0:0:
288,192,184921,1,4,0:0:0:0:
288,192,185084,1,4,0:0:0:0:
288,192,185246,1,4,0:0:0:0:
288,192,185408,1,4,0:0:0:0:
