osu file format v14

[General]
AudioFilename: audio.mp3
AudioLeadIn: 0
PreviewTime: 153817
Countdown: 0
SampleSet: Soft
StackLeniency: 0.7
Mode: 3
LetterboxInBreaks: 0
SpecialStyle: 0
WidescreenStoryboard: 1

[Editor]
DistanceSpacing: 0.9
BeatDivisor: 4
GridSize: 16
TimelineZoom: 2.9

[Metadata]
Title:Tsuki ga Michiru
TitleUnicode:月が満ちる
Artist:Tsukuyomi
ArtistUnicode:月詠み
Creator:homwu
Version:Moonlit
Source:
Tags:lott y0gurt jrock jpop j-pop j-rock japanese rock pop YurryCanon yurry canon ユリイカノン ユリイ・カノン sing the moon Yue Nao Nishimura Yuta Watanabe Naoki Itai とうかさ Toukasa なおk naodoramu ln long notes
BeatmapID:4271508
BeatmapSetID:2046342

[Difficulty]
HPDrainRate:8
CircleSize:4
OverallDifficulty:7.5
ApproachRate:5
SliderMultiplier:1.4
SliderTickRate:1

[Events]
//Background and Video events
0,0,"F3fJwYva0AA5-02.jpg",0,0
//Break Periods
//Storyboard Layer 0 (Background)
//Storyboard Layer 1 (Fail)
//Storyboard Layer 2 (Pass)
//Storyboard Layer 3 (Foreground)
//Storyboard Layer 4 (Overlay)
//Storyboard Sound Samples

[TimingPoints]
618,428.571428571429,4,2,1,65,1,0
16689,-20,4,2,1,65,0,0
16716,-10000,4,2,1,65,0,0
16743,-400,4,2,1,65,0,0
16796,-200,4,2,1,65,0,0
16850,-133.333333333333,4,2,1,65,0,0
16903,-100,4,2,1,65,0,0
17760,-100,4,2,1,65,0,1
31475,-100,4,2,1,65,0,0
71546,-20,4,2,1,65,0,0
71573,-10000,4,2,1,65,0,0
71600,-400,4,2,1,65,0,0
71653,-200,4,2,1,65,0,0
71707,-133.333333333333,4,2,1,65,0,0
71760,-100,4,2,1,65,0,0
72618,-100,4,2,1,65,0,1
86332,-100,4,2,1,65,0,0
102403,-20,4,2,1,65,0,0
102430,-10000,4,2,1,65,0,0
102457,-400,4,2,1,65,0,0
102510,-200,4,2,1,65,0,0
102564,-133.333333333333,4,2,1,65,0,0
102618,-100,4,2,1,65,0,0
105403,-33.3333333333333,4,2,1,65,0,0
105430,-200,4,2,1,65,0,0
105457,-333.333333333333,4,2,1,65,0,0
105510,-100,4,2,1,65,0,0
105725,-33.3333333333333,4,2,1,65,0,0
105751,-200,4,2,1,65,0,0
105778,-333.333333333333,4,2,1,65,0,0
105832,-100,4,2,1,65,0,0
106046,-20,4,2,1,65,0,0
106073,-10000,4,2,1,65,0,0
106100,-400,4,2,1,65,0,0
106153,-200,4,2,1,65,0,0
106207,-133.333333333333,4,2,1,65,0,0
106260,-100,4,2,1,65,0,0
146332,-20,4,2,1,65,0,0
146359,-10000,4,2,1,65,0,0
146385,-400,4,2,1,65,0,0
146439,-200,4,2,1,65,0,0
146493,-133.333333333333,4,2,1,65,0,0
146546,-100,4,2,1,65,0,0
153189,-20,4,2,1,65,0,0
153216,-10000,4,2,1,65,0,0
153243,-400,4,2,1,65,0,0
153296,-200,4,2,1,65,0,0
153350,-133.333333333333,4,2,1,65,0,0
153403,-100,4,2,1,65,0,0
153510,-20,4,2,1,65,0,0
153537,-10000,4,2,1,65,0,0
153564,-400,4,2,1,65,0,0
153618,-200,4,2,1,65,0,0
153671,-133.333333333333,4,2,1,65,0,0
153725,-100,4,2,1,65,0,0
154903,-100,4,2,1,65,0,1
167117,389.61038961039,4,2,1,65,1,9
167117,-111.111111111111,4,2,1,65,0,1
167214,405.405405405405,4,2,1,65,1,9
167214,-105.263157894737,4,2,1,65,0,1
167416,416.666666666667,4,2,1,65,1,9
167416,-103.092783505155,4,2,1,65,0,1
168158,416.666666666667,4,2,1,65,1,9
168158,-103.092783505155,4,2,1,65,0,1
168366,434.782608695652,4,2,1,65,1,9
168366,-99.009900990099,4,2,1,65,0,1
168474,550.45871559633,4,2,1,65,1,9
168474,-78.125,4,2,1,65,0,1
168731,416.666666666667,4,2,1,65,1,9
168731,-103.092783505155,4,2,1,65,0,1
169046,428.571428571429,4,2,1,65,1,0
170331,428.571428571429,4,2,1,65,1,0
181474,416.666666666667,4,2,1,65,1,8
181474,-103.092783505155,4,2,1,65,0,0
181578,405.405405405405,4,2,1,65,1,8
181578,-105.263157894737,4,2,1,65,0,0
181683,408.163265306122,4,2,1,65,1,8
181683,-105.263157894737,4,2,1,65,0,0
181989,437.956204379562,4,2,1,65,1,8
181989,-98.0392156862745,4,2,1,65,0,0
182098,416.666666666667,4,2,1,65,1,0
182098,-103.092783505155,4,2,1,65,0,0
184055,428.571428571429,4,2,1,65,1,0

[HitObjects]
320,192,564,5,0,0:0:0:0:
64,192,618,1,0,0:0:0:0:
448,192,618,1,0,0:0:0:0:
320,192,1046,128,0,1153:0:0:0:0:
64,192,1046,1,0,0:0:0:0:
320,192,1260,128,0,1368:0:0:0:0:
448,192,1368,128,0,1582:0:0:0:0:
320,192,1475,128,0,1796:0:0:0:0:
448,192,1689,128,0,1796:0:0:0:0:
192,192,1689,128,0,2118:0:0:0:0:
320,192,1903,128,0,2010:0:0:0:0:
448,192,2010,1,0,0:0:0:0:
320,192,2118,128,0,2332:0:0:0:0:
64,192,2118,128,0,2546:0:0:0:0:
448,192,2225,128,0,2439:0:0:0:0:
448,192,2546,128,0,2760:0:0:0:0:
320,192,2653,128,0,2760:0:0:0:0:
64,192,2760,1,0,0:0:0:0:
192,192,2760,1,0,0:0:0:0:
192,192,2975,128,0,3296:0:0:0:0:
320,192,3082,128,0,3189:0:0:0:0:
448,192,3189,128,0,3510:0:0:0:0:
64,192,3296,1,0,0:0:0:0:
320,192,3403,128,0,3510:0:0:0:0:
448,192,3618,128,0,3725:0:0:0:0:
64,192,3618,128,0,3725:0:0:0:0:
64,192,3832,128,0,4046:0:0:0:0:
192,192,3939,128,0,4046:0:0:0:0:
320,192,4046,1,0,0:0:0:0:
448,192,4046,1,0,0:0:0:0:
64,192,4260,1,0,0:0:0:0:
320,192,4475,128,0,4582:0:0:0:0:
448,192,4475,128,0,4796:0:0:0:0:
320,192,4689,128,0,4903:0:0:0:0:
192,192,4796,128,0,4903:0:0:0:0:
64,192,4903,128,0,5010:0:0:0:0:
64,192,5118,128,0,5332:0:0:0:0:
192,192,5118,128,0,5225:0:0:0:0:
320,192,5332,128,0,5546:0:0:0:0:
192,192,5439,128,0,5546:0:0:0:0:
64,192,5546,128,0,5760:0:0:0:0:
448,192,5546,128,0,5975:0:0:0:0:
192,192,5653,128,0,5868:0:0:0:0:
192,192,5975,128,0,6189:0:0:0:0:
64,192,6082,128,0,6189:0:0:0:0:
320,192,6189,1,0,0:0:0:0:
448,192,6189,1,0,0:0:0:0:
320,192,6403,128,0,6618:0:0:0:0:
448,192,6510,128,0,6618:0:0:0:0:
192,192,6618,128,0,6725:0:0:0:0:
320,192,6725,1,0,0:0:0:0:
192,192,6832,128,0,7153:0:0:0:0:
64,192,7046,128,0,7153:0:0:0:0:
320,192,7046,128,0,7260:0:0:0:0:
448,192,7153,128,0,7260:0:0:0:0:
64,192,7260,128,0,7475:0:0:0:0:
192,192,7368,128,0,7475:0:0:0:0:
320,192,7475,1,0,0:0:0:0:
448,192,7475,1,0,0:0:0:0:
320,192,7903,128,0,8010:0:0:0:0:
64,192,7903,1,0,0:0:0:0:
320,192,8118,128,0,8332:0:0:0:0:
192,192,8225,1,0,0:0:0:0:
64,192,8332,128,0,8546:0:0:0:0:
192,192,8439,128,0,8546:0:0:0:0:
448,192,8546,128,0,8760:0:0:0:0:
320,192,8546,128,0,8653:0:0:0:0:
192,192,8760,128,0,8975:0:0:0:0:
320,192,8868,1,0,0:0:0:0:
448,192,8975,128,0,9189:0:0:0:0:
64,192,8975,128,0,9403:0:0:0:0:
320,192,9082,128,0,9296:0:0:0:0:
192,192,9189,1,0,0:0:0:0:
448,192,9296,1,0,0:0:0:0:
320,192,9403,128,0,9618:0:0:0:0:
192,192,9510,128,0,9618:0:0:0:0:
64,192,9618,1,0,0:0:0:0:
448,192,9618,1,0,0:0:0:0:
320,192,9832,128,0,10153:0:0:0:0:
448,192,9939,1,0,0:0:0:0:
192,192,10046,128,0,10368:0:0:0:0:
64,192,10153,1,0,0:0:0:0:
320,192,10260,128,0,10368:0:0:0:0:
448,192,10260,128,0,10582:0:0:0:0:
192,192,10475,128,0,10582:0:0:0:0:
64,192,10475,128,0,10689:0:0:0:0:
320,192,10582,1,0,0:0:0:0:
448,192,10689,128,0,10903:0:0:0:0:
320,192,10796,128,0,10903:0:0:0:0:
192,192,10903,1,0,0:0:0:0:
64,192,10903,1,0,0:0:0:0:
192,192,11332,128,0,11439:0:0:0:0:
448,192,11332,1,0,0:0:0:0:
192,192,11546,128,0,11760:0:0:0:0:
320,192,11653,1,0,0:0:0:0:
64,192,11760,128,0,11868:0:0:0:0:
448,192,11760,128,0,11975:0:0:0:0:
64,192,11975,128,0,12189:0:0:0:0:
320,192,11975,128,0,12296:0:0:0:0:
192,192,12082,128,0,12189:0:0:0:0:
448,192,12189,128,0,12296:0:0:0:0:
192,192,12403,128,0,12618:0:0:0:0:
448,192,12403,128,0,12832:0:0:0:0:
64,192,12510,128,0,12725:0:0:0:0:
64,192,12832,128,0,13046:0:0:0:0:
192,192,12939,128,0,13046:0:0:0:0:
320,192,13046,1,0,0:0:0:0:
448,192,13046,1,0,0:0:0:0:
64,192,13260,128,0,13475:0:0:0:0:
192,192,13368,1,0,0:0:0:0:
320,192,13475,128,0,13582:0:0:0:0:
448,192,13475,128,0,13796:0:0:0:0:
192,192,13689,128,0,13796:0:0:0:0:
320,192,13689,128,0,14010:0:0:0:0:
448,192,13903,128,0,14010:0:0:0:0:
64,192,13903,128,0,14225:0:0:0:0:
448,192,14118,128,0,14332:0:0:0:0:
320,192,14225,1,0,0:0:0:0:
64,192,14332,128,0,14546:0:0:0:0:
192,192,14332,128,0,15939:0:0:0:0:
320,192,14439,128,0,15939:0:0:0:0:
192,192,16046,128,0,16153:0:0:0:0:
448,192,16046,128,0,16153:0:0:0:0:
64,192,16046,128,0,16153:0:0:0:0:
448,192,16368,128,0,16475:0:0:0:0:
320,192,16368,128,0,16475:0:0:0:0:
64,192,16368,128,0,16475:0:0:0:0:
64,192,16689,128,0,16903:0:0:0:0:
192,192,16689,128,0,16903:0:0:0:0:
320,192,16689,128,0,16903:0:0:0:0:
448,192,16689,128,0,16903:0:0:0:0:
448,192,17332,1,0,0:0:0:0:
320,192,17403,1,0,0:0:0:0:
192,192,17475,1,0,0:0:0:0:
64,192,17546,1,0,0:0:0:0:
448,192,17618,1,0,0:0:0:0:
320,192,17689,1,0,0:0:0:0:
64,192,17760,128,0,17975:0:0:0:0:
192,192,17760,128,0,17868:0:0:0:0:
448,192,17760,128,0,18082:0:0:0:0:
320,192,17975,128,0,18082:0:0:0:0:
192,192,18189,128,0,18510:0:0:0:0:
64,192,18189,128,0,18296:0:0:0:0:
448,192,18189,1,0,0:0:0:0:
320,192,18403,128,0,18510:0:0:0:0:
448,192,18403,128,0,18725:0:0:0:0:
64,192,18403,1,0,0:0:0:0:
64,192,18618,128,0,18939:0:0:0:0:
192,192,18618,128,0,18832:0:0:0:0:
448,192,18832,1,0,0:0:0:0:
320,192,18832,1,0,0:0:0:0:
192,192,19046,128,0,19475:0:0:0:0:
64,192,19046,1,0,0:0:0:0:
320,192,19046,128,0,19153:0:0:0:0:
448,192,19153,128,0,19368:0:0:0:0:
320,192,19260,128,0,19582:0:0:0:0:
448,192,19475,128,0,19582:0:0:0:0:
64,192,19475,128,0,20010:0:0:0:0:
320,192,19689,128,0,19796:0:0:0:0:
192,192,19903,128,0,20010:0:0:0:0:
320,192,19903,128,0,20225:0:0:0:0:
448,192,19903,1,0,0:0:0:0:
448,192,20118,128,0,20225:0:0:0:0:
192,192,20118,128,0,20439:0:0:0:0:
64,192,20118,1,0,0:0:0:0:
320,192,20332,128,0,20439:0:0:0:0:
448,192,20332,128,0,20653:0:0:0:0:
64,192,20546,128,0,20653:0:0:0:0:
192,192,20546,128,0,20760:0:0:0:0:
320,192,20653,128,0,20868:0:0:0:0:
448,192,20760,128,0,20868:0:0:0:0:
64,192,20760,128,0,21082:0:0:0:0:
320,192,20975,128,0,21296:0:0:0:0:
192,192,21189,128,0,21296:0:0:0:0:
448,192,21189,128,0,21510:0:0:0:0:
64,192,21189,128,0,21403:0:0:0:0:
320,192,21403,128,0,21510:0:0:0:0:
192,192,21618,128,0,21939:0:0:0:0:
320,192,21618,1,0,0:0:0:0:
448,192,21618,128,0,21725:0:0:0:0:
64,192,21832,128,0,21939:0:0:0:0:
320,192,21832,128,0,22153:0:0:0:0:
448,192,21832,1,0,0:0:0:0:
64,192,22046,128,0,22368:0:0:0:0:
192,192,22153,128,0,22368:0:0:0:0:
320,192,22260,1,0,0:0:0:0:
448,192,22260,1,0,0:0:0:0:
64,192,22475,128,0,22582:0:0:0:0:
448,192,22475,128,0,22796:0:0:0:0:
192,192,22475,1,0,0:0:0:0:
320,192,22582,128,0,22796:0:0:0:0:
192,192,22689,128,0,22796:0:0:0:0:
320,192,22903,128,0,23010:0:0:0:0:
192,192,22903,128,0,23225:0:0:0:0:
448,192,23118,128,0,23225:0:0:0:0:
320,192,23332,128,0,23439:0:0:0:0:
448,192,23332,1,0,0:0:0:0:
64,192,23332,128,0,23546:0:0:0:0:
448,192,23546,128,0,23868:0:0:0:0:
192,192,23546,128,0,23653:0:0:0:0:
320,192,23546,1,0,0:0:0:0:
64,192,23653,128,0,23868:0:0:0:0:
192,192,23760,128,0,23868:0:0:0:0:
320,192,23760,128,0,24082:0:0:0:0:
448,192,23975,128,0,24082:0:0:0:0:
192,192,23975,128,0,24403:0:0:0:0:
64,192,24189,128,0,24510:0:0:0:0:
320,192,24189,128,0,24296:0:0:0:0:
448,192,24189,128,0,24510:0:0:0:0:
320,192,24403,1,0,0:0:0:0:
192,192,24618,128,0,24939:0:0:0:0:
320,192,24618,128,0,24725:0:0:0:0:
64,192,24618,1,0,0:0:0:0:
448,192,24725,128,0,24939:0:0:0:0:
64,192,24832,128,0,24939:0:0:0:0:
64,192,25046,128,0,25368:0:0:0:0:
320,192,25046,1,0,0:0:0:0:
448,192,25046,128,0,25153:0:0:0:0:
320,192,25260,128,0,25582:0:0:0:0:
192,192,25260,128,0,25368:0:0:0:0:
448,192,25260,1,0,0:0:0:0:
192,192,25475,128,0,25796:0:0:0:0:
448,192,25475,128,0,25582:0:0:0:0:
64,192,25689,1,0,0:0:0:0:
320,192,25689,128,0,25796:0:0:0:0:
64,192,25903,128,0,26225:0:0:0:0:
192,192,25903,128,0,26010:0:0:0:0:
448,192,25903,1,0,0:0:0:0:
448,192,26118,128,0,26225:0:0:0:0:
192,192,26118,128,0,26439:0:0:0:0:
448,192,26332,128,0,26653:0:0:0:0:
320,192,26332,128,0,26439:0:0:0:0:
64,192,26332,128,0,26439:0:0:0:0:
192,192,26546,128,0,26653:0:0:0:0:
192,192,26760,128,0,27082:0:0:0:0:
320,192,26760,128,0,26868:0:0:0:0:
448,192,26760,1,0,0:0:0:0:
320,192,26975,128,0,27189:0:0:0:0:
64,192,26975,128,0,27082:0:0:0:0:
448,192,27082,128,0,27189:0:0:0:0:
64,192,27189,128,0,27403:0:0:0:0:
192,192,27296,128,0,27403:0:0:0:0:
320,192,27403,128,0,27510:0:0:0:0:
448,192,27403,128,0,27725:0:0:0:0:
320,192,27618,128,0,27939:0:0:0:0:
192,192,27618,128,0,27725:0:0:0:0:
64,192,27618,1,0,0:0:0:0:
64,192,27832,128,0,28153:0:0:0:0:
192,192,28046,1,0,0:0:0:0:
320,192,28046,128,0,28153:0:0:0:0:
448,192,28046,128,0,28475:0:0:0:0:
192,192,28260,128,0,28368:0:0:0:0:
64,192,28475,128,0,28582:0:0:0:0:
320,192,28475,1,0,0:0:0:0:
192,192,28475,128,0,28582:0:0:0:0:
320,192,28689,128,0,28796:0:0:0:0:
448,192,28689,1,0,0:0:0:0:
64,192,28689,128,0,28796:0:0:0:0:
320,192,28903,128,0,29010:0:0:0:0:
448,192,28903,128,0,29225:0:0:0:0:
192,192,29118,1,0,0:0:0:0:
64,192,29118,1,0,0:0:0:0:
192,192,29332,1,0,0:0:0:0:
448,192,29332,128,0,29439:0:0:0:0:
320,192,29332,128,0,29439:0:0:0:0:
64,192,29546,128,0,29653:0:0:0:0:
448,192,29653,1,0,0:0:0:0:
192,192,29760,128,0,29868:0:0:0:0:
64,192,29760,128,0,30510:0:0:0:0:
320,192,29975,128,0,30082:0:0:0:0:
320,192,30189,1,0,0:0:0:0:
448,192,30189,1,0,0:0:0:0:
448,192,30403,5,0,0:0:0:0:
192,192,30403,1,0,0:0:0:0:
320,192,30510,1,0,0:0:0:0:
64,192,30618,128,0,30832:0:0:0:0:
448,192,30618,128,0,30832:0:0:0:0:
192,192,31046,128,0,31368:0:0:0:0:
320,192,31260,128,0,31475:0:0:0:0:
64,192,31475,128,0,31582:0:0:0:0:
448,192,31475,1,0,0:0:0:0:
192,192,31475,128,0,31689:0:0:0:0:
320,192,31582,128,0,31689:0:0:0:0:
448,192,31689,1,0,0:0:0:0:
64,192,31796,1,0,0:0:0:0:
192,192,31796,128,0,32010:0:0:0:0:
320,192,31903,1,0,0:0:0:0:
64,192,32010,128,0,32118:0:0:0:0:
192,192,32118,1,0,0:0:0:0:
448,192,32118,128,0,32225:0:0:0:0:
320,192,32225,1,0,0:0:0:0:
448,192,32332,1,0,0:0:0:0:
192,192,32332,128,0,32546:0:0:0:0:
320,192,32546,128,0,32653:0:0:0:0:
64,192,32653,1,0,0:0:0:0:
192,192,32760,1,0,0:0:0:0:
448,192,32760,128,0,32975:0:0:0:0:
320,192,32975,1,0,0:0:0:0:
64,192,32975,1,0,0:0:0:0:
192,192,33082,1,0,0:0:0:0:
320,192,33189,1,0,0:0:0:0:
64,192,33189,128,0,33296:0:0:0:0:
448,192,33296,128,0,33403:0:0:0:0:
192,192,33403,1,0,0:0:0:0:
320,192,33510,1,0,0:0:0:0:
448,192,33510,128,0,33725:0:0:0:0:
64,192,33618,1,0,0:0:0:0:
320,192,33725,1,0,0:0:0:0:
192,192,33832,128,0,33939:0:0:0:0:
448,192,33832,1,0,0:0:0:0:
64,192,33939,128,0,34046:0:0:0:0:
320,192,34046,128,0,34260:0:0:0:0:
448,192,34046,1,0,0:0:0:0:
192,192,34153,128,0,34260:0:0:0:0:
64,192,34260,1,0,0:0:0:0:
448,192,34368,1,0,0:0:0:0:
320,192,34368,128,0,34475:0:0:0:0:
192,192,34475,1,0,0:0:0:0:
64,192,34582,128,0,34689:0:0:0:0:
320,192,34689,1,0,0:0:0:0:
448,192,34689,128,0,34903:0:0:0:0:
64,192,34903,128,0,35118:0:0:0:0:
192,192,34903,1,0,0:0:0:0:
320,192,35010,128,0,35118:0:0:0:0:
448,192,35118,1,0,0:0:0:0:
64,192,35225,1,0,0:0:0:0:
192,192,35225,128,0,35439:0:0:0:0:
320,192,35332,1,0,0:0:0:0:
64,192,35439,128,0,35546:0:0:0:0:
320,192,35546,1,0,0:0:0:0:
448,192,35546,128,0,35653:0:0:0:0:
64,192,35653,1,0,0:0:0:0:
448,192,35760,1,0,0:0:0:0:
192,192,35760,128,0,35975:0:0:0:0:
320,192,35975,128,0,36082:0:0:0:0:
64,192,36082,1,0,0:0:0:0:
320,192,36189,1,0,0:0:0:0:
448,192,36189,128,0,36403:0:0:0:0:
320,192,36403,1,0,0:0:0:0:
64,192,36403,1,0,0:0:0:0:
192,192,36510,1,0,0:0:0:0:
320,192,36618,1,0,0:0:0:0:
64,192,36618,128,0,36725:0:0:0:0:
448,192,36725,128,0,36832:0:0:0:0:
192,192,36832,1,0,0:0:0:0:
448,192,36939,128,0,37153:0:0:0:0:
320,192,36939,1,0,0:0:0:0:
64,192,37046,1,0,0:0:0:0:
320,192,37153,1,0,0:0:0:0:
192,192,37260,128,0,37368:0:0:0:0:
448,192,37260,1,0,0:0:0:0:
64,192,37368,128,0,37475:0:0:0:0:
320,192,37475,1,0,0:0:0:0:
448,192,37475,128,0,37582:0:0:0:0:
64,192,37582,128,0,37689:0:0:0:0:
192,192,37689,1,0,0:0:0:0:
448,192,37689,1,0,0:0:0:0:
320,192,37796,128,0,37903:0:0:0:0:
448,192,37903,1,0,0:0:0:0:
64,192,37903,1,0,0:0:0:0:
192,192,38010,128,0,38118:0:0:0:0:
320,192,38010,1,0,0:0:0:0:
64,192,38118,1,0,0:0:0:0:
448,192,38118,128,0,38225:0:0:0:0:
192,192,38225,1,0,0:0:0:0:
320,192,38225,1,0,0:0:0:0:
448,192,38332,128,0,38439:0:0:0:0:
64,192,38332,1,0,0:0:0:0:
320,192,38332,128,0,38546:0:0:0:0:
192,192,38439,128,0,38546:0:0:0:0:
64,192,38546,1,0,0:0:0:0:
320,192,38653,128,0,38868:0:0:0:0:
448,192,38653,1,0,0:0:0:0:
192,192,38760,1,0,0:0:0:0:
448,192,38868,128,0,38975:0:0:0:0:
64,192,38975,128,0,39082:0:0:0:0:
320,192,38975,1,0,0:0:0:0:
192,192,39082,1,0,0:0:0:0:
320,192,39189,128,0,39403:0:0:0:0:
64,192,39189,1,0,0:0:0:0:
192,192,39403,128,0,39510:0:0:0:0:
448,192,39510,1,0,0:0:0:0:
320,192,39618,1,0,0:0:0:0:
64,192,39618,128,0,39832:0:0:0:0:
448,192,39832,1,0,0:0:0:0:
192,192,39832,1,0,0:0:0:0:
320,192,39939,1,0,0:0:0:0:
448,192,40046,128,0,40153:0:0:0:0:
192,192,40046,1,0,0:0:0:0:
64,192,40153,128,0,40260:0:0:0:0:
320,192,40260,1,0,0:0:0:0:
192,192,40368,1,0,0:0:0:0:
64,192,40368,128,0,40582:0:0:0:0:
448,192,40475,1,0,0:0:0:0:
192,192,40582,1,0,0:0:0:0:
64,192,40689,1,0,0:0:0:0:
320,192,40689,128,0,40796:0:0:0:0:
448,192,40796,128,0,40903:0:0:0:0:
192,192,40903,128,0,41118:0:0:0:0:
64,192,40903,1,0,0:0:0:0:
320,192,41010,128,0,41118:0:0:0:0:
448,192,41118,1,0,0:0:0:0:
192,192,41225,128,0,41332:0:0:0:0:
64,192,41225,1,0,0:0:0:0:
320,192,41332,1,0,0:0:0:0:
448,192,41439,128,0,41546:0:0:0:0:
192,192,41546,1,0,0:0:0:0:
64,192,41546,128,0,41760:0:0:0:0:
448,192,41760,128,0,41975:0:0:0:0:
320,192,41760,1,0,0:0:0:0:
192,192,41868,128,0,41975:0:0:0:0:
64,192,41975,1,0,0:0:0:0:
320,192,42082,128,0,42296:0:0:0:0:
448,192,42082,1,0,0:0:0:0:
192,192,42189,1,0,0:0:0:0:
448,192,42296,128,0,42403:0:0:0:0:
64,192,42403,128,0,42510:0:0:0:0:
320,192,42403,1,0,0:0:0:0:
192,192,42510,1,0,0:0:0:0:
320,192,42618,128,0,42832:0:0:0:0:
64,192,42618,1,0,0:0:0:0:
192,192,42832,128,0,42939:0:0:0:0:
448,192,42939,1,0,0:0:0:0:
320,192,43046,1,0,0:0:0:0:
64,192,43046,128,0,43260:0:0:0:0:
448,192,43260,1,0,0:0:0:0:
192,192,43260,1,0,0:0:0:0:
320,192,43368,1,0,0:0:0:0:
448,192,43475,128,0,43582:0:0:0:0:
192,192,43475,1,0,0:0:0:0:
64,192,43582,128,0,43689:0:0:0:0:
320,192,43689,1,0,0:0:0:0:
192,192,43796,1,0,0:0:0:0:
64,192,43796,128,0,44010:0:0:0:0:
448,192,43903,1,0,0:0:0:0:
320,192,43903,128,0,44010:0:0:0:0:
192,192,44118,128,0,44225:0:0:0:0:
320,192,44118,128,0,44439:0:0:0:0:
448,192,44332,128,0,44439:0:0:0:0:
192,192,44332,128,0,44439:0:0:0:0:
64,192,44332,128,0,44439:0:0:0:0:
192,192,44546,128,0,44653:0:0:0:0:
448,192,44546,128,0,44868:0:0:0:0:
320,192,44653,128,0,44868:0:0:0:0:
64,192,44760,128,0,45082:0:0:0:0:
192,192,44760,128,0,44868:0:0:0:0:
320,192,44975,128,0,45082:0:0:0:0:
448,192,45189,128,0,45296:0:0:0:0:
192,192,45189,128,0,45510:0:0:0:0:
64,192,45189,128,0,45296:0:0:0:0:
320,192,45403,128,0,45510:0:0:0:0:
64,192,45510,128,0,45618:0:0:0:0:
320,192,45618,128,0,45939:0:0:0:0:
448,192,45618,128,0,45725:0:0:0:0:
448,192,45832,1,0,0:0:0:0:
192,192,45832,128,0,45939:0:0:0:0:
320,192,46046,128,0,46153:0:0:0:0:
64,192,46046,128,0,46368:0:0:0:0:
448,192,46153,1,0,0:0:0:0:
192,192,46260,1,0,0:0:0:0:
320,192,46368,1,0,0:0:0:0:
64,192,46475,1,0,0:0:0:0:
448,192,46475,1,0,0:0:0:0:
448,192,46689,128,0,46796:0:0:0:0:
448,192,46903,128,0,47010:0:0:0:0:
192,192,46903,128,0,47225:0:0:0:0:
320,192,47010,128,0,47118:0:0:0:0:
64,192,47118,128,0,47439:0:0:0:0:
192,192,47332,128,0,47439:0:0:0:0:
320,192,47332,128,0,47653:0:0:0:0:
448,192,47546,128,0,47653:0:0:0:0:
192,192,47653,128,0,47868:0:0:0:0:
448,192,47760,1,0,0:0:0:0:
64,192,47760,128,0,47868:0:0:0:0:
320,192,47868,1,0,0:0:0:0:
192,192,47975,128,0,48082:0:0:0:0:
192,192,48189,128,0,48510:0:0:0:0:
320,192,48189,128,0,48296:0:0:0:0:
320,192,48403,128,0,48618:0:0:0:0:
448,192,48618,128,0,48832:0:0:0:0:
64,192,48618,128,0,48939:0:0:0:0:
320,192,48725,128,0,48832:0:0:0:0:
320,192,48939,1,0,0:0:0:0:
192,192,49046,128,0,49153:0:0:0:0:
448,192,49046,128,0,49368:0:0:0:0:
64,192,49260,1,0,0:0:0:0:
64,192,49368,1,0,0:0:0:0:
448,192,49475,128,0,49582:0:0:0:0:
192,192,49475,128,0,49689:0:0:0:0:
320,192,49582,128,0,49689:0:0:0:0:
64,192,49689,128,0,49903:0:0:0:0:
192,192,49796,128,0,49903:0:0:0:0:
320,192,49903,128,0,50010:0:0:0:0:
448,192,49903,128,0,50225:0:0:0:0:
64,192,50118,128,0,50439:0:0:0:0:
320,192,50118,128,0,50225:0:0:0:0:
192,192,50332,128,0,50439:0:0:0:0:
320,192,50332,128,0,50439:0:0:0:0:
192,192,50546,128,0,50760:0:0:0:0:
320,192,50653,128,0,51082:0:0:0:0:
64,192,50760,1,0,0:0:0:0:
448,192,50760,1,0,0:0:0:0:
192,192,50868,1,0,0:0:0:0:
448,192,50975,128,0,51082:0:0:0:0:
64,192,50975,128,0,51189:0:0:0:0:
320,192,51189,1,0,0:0:0:0:
448,192,51189,1,0,0:0:0:0:
192,192,51296,1,0,0:0:0:0:
64,192,51296,1,0,0:0:0:0:
320,192,51403,128,0,51725:0:0:0:0:
448,192,51403,128,0,51510:0:0:0:0:
192,192,51618,128,0,51939:0:0:0:0:
64,192,51618,128,0,51725:0:0:0:0:
448,192,51832,1,0,0:0:0:0:
320,192,51832,128,0,52153:0:0:0:0:
64,192,51939,1,0,0:0:0:0:
192,192,52046,128,0,52153:0:0:0:0:
448,192,52046,128,0,52582:0:0:0:0:
320,192,52260,128,0,52368:0:0:0:0:
192,192,52475,128,0,52582:0:0:0:0:
320,192,52475,128,0,53010:0:0:0:0:
64,192,52582,128,0,52796:0:0:0:0:
192,192,52689,128,0,52796:0:0:0:0:
192,192,52903,128,0,53118:0:0:0:0:
448,192,52903,128,0,53225:0:0:0:0:
64,192,53010,128,0,53118:0:0:0:0:
320,192,53118,1,0,0:0:0:0:
64,192,53225,1,0,0:0:0:0:
320,192,53332,1,0,0:0:0:0:
448,192,53332,1,0,0:0:0:0:
192,192,53439,1,0,0:0:0:0:
320,192,53546,128,0,53868:0:0:0:0:
448,192,53760,128,0,53868:0:0:0:0:
64,192,53760,128,0,53868:0:0:0:0:
64,192,53975,128,0,54189:0:0:0:0:
192,192,54082,128,0,54189:0:0:0:0:
320,192,54189,128,0,54296:0:0:0:0:
448,192,54189,128,0,54403:0:0:0:0:
192,192,54403,128,0,54618:0:0:0:0:
320,192,54510,128,0,54618:0:0:0:0:
448,192,54618,1,0,0:0:0:0:
64,192,54618,1,0,0:0:0:0:
192,192,54725,1,0,0:0:0:0:
320,192,54725,1,0,0:0:0:0:
64,192,54832,128,0,55153:0:0:0:0:
448,192,55046,128,0,55153:0:0:0:0:
320,192,55046,128,0,55368:0:0:0:0:
192,192,55260,128,0,55582:0:0:0:0:
64,192,55475,128,0,55582:0:0:0:0:
448,192,55475,128,0,55582:0:0:0:0:
320,192,55475,128,0,56010:0:0:0:0:
192,192,55689,128,0,55796:0:0:0:0:
448,192,55903,128,0,56225:0:0:0:0:
192,192,55903,128,0,56118:0:0:0:0:
64,192,56010,128,0,56118:0:0:0:0:
320,192,56118,128,0,56225:0:0:0:0:
448,192,56332,128,0,56439:0:0:0:0:
192,192,56332,128,0,56546:0:0:0:0:
64,192,56439,128,0,56760:0:0:0:0:
448,192,56546,1,0,0:0:0:0:
320,192,56653,1,0,0:0:0:0:
192,192,56760,128,0,56868:0:0:0:0:
448,192,56760,128,0,57082:0:0:0:0:
320,192,56975,128,0,57082:0:0:0:0:
64,192,57082,128,0,57296:0:0:0:0:
192,192,57189,128,0,57296:0:0:0:0:
448,192,57189,128,0,57725:0:0:0:0:
320,192,57189,128,0,57725:0:0:0:0:
64,192,57510,128,0,57618:0:0:0:0:
192,192,57510,128,0,57618:0:0:0:0:
64,192,57832,128,0,58046:0:0:0:0:
192,192,57832,128,0,58046:0:0:0:0:
320,192,58260,128,0,58368:0:0:0:0:
192,192,58260,128,0,58582:0:0:0:0:
320,192,58475,128,0,58689:0:0:0:0:
448,192,58475,128,0,58689:0:0:0:0:
64,192,58475,128,0,58689:0:0:0:0:
192,192,58689,128,0,59010:0:0:0:0:
448,192,58903,128,0,59010:0:0:0:0:
320,192,58903,128,0,59118:0:0:0:0:
192,192,59225,128,0,59653:0:0:0:0:
448,192,59332,1,0,0:0:0:0:
64,192,59332,1,0,0:0:0:0:
320,192,59546,128,0,59868:0:0:0:0:
192,192,59760,128,0,59868:0:0:0:0:
64,192,59760,128,0,59868:0:0:0:0:
448,192,59868,1,0,0:0:0:0:
320,192,60082,128,0,60296:0:0:0:0:
64,192,60189,1,0,0:0:0:0:
448,192,60189,128,0,60296:0:0:0:0:
192,192,60403,128,0,60618:0:0:0:0:
320,192,60510,128,0,60618:0:0:0:0:
448,192,60618,128,0,60725:0:0:0:0:
64,192,60618,128,0,60939:0:0:0:0:
448,192,60832,1,0,0:0:0:0:
320,192,60939,128,0,61153:0:0:0:0:
64,192,61046,1,0,0:0:0:0:
448,192,61046,128,0,61260:0:0:0:0:
192,192,61153,1,0,0:0:0:0:
64,192,61260,128,0,61368:0:0:0:0:
320,192,61260,128,0,61582:0:0:0:0:
192,192,61475,128,0,61582:0:0:0:0:
64,192,61475,128,0,61582:0:0:0:0:
448,192,61582,1,0,0:0:0:0:
192,192,61903,128,0,62010:0:0:0:0:
320,192,61903,128,0,62225:0:0:0:0:
192,192,62118,128,0,62439:0:0:0:0:
448,192,62118,128,0,62225:0:0:0:0:
320,192,62332,128,0,62439:0:0:0:0:
448,192,62332,128,0,62439:0:0:0:0:
64,192,62332,128,0,62546:0:0:0:0:
320,192,62546,128,0,62760:0:0:0:0:
64,192,62653,128,0,62868:0:0:0:0:
192,192,62760,1,0,0:0:0:0:
448,192,62760,1,0,0:0:0:0:
320,192,62975,128,0,63296:0:0:0:0:
448,192,63189,128,0,63296:0:0:0:0:
192,192,63189,128,0,63403:0:0:0:0:
192,192,63510,128,0,63618:0:0:0:0:
64,192,63510,128,0,63725:0:0:0:0:
320,192,63618,1,0,0:0:0:0:
448,192,63618,1,0,0:0:0:0:
64,192,63832,128,0,63939:0:0:0:0:
320,192,63832,128,0,64153:0:0:0:0:
192,192,64046,128,0,64153:0:0:0:0:
448,192,64046,128,0,64260:0:0:0:0:
64,192,64153,1,0,0:0:0:0:
320,192,64260,128,0,64368:0:0:0:0:
192,192,64260,128,0,64582:0:0:0:0:
448,192,64475,128,0,64796:0:0:0:0:
64,192,64475,128,0,64582:0:0:0:0:
320,192,64582,1,0,0:0:0:0:
192,192,64689,128,0,64796:0:0:0:0:
64,192,64689,128,0,65010:0:0:0:0:
320,192,64903,128,0,65225:0:0:0:0:
448,192,64903,128,0,65010:0:0:0:0:
192,192,65118,128,0,65225:0:0:0:0:
64,192,65118,128,0,65225:0:0:0:0:
448,192,65118,128,0,65225:0:0:0:0:
64,192,65332,128,0,65439:0:0:0:0:
448,192,65332,128,0,65653:0:0:0:0:
320,192,65439,128,0,65546:0:0:0:0:
64,192,65546,128,0,65653:0:0:0:0:
192,192,65546,128,0,65760:0:0:0:0:
320,192,65653,1,0,0:0:0:0:
64,192,65760,1,0,0:0:0:0:
448,192,65760,128,0,65868:0:0:0:0:
320,192,66618,128,0,66725:0:0:0:0:
192,192,67475,128,0,67582:0:0:0:0:
64,192,68118,128,0,68225:0:0:0:0:
192,192,68546,128,0,68653:0:0:0:0:
320,192,68760,128,0,68868:0:0:0:0:
192,192,68760,128,0,69082:0:0:0:0:
320,192,68975,128,0,69296:0:0:0:0:
192,192,69189,128,0,69296:0:0:0:0:
448,192,69189,128,0,69296:0:0:0:0:
64,192,69189,128,0,69403:0:0:0:0:
448,192,69403,128,0,69618:0:0:0:0:
64,192,69510,128,0,69725:0:0:0:0:
192,192,69510,128,0,69618:0:0:0:0:
320,192,69510,128,0,69618:0:0:0:0:
320,192,69725,128,0,69939:0:0:0:0:
448,192,69832,128,0,69939:0:0:0:0:
192,192,69832,128,0,70153:0:0:0:0:
64,192,70046,128,0,70153:0:0:0:0:
320,192,70046,128,0,70260:0:0:0:0:
192,192,70260,1,0,0:0:0:0:
448,192,70260,1,0,0:0:0:0:
320,192,70368,128,0,70475:0:0:0:0:
64,192,70368,128,0,70582:0:0:0:0:
320,192,70582,1,0,0:0:0:0:
448,192,70582,1,0,0:0:0:0:
192,192,70689,128,0,70796:0:0:0:0:
64,192,70689,1,0,0:0:0:0:
320,192,70796,128,0,71010:0:0:0:0:
64,192,70903,128,0,71010:0:0:0:0:
192,192,70903,128,0,71010:0:0:0:0:
448,192,70903,128,0,71010:0:0:0:0:
64,192,71225,128,0,71332:0:0:0:0:
192,192,71225,128,0,71332:0:0:0:0:
448,192,71225,128,0,71332:0:0:0:0:
64,192,71546,128,0,71760:0:0:0:0:
192,192,71546,128,0,71760:0:0:0:0:
320,192,71546,128,0,71760:0:0:0:0:
448,192,71546,128,0,71760:0:0:0:0:
320,192,72189,1,0,0:0:0:0:
64,192,72189,1,0,0:0:0:0:
448,192,72260,1,0,0:0:0:0:
192,192,72332,1,0,0:0:0:0:
64,192,72403,1,0,0:0:0:0:
448,192,72475,1,0,0:0:0:0:
320,192,72546,1,0,0:0:0:0:
64,192,72618,128,0,72725:0:0:0:0:
448,192,72618,128,0,72939:0:0:0:0:
192,192,72618,128,0,72832:0:0:0:0:
320,192,72725,128,0,72832:0:0:0:0:
64,192,72832,128,0,72939:0:0:0:0:
192,192,72939,1,0,0:0:0:0:
320,192,72939,128,0,73153:0:0:0:0:
448,192,73046,128,0,73153:0:0:0:0:
64,192,73046,1,0,0:0:0:0:
192,192,73260,128,0,73368:0:0:0:0:
448,192,73260,128,0,73475:0:0:0:0:
64,192,73368,128,0,73582:0:0:0:0:
320,192,73475,128,0,73689:0:0:0:0:
192,192,73475,128,0,73796:0:0:0:0:
448,192,73582,128,0,73689:0:0:0:0:
64,192,73689,128,0,73796:0:0:0:0:
448,192,73796,1,0,0:0:0:0:
320,192,73796,1,0,0:0:0:0:
64,192,73903,128,0,74225:0:0:0:0:
192,192,73903,128,0,74010:0:0:0:0:
320,192,74010,128,0,74225:0:0:0:0:
448,192,74118,128,0,74225:0:0:0:0:
192,192,74118,128,0,74225:0:0:0:0:
64,192,74332,128,0,74546:0:0:0:0:
448,192,74332,128,0,74653:0:0:0:0:
192,192,74439,128,0,74546:0:0:0:0:
320,192,74546,128,0,74653:0:0:0:0:
192,192,74653,1,0,0:0:0:0:
64,192,74653,1,0,0:0:0:0:
448,192,74760,128,0,74868:0:0:0:0:
320,192,74760,128,0,75082:0:0:0:0:
192,192,74868,128,0,74975:0:0:0:0:
64,192,74975,128,0,75189:0:0:0:0:
448,192,74975,128,0,75082:0:0:0:0:
320,192,75189,128,0,75510:0:0:0:0:
192,192,75189,128,0,75403:0:0:0:0:
448,192,75296,128,0,75403:0:0:0:0:
64,192,75403,128,0,75510:0:0:0:0:
192,192,75510,1,0,0:0:0:0:
448,192,75510,1,0,0:0:0:0:
320,192,75618,128,0,75725:0:0:0:0:
64,192,75618,128,0,75832:0:0:0:0:
448,192,75832,128,0,75939:0:0:0:0:
192,192,75832,128,0,76153:0:0:0:0:
64,192,75939,1,0,0:0:0:0:
320,192,76046,128,0,76153:0:0:0:0:
448,192,76046,128,0,76260:0:0:0:0:
64,192,76153,128,0,76368:0:0:0:0:
320,192,76368,1,0,0:0:0:0:
448,192,76368,1,0,0:0:0:0:
64,192,76475,128,0,76582:0:0:0:0:
192,192,76475,128,0,76796:0:0:0:0:
320,192,76689,128,0,77010:0:0:0:0:
448,192,76689,128,0,76796:0:0:0:0:
448,192,76903,128,0,77225:0:0:0:0:
192,192,76903,128,0,77118:0:0:0:0:
64,192,77010,128,0,77118:0:0:0:0:
320,192,77118,128,0,77225:0:0:0:0:
64,192,77225,1,0,0:0:0:0:
192,192,77225,1,0,0:0:0:0:
448,192,77332,128,0,77439:0:0:0:0:
320,192,77332,128,0,77546:0:0:0:0:
192,192,77439,128,0,77653:0:0:0:0:
448,192,77546,128,0,77653:0:0:0:0:
64,192,77546,128,0,77868:0:0:0:0:
192,192,77760,128,0,77868:0:0:0:0:
320,192,77760,128,0,77868:0:0:0:0:
448,192,77760,128,0,78082:0:0:0:0:
64,192,77975,1,0,0:0:0:0:
192,192,77975,1,0,0:0:0:0:
320,192,78082,1,0,0:0:0:0:
192,192,78189,128,0,78510:0:0:0:0:
448,192,78189,128,0,78296:0:0:0:0:
320,192,78403,128,0,78510:0:0:0:0:
64,192,78403,128,0,78510:0:0:0:0:
448,192,78510,1,0,0:0:0:0:
192,192,78618,128,0,78725:0:0:0:0:
320,192,78618,128,0,78939:0:0:0:0:
64,192,78618,128,0,78725:0:0:0:0:
448,192,78832,128,0,78939:0:0:0:0:
64,192,78832,128,0,79153:0:0:0:0:
192,192,78939,1,0,0:0:0:0:
320,192,79046,128,0,79153:0:0:0:0:
448,192,79046,1,0,0:0:0:0:
64,192,79260,1,0,0:0:0:0:
448,192,79260,1,0,0:0:0:0:
192,192,79368,1,0,0:0:0:0:
448,192,79475,128,0,79582:0:0:0:0:
64,192,79475,128,0,79582:0:0:0:0:
320,192,79475,128,0,79796:0:0:0:0:
192,192,79582,128,0,79796:0:0:0:0:
64,192,79689,128,0,79903:0:0:0:0:
448,192,79796,1,0,0:0:0:0:
192,192,79903,128,0,80010:0:0:0:0:
320,192,79903,128,0,80225:0:0:0:0:
448,192,80118,128,0,80225:0:0:0:0:
192,192,80118,128,0,80439:0:0:0:0:
64,192,80225,128,0,80332:0:0:0:0:
320,192,80332,128,0,80439:0:0:0:0:
448,192,80332,128,0,80653:0:0:0:0:
64,192,80439,128,0,80546:0:0:0:0:
320,192,80546,128,0,80653:0:0:0:0:
192,192,80653,1,0,0:0:0:0:
64,192,80653,1,0,0:0:0:0:
448,192,80760,128,0,80868:0:0:0:0:
320,192,80760,128,0,81082:0:0:0:0:
192,192,80868,128,0,80975:0:0:0:0:
64,192,80975,128,0,81082:0:0:0:0:
448,192,80975,1,0,0:0:0:0:
64,192,81189,128,0,81510:0:0:0:0:
320,192,81189,128,0,81296:0:0:0:0:
448,192,81296,128,0,81510:0:0:0:0:
320,192,81403,128,0,81510:0:0:0:0:
192,192,81510,1,0,0:0:0:0:
448,192,81618,128,0,81725:0:0:0:0:
320,192,81618,128,0,81832:0:0:0:0:
64,192,81725,128,0,81939:0:0:0:0:
192,192,81832,128,0,81939:0:0:0:0:
448,192,81832,128,0,82153:0:0:0:0:
320,192,82046,128,0,82153:0:0:0:0:
192,192,82046,128,0,82260:0:0:0:0:
64,192,82153,128,0,82368:0:0:0:0:
448,192,82260,128,0,82475:0:0:0:0:
320,192,82368,1,0,0:0:0:0:
64,192,82475,128,0,82582:0:0:0:0:
192,192,82475,128,0,82796:0:0:0:0:
320,192,82689,128,0,82796:0:0:0:0:
64,192,82689,128,0,83010:0:0:0:0:
448,192,82903,128,0,83225:0:0:0:0:
192,192,82903,128,0,83118:0:0:0:0:
320,192,83010,128,0,83118:0:0:0:0:
64,192,83118,128,0,83225:0:0:0:0:
320,192,83225,1,0,0:0:0:0:
192,192,83225,1,0,0:0:0:0:
448,192,83332,128,0,83439:0:0:0:0:
64,192,83332,128,0,83546:0:0:0:0:
320,192,83439,128,0,83653:0:0:0:0:
448,192,83546,128,0,83868:0:0:0:0:
192,192,83546,128,0,83653:0:0:0:0:
320,192,83760,128,0,83868:0:0:0:0:
64,192,83760,128,0,83975:0:0:0:0:
192,192,83868,128,0,84082:0:0:0:0:
320,192,83975,128,0,84082:0:0:0:0:
448,192,84082,128,0,84296:0:0:0:0:
64,192,84082,1,0,0:0:0:0:
192,192,84189,128,0,84296:0:0:0:0:
320,192,84189,128,0,84510:0:0:0:0:
448,192,84403,128,0,84510:0:0:0:0:
192,192,84403,128,0,84725:0:0:0:0:
64,192,84618,128,0,84939:0:0:0:0:
320,192,84618,128,0,84832:0:0:0:0:
448,192,84618,128,0,84832:0:0:0:0:
192,192,84832,128,0,84939:0:0:0:0:
448,192,84939,1,0,0:0:0:0:
320,192,84939,1,0,0:0:0:0:
192,192,85046,1,0,0:0:0:0:
64,192,85046,128,0,85153:0:0:0:0:
448,192,85153,1,0,0:0:0:0:
192,192,85260,128,0,85368:0:0:0:0:
320,192,85260,128,0,85475:0:0:0:0:
448,192,85368,128,0,85475:0:0:0:0:
192,192,85475,128,0,85582:0:0:0:0:
64,192,85475,128,0,85689:0:0:0:0:
448,192,85689,128,0,85796:0:0:0:0:
320,192,85903,128,0,86010:0:0:0:0:
192,192,86118,128,0,86225:0:0:0:0:
448,192,86332,128,0,86546:0:0:0:0:
320,192,86332,128,0,86546:0:0:0:0:
64,192,86332,128,0,86439:0:0:0:0:
192,192,86439,128,0,86546:0:0:0:0:
64,192,86546,1,0,0:0:0:0:
320,192,86653,128,0,86868:0:0:0:0:
448,192,86653,128,0,86760:0:0:0:0:
192,192,86760,1,0,0:0:0:0:
448,192,86868,128,0,86975:0:0:0:0:
64,192,86975,128,0,87082:0:0:0:0:
320,192,86975,1,0,0:0:0:0:
192,192,87082,1,0,0:0:0:0:
320,192,87189,128,0,87296:0:0:0:0:
64,192,87189,128,0,87403:0:0:0:0:
192,192,87403,128,0,87510:0:0:0:0:
448,192,87510,1,0,0:0:0:0:
64,192,87510,1,0,0:0:0:0:
192,192,87618,128,0,87832:0:0:0:0:
320,192,87618,128,0,87725:0:0:0:0:
448,192,87832,1,0,0:0:0:0:
64,192,87832,1,0,0:0:0:0:
320,192,87939,1,0,0:0:0:0:
448,192,88046,128,0,88153:0:0:0:0:
192,192,88046,128,0,88260:0:0:0:0:
64,192,88153,128,0,88260:0:0:0:0:
320,192,88260,1,0,0:0:0:0:
192,192,88368,1,0,0:0:0:0:
64,192,88368,128,0,88582:0:0:0:0:
448,192,88475,1,0,0:0:0:0:
192,192,88582,1,0,0:0:0:0:
64,192,88689,1,0,0:0:0:0:
320,192,88689,128,0,88796:0:0:0:0:
448,192,88796,128,0,88903:0:0:0:0:
64,192,88903,128,0,89010:0:0:0:0:
192,192,88903,128,0,89118:0:0:0:0:
448,192,89010,128,0,89118:0:0:0:0:
192,192,89225,128,0,89332:0:0:0:0:
320,192,89225,1,0,0:0:0:0:
448,192,89332,1,0,0:0:0:0:
64,192,89332,1,0,0:0:0:0:
320,192,89439,128,0,89546:0:0:0:0:
64,192,89546,128,0,89760:0:0:0:0:
192,192,89546,1,0,0:0:0:0:
320,192,89760,128,0,89975:0:0:0:0:
448,192,89760,128,0,89975:0:0:0:0:
192,192,89868,128,0,89975:0:0:0:0:
64,192,89975,1,0,0:0:0:0:
320,192,90082,128,0,90296:0:0:0:0:
448,192,90082,128,0,90189:0:0:0:0:
192,192,90189,1,0,0:0:0:0:
448,192,90296,128,0,90403:0:0:0:0:
64,192,90403,128,0,90510:0:0:0:0:
320,192,90403,1,0,0:0:0:0:
192,192,90510,1,0,0:0:0:0:
64,192,90618,128,0,90832:0:0:0:0:
320,192,90618,128,0,90725:0:0:0:0:
192,192,90832,128,0,90939:0:0:0:0:
448,192,90939,1,0,0:0:0:0:
64,192,90939,1,0,0:0:0:0:
320,192,91046,128,0,91153:0:0:0:0:
192,192,91046,128,0,91260:0:0:0:0:
448,192,91260,1,0,0:0:0:0:
64,192,91260,1,0,0:0:0:0:
320,192,91368,1,0,0:0:0:0:
448,192,91475,128,0,91582:0:0:0:0:
192,192,91475,128,0,91689:0:0:0:0:
64,192,91582,128,0,91689:0:0:0:0:
320,192,91689,1,0,0:0:0:0:
192,192,91796,1,0,0:0:0:0:
64,192,91796,128,0,92010:0:0:0:0:
448,192,91903,1,0,0:0:0:0:
192,192,92010,1,0,0:0:0:0:
64,192,92118,1,0,0:0:0:0:
320,192,92118,128,0,92225:0:0:0:0:
448,192,92225,128,0,92332:0:0:0:0:
64,192,92332,128,0,92439:0:0:0:0:
192,192,92332,1,0,0:0:0:0:
448,192,92439,128,0,92546:0:0:0:0:
64,192,92546,1,0,0:0:0:0:
320,192,92546,1,0,0:0:0:0:
192,192,92653,128,0,92760:0:0:0:0:
448,192,92760,1,0,0:0:0:0:
64,192,92760,1,0,0:0:0:0:
320,192,92868,128,0,92975:0:0:0:0:
64,192,92975,128,0,93082:0:0:0:0:
448,192,92975,1,0,0:0:0:0:
192,192,93082,1,0,0:0:0:0:
320,192,93082,1,0,0:0:0:0:
64,192,93189,128,0,93403:0:0:0:0:
192,192,93189,128,0,93403:0:0:0:0:
448,192,93189,128,0,93296:0:0:0:0:
320,192,93296,128,0,93403:0:0:0:0:
448,192,93403,1,0,0:0:0:0:
192,192,93510,128,0,93725:0:0:0:0:
64,192,93510,128,0,93618:0:0:0:0:
320,192,93618,1,0,0:0:0:0:
64,192,93725,128,0,93832:0:0:0:0:
192,192,93832,1,0,0:0:0:0:
448,192,93832,128,0,93939:0:0:0:0:
320,192,93939,1,0,0:0:0:0:
192,192,94046,128,0,94153:0:0:0:0:
448,192,94046,128,0,94260:0:0:0:0:
320,192,94260,128,0,94368:0:0:0:0:
448,192,94368,1,0,0:0:0:0:
64,192,94368,1,0,0:0:0:0:
192,192,94475,128,0,94582:0:0:0:0:
320,192,94475,128,0,94689:0:0:0:0:
448,192,94689,1,0,0:0:0:0:
64,192,94689,1,0,0:0:0:0:
192,192,94796,1,0,0:0:0:0:
64,192,94903,128,0,95010:0:0:0:0:
320,192,94903,128,0,95118:0:0:0:0:
448,192,95010,128,0,95118:0:0:0:0:
192,192,95118,1,0,0:0:0:0:
320,192,95225,1,0,0:0:0:0:
448,192,95225,128,0,95439:0:0:0:0:
64,192,95332,1,0,0:0:0:0:
320,192,95439,1,0,0:0:0:0:
192,192,95546,128,0,95653:0:0:0:0:
448,192,95546,1,0,0:0:0:0:
64,192,95653,128,0,95760:0:0:0:0:
448,192,95760,128,0,95868:0:0:0:0:
320,192,95760,128,0,95975:0:0:0:0:
64,192,95868,128,0,95975:0:0:0:0:
448,192,95975,1,0,0:0:0:0:
192,192,96082,1,0,0:0:0:0:
320,192,96082,128,0,96189:0:0:0:0:
64,192,96189,1,0,0:0:0:0:
192,192,96296,128,0,96403:0:0:0:0:
320,192,96403,1,0,0:0:0:0:
448,192,96403,128,0,96618:0:0:0:0:
192,192,96618,128,0,96832:0:0:0:0:
64,192,96618,128,0,96832:0:0:0:0:
320,192,96725,128,0,96832:0:0:0:0:
448,192,96832,1,0,0:0:0:0:
64,192,96939,1,0,0:0:0:0:
192,192,96939,128,0,97153:0:0:0:0:
320,192,97046,1,0,0:0:0:0:
64,192,97153,128,0,97260:0:0:0:0:
192,192,97260,1,0,0:0:0:0:
448,192,97260,128,0,97368:0:0:0:0:
320,192,97368,1,0,0:0:0:0:
192,192,97475,128,0,97582:0:0:0:0:
448,192,97475,128,0,97689:0:0:0:0:
320,192,97689,128,0,97796:0:0:0:0:
448,192,97796,1,0,0:0:0:0:
64,192,97796,1,0,0:0:0:0:
320,192,97903,128,0,98118:0:0:0:0:
192,192,97903,1,0,0:0:0:0:
448,192,98010,1,0,0:0:0:0:
64,192,98118,1,0,0:0:0:0:
192,192,98118,1,0,0:0:0:0:
320,192,98225,1,0,0:0:0:0:
448,192,98225,1,0,0:0:0:0:
64,192,98332,128,0,98439:0:0:0:0:
192,192,98332,128,0,98546:0:0:0:0:
448,192,98332,128,0,98439:0:0:0:0:
320,192,98439,128,0,98546:0:0:0:0:
64,192,98546,1,0,0:0:0:0:
448,192,98653,1,0,0:0:0:0:
192,192,98760,1,0,0:0:0:0:
64,192,98760,128,0,98868:0:0:0:0:
320,192,98868,1,0,0:0:0:0:
192,192,98975,128,0,99296:0:0:0:0:
448,192,98975,128,0,99082:0:0:0:0:
64,192,99189,128,0,99296:0:0:0:0:
320,192,99189,128,0,99403:0:0:0:0:
448,192,99403,128,0,99510:0:0:0:0:
64,192,99403,128,0,99618:0:0:0:0:
192,192,99510,1,0,0:0:0:0:
320,192,99618,128,0,99725:0:0:0:0:
448,192,99618,128,0,99939:0:0:0:0:
64,192,99725,1,0,0:0:0:0:
192,192,99832,128,0,99939:0:0:0:0:
320,192,99832,128,0,100153:0:0:0:0:
448,192,100046,128,0,100153:0:0:0:0:
64,192,100046,128,0,100475:0:0:0:0:
448,192,100475,128,0,100796:0:0:0:0:
192,192,100689,128,0,101010:0:0:0:0:
320,192,100796,1,0,0:0:0:0:
64,192,100903,128,0,101225:0:0:0:0:
448,192,100903,1,0,0:0:0:0:
192,192,101225,1,0,0:0:0:0:
320,192,101546,1,0,0:0:0:0:
448,192,101546,128,0,101653:0:0:0:0:
64,192,101653,1,0,0:0:0:0:
192,192,101653,1,0,0:0:0:0:
64,192,101760,128,0,101868:0:0:0:0:
320,192,101760,128,0,101868:0:0:0:0:
448,192,101760,128,0,101868:0:0:0:0:
192,192,102082,128,0,102189:0:0:0:0:
320,192,102082,128,0,102189:0:0:0:0:
448,192,102082,128,0,102189:0:0:0:0:
64,192,102403,128,0,102618:0:0:0:0:
192,192,102403,128,0,102618:0:0:0:0:
320,192,102403,128,0,102618:0:0:0:0:
448,192,102403,128,0,102618:0:0:0:0:
64,192,102725,1,0,0:0:0:0:
448,192,102725,1,0,0:0:0:0:
320,192,102832,128,0,103153:0:0:0:0:
192,192,102832,1,0,0:0:0:0:
192,192,103046,128,0,103153:0:0:0:0:
448,192,103046,128,0,103260:0:0:0:0:
64,192,103153,1,0,0:0:0:0:
320,192,103260,128,0,103368:0:0:0:0:
192,192,103260,128,0,103582:0:0:0:0:
448,192,103368,1,0,0:0:0:0:
64,192,103475,128,0,103582:0:0:0:0:
320,192,103475,128,0,103796:0:0:0:0:
448,192,103903,128,0,104439:0:0:0:0:
64,192,104332,128,0,104653:0:0:0:0:
320,192,104332,1,0,0:0:0:0:
320,192,104546,128,0,104868:0:0:0:0:
192,192,104653,1,0,0:0:0:0:
64,192,104760,128,0,104868:0:0:0:0:
448,192,104760,128,0,104975:0:0:0:0:
192,192,104868,1,0,0:0:0:0:
64,192,104975,128,0,105189:0:0:0:0:
320,192,104975,128,0,105082:0:0:0:0:
448,192,105082,1,0,0:0:0:0:
320,192,105189,128,0,105403:0:0:0:0:
64,192,105403,128,0,105618:0:0:0:0:
192,192,105403,128,0,105618:0:0:0:0:
448,192,105403,128,0,105618:0:0:0:0:
320,192,105510,128,0,105618:0:0:0:0:
64,192,105725,128,0,105939:0:0:0:0:
320,192,105725,128,0,105939:0:0:0:0:
448,192,105725,128,0,105939:0:0:0:0:
192,192,105832,128,0,105939:0:0:0:0:
192,192,106046,128,0,106260:0:0:0:0:
64,192,106046,128,0,106260:0:0:0:0:
320,192,106046,128,0,106260:0:0:0:0:
448,192,106260,128,0,106368:0:0:0:0:
192,192,106368,1,0,0:0:0:0:
64,192,106368,1,0,0:0:0:0:
320,192,106475,128,0,106582:0:0:0:0:
448,192,106475,128,0,106796:0:0:0:0:
192,192,106689,128,0,106796:0:0:0:0:
320,192,106689,128,0,107010:0:0:0:0:
64,192,106796,1,0,0:0:0:0:
192,192,106903,128,0,107225:0:0:0:0:
448,192,106903,128,0,107010:0:0:0:0:
64,192,107010,128,0,107118:0:0:0:0:
320,192,107118,128,0,107225:0:0:0:0:
192,192,107332,128,0,107439:0:0:0:0:
320,192,107332,128,0,107653:0:0:0:0:
448,192,107439,128,0,107546:0:0:0:0:
192,192,107546,128,0,107760:0:0:0:0:
64,192,107653,1,0,0:0:0:0:
320,192,107760,128,0,107868:0:0:0:0:
448,192,107760,128,0,107975:0:0:0:0:
64,192,107868,1,0,0:0:0:0:
192,192,107975,1,0,0:0:0:0:
320,192,107975,1,0,0:0:0:0:
192,192,108189,1,0,0:0:0:0:
64,192,108189,1,0,0:0:0:0:
448,192,108403,128,0,108725:0:0:0:0:
320,192,108618,128,0,108725:0:0:0:0:
192,192,108618,128,0,108725:0:0:0:0:
64,192,108618,128,0,108939:0:0:0:0:
320,192,108832,128,0,109153:0:0:0:0:
448,192,109046,128,0,109153:0:0:0:0:
192,192,109046,128,0,109368:0:0:0:0:
320,192,109260,128,0,109368:0:0:0:0:
448,192,109368,128,0,109475:0:0:0:0:
192,192,109475,1,0,0:0:0:0:
64,192,109475,1,0,0:0:0:0:
320,192,109582,1,0,0:0:0:0:
448,192,109582,1,0,0:0:0:0:
192,192,109689,128,0,109796:0:0:0:0:
64,192,109689,128,0,110010:0:0:0:0:
320,192,109903,128,0,110010:0:0:0:0:
448,192,109903,128,0,110225:0:0:0:0:
320,192,110118,128,0,110439:0:0:0:0:
64,192,110332,128,0,110439:0:0:0:0:
192,192,110332,128,0,110653:0:0:0:0:
448,192,110439,128,0,110546:0:0:0:0:
320,192,110546,128,0,110868:0:0:0:0:
192,192,110760,128,0,110868:0:0:0:0:
64,192,110760,128,0,111082:0:0:0:0:
448,192,110975,128,0,111296:0:0:0:0:
64,192,111189,128,0,111296:0:0:0:0:
320,192,111189,128,0,111725:0:0:0:0:
192,192,111296,1,0,0:0:0:0:
64,192,111403,1,0,0:0:0:0:
448,192,111618,128,0,111725:0:0:0:0:
192,192,111618,128,0,111939:0:0:0:0:
64,192,111832,128,0,111939:0:0:0:0:
448,192,111939,128,0,112046:0:0:0:0:
320,192,112046,128,0,112153:0:0:0:0:
64,192,112046,128,0,112153:0:0:0:0:
192,192,112046,128,0,112475:0:0:0:0:
64,192,112368,128,0,112475:0:0:0:0:
448,192,112368,128,0,112475:0:0:0:0:
320,192,112368,128,0,112475:0:0:0:0:
192,192,112689,128,0,112903:0:0:0:0:
448,192,112689,128,0,112903:0:0:0:0:
64,192,112689,128,0,112903:0:0:0:0:
320,192,112689,128,0,112796:0:0:0:0:
320,192,112903,128,0,113332:0:0:0:0:
192,192,113118,1,0,0:0:0:0:
192,192,113225,1,0,0:0:0:0:
64,192,113332,1,0,0:0:0:0:
448,192,113332,1,0,0:0:0:0:
192,192,113439,1,0,0:0:0:0:
320,192,113546,1,0,0:0:0:0:
448,192,113546,1,0,0:0:0:0:
192,192,113653,1,0,0:0:0:0:
320,192,113760,128,0,113868:0:0:0:0:
64,192,113760,1,0,0:0:0:0:
448,192,113760,1,0,0:0:0:0:
192,192,113975,1,0,0:0:0:0:
64,192,113975,128,0,114082:0:0:0:0:
320,192,114082,1,0,0:0:0:0:
448,192,114082,1,0,0:0:0:0:
64,192,114189,1,0,0:0:0:0:
448,192,114189,128,0,114296:0:0:0:0:
320,192,114403,1,0,0:0:0:0:
192,192,114403,128,0,114510:0:0:0:0:
64,192,114618,128,0,114725:0:0:0:0:
320,192,114618,1,0,0:0:0:0:
320,192,114832,1,0,0:0:0:0:
448,192,114832,1,0,0:0:0:0:
192,192,114939,128,0,115046:0:0:0:0:
64,192,115046,1,0,0:0:0:0:
448,192,115046,128,0,115153:0:0:0:0:
192,192,115153,1,0,0:0:0:0:
64,192,115260,1,0,0:0:0:0:
320,192,115260,128,0,115368:0:0:0:0:
64,192,115475,128,0,115582:0:0:0:0:
448,192,115475,1,0,0:0:0:0:
320,192,115689,1,0,0:0:0:0:
448,192,115689,128,0,115796:0:0:0:0:
192,192,115796,128,0,115903:0:0:0:0:
64,192,115903,1,0,0:0:0:0:
320,192,115903,128,0,116010:0:0:0:0:
448,192,116010,1,0,0:0:0:0:
192,192,116118,1,0,0:0:0:0:
64,192,116118,128,0,116225:0:0:0:0:
64,192,116332,1,0,0:0:0:0:
448,192,116332,128,0,116439:0:0:0:0:
448,192,116546,1,0,0:0:0:0:
320,192,116546,128,0,116653:0:0:0:0:
192,192,116653,128,0,116760:0:0:0:0:
64,192,116760,128,0,116868:0:0:0:0:
448,192,116760,1,0,0:0:0:0:
320,192,116868,1,0,0:0:0:0:
64,192,116975,1,0,0:0:0:0:
192,192,116975,128,0,117082:0:0:0:0:
320,192,117082,1,0,0:0:0:0:
192,192,117189,1,0,0:0:0:0:
448,192,117189,128,0,117296:0:0:0:0:
448,192,117403,1,0,0:0:0:0:
64,192,117403,1,0,0:0:0:0:
320,192,117510,1,0,0:0:0:0:
448,192,117564,1,0,0:0:0:0:
64,192,117618,128,0,117725:0:0:0:0:
192,192,117618,1,0,0:0:0:0:
320,192,117725,1,0,0:0:0:0:
192,192,117832,1,0,0:0:0:0:
448,192,117832,128,0,117939:0:0:0:0:
64,192,117939,1,0,0:0:0:0:
448,192,118046,1,0,0:0:0:0:
320,192,118046,128,0,118153:0:0:0:0:
192,192,118260,1,0,0:0:0:0:
64,192,118260,1,0,0:0:0:0:
320,192,118368,1,0,0:0:0:0:
192,192,118421,1,0,0:0:0:0:
448,192,118475,1,0,0:0:0:0:
64,192,118475,128,0,118582:0:0:0:0:
320,192,118582,1,0,0:0:0:0:
192,192,118689,1,0,0:0:0:0:
448,192,118689,128,0,118796:0:0:0:0:
192,192,118903,128,0,119010:0:0:0:0:
448,192,118903,1,0,0:0:0:0:
64,192,118903,128,0,119010:0:0:0:0:
448,192,119118,1,0,0:0:0:0:
320,192,119118,1,0,0:0:0:0:
64,192,119225,1,0,0:0:0:0:
192,192,119225,1,0,0:0:0:0:
448,192,119332,1,0,0:0:0:0:
64,192,119332,128,0,119439:0:0:0:0:
320,192,119439,1,0,0:0:0:0:
192,192,119546,1,0,0:0:0:0:
64,192,119546,1,0,0:0:0:0:
320,192,119653,1,0,0:0:0:0:
448,192,119653,1,0,0:0:0:0:
192,192,119760,1,0,0:0:0:0:
320,192,119760,128,0,119868:0:0:0:0:
64,192,119975,1,0,0:0:0:0:
192,192,119975,1,0,0:0:0:0:
320,192,120082,1,0,0:0:0:0:
448,192,120082,1,0,0:0:0:0:
64,192,120189,1,0,0:0:0:0:
448,192,120189,128,0,120296:0:0:0:0:
192,192,120296,1,0,0:0:0:0:
448,192,120403,1,0,0:0:0:0:
320,192,120403,128,0,120510:0:0:0:0:
192,192,120510,1,0,0:0:0:0:
64,192,120510,1,0,0:0:0:0:
448,192,120618,1,0,0:0:0:0:
320,192,120618,128,0,120725:0:0:0:0:
64,192,120618,128,0,120725:0:0:0:0:
448,192,120832,128,0,120939:0:0:0:0:
192,192,121046,1,0,0:0:0:0:
64,192,121046,128,0,121153:0:0:0:0:
448,192,121153,128,0,121260:0:0:0:0:
192,192,121368,128,0,121475:0:0:0:0:
448,192,121475,1,0,0:0:0:0:
64,192,121475,1,0,0:0:0:0:
192,192,121582,1,0,0:0:0:0:
320,192,121582,128,0,121689:0:0:0:0:
448,192,121689,128,0,121796:0:0:0:0:
64,192,121903,128,0,122010:0:0:0:0:
448,192,121903,1,0,0:0:0:0:
320,192,122118,128,0,122225:0:0:0:0:
448,192,122332,1,0,0:0:0:0:
192,192,122332,128,0,122439:0:0:0:0:
448,192,122546,128,0,122653:0:0:0:0:
64,192,122760,1,0,0:0:0:0:
192,192,122760,128,0,122868:0:0:0:0:
320,192,122868,128,0,122975:0:0:0:0:
448,192,123082,128,0,123189:0:0:0:0:
192,192,123189,1,0,0:0:0:0:
64,192,123189,1,0,0:0:0:0:
320,192,123296,128,0,123510:0:0:0:0:
64,192,123403,128,0,123510:0:0:0:0:
448,192,123403,128,0,123510:0:0:0:0:
192,192,123403,128,0,123510:0:0:0:0:
64,192,123618,128,0,123725:0:0:0:0:
192,192,123618,128,0,123725:0:0:0:0:
448,192,123618,128,0,123725:0:0:0:0:
64,192,123832,1,0,0:0:0:0:
448,192,123832,1,0,0:0:0:0:
192,192,123939,1,0,0:0:0:0:
320,192,123939,1,0,0:0:0:0:
64,192,124046,128,0,124153:0:0:0:0:
320,192,124046,1,0,0:0:0:0:
448,192,124046,128,0,124153:0:0:0:0:
192,192,124260,1,0,0:0:0:0:
320,192,124332,1,0,0:0:0:0:
448,192,124403,1,0,0:0:0:0:
64,192,124475,1,0,0:0:0:0:
192,192,124475,128,0,124582:0:0:0:0:
320,192,124689,1,0,0:0:0:0:
448,192,124689,1,0,0:0:0:0:
64,192,124760,1,0,0:0:0:0:
320,192,124832,1,0,0:0:0:0:
192,192,124903,1,0,0:0:0:0:
448,192,124903,128,0,125010:0:0:0:0:
320,192,125118,1,0,0:0:0:0:
64,192,125118,1,0,0:0:0:0:
448,192,125189,1,0,0:0:0:0:
192,192,125260,1,0,0:0:0:0:
448,192,125332,1,0,0:0:0:0:
320,192,125332,128,0,125439:0:0:0:0:
192,192,125546,1,0,0:0:0:0:
64,192,125546,128,0,125653:0:0:0:0:
64,192,125760,128,0,125868:0:0:0:0:
192,192,125760,128,0,125868:0:0:0:0:
192,192,125975,128,0,126082:0:0:0:0:
320,192,125975,128,0,126082:0:0:0:0:
64,192,126082,1,0,0:0:0:0:
320,192,126189,128,0,126296:0:0:0:0:
448,192,126189,128,0,126296:0:0:0:0:
64,192,126403,128,0,126510:0:0:0:0:
192,192,126403,128,0,126510:0:0:0:0:
320,192,126510,1,0,0:0:0:0:
64,192,126618,128,0,126725:0:0:0:0:
448,192,126618,128,0,126725:0:0:0:0:
320,192,126832,1,0,0:0:0:0:
448,192,126832,1,0,0:0:0:0:
64,192,126939,1,0,0:0:0:0:
192,192,127046,1,0,0:0:0:0:
320,192,127046,1,0,0:0:0:0:
448,192,127100,1,0,0:0:0:0:
64,192,127153,1,0,0:0:0:0:
192,192,127207,1,0,0:0:0:0:
448,192,127260,1,0,0:0:0:0:
320,192,127260,1,0,0:0:0:0:
192,192,127368,1,0,0:0:0:0:
64,192,127368,1,0,0:0:0:0:
448,192,127475,128,0,127582:0:0:0:0:
320,192,127475,128,0,127903:0:0:0:0:
64,192,127475,128,0,127689:0:0:0:0:
448,192,127796,128,0,127903:0:0:0:0:
192,192,127796,128,0,128225:0:0:0:0:
448,192,128118,128,0,128439:0:0:0:0:
320,192,128118,128,0,128225:0:0:0:0:
192,192,128332,128,0,128439:0:0:0:0:
64,192,128332,128,0,128760:0:0:0:0:
320,192,128332,1,0,0:0:0:0:
320,192,128653,128,0,128868:0:0:0:0:
192,192,128760,128,0,128868:0:0:0:0:
448,192,128975,128,0,129082:0:0:0:0:
448,192,129189,128,0,129296:0:0:0:0:
64,192,129189,128,0,129403:0:0:0:0:
320,192,129403,128,0,129618:0:0:0:0:
192,192,129510,128,0,129618:0:0:0:0:
448,192,129510,128,0,129725:0:0:0:0:
64,192,129618,128,0,129725:0:0:0:0:
448,192,129832,128,0,129939:0:0:0:0:
320,192,129832,128,0,130153:0:0:0:0:
64,192,130046,128,0,130153:0:0:0:0:
448,192,130046,1,0,0:0:0:0:
192,192,130046,128,0,130260:0:0:0:0:
64,192,130475,128,0,130796:0:0:0:0:
320,192,130475,128,0,130582:0:0:0:0:
320,192,130689,128,0,130903:0:0:0:0:
448,192,130796,128,0,130903:0:0:0:0:
64,192,130903,128,0,131010:0:0:0:0:
192,192,130903,128,0,131225:0:0:0:0:
320,192,131118,128,0,131225:0:0:0:0:
448,192,131225,1,0,0:0:0:0:
64,192,131225,1,0,0:0:0:0:
192,192,131332,128,0,131439:0:0:0:0:
320,192,131546,1,0,0:0:0:0:
448,192,131546,128,0,131653:0:0:0:0:
64,192,131653,128,0,131975:0:0:0:0:
192,192,131760,1,0,0:0:0:0:
448,192,131760,128,0,132082:0:0:0:0:
320,192,131975,128,0,132296:0:0:0:0:
192,192,132082,128,0,132189:0:0:0:0:
448,192,132189,128,0,132510:0:0:0:0:
64,192,132296,1,0,0:0:0:0:
192,192,132403,128,0,132725:0:0:0:0:
320,192,132510,1,0,0:0:0:0:
448,192,132618,128,0,132725:0:0:0:0:
64,192,132618,128,0,133046:0:0:0:0:
320,192,132939,128,0,133046:0:0:0:0:
448,192,132939,128,0,133260:0:0:0:0:
192,192,133153,128,0,133368:0:0:0:0:
64,192,133260,128,0,133368:0:0:0:0:
320,192,133260,128,0,133582:0:0:0:0:
192,192,133475,1,0,0:0:0:0:
448,192,133475,128,0,133582:0:0:0:0:
64,192,133475,128,0,133903:0:0:0:0:
320,192,133903,1,0,0:0:0:0:
448,192,133903,128,0,134332:0:0:0:0:
192,192,134118,128,0,134225:0:0:0:0:
64,192,134332,128,0,134760:0:0:0:0:
320,192,134546,1,0,0:0:0:0:
448,192,134653,128,0,134868:0:0:0:0:
192,192,134975,128,0,135296:0:0:0:0:
320,192,135189,128,0,135618:0:0:0:0:
64,192,135403,128,0,135510:0:0:0:0:
448,192,135510,128,0,135725:0:0:0:0:
320,192,135832,128,0,136153:0:0:0:0:
192,192,136046,128,0,136153:0:0:0:0:
64,192,136046,128,0,136368:0:0:0:0:
448,192,136260,128,0,136368:0:0:0:0:
320,192,136368,128,0,136796:0:0:0:0:
64,192,136689,128,0,137010:0:0:0:0:
320,192,136903,128,0,137010:0:0:0:0:
448,192,136903,128,0,137118:0:0:0:0:
192,192,137010,128,0,137118:0:0:0:0:
320,192,137332,128,0,137439:0:0:0:0:
64,192,137332,128,0,137653:0:0:0:0:
448,192,137546,128,0,137760:0:0:0:0:
192,192,137760,128,0,137975:0:0:0:0:
64,192,137760,128,0,137868:0:0:0:0:
448,192,137975,128,0,138189:0:0:0:0:
320,192,138082,128,0,138189:0:0:0:0:
64,192,138082,128,0,138189:0:0:0:0:
192,192,138082,128,0,138296:0:0:0:0:
448,192,138296,128,0,138510:0:0:0:0:
64,192,138403,128,0,138725:0:0:0:0:
192,192,138403,128,0,138510:0:0:0:0:
320,192,138618,128,0,138832:0:0:0:0:
448,192,138618,128,0,138725:0:0:0:0:
448,192,138832,1,0,0:0:0:0:
192,192,138832,1,0,0:0:0:0:
320,192,138939,128,0,139046:0:0:0:0:
64,192,138939,128,0,139153:0:0:0:0:
448,192,139046,128,0,139153:0:0:0:0:
320,192,139153,1,0,0:0:0:0:
192,192,139153,1,0,0:0:0:0:
64,192,139260,128,0,139368:0:0:0:0:
448,192,139260,128,0,139368:0:0:0:0:
320,192,139368,128,0,139582:0:0:0:0:
64,192,139475,128,0,139582:0:0:0:0:
192,192,139475,128,0,139582:0:0:0:0:
448,192,139475,128,0,139903:0:0:0:0:
64,192,139796,128,0,139903:0:0:0:0:
192,192,139796,128,0,139903:0:0:0:0:
320,192,139796,128,0,139903:0:0:0:0:
192,192,140118,128,0,140332:0:0:0:0:
448,192,140118,128,0,140332:0:0:0:0:
320,192,140118,128,0,140225:0:0:0:0:
64,192,140118,128,0,140439:0:0:0:0:
320,192,140332,128,0,140653:0:0:0:0:
192,192,140546,128,0,140868:0:0:0:0:
64,192,140760,128,0,141082:0:0:0:0:
192,192,140975,128,0,141082:0:0:0:0:
320,192,141135,1,0,0:0:0:0:
64,192,141189,128,0,141296:0:0:0:0:
192,192,141189,128,0,141296:0:0:0:0:
448,192,141189,128,0,141510:0:0:0:0:
320,192,141403,128,0,141510:0:0:0:0:
192,192,141510,1,0,0:0:0:0:
64,192,141618,128,0,141832:0:0:0:0:
448,192,141618,128,0,141725:0:0:0:0:
448,192,141832,128,0,142153:0:0:0:0:
192,192,142046,128,0,142368:0:0:0:0:
64,192,142046,128,0,142153:0:0:0:0:
320,192,142260,128,0,142368:0:0:0:0:
448,192,142368,1,0,0:0:0:0:
64,192,142475,128,0,142796:0:0:0:0:
192,192,142475,128,0,142582:0:0:0:0:
448,192,142582,128,0,142796:0:0:0:0:
320,192,142689,128,0,143010:0:0:0:0:
448,192,142903,128,0,143010:0:0:0:0:
192,192,142903,128,0,143225:0:0:0:0:
64,192,143118,128,0,143225:0:0:0:0:
448,192,143332,128,0,143439:0:0:0:0:
192,192,143332,128,0,143653:0:0:0:0:
448,192,143546,128,0,143653:0:0:0:0:
320,192,143760,128,0,143868:0:0:0:0:
448,192,143760,128,0,144082:0:0:0:0:
64,192,143868,128,0,144082:0:0:0:0:
320,192,143975,128,0,144189:0:0:0:0:
192,192,144082,128,0,144189:0:0:0:0:
448,192,144189,128,0,144296:0:0:0:0:
64,192,144189,128,0,144403:0:0:0:0:
448,192,144403,128,0,144618:0:0:0:0:
320,192,144510,128,0,144618:0:0:0:0:
192,192,144618,128,0,144832:0:0:0:0:
64,192,144618,128,0,144725:0:0:0:0:
448,192,144725,128,0,144832:0:0:0:0:
320,192,144939,1,0,0:0:0:0:
192,192,145046,128,0,145153:0:0:0:0:
64,192,145046,128,0,145368:0:0:0:0:
192,192,145260,128,0,145582:0:0:0:0:
448,192,145475,128,0,145796:0:0:0:0:
320,192,145475,128,0,145582:0:0:0:0:
64,192,145582,128,0,145689:0:0:0:0:
320,192,145689,1,0,0:0:0:0:
192,192,145796,1,0,0:0:0:0:
64,192,145903,128,0,146118:0:0:0:0:
448,192,145903,128,0,146010:0:0:0:0:
320,192,146010,128,0,146439:0:0:0:0:
192,192,146118,128,0,146225:0:0:0:0:
64,192,146332,128,0,146546:0:0:0:0:
192,192,146332,128,0,146546:0:0:0:0:
448,192,146332,128,0,146546:0:0:0:0:
448,192,147618,1,0,0:0:0:0:
192,192,147618,1,0,0:0:0:0:
64,192,147618,1,0,0:0:0:0:
320,192,147689,1,0,0:0:0:0:
192,192,147760,1,0,0:0:0:0:
64,192,147832,1,0,0:0:0:0:
448,192,147903,1,0,0:0:0:0:
320,192,147975,1,0,0:0:0:0:
64,192,148046,5,0,0:0:0:0:
192,192,148046,1,0,0:0:0:0:
448,192,148153,1,0,0:0:0:0:
320,192,148153,1,0,0:0:0:0:
192,192,148260,1,0,0:0:0:0:
64,192,148260,1,0,0:0:0:0:
320,192,148368,1,0,0:0:0:0:
448,192,148368,1,0,0:0:0:0:
192,192,148475,128,0,148689:0:0:0:0:
448,192,148475,128,0,148582:0:0:0:0:
64,192,148475,128,0,148796:0:0:0:0:
320,192,148689,128,0,148796:0:0:0:0:
448,192,148689,128,0,148903:0:0:0:0:
192,192,148796,1,0,0:0:0:0:
64,192,148903,128,0,149118:0:0:0:0:
320,192,148903,128,0,149010:0:0:0:0:
320,192,149118,128,0,149332:0:0:0:0:
448,192,149225,128,0,149332:0:0:0:0:
64,192,149225,1,0,0:0:0:0:
192,192,149332,128,0,149653:0:0:0:0:
64,192,149439,128,0,149546:0:0:0:0:
320,192,149546,128,0,149653:0:0:0:0:
448,192,149546,128,0,149760:0:0:0:0:
192,192,149760,128,0,150082:0:0:0:0:
320,192,149760,128,0,149868:0:0:0:0:
320,192,149975,128,0,150296:0:0:0:0:
64,192,150082,1,0,0:0:0:0:
448,192,150189,128,0,150403:0:0:0:0:
192,192,150189,128,0,150296:0:0:0:0:
64,192,150296,128,0,150510:0:0:0:0:
320,192,150403,128,0,150510:0:0:0:0:
192,192,150403,128,0,150725:0:0:0:0:
64,192,150618,128,0,150725:0:0:0:0:
448,192,150618,128,0,150832:0:0:0:0:
320,192,150725,128,0,150832:0:0:0:0:
192,192,150832,128,0,151153:0:0:0:0:
448,192,150939,128,0,151046:0:0:0:0:
320,192,151046,128,0,151153:0:0:0:0:
64,192,151046,1,0,0:0:0:0:
64,192,151260,128,0,151368:0:0:0:0:
192,192,151260,128,0,151582:0:0:0:0:
448,192,151475,128,0,151796:0:0:0:0:
320,192,151475,128,0,151582:0:0:0:0:
64,192,151582,128,0,151689:0:0:0:0:
320,192,151689,128,0,151903:0:0:0:0:
192,192,151796,128,0,151903:0:0:0:0:
64,192,151903,128,0,152010:0:0:0:0:
448,192,151903,128,0,152118:0:0:0:0:
192,192,152118,128,0,152225:0:0:0:0:
64,192,152118,128,0,152439:0:0:0:0:
192,192,152332,128,0,152653:0:0:0:0:
448,192,152332,128,0,152439:0:0:0:0:
320,192,152439,128,0,152546:0:0:0:0:
64,192,152546,128,0,152760:0:0:0:0:
320,192,152653,128,0,152760:0:0:0:0:
192,192,152760,128,0,152868:0:0:0:0:
448,192,152760,128,0,153082:0:0:0:0:
320,192,152868,128,0,153082:0:0:0:0:
64,192,152975,128,0,153082:0:0:0:0:
192,192,152975,128,0,153296:0:0:0:0:
64,192,153189,128,0,153403:0:0:0:0:
320,192,153189,128,0,153403:0:0:0:0:
448,192,153189,128,0,153403:0:0:0:0:
64,192,153510,128,0,153725:0:0:0:0:
320,192,153510,128,0,153725:0:0:0:0:
448,192,153510,128,0,153725:0:0:0:0:
192,192,154260,1,0,0:0:0:0:
320,192,154332,1,0,0:0:0:0:
448,192,154403,1,0,0:0:0:0:
64,192,154475,1,0,0:0:0:0:
192,192,154546,1,0,0:0:0:0:
448,192,154618,1,0,0:0:0:0:
320,192,154689,1,0,0:0:0:0:
192,192,154760,1,0,0:0:0:0:
64,192,154832,1,0,0:0:0:0:
320,192,154903,128,0,155118:0:0:0:0:
448,192,154903,128,0,155225:0:0:0:0:
192,192,154903,128,0,155010:0:0:0:0:
64,192,155118,128,0,155225:0:0:0:0:
320,192,155225,128,0,155439:0:0:0:0:
192,192,155332,128,0,155546:0:0:0:0:
448,192,155332,128,0,155439:0:0:0:0:
64,192,155439,128,0,155546:0:0:0:0:
320,192,155546,128,0,155653:0:0:0:0:
448,192,155546,128,0,155760:0:0:0:0:
192,192,155653,128,0,155868:0:0:0:0:
64,192,155760,128,0,156082:0:0:0:0:
320,192,155760,128,0,155975:0:0:0:0:
448,192,155975,128,0,156082:0:0:0:0:
192,192,156082,1,0,0:0:0:0:
320,192,156082,1,0,0:0:0:0:
64,192,156189,128,0,156296:0:0:0:0:
448,192,156189,128,0,156510:0:0:0:0:
320,192,156296,128,0,156510:0:0:0:0:
192,192,156403,128,0,156510:0:0:0:0:
64,192,156403,128,0,156510:0:0:0:0:
64,192,156618,128,0,156939:0:0:0:0:
192,192,156618,128,0,156832:0:0:0:0:
320,192,156832,128,0,156939:0:0:0:0:
192,192,156939,1,0,0:0:0:0:
448,192,156939,1,0,0:0:0:0:
320,192,157046,128,0,157153:0:0:0:0:
64,192,157046,128,0,157260:0:0:0:0:
320,192,157260,128,0,157582:0:0:0:0:
448,192,157260,1,0,0:0:0:0:
192,192,157260,128,0,157368:0:0:0:0:
64,192,157368,128,0,157475:0:0:0:0:
192,192,157475,128,0,157582:0:0:0:0:
448,192,157475,128,0,157796:0:0:0:0:
64,192,157582,1,0,0:0:0:0:
320,192,157689,128,0,157796:0:0:0:0:
192,192,157796,128,0,157903:0:0:0:0:
64,192,157796,128,0,158010:0:0:0:0:
320,192,157903,128,0,158225:0:0:0:0:
448,192,157903,128,0,158010:0:0:0:0:
192,192,158010,128,0,158118:0:0:0:0:
64,192,158118,128,0,158225:0:0:0:0:
448,192,158118,128,0,158439:0:0:0:0:
320,192,158332,128,0,158439:0:0:0:0:
192,192,158332,128,0,158653:0:0:0:0:
320,192,158546,1,0,0:0:0:0:
64,192,158653,1,0,0:0:0:0:
448,192,158653,1,0,0:0:0:0:
192,192,158760,128,0,158868:0:0:0:0:
320,192,158760,128,0,159082:0:0:0:0:
448,192,158868,128,0,158975:0:0:0:0:
192,192,158975,128,0,159082:0:0:0:0:
64,192,158975,128,0,159189:0:0:0:0:
448,192,159082,128,0,159296:0:0:0:0:
192,192,159189,128,0,159510:0:0:0:0:
320,192,159189,128,0,159296:0:0:0:0:
64,192,159296,128,0,159403:0:0:0:0:
448,192,159403,128,0,159510:0:0:0:0:
64,192,159510,1,0,0:0:0:0:
320,192,159510,1,0,0:0:0:0:
192,192,159618,128,0,159939:0:0:0:0:
448,192,159618,128,0,159725:0:0:0:0:
320,192,159725,128,0,159832:0:0:0:0:
448,192,159832,128,0,160153:0:0:0:0:
64,192,159832,128,0,159939:0:0:0:0:
64,192,160046,128,0,160368:0:0:0:0:
192,192,160046,128,0,160260:0:0:0:0:
320,192,160046,128,0,160153:0:0:0:0:
448,192,160260,128,0,160475:0:0:0:0:
320,192,160368,128,0,160475:0:0:0:0:
192,192,160475,128,0,160582:0:0:0:0:
64,192,160475,128,0,160689:0:0:0:0:
448,192,160582,1,0,0:0:0:0:
192,192,160689,128,0,161010:0:0:0:0:
320,192,160689,128,0,160796:0:0:0:0:
64,192,160796,128,0,160903:0:0:0:0:
448,192,160903,128,0,161010:0:0:0:0:
320,192,160903,128,0,161225:0:0:0:0:
448,192,161118,128,0,161225:0:0:0:0:
192,192,161118,128,0,161439:0:0:0:0:
64,192,161225,1,0,0:0:0:0:
320,192,161332,128,0,161439:0:0:0:0:
448,192,161332,1,0,0:0:0:0:
64,192,161546,1,0,0:0:0:0:
192,192,161546,128,0,161653:0:0:0:0:
448,192,161653,1,0,0:0:0:0:
320,192,161653,1,0,0:0:0:0:
64,192,161760,128,0,162082:0:0:0:0:
192,192,161760,128,0,161868:0:0:0:0:
448,192,161760,128,0,162082:0:0:0:0:
192,192,161975,1,0,0:0:0:0:
320,192,161975,1,0,0:0:0:0:
192,192,162189,128,0,162296:0:0:0:0:
320,192,162189,128,0,162510:0:0:0:0:
448,192,162189,128,0,162296:0:0:0:0:
192,192,162403,128,0,162725:0:0:0:0:
448,192,162403,128,0,162510:0:0:0:0:
64,192,162403,128,0,162510:0:0:0:0:
320,192,162618,128,0,162725:0:0:0:0:
64,192,162618,128,0,162939:0:0:0:0:
448,192,162618,128,0,162939:0:0:0:0:
320,192,162832,1,0,0:0:0:0:
192,192,162832,1,0,0:0:0:0:
320,192,163046,128,0,163153:0:0:0:0:
192,192,163046,128,0,163368:0:0:0:0:
448,192,163046,128,0,163153:0:0:0:0:
320,192,163260,128,0,163368:0:0:0:0:
64,192,163260,128,0,163368:0:0:0:0:
448,192,163368,1,0,0:0:0:0:
192,192,163475,128,0,163582:0:0:0:0:
64,192,163475,128,0,163796:0:0:0:0:
320,192,163475,128,0,163796:0:0:0:0:
448,192,163689,128,0,163796:0:0:0:0:
192,192,163689,1,0,0:0:0:0:
192,192,163903,128,0,164225:0:0:0:0:
64,192,163903,128,0,164010:0:0:0:0:
320,192,163903,128,0,164010:0:0:0:0:
448,192,164118,128,0,164225:0:0:0:0:
64,192,164118,128,0,164225:0:0:0:0:
320,192,164118,128,0,164439:0:0:0:0:
448,192,164332,128,0,164439:0:0:0:0:
64,192,164332,128,0,164546:0:0:0:0:
192,192,164332,128,0,164546:0:0:0:0:
448,192,164546,1,0,0:0:0:0:
320,192,164546,1,0,0:0:0:0:
64,192,164760,128,0,164868:0:0:0:0:
448,192,164760,128,0,164975:0:0:0:0:
192,192,164868,128,0,165082:0:0:0:0:
320,192,164975,128,0,165082:0:0:0:0:
64,192,164975,128,0,165082:0:0:0:0:
448,192,165082,128,0,165189:0:0:0:0:
64,192,165189,128,0,165510:0:0:0:0:
192,192,165189,128,0,165403:0:0:0:0:
320,192,165189,128,0,165403:0:0:0:0:
320,192,165510,1,0,0:0:0:0:
192,192,165510,1,0,0:0:0:0:
448,192,165618,1,0,0:0:0:0:
64,192,165618,1,0,0:0:0:0:
320,192,165832,128,0,166153:0:0:0:0:
192,192,165832,128,0,165939:0:0:0:0:
448,192,165939,128,0,166046:0:0:0:0:
64,192,166046,128,0,166368:0:0:0:0:
192,192,166046,128,0,166260:0:0:0:0:
448,192,166260,128,0,166368:0:0:0:0:
320,192,166368,1,0,0:0:0:0:
192,192,166368,1,0,0:0:0:0:
64,192,166475,128,0,166582:0:0:0:0:
448,192,166475,128,0,166796:0:0:0:0:
192,192,166689,128,0,166796:0:0:0:0:
320,192,166689,128,0,166796:0:0:0:0:
64,192,166796,1,0,0:0:0:0:
192,192,166903,128,0,167010:0:0:0:0:
320,192,166903,128,0,167117:0:0:0:0:
448,192,166903,128,0,167214:0:0:0:0:
64,192,167117,1,0,0:0:0:0:
192,192,167117,1,0,0:0:0:0:
320,192,167214,1,0,0:0:0:0:
448,192,167315,1,0,0:0:0:0:
64,192,167315,1,0,0:0:0:0:
192,192,167416,1,0,0:0:0:0:
320,192,167520,128,0,167624:0:0:0:0:
192,192,167624,1,0,0:0:0:0:
320,192,167728,128,0,167936:0:0:0:0:
448,192,167728,128,0,168041:0:0:0:0:
64,192,167728,128,0,167832:0:0:0:0:
64,192,167936,128,0,168041:0:0:0:0:
192,192,168041,128,0,168158:0:0:0:0:
448,192,168158,1,0,0:0:0:0:
320,192,168158,1,0,0:0:0:0:
64,192,168210,1,0,0:0:0:0:
192,192,168262,1,0,0:0:0:0:
320,192,168314,1,0,0:0:0:0:
448,192,168366,1,0,0:0:0:0:
64,192,168366,1,0,0:0:0:0:
320,192,168474,1,0,0:0:0:0:
192,192,168474,1,0,0:0:0:0:
448,192,168611,128,0,168731:0:0:0:0:
64,192,168731,128,0,168835:0:0:0:0:
320,192,168835,1,0,0:0:0:0:
192,192,168939,128,0,169046:0:0:0:0:
64,192,169046,1,0,0:0:0:0:
448,192,169046,1,0,0:0:0:0:
320,192,169046,1,0,0:0:0:0:
192,192,169153,128,0,169260:0:0:0:0:
448,192,169260,1,0,0:0:0:0:
320,192,169260,128,0,169474:0:0:0:0:
448,192,169474,1,0,0:0:0:0:
64,192,169474,128,0,169688:0:0:0:0:
320,192,169581,1,0,0:0:0:0:
192,192,169688,128,0,169796:0:0:0:0:
448,192,169796,1,0,0:0:0:0:
64,192,169796,1,0,0:0:0:0:
192,192,169903,1,0,0:0:0:0:
320,192,169903,128,0,170117:0:0:0:0:
64,192,170117,1,0,0:0:0:0:
448,192,170117,128,0,170224:0:0:0:0:
192,192,170224,128,0,170331:0:0:0:0:
320,192,170331,1,0,0:0:0:0:
64,192,170331,128,0,170438:0:0:0:0:
448,192,170438,128,0,170545:0:0:0:0:
448,192,170652,128,0,170866:0:0:0:0:
192,192,170652,1,0,0:0:0:0:
64,192,170759,1,0,0:0:0:0:
320,192,170759,1,0,0:0:0:0:
192,192,170866,128,0,170973:0:0:0:0:
448,192,170973,1,0,0:0:0:0:
320,192,170973,128,0,171081:0:0:0:0:
64,192,171081,128,0,171188:0:0:0:0:
320,192,171188,128,0,171295:0:0:0:0:
448,192,171188,128,0,171295:0:0:0:0:
192,192,171295,128,0,171402:0:0:0:0:
448,192,171402,1,0,0:0:0:0:
320,192,171509,128,0,171616:0:0:0:0:
64,192,171616,128,0,171831:0:0:0:0:
192,192,171616,128,0,171723:0:0:0:0:
448,192,171723,128,0,171938:0:0:0:0:
320,192,171831,128,0,171938:0:0:0:0:
192,192,171831,128,0,172045:0:0:0:0:
320,192,172045,128,0,172152:0:0:0:0:
448,192,172045,128,0,172366:0:0:0:0:
64,192,172152,128,0,172366:0:0:0:0:
192,192,172259,128,0,172366:0:0:0:0:
320,192,172366,1,0,0:0:0:0:
448,192,172473,128,0,172581:0:0:0:0:
64,192,172473,128,0,172688:0:0:0:0:
192,192,172581,128,0,172795:0:0:0:0:
320,192,172688,128,0,172795:0:0:0:0:
448,192,172688,128,0,173009:0:0:0:0:
192,192,172902,128,0,173009:0:0:0:0:
320,192,172902,128,0,173223:0:0:0:0:
64,192,173009,128,0,173223:0:0:0:0:
448,192,173116,128,0,173223:0:0:0:0:
192,192,173223,1,0,0:0:0:0:
320,192,173331,128,0,173438:0:0:0:0:
64,192,173331,128,0,173545:0:0:0:0:
448,192,173438,128,0,173652:0:0:0:0:
320,192,173545,128,0,173652:0:0:0:0:
192,192,173545,128,0,173866:0:0:0:0:
64,192,173759,128,0,173866:0:0:0:0:
448,192,173759,128,0,173973:0:0:0:0:
320,192,173866,128,0,174188:0:0:0:0:
192,192,173973,128,0,174081:0:0:0:0:
448,192,174081,128,0,174188:0:0:0:0:
64,192,174188,128,0,174295:0:0:0:0:
192,192,174188,128,0,174402:0:0:0:0:
320,192,174295,128,0,174402:0:0:0:0:
448,192,174402,128,0,174616:0:0:0:0:
64,192,174402,128,0,174509:0:0:0:0:
320,192,174509,128,0,174616:0:0:0:0:
64,192,174616,128,0,174831:0:0:0:0:
192,192,174616,128,0,174723:0:0:0:0:
320,192,174723,128,0,174938:0:0:0:0:
192,192,174831,128,0,175045:0:0:0:0:
448,192,174938,128,0,175152:0:0:0:0:
320,192,175045,128,0,175152:0:0:0:0:
64,192,175045,128,0,175259:0:0:0:0:
192,192,175152,128,0,175366:0:0:0:0:
448,192,175259,128,0,175366:0:0:0:0:
320,192,175259,128,0,175366:0:0:0:0:
64,192,175366,128,0,175473:0:0:0:0:
448,192,175473,128,0,175581:0:0:0:0:
320,192,175473,128,0,175688:0:0:0:0:
192,192,175581,128,0,175688:0:0:0:0:
64,192,175795,128,0,175902:0:0:0:0:
448,192,175795,1,0,0:0:0:0:
320,192,175902,1,0,0:0:0:0:
192,192,175902,1,0,0:0:0:0:
448,192,176009,128,0,176116:0:0:0:0:
64,192,176116,1,0,0:0:0:0:
192,192,176116,128,0,176331:0:0:0:0:
448,192,176331,1,0,0:0:0:0:
320,192,176331,128,0,176545:0:0:0:0:
64,192,176545,128,0,176652:0:0:0:0:
320,192,176652,1,0,0:0:0:0:
448,192,176652,1,0,0:0:0:0:
64,192,176759,1,0,0:0:0:0:
192,192,176759,128,0,176973:0:0:0:0:
64,192,176973,128,0,177081:0:0:0:0:
448,192,176973,1,0,0:0:0:0:
320,192,177081,128,0,177188:0:0:0:0:
448,192,177188,128,0,177295:0:0:0:0:
192,192,177188,1,0,0:0:0:0:
64,192,177295,128,0,177402:0:0:0:0:
192,192,177509,1,0,0:0:0:0:
64,192,177509,128,0,177723:0:0:0:0:
320,192,177616,1,0,0:0:0:0:
448,192,177616,1,0,0:0:0:0:
192,192,177723,128,0,177831:0:0:0:0:
64,192,177831,128,0,177938:0:0:0:0:
448,192,177831,128,0,178152:0:0:0:0:
64,192,178045,128,0,178366:0:0:0:0:
192,192,178045,128,0,178152:0:0:0:0:
320,192,178259,128,0,178366:0:0:0:0:
448,192,178366,1,0,0:0:0:0:
192,192,178366,128,0,178473:0:0:0:0:
64,192,178473,128,0,178581:0:0:0:0:
320,192,178473,128,0,178795:0:0:0:0:
192,192,178688,128,0,178795:0:0:0:0:
448,192,178688,128,0,179009:0:0:0:0:
320,192,178902,128,0,179009:0:0:0:0:
64,192,178902,128,0,179116:0:0:0:0:
192,192,179009,128,0,179223:0:0:0:0:
320,192,179116,128,0,179223:0:0:0:0:
64,192,179223,1,0,0:0:0:0:
448,192,179223,1,0,0:0:0:0:
192,192,179331,1,0,0:0:0:0:
320,192,179331,1,0,0:0:0:0:
64,192,179438,1,0,0:0:0:0:
320,192,179545,128,0,179652:0:0:0:0:
448,192,179545,128,0,179866:0:0:0:0:
64,192,179759,128,0,179866:0:0:0:0:
320,192,179759,128,0,179973:0:0:0:0:
192,192,179866,128,0,180081:0:0:0:0:
448,192,179973,128,0,180081:0:0:0:0:
320,192,180081,1,0,0:0:0:0:
64,192,180081,1,0,0:0:0:0:
192,192,180188,1,0,0:0:0:0:
448,192,180188,1,0,0:0:0:0:
192,192,180402,128,0,180723:0:0:0:0:
320,192,180402,128,0,180509:0:0:0:0:
448,192,180616,128,0,180831:0:0:0:0:
64,192,180616,128,0,180831:0:0:0:0:
320,192,180723,128,0,180938:0:0:0:0:
192,192,180831,128,0,180938:0:0:0:0:
448,192,180938,1,0,0:0:0:0:
64,192,180938,1,0,0:0:0:0:
320,192,181045,1,0,0:0:0:0:
192,192,181045,1,0,0:0:0:0:
64,192,181259,1,0,0:0:0:0:
192,192,181259,1,0,0:0:0:0:
448,192,181259,1,0,0:0:0:0:
320,192,181474,5,0,0:0:0:0:
448,192,181474,1,0,0:0:0:0:
192,192,181578,1,0,0:0:0:0:
64,192,181578,1,0,0:0:0:0:
320,192,181683,1,0,0:0:0:0:
448,192,181683,1,0,0:0:0:0:
192,192,181785,1,0,0:0:0:0:
64,192,181785,1,0,0:0:0:0:
320,192,181887,1,0,0:0:0:0:
448,192,181887,1,0,0:0:0:0:
320,192,181989,1,0,0:0:0:0:
448,192,181989,1,0,0:0:0:0:
192,192,182098,1,0,0:0:0:0:
64,192,182098,1,0,0:0:0:0:
192,192,182202,1,0,0:0:0:0:
64,192,182202,1,0,0:0:0:0:
64,192,184055,1,0,0:0:0:0:
448,192,184055,1,0,0:0:0:0:
320,192,184483,128,0,184590:0:0:0:0:
448,192,184483,128,0,184697:0:0:0:0:
320,192,184697,128,0,184912:0:0:0:0:
192,192,184805,128,0,184912:0:0:0:0:
64,192,184912,128,0,185233:0:0:0:0:
320,192,185126,128,0,185233:0:0:0:0:
192,192,185126,128,0,185340:0:0:0:0:
320,192,185340,128,0,185555:0:0:0:0:
64,192,185447,128,0,185555:0:0:0:0:
192,192,185555,128,0,185769:0:0:0:0:
448,192,185555,128,0,185662:0:0:0:0:
320,192,185662,128,0,185876:0:0:0:0:
448,192,185876,1,0,0:0:0:0:
64,192,185983,128,0,186197:0:0:0:0:
192,192,186090,128,0,186197:0:0:0:0:
448,192,186197,1,0,0:0:0:0:
320,192,186197,128,0,186305:0:0:0:0:
64,192,186412,128,0,186733:0:0:0:0:
320,192,186519,1,0,0:0:0:0:
448,192,186626,128,0,186947:0:0:0:0:
192,192,186733,1,0,0:0:0:0:
320,192,186840,128,0,187162:0:0:0:0:
192,192,187055,128,0,187162:0:0:0:0:
64,192,187055,128,0,187376:0:0:0:0:
448,192,187269,128,0,187483:0:0:0:0:
320,192,187376,128,0,187483:0:0:0:0:
192,192,187483,1,0,0:0:0:0:
64,192,187483,1,0,0:0:0:0:
192,192,187912,128,0,188019:0:0:0:0:
448,192,187912,128,0,188126:0:0:0:0:
192,192,188126,128,0,188340:0:0:0:0:
320,192,188233,128,0,188340:0:0:0:0:
64,192,188340,128,0,188662:0:0:0:0:
448,192,188340,128,0,188447:0:0:0:0:
448,192,188555,128,0,188876:0:0:0:0:
320,192,188555,128,0,188662:0:0:0:0:
192,192,188769,128,0,188876:0:0:0:0:
320,192,188769,128,0,188876:0:0:0:0:
192,192,188983,128,0,189197:0:0:0:0:
64,192,188983,128,0,189090:0:0:0:0:
320,192,189090,128,0,189305:0:0:0:0:
64,192,189305,1,0,0:0:0:0:
448,192,189412,128,0,189626:0:0:0:0:
320,192,189519,128,0,189626:0:0:0:0:
192,192,189626,1,0,0:0:0:0:
64,192,189626,1,0,0:0:0:0:
64,192,189840,128,0,190055:0:0:0:0:
192,192,189947,128,0,190162:0:0:0:0:
320,192,190055,128,0,190162:0:0:0:0:
448,192,190269,128,0,190376:0:0:0:0:
64,192,190483,128,0,190590:0:0:0:0:
320,192,190483,128,0,190697:0:0:0:0:
448,192,190590,128,0,190805:0:0:0:0:
192,192,190697,128,0,190912:0:0:0:0:
320,192,190805,128,0,190912:0:0:0:0:
448,192,190912,1,0,0:0:0:0:
64,192,190912,1,0,0:0:0:0:
64,192,191340,128,0,191447:0:0:0:0:
192,192,191340,128,0,191447:0:0:0:0:
320,192,191555,128,0,191662:0:0:0:0:
192,192,191662,1,0,0:0:0:0:
320,192,191769,128,0,192090:0:0:0:0:
448,192,191769,128,0,191876:0:0:0:0:
192,192,191983,128,0,192090:0:0:0:0:
64,192,191983,128,0,192197:0:0:0:0:
320,192,192197,128,0,192412:0:0:0:0:
192,192,192305,128,0,192412:0:0:0:0:
64,192,192412,128,0,192519:0:0:0:0:
448,192,192412,128,0,192626:0:0:0:0:
320,192,192519,128,0,192733:0:0:0:0:
192,192,192626,1,0,0:0:0:0:
448,192,192733,1,0,0:0:0:0:
320,192,192840,128,0,193055:0:0:0:0:
192,192,192947,128,0,193055:0:0:0:0:
448,192,193055,1,0,0:0:0:0:
64,192,193055,1,0,0:0:0:0:
64,192,193269,128,0,193590:0:0:0:0:
192,192,193376,1,0,0:0:0:0:
320,192,193483,128,0,193805:0:0:0:0:
448,192,193590,1,0,0:0:0:0:
192,192,193697,128,0,194019:0:0:0:0:
320,192,193912,128,0,194233:0:0:0:0:
64,192,193912,128,0,194019:0:0:0:0:
64,192,194126,128,0,194340:0:0:0:0:
448,192,194233,128,0,194340:0:0:0:0:
192,192,194340,1,0,0:0:0:0:
320,192,194340,1,0,0:0:0:0:
64,192,194555,1,0,0:0:0:0:
320,192,194769,128,0,194876:0:0:0:0:
448,192,194769,128,0,195090:0:0:0:0:
320,192,194983,128,0,195197:0:0:0:0:
192,192,195090,128,0,195197:0:0:0:0:
64,192,195197,128,0,195305:0:0:0:0:
448,192,195197,1,0,0:0:0:0:
64,192,195412,128,0,195519:0:0:0:0:
192,192,195412,128,0,195519:0:0:0:0:
320,192,195626,128,0,195733:0:0:0:0:
448,192,195626,128,0,195840:0:0:0:0:
64,192,195733,128,0,195840:0:0:0:0:
192,192,195840,128,0,195947:0:0:0:0:
320,192,195840,128,0,196162:0:0:0:0:
448,192,195947,128,0,196376:0:0:0:0:
320,192,196269,128,0,196483:0:0:0:0:
64,192,196269,128,0,196376:0:0:0:0:
192,192,196483,1,0,0:0:0:0:
64,192,196697,128,0,196805:0:0:0:0:
320,192,196805,1,0,0:0:0:0:
64,192,196912,128,0,197233:0:0:0:0:
192,192,196912,128,0,197019:0:0:0:0:
192,192,197126,128,0,197447:0:0:0:0:
448,192,197340,128,0,197447:0:0:0:0:
320,192,197340,128,0,197662:0:0:0:0:
192,192,197555,128,0,197876:0:0:0:0:
448,192,197662,1,0,0:0:0:0:
320,192,197769,128,0,197876:0:0:0:0:
64,192,197769,128,0,199162:0:0:0:0:
448,192,197876,128,0,199055:0:0:0:0:
