osu file format v14

[General]
AudioFilename: audio.mp3
AudioLeadIn: 0
PreviewTime: 71371
Countdown: 0
SampleSet: Normal
StackLeniency: 0.7
Mode: 1
LetterboxInBreaks: 0
WidescreenStoryboard: 0

[Editor]
Bookmarks: 16031,45174,72603,86317,100032,113746,127460,141174,154889,169032,182917
DistanceSpacing: 0.3
BeatDivisor: 8
GridSize: 32
TimelineZoom: 2.499999

[Metadata]
Title:Tsuki ga Michiru
TitleUnicode:月が満ちる
Artist:Tsukuyomi
ArtistUnicode:月詠み
Creator:arcpotato
Version:arc & Hivie's Sorrowful Melody in the Fading Moonlight
Source:
Tags:ツクヨミ 2943 hivie kyex japanese rock j-rock jrock pop j-pop jpop sing the moon YurryCanon yurry canon ユリイカノン ユリイ・カノン yue エポック epoch とうかさ toukasa なおk naok
BeatmapID:3953178
BeatmapSetID:1916119

[Difficulty]
HPDrainRate:5.5
CircleSize:2
OverallDifficulty:7.5
ApproachRate:10
SliderMultiplier:1.4
SliderTickRate:1

[Events]
//Background and Video events
0,0,"100979531_p0.jpg",0,-30
//Break Periods
2,65951,68729
2,134317,137301
2,153701,154443
//Storyboard Layer 0 (Background)
//Storyboard Layer 1 (Fail)
//Storyboard Layer 2 (Pass)
//Storyboard Layer 3 (Foreground)
//Storyboard Layer 4 (Overlay)
//Storyboard Sound Samples

[TimingPoints]
14323,428.571428571429,4,1,0,50,1,0
14323,-30.4347825689981,4,1,0,50,0,0
16037,428.571428571429,4,1,0,70,1,0
16037,-71.4285714285714,4,1,0,70,0,0
17108,-100,4,1,0,70,0,0
17751,428.571428571429,4,1,0,70,1,0
17751,-71.4285714285714,4,1,0,70,0,0
29962,-67.8006329113924,4,1,0,70,0,0
30176,-64.523415148321,4,1,0,70,0,0
30391,-61.5351475551088,4,1,0,70,0,0
30501,-59.8802395209581,4,1,0,70,0,0
30605,-50,4,1,0,70,0,0
31465,-62.5,4,1,0,70,0,0
45394,-71.4285714285714,4,1,0,70,0,0
57179,-62.5,4,1,0,70,0,0
57233,-68.9655172413793,4,1,0,70,0,0
57474,-60.6060606060606,4,1,0,70,0,0
57528,-66.6666666666667,4,1,0,70,0,0
57795,-58.8235294117647,4,1,0,70,0,0
58037,-83.3333333333333,4,1,0,55,0,0
58412,-55.5555555555556,4,1,0,55,0,0
58519,-83.3333333333333,4,1,0,55,0,0
65858,-83.3333333333333,4,1,0,20,0,0
67465,-100,4,1,0,20,0,0
69176,-66.6666666666667,4,1,0,70,0,0
69391,-65.036025786879,4,1,0,70,0,0
69498,-64.2538683451351,4,1,0,70,0,0
69712,-62.7446676178978,4,1,0,70,0,0
69819,-62.0163448325739,4,1,0,70,0,0
69926,-61.3047363717605,4,1,0,70,0,0
70034,-60.6028481571787,4,1,0,70,0,0
70248,-59.2584914135655,4,1,0,70,0,0
70355,-58.6084341466749,4,1,0,70,0,0
70462,-57.972484197005,4,1,0,70,0,0
70569,-57.3501872659176,4,1,0,70,0,0
70676,-56.7411083540116,4,1,0,70,0,0
70784,-56.1393171625912,4,1,0,70,0,0
70891,-52.6315789473684,4,1,0,70,0,0
71215,-50,4,1,0,70,0,0
71536,-47.6190476190476,4,1,0,70,0,0
72153,-100,4,1,0,50,0,0
72608,-50,4,1,0,80,0,1
85465,-50,4,1,0,80,0,0
86322,-62.5,4,1,0,70,0,0
98748,-71.4285714285714,4,1,0,60,0,0
98962,-69.7699652777778,4,1,0,60,0,0
99176,-68.186638388123,4,1,0,60,0,0
99391,-66.6666666666667,4,1,0,60,0,0
99498,-65.935192780968,4,1,0,60,0,0
99605,-65.219596307942,4,1,0,60,0,0
99659,-64.864319580349,4,1,0,60,0,0
99712,-64.5193658438692,4,1,0,60,0,0
99819,-63.8340117144843,4,1,0,60,0,0
99926,-63.1630648330059,4,1,0,60,0,0
100034,-62.5,4,1,0,60,0,0
101751,-71.4285714285714,4,1,0,60,0,0
102608,-83.3333333333333,4,1,0,60,0,0
103465,-71.4285714285714,4,1,0,60,0,0
104322,-83.3333333333333,4,1,0,60,0,0
105393,-71.4285714285714,4,1,0,60,0,0
106679,-83.3333333333333,4,1,0,60,0,0
106893,-71.4285714285714,4,1,0,60,0,0
110322,-62.5,4,1,0,60,0,0
110537,-71.4285714285714,4,1,0,60,0,0
111929,-62.5,4,1,0,60,0,0
112358,-58.8235294117647,4,1,0,60,0,0
112679,-55.5555555555556,4,1,0,60,0,0
113322,-71.4285714285714,4,1,0,60,0,0
113750,-50,4,1,0,80,0,0
113751,-50,4,1,0,80,0,1
127465,-50,4,1,0,80,0,0
127679,-66.6666666666667,4,1,0,60,0,0
134322,-83.3333333333333,4,1,0,20,0,0
137319,-66.6666666666667,4,1,0,70,0,0
137534,-65.3552912473315,4,1,0,70,0,0
137748,-64.1002632208662,4,1,0,70,0,0
137962,-62.8925280272348,4,1,0,70,0,0
138069,-62.3055676697194,4,1,0,70,0,0
138284,-61.1586757990868,4,1,0,70,0,0
138391,-60.6034897203133,4,1,0,70,0,0
138605,-59.5228175429825,4,1,0,70,0,0
138659,-59.2561869210563,4,1,0,70,0,0
138712,-58.9968065191058,4,1,0,70,0,0
138819,-58.480010915541,4,1,0,70,0,0
138926,-57.9721906616891,4,1,0,70,0,0
138980,-57.719241542771,4,1,0,70,0,0
139034,-57.468490211853,4,1,0,70,0,0
139141,-56.9780117518811,4,1,0,70,0,0
139194,-56.7381519724649,4,1,0,70,0,0
139248,-56.4958346514816,4,1,0,70,0,0
139301,-56.260008925993,4,1,0,70,0,0
139355,-56.0217499281102,4,1,0,70,0,0
139462,-52.6315789473684,4,1,0,70,0,0
139786,-50,4,1,0,70,0,0
140108,-47.6190476190476,4,1,0,70,0,0
141179,-83.3333333333333,4,1,0,50,0,0
146269,-50,4,1,0,70,0,0
146697,-166.666666666667,4,1,0,35,0,0
146858,-50,4,1,0,35,0,0
147608,-55.5555555555556,4,1,0,70,0,0
147929,-71.4285714285714,4,1,0,60,0,0
148465,-50,4,1,0,80,0,1
153179,-45.4545454545455,4,1,0,80,0,0
153822,-50,4,1,0,50,0,0
154893,-50,4,1,0,80,0,1
161750,-47.6190476190476,4,1,0,80,0,1
167108,389.61038961039,4,1,0,80,1,9
167108,-52.3809523809524,4,1,0,80,0,9
167205,405.405405405405,4,1,0,80,1,9
167205,-50.3401360544219,4,1,0,80,0,9
167407,416.666666666667,4,1,0,80,1,9
167407,-48.9795918367347,4,1,0,80,0,9
167719,-48.9795918367347,4,1,0,80,0,8
168149,416.666666666667,4,1,0,60,1,8
168149,-71.4285714285714,4,1,0,60,0,0
168357,434.782608695652,4,1,0,70,1,8
168357,-68.452380952381,4,1,0,70,0,0
168465,550.45871559633,4,1,0,70,1,8
168465,-54.0674603174604,4,1,0,70,0,0
168602,550.45871559633,4,1,0,70,1,0
168602,-54.0674603174604,4,1,0,70,0,0
168722,416.666666666667,4,1,0,70,1,8
168722,-71.4285714285714,4,1,0,70,0,0
169037,428.571428571429,4,1,0,70,1,8
169037,-55.5555555555556,4,1,0,70,0,0
170324,428.571428571429,4,1,0,70,1,0
170324,-55.5555555555556,4,1,0,70,0,0
175466,428.571428571429,4,1,0,70,1,0
175466,-55.5555555555556,4,1,0,70,0,0
181467,416.666666666667,4,1,0,70,1,8
181467,-55.5555555555556,4,1,0,70,0,8
181571,405.405405405405,4,1,0,70,1,8
181571,-54.5033670033671,4,1,0,70,0,8
181676,408.163265306122,4,1,0,70,1,8
181676,-51.7597622695827,4,1,0,70,0,8
181775,-49.6437319082611,4,1,0,70,0,8
181877,-47.6939203354299,4,1,0,70,0,8
181982,437.956204379562,4,1,0,70,1,8
181982,-42.7696128881754,4,1,0,70,0,8
182091,416.666666666667,7,1,0,70,1,8
182091,-43.2098765432099,7,1,0,70,0,8
182192,-41.6666666666667,7,1,0,70,0,8
184039,428.571428571429,4,1,0,35,1,0
197753,-100,4,1,0,20,0,0

[HitObjects]
256,192,16037,5,4,0:0:0:0:
256,224,16358,1,4,0:0:0:0:
256,224,16679,1,12,0:0:0:0:
224,224,17322,1,0,0:0:0:0:
224,224,17751,1,12,0:0:0:0:
256,224,17965,1,0,0:0:0:0:
256,224,18179,1,8,0:0:0:0:
256,224,18286,1,8,0:0:0:0:
256,224,18393,1,0,0:0:0:0:
256,192,18608,1,8,0:0:0:0:
256,192,18822,1,0,0:0:0:0:
256,192,19036,1,8,0:0:0:0:
256,192,19143,1,0,0:0:0:0:
256,192,19251,1,8,0:0:0:0:
256,192,19358,1,8,0:0:0:0:
256,192,19465,1,0,0:0:0:0:
256,192,19679,1,8,0:0:0:0:
256,192,19893,1,0,0:0:0:0:
256,192,20001,1,0,0:0:0:0:
256,192,20108,1,8,0:0:0:0:
256,192,20215,1,0,0:0:0:0:
256,192,20322,1,8,0:0:0:0:
256,192,20429,1,8,0:0:0:0:
288,192,20536,1,0,0:0:0:0:
256,192,20643,1,0,0:0:0:0:
288,192,20751,1,8,0:0:0:0:
256,160,20858,1,8,0:0:0:0:
256,160,20965,1,0,0:0:0:0:
256,160,21179,1,12,0:0:0:0:
256,160,21393,1,0,0:0:0:0:
256,192,21608,1,8,0:0:0:0:
256,192,21715,1,0,0:0:0:0:
256,192,21822,1,8,0:0:0:0:
256,192,22036,1,0,0:0:0:0:
256,160,22251,1,8,0:0:0:0:
256,160,22465,1,0,0:0:0:0:
256,160,22572,1,8,0:0:0:0:
256,192,22679,1,0,0:0:0:0:
256,160,22786,1,0,0:0:0:0:
256,192,22893,1,8,0:0:0:0:
256,192,23108,1,0,0:0:0:0:
256,192,23322,1,8,0:0:0:0:
256,192,23429,1,0,0:0:0:0:
256,192,23536,1,8,0:0:0:0:
256,192,23643,1,0,0:0:0:0:
256,160,23751,1,8,0:0:0:0:
256,192,23858,1,8,0:0:0:0:
256,160,23965,1,0,0:0:0:0:
256,160,24179,1,12,0:0:0:0:
256,192,24393,1,0,0:0:0:0:
256,192,24608,1,12,0:0:0:0:
288,192,24822,1,0,0:0:0:0:
288,192,25036,1,8,0:0:0:0:
288,192,25143,1,8,0:0:0:0:
288,192,25251,1,0,0:0:0:0:
288,192,25358,1,8,0:0:0:0:
288,192,25465,1,0,0:0:0:0:
288,192,25572,1,0,0:0:0:0:
288,192,25679,1,8,0:0:0:0:
288,192,25893,1,0,0:0:0:0:
256,192,26001,1,0,0:0:0:0:
288,192,26108,1,8,0:0:0:0:
320,192,26215,1,8,0:0:0:0:
288,192,26322,1,0,0:0:0:0:
320,192,26536,1,8,0:0:0:0:
320,192,26751,1,0,0:0:0:0:
320,192,26858,1,0,0:0:0:0:
320,192,26965,1,8,0:0:0:0:
320,192,27072,1,0,0:0:0:0:
320,192,27179,1,8,0:0:0:0:
320,160,27286,1,0,0:0:0:0:
320,160,27393,1,8,0:0:0:0:
320,160,27501,1,8,0:0:0:0:
320,160,27608,1,0,0:0:0:0:
320,160,27715,1,0,0:0:0:0:
320,160,27822,1,8,0:0:0:0:
320,160,28036,1,4,0:0:0:0:
320,160,28251,1,8,0:0:0:0:
320,160,28465,1,0,0:0:0:0:
320,160,28572,1,0,0:0:0:0:
320,160,28679,1,8,0:0:0:0:
320,160,28786,1,8,0:0:0:0:
256,192,28893,1,0,0:0:0:0:
256,192,29108,1,8,0:0:0:0:
256,192,29322,1,0,0:0:0:0:
256,192,29429,1,8,0:0:0:0:
288,160,29536,1,8,0:0:0:0:
288,160,29643,1,8,0:0:0:0:
288,160,29751,1,0,0:0:0:0:
288,160,29965,1,8,0:0:0:0:
288,160,30179,1,0,0:0:0:0:
288,160,30393,1,0,0:0:0:0:
279,164,30501,1,0,0:0:0:0:
288,160,30608,1,12,0:0:0:0:
256,192,31465,1,12,0:0:0:0:
256,192,31679,1,0,0:0:0:0:
256,192,31786,1,8,0:0:0:0:
256,192,31840,1,8,0:0:0:0:
256,192,31893,1,0,0:0:0:0:
256,192,32001,1,8,0:0:0:0:
256,192,32108,1,0,0:0:0:0:
256,192,32215,1,8,0:0:0:0:
256,192,32322,1,8,0:0:0:0:
256,192,32536,1,0,0:0:0:0:
288,192,32643,1,8,0:0:0:0:
288,192,32751,1,0,0:0:0:0:
288,192,32804,1,0,0:0:0:0:
288,192,32858,1,8,0:0:0:0:
288,192,32965,1,0,0:0:0:0:
288,192,33072,1,8,0:0:0:0:
288,192,33179,1,0,0:0:0:0:
288,192,33286,1,8,0:0:0:0:
256,192,33501,1,8,0:0:0:0:
256,192,33608,1,0,0:0:0:0:
288,192,33715,1,0,0:0:0:0:
288,192,33822,1,8,0:0:0:0:
288,192,34036,1,0,0:0:0:0:
288,192,34090,1,0,0:0:0:0:
288,192,34143,1,8,0:0:0:0:
320,192,34197,1,8,0:0:0:0:
320,192,34251,1,0,0:0:0:0:
288,192,34358,1,8,0:0:0:0:
288,192,34465,1,8,0:0:0:0:
288,192,34572,1,0,0:0:0:0:
288,192,34679,1,8,0:0:0:0:
256,192,34893,1,0,0:0:0:0:
256,192,35001,1,8,0:0:0:0:
288,192,35108,1,0,0:0:0:0:
288,192,35215,1,8,0:0:0:0:
288,192,35268,1,8,0:0:0:0:
288,192,35322,1,0,0:0:0:0:
256,192,35429,1,8,0:0:0:0:
256,192,35536,1,0,0:0:0:0:
256,192,35643,1,0,0:0:0:0:
256,192,35751,1,8,0:0:0:0:
256,192,35965,1,0,0:0:0:0:
256,192,36072,1,8,0:0:0:0:
256,192,36179,1,0,0:0:0:0:
256,192,36233,1,0,0:0:0:0:
288,160,36286,1,8,0:0:0:0:
288,160,36393,1,0,0:0:0:0:
288,160,36501,1,0,0:0:0:0:
288,160,36608,1,8,0:0:0:0:
288,160,36715,1,0,0:0:0:0:
288,192,36929,1,8,0:0:0:0:
288,192,37036,1,0,0:0:0:0:
288,192,37143,1,0,0:0:0:0:
288,192,37251,1,8,0:0:0:0:
288,160,37358,1,0,0:0:0:0:
288,160,37465,1,8,0:0:0:0:
288,160,37518,1,8,0:0:0:0:
288,160,37572,1,0,0:0:0:0:
288,192,37679,1,8,0:0:0:0:
288,192,37786,1,0,0:0:0:0:
288,192,37840,1,0,0:0:0:0:
288,160,37893,1,8,0:0:0:0:
288,192,38001,1,0,0:0:0:0:
320,160,38108,1,8,0:0:0:0:
320,160,38215,1,8,0:0:0:0:
320,160,38322,1,4,0:0:0:0:
256,192,38536,1,8,0:0:0:0:
256,192,38643,1,0,0:0:0:0:
256,192,38697,1,0,0:0:0:0:
256,192,38751,1,8,0:0:0:0:
256,192,38858,1,0,0:0:0:0:
256,192,38965,1,8,0:0:0:0:
256,192,39072,1,8,0:0:0:0:
256,192,39179,1,0,0:0:0:0:
256,192,39393,1,8,0:0:0:0:
256,192,39501,1,0,0:0:0:0:
256,192,39608,1,8,0:0:0:0:
256,192,39661,1,8,0:0:0:0:
256,192,39715,1,8,0:0:0:0:
256,192,39822,1,0,0:0:0:0:
256,192,39929,1,8,0:0:0:0:
256,192,40036,1,0,0:0:0:0:
256,192,40143,1,8,0:0:0:0:
256,192,40358,1,8,0:0:0:0:
256,192,40465,1,8,0:0:0:0:
256,192,40572,1,0,0:0:0:0:
256,192,40679,1,8,0:0:0:0:
256,192,40893,1,8,0:0:0:0:
256,192,40947,1,0,0:0:0:0:
256,192,41001,1,8,0:0:0:0:
256,192,41054,1,8,0:0:0:0:
256,192,41108,1,0,0:0:0:0:
256,192,41215,1,8,0:0:0:0:
288,192,41322,1,0,0:0:0:0:
256,192,41429,1,0,0:0:0:0:
288,192,41536,1,8,0:0:0:0:
256,192,41751,1,0,0:0:0:0:
288,160,41858,1,0,0:0:0:0:
256,192,41965,1,8,0:0:0:0:
288,192,42072,1,0,0:0:0:0:
288,160,42126,1,0,0:0:0:0:
288,160,42179,1,8,0:0:0:0:
288,160,42286,1,0,0:0:0:0:
288,160,42393,1,8,0:0:0:0:
288,128,42501,1,8,0:0:0:0:
288,128,42608,1,0,0:0:0:0:
288,160,42822,1,8,0:0:0:0:
288,160,42929,1,0,0:0:0:0:
256,160,43036,1,8,0:0:0:0:
288,160,43090,1,0,0:0:0:0:
256,160,43143,1,8,0:0:0:0:
288,160,43251,1,0,0:0:0:0:
288,160,43358,1,0,0:0:0:0:
288,160,43465,1,8,0:0:0:0:
288,160,43572,1,0,0:0:0:0:
288,128,43786,1,8,0:0:0:0:
288,160,43893,1,8,0:0:0:0:
288,128,44001,1,8,0:0:0:0:
288,128,44108,1,0,0:0:0:0:
288,128,44322,1,8,0:0:0:0:
256,192,44376,1,8,0:0:0:0:
256,192,44429,1,0,0:0:0:0:
288,160,44536,1,8,0:0:0:0:
288,160,44643,1,8,0:0:0:0:
288,160,44751,1,0,0:0:0:0:
256,96,45179,1,4,0:0:0:0:
256,192,45608,1,8,0:0:0:0:
256,192,45822,1,0,0:0:0:0:
256,192,45929,1,0,0:0:0:0:
256,192,46036,1,8,0:0:0:0:
256,192,46143,1,0,0:0:0:0:
256,192,46358,1,0,0:0:0:0:
256,192,46465,1,8,0:0:0:0:
256,192,46679,1,0,0:0:0:0:
256,192,46893,1,8,0:0:0:0:
256,192,47108,1,0,0:0:0:0:
256,192,47322,1,8,0:0:0:0:
256,192,47429,1,8,0:0:0:0:
256,192,47536,1,0,0:0:0:0:
256,192,47643,1,8,0:0:0:0:
256,192,47858,1,8,0:0:0:0:
256,192,47965,1,0,0:0:0:0:
256,192,48179,1,0,0:0:0:0:
256,192,48393,1,8,0:0:0:0:
256,192,48501,1,8,0:0:0:0:
256,192,48608,1,0,0:0:0:0:
256,192,49036,1,8,0:0:0:0:
256,192,49251,1,0,0:0:0:0:
256,192,49465,1,8,0:0:0:0:
256,192,49572,1,8,0:0:0:0:
256,192,49679,1,0,0:0:0:0:
256,192,49893,1,0,0:0:0:0:
256,192,50108,1,8,0:0:0:0:
256,192,50215,1,0,0:0:0:0:
256,192,50322,1,8,0:0:0:0:
256,192,50536,1,0,0:0:0:0:
256,192,50643,1,8,0:0:0:0:
256,192,50858,1,0,0:0:0:0:
256,192,50965,1,0,0:0:0:0:
256,192,51179,1,0,0:0:0:0:
256,192,51286,1,8,0:0:0:0:
256,192,51393,1,0,0:0:0:0:
256,192,51608,1,8,0:0:0:0:
256,192,51822,1,8,0:0:0:0:
256,192,51929,1,8,0:0:0:0:
256,192,52036,1,4,0:0:0:0:
256,192,52465,1,8,0:0:0:0:
256,192,52679,1,0,0:0:0:0:
256,192,52786,1,0,0:0:0:0:
256,192,52893,1,8,0:0:0:0:
256,192,53001,1,0,0:0:0:0:
256,192,53215,1,0,0:0:0:0:
256,192,53322,1,8,0:0:0:0:
256,192,53536,1,0,0:0:0:0:
256,192,53751,1,8,0:0:0:0:
256,192,53965,1,0,0:0:0:0:
256,192,54179,1,8,0:0:0:0:
256,192,54286,1,8,0:0:0:0:
256,192,54393,1,0,0:0:0:0:
256,192,54501,1,8,0:0:0:0:
256,192,54715,1,8,0:0:0:0:
256,192,54822,1,0,0:0:0:0:
256,192,55036,1,0,0:0:0:0:
256,192,55251,1,8,0:0:0:0:
256,192,55358,1,8,0:0:0:0:
256,192,55465,1,0,0:0:0:0:
256,192,55893,1,8,0:0:0:0:
256,192,56108,1,0,0:0:0:0:
256,192,56322,1,8,0:0:0:0:
256,192,56429,1,8,0:0:0:0:
256,192,56536,1,0,0:0:0:0:
256,192,56751,1,8,0:0:0:0:
256,192,56965,1,0,0:0:0:0:
256,192,57072,1,0,0:0:0:0:
256,192,57179,1,12,0:0:0:0:
256,192,57393,1,0,0:0:0:0:
256,192,57501,1,12,0:0:0:0:
256,192,57822,1,12,0:0:0:0:
256,192,58251,1,0,0:0:0:0:
256,96,58465,1,12,0:0:0:0:
256,96,58893,1,4,0:0:0:0:
256,192,59322,1,0,0:0:0:0:
256,192,59536,1,0,0:0:0:0:
256,192,59643,1,0,0:0:0:0:
256,192,59751,1,8,0:0:0:0:
256,192,60072,1,0,0:0:0:0:
256,192,60179,1,8,0:0:0:0:
256,192,60393,1,0,0:0:0:0:
256,192,60501,1,0,0:0:0:0:
256,192,60608,1,8,0:0:0:0:
256,192,60822,1,0,0:0:0:0:
256,192,60929,1,8,0:0:0:0:
256,192,61143,1,8,0:0:0:0:
256,192,61251,1,8,0:0:0:0:
256,192,61465,1,0,0:0:0:0:
256,192,61679,1,8,0:0:0:0:
256,192,61893,1,0,0:0:0:0:
256,192,62001,1,0,0:0:0:0:
256,192,62108,1,8,0:0:0:0:
256,96,62322,1,4,0:0:0:0:
256,192,62751,1,0,0:0:0:0:
256,192,62965,1,0,0:0:0:0:
256,192,63072,1,0,0:0:0:0:
256,192,63179,1,8,0:0:0:0:
256,192,63501,1,0,0:0:0:0:
256,192,63608,1,8,0:0:0:0:
256,192,63822,1,0,0:0:0:0:
256,192,63929,1,8,0:0:0:0:
256,192,64036,1,0,0:0:0:0:
256,192,64251,1,8,0:0:0:0:
256,192,64358,1,0,0:0:0:0:
256,192,64572,1,0,0:0:0:0:
256,192,64679,1,8,0:0:0:0:
256,192,64786,1,8,0:0:0:0:
256,192,64893,1,0,0:0:0:0:
256,192,65108,1,12,0:0:0:0:
256,192,65536,1,0,0:0:0:0:
256,192,65643,1,0,0:0:0:0:
256,192,65751,1,8,0:0:0:0:
256,96,69179,5,12,0:0:0:0:
256,192,69393,1,0,0:0:0:0:
256,96,69501,1,12,0:0:0:0:
256,192,69715,1,0,0:0:0:0:
256,192,69822,1,8,0:0:0:0:
256,192,69929,1,8,0:0:0:0:
256,192,70036,1,0,0:0:0:0:
256,192,70251,1,0,0:0:0:0:
256,192,70358,1,8,0:0:0:0:
256,192,70465,1,0,0:0:0:0:
256,192,70572,1,0,0:0:0:0:
256,192,70679,1,8,0:0:0:0:
256,192,70786,1,8,0:0:0:0:
256,96,70893,1,4,0:0:0:0:
256,96,71215,1,4,0:0:0:0:
256,96,71536,1,12,0:0:0:0:
256,192,72179,1,0,0:0:0:0:
256,192,72608,5,12,0:0:0:0:
256,192,72715,1,0,0:0:0:0:
256,192,72822,1,8,0:0:0:0:
256,192,72876,1,8,0:0:0:0:
288,160,72929,1,0,0:0:0:0:
352,192,72983,1,0,0:0:0:0:
288,160,73036,1,8,0:0:0:0:
288,160,73143,1,0,0:0:0:0:
288,160,73251,1,8,0:0:0:0:
256,160,73304,1,8,0:0:0:0:
256,160,73358,1,8,0:0:0:0:
256,160,73465,1,0,0:0:0:0:
256,160,73518,1,0,0:0:0:0:
352,96,73572,1,8,0:0:0:0:
288,160,73626,1,8,0:0:0:0:
384,64,73679,1,0,0:0:0:0:
320,96,73786,1,8,0:0:0:0:
320,96,73893,1,0,0:0:0:0:
320,96,73947,1,8,0:0:0:0:
352,64,74001,1,0,0:0:0:0:
384,64,74054,1,0,0:0:0:0:
320,128,74108,1,8,0:0:0:0:
320,160,74161,1,8,0:0:0:0:
320,96,74215,1,0,0:0:0:0:
384,64,74322,1,8,0:0:0:0:
320,96,74376,1,8,0:0:0:0:
320,160,74429,1,8,0:0:0:0:
352,128,74483,1,8,0:0:0:0:
320,160,74536,1,0,0:0:0:0:
288,160,74643,1,8,0:0:0:0:
256,160,74751,1,0,0:0:0:0:
320,160,74804,1,0,0:0:0:0:
256,160,74858,1,8,0:0:0:0:
320,160,74965,1,0,0:0:0:0:
320,160,75018,1,0,0:0:0:0:
320,160,75072,1,0,0:0:0:0:
320,160,75179,1,8,0:0:0:0:
320,160,75233,1,8,0:0:0:0:
320,160,75286,1,0,0:0:0:0:
320,160,75340,1,0,0:0:0:0:
320,160,75393,1,8,0:0:0:0:
352,128,75447,1,8,0:0:0:0:
320,160,75501,1,0,0:0:0:0:
320,160,75608,1,8,0:0:0:0:
352,128,75661,1,8,0:0:0:0:
320,160,75715,1,8,0:0:0:0:
320,160,75822,1,0,0:0:0:0:
320,160,75876,1,0,0:0:0:0:
288,160,75929,1,8,0:0:0:0:
256,160,76036,1,0,0:0:0:0:
256,160,76090,1,8,0:0:0:0:
320,160,76143,1,0,0:0:0:0:
320,160,76197,1,0,0:0:0:0:
320,160,76251,1,8,0:0:0:0:
352,160,76358,1,0,0:0:0:0:
352,160,76465,1,8,0:0:0:0:
352,160,76518,1,8,0:0:0:0:
352,160,76572,1,0,0:0:0:0:
352,160,76679,1,8,0:0:0:0:
352,160,76733,1,8,0:0:0:0:
352,160,76786,1,8,0:0:0:0:
352,160,76893,1,0,0:0:0:0:
352,160,76947,1,0,0:0:0:0:
352,160,77001,1,8,0:0:0:0:
288,192,77054,1,8,0:0:0:0:
288,192,77108,1,0,0:0:0:0:
288,192,77215,1,8,0:0:0:0:
256,160,77322,1,0,0:0:0:0:
256,160,77376,1,0,0:0:0:0:
256,160,77429,1,8,0:0:0:0:
288,160,77483,1,8,0:0:0:0:
288,160,77536,1,0,0:0:0:0:
384,224,77590,1,0,0:0:0:0:
320,128,77643,1,8,0:0:0:0:
320,128,77751,1,4,0:0:0:0:
288,128,77965,1,8,0:0:0:0:
288,128,78072,1,0,0:0:0:0:
256,192,78179,1,8,0:0:0:0:
256,192,78233,1,8,0:0:0:0:
256,192,78286,1,8,0:0:0:0:
256,192,78393,1,0,0:0:0:0:
256,192,78447,1,0,0:0:0:0:
256,192,78501,1,8,0:0:0:0:
256,192,78608,1,4,0:0:0:0:
256,192,78822,1,0,0:0:0:0:
320,160,78876,1,0,0:0:0:0:
320,160,78929,1,0,0:0:0:0:
288,128,79036,1,8,0:0:0:0:
320,160,79090,1,0,0:0:0:0:
352,160,79143,1,0,0:0:0:0:
352,160,79197,1,0,0:0:0:0:
320,96,79251,1,8,0:0:0:0:
352,160,79358,1,0,0:0:0:0:
256,192,79465,1,12,0:0:0:0:
192,192,79679,1,0,0:0:0:0:
192,192,79786,1,8,0:0:0:0:
224,192,79893,1,0,0:0:0:0:
256,192,79947,1,0,0:0:0:0:
256,192,80001,1,8,0:0:0:0:
256,192,80108,1,0,0:0:0:0:
256,192,80161,1,0,0:0:0:0:
256,192,80215,1,0,0:0:0:0:
320,160,80322,1,8,0:0:0:0:
320,160,80376,1,8,0:0:0:0:
352,160,80429,1,0,0:0:0:0:
320,160,80483,1,8,0:0:0:0:
320,160,80536,1,0,0:0:0:0:
320,160,80590,1,0,0:0:0:0:
320,160,80643,1,8,0:0:0:0:
320,160,80751,1,0,0:0:0:0:
320,160,80804,1,0,0:0:0:0:
320,160,80858,1,0,0:0:0:0:
352,128,80911,1,0,0:0:0:0:
320,160,80965,1,8,0:0:0:0:
320,160,81072,1,0,0:0:0:0:
384,224,81179,1,8,0:0:0:0:
288,160,81233,1,8,0:0:0:0:
288,160,81286,1,0,0:0:0:0:
288,192,81340,1,0,0:0:0:0:
384,128,81393,1,8,0:0:0:0:
320,160,81501,1,0,0:0:0:0:
320,160,81608,1,8,0:0:0:0:
320,128,81661,1,8,0:0:0:0:
288,64,81715,1,0,0:0:0:0:
320,128,81822,1,8,0:0:0:0:
320,128,81876,1,8,0:0:0:0:
320,128,81929,1,8,0:0:0:0:
320,128,82036,1,0,0:0:0:0:
320,128,82090,1,0,0:0:0:0:
320,128,82143,1,8,0:0:0:0:
256,160,82197,1,8,0:0:0:0:
320,160,82251,1,0,0:0:0:0:
352,128,82304,1,0,0:0:0:0:
256,192,82358,1,8,0:0:0:0:
288,192,82465,1,0,0:0:0:0:
352,96,82518,1,0,0:0:0:0:
320,160,82572,1,0,0:0:0:0:
320,160,82679,1,8,0:0:0:0:
288,160,82733,1,8,0:0:0:0:
288,160,82786,1,0,0:0:0:0:
288,192,82893,1,8,0:0:0:0:
288,192,82947,1,8,0:0:0:0:
320,160,83001,1,8,0:0:0:0:
320,160,83054,1,8,0:0:0:0:
320,160,83108,1,0,0:0:0:0:
384,192,83215,1,8,0:0:0:0:
320,160,83322,1,0,0:0:0:0:
320,160,83376,1,0,0:0:0:0:
320,160,83429,1,8,0:0:0:0:
320,160,83536,1,0,0:0:0:0:
352,96,83590,1,0,0:0:0:0:
352,96,83643,1,0,0:0:0:0:
320,160,83751,1,8,0:0:0:0:
352,160,83804,1,8,0:0:0:0:
352,192,83858,1,0,0:0:0:0:
352,160,83911,1,8,0:0:0:0:
352,160,83965,1,8,0:0:0:0:
352,160,84018,1,8,0:0:0:0:
320,160,84072,1,0,0:0:0:0:
160,192,84179,1,8,0:0:0:0:
160,192,84233,1,0,0:0:0:0:
352,160,84286,1,0,0:0:0:0:
352,160,84393,1,8,0:0:0:0:
160,192,84447,1,0,0:0:0:0:
352,96,84501,1,8,0:0:0:0:
352,96,84608,1,4,0:0:0:0:
192,192,84822,1,0,0:0:0:0:
192,192,84929,1,0,0:0:0:0:
192,192,85036,1,8,0:0:0:0:
192,192,85143,1,0,0:0:0:0:
192,192,85251,1,8,0:0:0:0:
192,192,85358,1,8,0:0:0:0:
192,192,85465,1,0,0:0:0:0:
256,96,86322,1,12,0:0:0:0:
256,192,86536,1,0,0:0:0:0:
256,192,86643,1,8,0:0:0:0:
256,192,86751,1,0,0:0:0:0:
256,192,86858,1,8,0:0:0:0:
256,192,86911,1,0,0:0:0:0:
256,192,86965,1,8,0:0:0:0:
256,192,87018,1,8,0:0:0:0:
256,192,87072,1,0,0:0:0:0:
256,192,87179,1,8,0:0:0:0:
256,192,87393,1,0,0:0:0:0:
256,192,87501,1,8,0:0:0:0:
256,192,87608,1,0,0:0:0:0:
256,192,87661,1,0,0:0:0:0:
256,192,87715,1,8,0:0:0:0:
256,192,87822,1,0,0:0:0:0:
256,192,87929,1,8,0:0:0:0:
256,192,88036,1,0,0:0:0:0:
256,192,88143,1,8,0:0:0:0:
256,192,88358,1,8,0:0:0:0:
256,192,88465,1,0,0:0:0:0:
256,192,88572,1,0,0:0:0:0:
256,192,88679,1,8,0:0:0:0:
256,192,88893,1,0,0:0:0:0:
256,192,89001,1,8,0:0:0:0:
256,192,89054,1,8,0:0:0:0:
256,192,89108,1,0,0:0:0:0:
256,192,89161,1,0,0:0:0:0:
256,192,89215,1,8,0:0:0:0:
256,192,89322,1,0,0:0:0:0:
256,192,89429,1,8,0:0:0:0:
256,192,89536,1,8,0:0:0:0:
256,192,89751,1,0,0:0:0:0:
256,192,89858,1,8,0:0:0:0:
256,192,89965,1,0,0:0:0:0:
256,192,90072,1,8,0:0:0:0:
256,192,90126,1,8,0:0:0:0:
256,192,90179,1,0,0:0:0:0:
256,192,90286,1,8,0:0:0:0:
256,192,90393,1,0,0:0:0:0:
256,192,90501,1,0,0:0:0:0:
256,192,90608,1,8,0:0:0:0:
256,192,90822,1,0,0:0:0:0:
256,192,90929,1,8,0:0:0:0:
256,192,91036,1,0,0:0:0:0:
256,192,91090,1,0,0:0:0:0:
256,192,91143,1,8,0:0:0:0:
256,192,91197,1,8,0:0:0:0:
256,192,91251,1,0,0:0:0:0:
256,192,91358,1,8,0:0:0:0:
256,192,91465,1,0,0:0:0:0:
256,192,91572,1,8,0:0:0:0:
256,192,91786,1,8,0:0:0:0:
256,192,91893,1,0,0:0:0:0:
256,192,92001,1,0,0:0:0:0:
256,192,92108,1,8,0:0:0:0:
256,192,92215,1,0,0:0:0:0:
256,192,92268,1,0,0:0:0:0:
256,192,92322,1,8,0:0:0:0:
256,192,92429,1,0,0:0:0:0:
256,192,92536,1,8,0:0:0:0:
256,192,92643,1,0,0:0:0:0:
256,192,92697,1,0,0:0:0:0:
256,192,92751,1,0,0:0:0:0:
256,192,92858,1,8,0:0:0:0:
256,192,92965,1,8,0:0:0:0:
256,192,93072,1,8,0:0:0:0:
256,96,93179,1,4,0:0:0:0:
256,192,93393,1,0,0:0:0:0:
256,192,93501,1,8,0:0:0:0:
256,192,93608,1,0,0:0:0:0:
256,192,93715,1,8,0:0:0:0:
256,192,93768,1,0,0:0:0:0:
256,192,93822,1,8,0:0:0:0:
256,192,93876,1,8,0:0:0:0:
256,192,93929,1,0,0:0:0:0:
256,192,94036,1,8,0:0:0:0:
256,192,94251,1,0,0:0:0:0:
256,192,94358,1,8,0:0:0:0:
256,192,94465,1,0,0:0:0:0:
256,192,94518,1,0,0:0:0:0:
256,192,94572,1,8,0:0:0:0:
256,192,94679,1,0,0:0:0:0:
256,192,94786,1,8,0:0:0:0:
256,192,94893,1,0,0:0:0:0:
256,192,95001,1,8,0:0:0:0:
256,192,95215,1,8,0:0:0:0:
256,192,95322,1,0,0:0:0:0:
256,192,95429,1,8,0:0:0:0:
256,192,95536,1,8,0:0:0:0:
256,192,95751,1,0,0:0:0:0:
256,192,95858,1,8,0:0:0:0:
256,192,95911,1,8,0:0:0:0:
256,192,95965,1,0,0:0:0:0:
256,192,96018,1,0,0:0:0:0:
256,192,96072,1,8,0:0:0:0:
256,192,96179,1,0,0:0:0:0:
256,192,96286,1,8,0:0:0:0:
256,192,96393,1,8,0:0:0:0:
256,192,96608,1,0,0:0:0:0:
256,192,96715,1,8,0:0:0:0:
256,192,96822,1,0,0:0:0:0:
256,192,96929,1,8,0:0:0:0:
256,192,96983,1,8,0:0:0:0:
256,192,97036,1,0,0:0:0:0:
256,192,97143,1,8,0:0:0:0:
256,192,97251,1,0,0:0:0:0:
256,192,97358,1,0,0:0:0:0:
256,192,97465,1,8,0:0:0:0:
256,192,97679,1,0,0:0:0:0:
256,192,97786,1,8,0:0:0:0:
256,192,97893,1,0,0:0:0:0:
256,192,97947,1,0,0:0:0:0:
256,192,98001,1,8,0:0:0:0:
256,192,98054,1,8,0:0:0:0:
256,192,98108,1,0,0:0:0:0:
256,192,98215,1,8,0:0:0:0:
256,96,98322,1,4,0:0:0:0:
256,192,98751,1,0,0:0:0:0:
256,192,98965,1,8,0:0:0:0:
256,192,99179,1,0,0:0:0:0:
256,192,99393,1,8,0:0:0:0:
256,192,99501,1,8,0:0:0:0:
256,192,99608,1,0,0:0:0:0:
256,192,99661,1,0,0:0:0:0:
256,192,99715,1,8,0:0:0:0:
256,192,99822,1,0,0:0:0:0:
256,192,99929,1,8,0:0:0:0:
224,192,100036,5,4,0:0:0:0:
256,192,101751,1,12,0:0:0:0:
256,192,102072,1,4,0:0:0:0:
256,192,102393,1,12,0:0:0:0:
256,192,102608,1,0,0:0:0:0:
256,192,102715,1,0,0:0:0:0:
256,192,102822,1,8,0:0:0:0:
256,192,103036,1,0,0:0:0:0:
256,192,103251,1,0,0:0:0:0:
256,192,103465,1,12,0:0:0:0:
256,192,104322,1,0,0:0:0:0:
256,192,104751,1,0,0:0:0:0:
256,192,104858,1,8,0:0:0:0:
256,192,104965,1,8,0:0:0:0:
256,192,105072,1,0,0:0:0:0:
256,192,105393,1,12,0:0:0:0:
256,192,105715,1,4,0:0:0:0:
256,192,106036,1,12,0:0:0:0:
256,192,106358,1,4,0:0:0:0:
288,192,106679,1,0,0:0:0:0:
288,192,106786,1,0,0:0:0:0:
288,192,106893,1,12,0:0:0:0:
256,192,107108,1,8,0:0:0:0:
256,192,107215,1,8,0:0:0:0:
256,192,107322,1,0,0:0:0:0:
256,192,107536,1,8,0:0:0:0:
256,192,107751,1,0,0:0:0:0:
256,192,107858,1,8,0:0:0:0:
256,192,107965,1,0,0:0:0:0:
256,192,108072,1,0,0:0:0:0:
256,192,108179,1,8,0:0:0:0:
256,192,108393,1,0,0:0:0:0:
256,192,108608,1,12,0:0:0:0:
288,192,108822,1,0,0:0:0:0:
256,192,109036,1,8,0:0:0:0:
256,192,109143,1,0,0:0:0:0:
288,192,109251,1,0,0:0:0:0:
288,192,109358,1,0,0:0:0:0:
288,160,109465,1,8,0:0:0:0:
288,192,109572,1,8,0:0:0:0:
288,192,109679,1,0,0:0:0:0:
288,160,109893,1,8,0:0:0:0:
352,192,110108,1,0,0:0:0:0:
352,192,110322,1,12,0:0:0:0:
320,192,110751,1,0,0:0:0:0:
320,192,110965,1,0,0:0:0:0:
320,192,111179,1,8,0:0:0:0:
320,192,111286,1,8,0:0:0:0:
256,192,111393,1,0,0:0:0:0:
256,192,111608,1,8,0:0:0:0:
256,192,111822,1,0,0:0:0:0:
256,192,112036,1,12,0:0:0:0:
256,192,112358,1,4,0:0:0:0:
256,192,112679,1,12,0:0:0:0:
256,192,113322,1,0,0:0:0:0:
256,192,113429,1,0,0:0:0:0:
256,192,113536,1,0,0:0:0:0:
256,192,113643,1,0,0:0:0:0:
256,96,113751,1,12,0:0:0:0:
256,192,113965,1,0,0:0:0:0:
256,192,114072,1,8,0:0:0:0:
256,192,114179,1,0,0:0:0:0:
256,192,114233,1,0,0:0:0:0:
256,192,114286,1,8,0:0:0:0:
256,192,114340,1,8,0:0:0:0:
256,192,114393,1,0,0:0:0:0:
256,192,114501,1,8,0:0:0:0:
256,192,114608,1,0,0:0:0:0:
256,192,114715,1,8,0:0:0:0:
256,192,114822,1,0,0:0:0:0:
256,192,114876,1,0,0:0:0:0:
256,192,114929,1,8,0:0:0:0:
256,192,115036,1,0,0:0:0:0:
256,192,115090,1,0,0:0:0:0:
256,192,115143,1,0,0:0:0:0:
256,192,115251,1,8,0:0:0:0:
256,192,115358,1,0,0:0:0:0:
256,192,115465,1,8,0:0:0:0:
256,192,115679,1,0,0:0:0:0:
256,192,115786,1,8,0:0:0:0:
256,192,115840,1,0,0:0:0:0:
256,192,115893,1,8,0:0:0:0:
256,192,115947,1,8,0:0:0:0:
256,192,116001,1,0,0:0:0:0:
256,192,116108,1,8,0:0:0:0:
256,192,116215,1,0,0:0:0:0:
256,192,116268,1,0,0:0:0:0:
256,192,116322,1,8,0:0:0:0:
256,192,116429,1,0,0:0:0:0:
256,192,116536,1,8,0:0:0:0:
256,192,116590,1,8,0:0:0:0:
256,192,116643,1,0,0:0:0:0:
256,192,116697,1,0,0:0:0:0:
256,192,116751,1,8,0:0:0:0:
256,192,116858,1,0,0:0:0:0:
256,192,116965,1,8,0:0:0:0:
256,192,117018,1,8,0:0:0:0:
256,192,117072,1,8,0:0:0:0:
256,192,117179,1,0,0:0:0:0:
256,192,117393,1,8,0:0:0:0:
256,192,117465,1,8,0:0:0:0:
256,192,117536,1,8,0:0:0:0:
256,192,117608,1,0,0:0:0:0:
256,192,117715,1,8,0:0:0:0:
256,192,117822,1,0,0:0:0:0:
256,192,117876,1,0,0:0:0:0:
256,192,117929,1,0,0:0:0:0:
256,192,118036,1,8,0:0:0:0:
256,192,118090,1,8,0:0:0:0:
256,192,118143,1,0,0:0:0:0:
256,192,118197,1,0,0:0:0:0:
256,192,118251,1,8,0:0:0:0:
256,192,118358,1,0,0:0:0:0:
256,192,118411,1,0,0:0:0:0:
256,192,118465,1,8,0:0:0:0:
256,192,118572,1,0,0:0:0:0:
256,192,118626,1,0,0:0:0:0:
256,192,118679,1,0,0:0:0:0:
256,192,118786,1,8,0:0:0:0:
256,192,118893,1,4,0:0:0:0:
256,192,119108,1,8,0:0:0:0:
256,192,119215,1,0,0:0:0:0:
256,192,119268,1,0,0:0:0:0:
256,192,119322,1,8,0:0:0:0:
256,192,119429,1,0,0:0:0:0:
256,192,119536,1,8,0:0:0:0:
256,192,119590,1,0,0:0:0:0:
256,192,119643,1,0,0:0:0:0:
256,192,119697,1,0,0:0:0:0:
256,192,119751,1,8,0:0:0:0:
256,192,119858,1,0,0:0:0:0:
256,192,119965,1,8,0:0:0:0:
256,192,120018,1,8,0:0:0:0:
256,192,120072,1,0,0:0:0:0:
256,192,120126,1,0,0:0:0:0:
256,192,120179,1,8,0:0:0:0:
256,192,120286,1,0,0:0:0:0:
256,192,120393,1,8,0:0:0:0:
256,192,120447,1,8,0:0:0:0:
256,192,120501,1,8,0:0:0:0:
256,96,120608,1,4,0:0:0:0:
256,192,120822,1,8,0:0:0:0:
256,192,120929,1,0,0:0:0:0:
256,192,121036,1,8,0:0:0:0:
256,192,121090,1,8,0:0:0:0:
256,192,121143,1,0,0:0:0:0:
256,192,121197,1,0,0:0:0:0:
256,192,121251,1,0,0:0:0:0:
256,192,121358,1,8,0:0:0:0:
256,192,121411,1,8,0:0:0:0:
256,192,121465,1,0,0:0:0:0:
256,192,121572,1,8,0:0:0:0:
256,192,121679,1,0,0:0:0:0:
256,192,121733,1,0,0:0:0:0:
256,192,121786,1,8,0:0:0:0:
256,192,121840,1,0,0:0:0:0:
256,192,121893,1,8,0:0:0:0:
256,192,122001,1,0,0:0:0:0:
256,192,122108,1,8,0:0:0:0:
256,192,122161,1,8,0:0:0:0:
256,192,122215,1,0,0:0:0:0:
256,192,122322,1,8,0:0:0:0:
256,192,122536,1,8,0:0:0:0:
256,192,122643,1,0,0:0:0:0:
256,192,122751,1,8,0:0:0:0:
256,192,122804,1,0,0:0:0:0:
256,192,122858,1,8,0:0:0:0:
256,192,122911,1,8,0:0:0:0:
256,192,122965,1,0,0:0:0:0:
256,192,123072,1,8,0:0:0:0:
256,192,123126,1,8,0:0:0:0:
256,192,123179,1,8,0:0:0:0:
256,192,123286,1,0,0:0:0:0:
256,192,123393,1,8,0:0:0:0:
256,192,123447,1,8,0:0:0:0:
256,192,123501,1,0,0:0:0:0:
256,192,123554,1,0,0:0:0:0:
256,192,123608,1,8,0:0:0:0:
256,192,123715,1,0,0:0:0:0:
256,192,123822,1,8,0:0:0:0:
256,192,123876,1,8,0:0:0:0:
256,192,123929,1,8,0:0:0:0:
256,96,124036,1,4,0:0:0:0:
256,192,124251,1,8,0:0:0:0:
256,192,124322,1,8,0:0:0:0:
256,192,124393,1,8,0:0:0:0:
256,192,124465,1,0,0:0:0:0:
256,192,124572,1,8,0:0:0:0:
256,192,124679,1,0,0:0:0:0:
256,192,124751,1,0,0:0:0:0:
256,192,124822,1,0,0:0:0:0:
256,192,124893,1,8,0:0:0:0:
256,192,125001,1,0,0:0:0:0:
256,192,125108,1,8,0:0:0:0:
256,192,125179,1,0,0:0:0:0:
256,192,125251,1,0,0:0:0:0:
256,192,125322,1,8,0:0:0:0:
256,192,125429,1,0,0:0:0:0:
256,192,125536,1,8,0:0:0:0:
256,192,125590,1,8,0:0:0:0:
256,192,125643,1,8,0:0:0:0:
256,192,125751,1,0,0:0:0:0:
256,192,125965,1,8,0:0:0:0:
256,192,126072,1,0,0:0:0:0:
256,192,126126,1,0,0:0:0:0:
256,192,126179,1,8,0:0:0:0:
256,192,126286,1,0,0:0:0:0:
256,192,126393,1,8,0:0:0:0:
256,192,126447,1,8,0:0:0:0:
256,192,126501,1,0,0:0:0:0:
256,192,126608,1,8,0:0:0:0:
256,192,126715,1,0,0:0:0:0:
256,192,126822,1,8,0:0:0:0:
256,192,126929,1,0,0:0:0:0:
256,192,127036,1,8,0:0:0:0:
256,192,127090,1,8,0:0:0:0:
256,192,127143,1,8,0:0:0:0:
256,192,127197,1,8,0:0:0:0:
256,192,127251,1,0,0:0:0:0:
256,192,127358,1,8,0:0:0:0:
256,192,127465,5,4,0:0:0:0:
256,192,127786,1,8,0:0:0:0:
256,192,128108,1,8,0:0:0:0:
256,192,128322,1,0,0:0:0:0:
256,192,128643,1,0,0:0:0:0:
256,192,128965,1,0,0:0:0:0:
256,192,129179,1,8,0:0:0:0:
256,192,129393,1,8,0:0:0:0:
256,192,129501,1,0,0:0:0:0:
256,192,129822,1,0,0:0:0:0:
256,192,130036,1,8,0:0:0:0:
256,224,130465,1,0,0:0:0:0:
256,224,130679,1,0,0:0:0:0:
256,224,130893,1,8,0:0:0:0:
256,224,131108,1,0,0:0:0:0:
256,192,131215,1,0,0:0:0:0:
256,224,131322,1,8,0:0:0:0:
256,224,131536,1,0,0:0:0:0:
256,224,131643,1,8,0:0:0:0:
288,192,131965,1,8,0:0:0:0:
320,192,132072,1,0,0:0:0:0:
256,224,132179,1,0,0:0:0:0:
288,192,132393,1,0,0:0:0:0:
288,224,132501,1,8,0:0:0:0:
288,192,132608,1,8,0:0:0:0:
288,224,132929,1,0,0:0:0:0:
288,224,133143,1,8,0:0:0:0:
256,224,133251,1,0,0:0:0:0:
256,224,133465,1,8,0:0:0:0:
320,192,133893,1,0,0:0:0:0:
256,192,137751,5,12,0:0:0:0:
256,192,137965,1,0,0:0:0:0:
256,192,138072,1,12,0:0:0:0:
288,160,138286,1,8,0:0:0:0:
288,160,138393,1,0,0:0:0:0:
288,160,138608,1,8,0:0:0:0:
256,192,138661,1,8,0:0:0:0:
288,160,138715,1,0,0:0:0:0:
256,192,138822,1,8,0:0:0:0:
256,192,138929,1,0,0:0:0:0:
288,160,138983,1,0,0:0:0:0:
256,192,139036,1,8,0:0:0:0:
288,160,139143,1,0,0:0:0:0:
160,160,139197,1,0,0:0:0:0:
288,160,139251,1,8,0:0:0:0:
288,128,139304,1,8,0:0:0:0:
288,128,139358,1,0,0:0:0:0:
288,128,139465,1,12,0:0:0:0:
256,192,139786,1,12,0:0:0:0:
256,192,140108,1,4,0:0:0:0:
256,96,141179,1,4,0:0:0:0:
256,192,141608,1,8,0:0:0:0:
256,192,141822,1,8,0:0:0:0:
256,192,142036,1,0,0:0:0:0:
256,192,142465,1,8,0:0:0:0:
256,192,142893,1,0,0:0:0:0:
256,192,143322,1,8,0:0:0:0:
256,192,143536,1,8,0:0:0:0:
256,192,143751,1,0,0:0:0:0:
256,192,143965,1,0,0:0:0:0:
256,192,144179,1,8,0:0:0:0:
256,192,144393,1,8,0:0:0:0:
256,192,144608,1,0,0:0:0:0:
256,192,145036,1,8,0:0:0:0:
256,192,145251,1,8,0:0:0:0:
256,192,145465,1,0,0:0:0:0:
256,192,145893,1,8,0:0:0:0:
256,96,146322,1,12,0:0:0:0:
256,192,146751,12,0,147393,0:0:0:0:
256,96,147608,5,4,0:0:0:0:
256,192,148036,1,0,0:0:0:0:
256,192,148143,1,0,0:0:0:0:
256,192,148251,1,0,0:0:0:0:
256,192,148358,1,0,0:0:0:0:
256,96,148465,1,12,0:0:0:0:
256,192,148679,1,0,0:0:0:0:
256,192,148733,1,0,0:0:0:0:
256,192,148786,1,0,0:0:0:0:
256,192,148893,1,8,0:0:0:0:
256,192,148947,1,8,0:0:0:0:
256,192,149001,1,0,0:0:0:0:
256,192,149054,1,8,0:0:0:0:
256,192,149108,1,0,0:0:0:0:
256,192,149161,1,0,0:0:0:0:
256,192,149215,1,8,0:0:0:0:
256,192,149322,1,0,0:0:0:0:
256,192,149376,1,0,0:0:0:0:
256,192,149429,1,0,0:0:0:0:
256,192,149483,1,0,0:0:0:0:
256,192,149536,1,8,0:0:0:0:
256,192,149643,1,0,0:0:0:0:
256,192,149751,1,8,0:0:0:0:
256,192,149804,1,8,0:0:0:0:
256,192,149858,1,0,0:0:0:0:
256,192,149911,1,0,0:0:0:0:
256,192,149965,1,8,0:0:0:0:
256,192,150072,1,0,0:0:0:0:
256,192,150179,1,8,0:0:0:0:
256,192,150233,1,8,0:0:0:0:
256,192,150286,1,0,0:0:0:0:
256,192,150393,1,8,0:0:0:0:
256,192,150447,1,8,0:0:0:0:
256,192,150501,1,8,0:0:0:0:
256,192,150608,1,0,0:0:0:0:
256,192,150661,1,0,0:0:0:0:
256,192,150715,1,8,0:0:0:0:
256,192,150768,1,0,0:0:0:0:
256,192,150822,1,8,0:0:0:0:
256,192,150876,1,8,0:0:0:0:
256,192,150929,1,0,0:0:0:0:
256,192,151036,1,8,0:0:0:0:
256,192,151143,1,0,0:0:0:0:
256,192,151251,1,8,0:0:0:0:
256,192,151304,1,8,0:0:0:0:
256,192,151358,1,0,0:0:0:0:
256,192,151465,1,8,0:0:0:0:
256,192,151518,1,8,0:0:0:0:
256,192,151572,1,8,0:0:0:0:
256,192,151626,1,8,0:0:0:0:
256,192,151679,1,0,0:0:0:0:
256,192,151786,1,8,0:0:0:0:
256,192,151893,1,0,0:0:0:0:
256,192,151947,1,0,0:0:0:0:
256,192,152001,1,0,0:0:0:0:
256,192,152108,1,8,0:0:0:0:
256,192,152161,1,8,0:0:0:0:
256,192,152215,1,0,0:0:0:0:
256,192,152322,1,8,0:0:0:0:
256,192,152429,1,0,0:0:0:0:
256,192,152483,1,0,0:0:0:0:
256,192,152536,1,8,0:0:0:0:
256,192,152590,1,0,0:0:0:0:
256,192,152643,1,8,0:0:0:0:
256,192,152751,1,0,0:0:0:0:
256,192,152858,1,0,0:0:0:0:
256,192,152965,1,8,0:0:0:0:
256,192,153018,1,8,0:0:0:0:
256,192,153072,1,0,0:0:0:0:
256,96,153179,1,12,0:0:0:0:
256,96,153501,1,12,0:0:0:0:
256,192,154893,5,12,0:0:0:0:
256,192,155001,1,0,0:0:0:0:
256,192,155108,1,8,0:0:0:0:
256,192,155161,1,0,0:0:0:0:
288,160,155215,1,8,0:0:0:0:
352,192,155268,1,8,0:0:0:0:
288,160,155322,1,0,0:0:0:0:
288,160,155429,1,8,0:0:0:0:
288,160,155536,1,0,0:0:0:0:
256,160,155590,1,0,0:0:0:0:
256,160,155643,1,0,0:0:0:0:
256,160,155751,1,8,0:0:0:0:
256,160,155804,1,8,0:0:0:0:
352,96,155858,1,0,0:0:0:0:
288,160,155911,1,0,0:0:0:0:
384,64,155965,1,8,0:0:0:0:
320,96,156072,1,0,0:0:0:0:
320,96,156179,1,8,0:0:0:0:
320,96,156233,1,0,0:0:0:0:
352,64,156286,1,8,0:0:0:0:
384,64,156340,1,8,0:0:0:0:
320,128,156393,1,0,0:0:0:0:
320,160,156447,1,0,0:0:0:0:
320,96,156501,1,8,0:0:0:0:
384,64,156608,1,0,0:0:0:0:
320,96,156661,1,8,0:0:0:0:
320,160,156715,1,0,0:0:0:0:
352,128,156768,1,0,0:0:0:0:
320,160,156822,1,8,0:0:0:0:
288,160,156929,1,0,0:0:0:0:
256,160,157036,1,8,0:0:0:0:
320,160,157090,1,8,0:0:0:0:
256,160,157143,1,0,0:0:0:0:
320,160,157251,1,8,0:0:0:0:
320,160,157304,1,8,0:0:0:0:
320,160,157358,1,8,0:0:0:0:
320,160,157465,1,0,0:0:0:0:
320,160,157518,1,0,0:0:0:0:
320,160,157572,1,8,0:0:0:0:
320,160,157626,1,8,0:0:0:0:
320,160,157679,1,0,0:0:0:0:
352,128,157733,1,0,0:0:0:0:
320,160,157786,1,8,0:0:0:0:
320,160,157893,1,0,0:0:0:0:
352,128,157947,1,0,0:0:0:0:
320,160,158001,1,0,0:0:0:0:
320,160,158108,1,8,0:0:0:0:
320,160,158161,1,8,0:0:0:0:
288,160,158215,1,0,0:0:0:0:
256,160,158322,1,8,0:0:0:0:
256,160,158376,1,8,0:0:0:0:
320,160,158429,1,8,0:0:0:0:
320,160,158483,1,8,0:0:0:0:
320,160,158536,1,0,0:0:0:0:
352,160,158643,1,8,0:0:0:0:
352,160,158751,1,0,0:0:0:0:
352,160,158804,1,0,0:0:0:0:
352,160,158858,1,8,0:0:0:0:
352,160,158965,1,0,0:0:0:0:
352,160,159018,1,0,0:0:0:0:
352,160,159072,1,0,0:0:0:0:
352,160,159179,1,8,0:0:0:0:
352,160,159233,1,8,0:0:0:0:
352,160,159286,1,0,0:0:0:0:
288,192,159340,1,0,0:0:0:0:
288,192,159393,1,8,0:0:0:0:
288,192,159501,1,0,0:0:0:0:
256,160,159608,1,8,0:0:0:0:
256,160,159661,1,0,0:0:0:0:
256,160,159715,1,0,0:0:0:0:
288,160,159768,1,0,0:0:0:0:
288,160,159822,1,8,0:0:0:0:
384,224,159876,1,8,0:0:0:0:
320,128,159929,1,0,0:0:0:0:
320,128,160036,1,12,0:0:0:0:
288,128,160251,1,8,0:0:0:0:
288,128,160358,1,0,0:0:0:0:
256,192,160465,1,8,0:0:0:0:
256,192,160518,1,8,0:0:0:0:
256,192,160572,1,8,0:0:0:0:
256,192,160679,1,0,0:0:0:0:
256,192,160733,1,0,0:0:0:0:
256,192,160786,1,8,0:0:0:0:
256,192,160893,1,4,0:0:0:0:
256,192,161001,1,8,0:0:0:0:
256,192,161108,1,0,0:0:0:0:
320,160,161161,1,0,0:0:0:0:
320,160,161215,1,0,0:0:0:0:
288,128,161322,1,8,0:0:0:0:
320,160,161376,1,0,0:0:0:0:
352,160,161429,1,0,0:0:0:0:
352,160,161483,1,0,0:0:0:0:
320,96,161536,1,8,0:0:0:0:
352,160,161643,1,0,0:0:0:0:
256,192,161751,1,12,0:0:0:0:
320,128,161965,1,0,0:0:0:0:
192,192,162072,1,8,0:0:0:0:
224,192,162179,1,0,0:0:0:0:
256,192,162233,1,0,0:0:0:0:
256,192,162286,1,8,0:0:0:0:
256,192,162393,1,0,0:0:0:0:
256,192,162447,1,0,0:0:0:0:
256,192,162501,1,0,0:0:0:0:
320,160,162608,1,8,0:0:0:0:
320,160,162661,1,8,0:0:0:0:
352,160,162715,1,0,0:0:0:0:
256,160,162768,1,8,0:0:0:0:
320,128,162822,1,0,0:0:0:0:
256,128,162876,1,0,0:0:0:0:
256,160,162929,1,8,0:0:0:0:
256,160,163036,1,0,0:0:0:0:
320,192,163090,1,0,0:0:0:0:
256,160,163143,1,0,0:0:0:0:
256,160,163251,1,8,0:0:0:0:
256,160,163304,1,8,0:0:0:0:
480,288,163358,1,0,0:0:0:0:
384,224,163465,1,8,0:0:0:0:
288,160,163518,1,8,0:0:0:0:
288,160,163572,1,8,0:0:0:0:
288,192,163626,1,8,0:0:0:0:
384,160,163679,1,0,0:0:0:0:
384,160,163786,1,0,0:0:0:0:
192,192,163893,1,8,0:0:0:0:
320,128,163947,1,8,0:0:0:0:
352,128,164001,1,0,0:0:0:0:
352,128,164108,1,8,0:0:0:0:
320,160,164161,1,8,0:0:0:0:
320,128,164215,1,8,0:0:0:0:
320,128,164322,1,0,0:0:0:0:
352,160,164376,1,0,0:0:0:0:
352,160,164429,1,8,0:0:0:0:
352,63,164483,1,8,0:0:0:0:
288,128,164536,1,0,0:0:0:0:
256,192,164643,1,8,0:0:0:0:
288,192,164751,1,0,0:0:0:0:
320,128,164804,1,0,0:0:0:0:
320,160,164858,1,8,0:0:0:0:
320,160,164965,1,0,0:0:0:0:
320,128,165018,1,0,0:0:0:0:
288,160,165072,1,0,0:0:0:0:
288,192,165179,1,8,0:0:0:0:
238,188,165233,1,8,0:0:0:0:
320,160,165286,1,0,0:0:0:0:
256,160,165340,1,0,0:0:0:0:
320,160,165393,1,8,0:0:0:0:
224,160,165447,1,0,0:0:0:0:
384,192,165501,1,0,0:0:0:0:
352,128,165554,1,0,0:0:0:0:
352,192,165608,1,8,0:0:0:0:
320,192,165715,1,0,0:0:0:0:
352,160,165822,1,8,0:0:0:0:
320,160,165876,1,8,0:0:0:0:
352,160,165929,1,0,0:0:0:0:
320,160,166036,1,8,0:0:0:0:
352,160,166090,1,8,0:0:0:0:
265,150,166143,1,8,0:0:0:0:
265,150,166197,1,8,0:0:0:0:
235,148,166251,1,0,0:0:0:0:
234,148,166304,1,0,0:0:0:0:
320,160,166358,1,8,0:0:0:0:
320,128,166465,1,0,0:0:0:0:
352,192,166518,1,0,0:0:0:0:
320,160,166572,1,0,0:0:0:0:
256,160,166679,1,8,0:0:0:0:
320,160,166733,1,8,0:0:0:0:
352,96,166786,1,0,0:0:0:0:
352,96,166893,1,12,0:0:0:0:
192,192,167108,1,0,0:0:0:0:
192,192,167205,1,0,0:0:0:0:
192,192,167306,1,8,0:0:0:0:
192,192,167407,1,0,0:0:0:0:
192,192,167511,1,8,0:0:0:0:
192,160,167719,1,12,0:0:0:0:
256,192,168149,1,8,0:0:0:0:
256,192,168253,1,8,0:0:0:0:
256,192,168357,1,0,0:0:0:0:
256,192,168411,1,0,0:0:0:0:
256,192,168465,1,8,0:0:0:0:
256,192,168602,1,0,0:0:0:0:
256,192,168722,1,0,0:0:0:0:
256,96,169037,1,12,0:0:0:0:
256,192,169251,1,8,0:0:0:0:
256,192,169358,1,0,0:0:0:0:
256,192,169412,1,0,0:0:0:0:
256,192,169465,1,8,0:0:0:0:
256,192,169572,1,0,0:0:0:0:
256,192,169679,1,8,0:0:0:0:
256,192,169733,1,0,0:0:0:0:
256,192,169787,1,0,0:0:0:0:
256,192,169840,1,0,0:0:0:0:
256,192,169894,1,8,0:0:0:0:
256,192,170001,1,0,0:0:0:0:
256,192,170108,1,8,0:0:0:0:
256,192,170162,1,8,0:0:0:0:
256,192,170215,1,0,0:0:0:0:
256,192,170324,1,8,0:0:0:0:
256,192,170431,1,0,0:0:0:0:
256,192,170645,1,8,0:0:0:0:
256,192,170752,1,8,0:0:0:0:
256,192,170859,1,0,0:0:0:0:
256,192,170966,1,8,0:0:0:0:
256,192,171020,1,8,0:0:0:0:
256,192,171074,1,0,0:0:0:0:
256,192,171181,1,8,0:0:0:0:
256,192,171395,1,8,0:0:0:0:
256,192,171502,1,0,0:0:0:0:
256,192,171609,1,8,0:0:0:0:
256,192,171663,1,8,0:0:0:0:
256,192,171716,1,0,0:0:0:0:
256,192,171770,1,0,0:0:0:0:
256,192,171824,1,8,0:0:0:0:
256,192,171931,1,0,0:0:0:0:
256,192,172038,1,8,0:0:0:0:
256,192,172145,1,8,0:0:0:0:
256,192,172359,1,0,0:0:0:0:
256,192,172466,1,8,0:0:0:0:
256,192,172574,1,0,0:0:0:0:
256,192,172627,1,0,0:0:0:0:
256,192,172681,1,8,0:0:0:0:
256,192,172788,1,0,0:0:0:0:
256,192,172895,1,8,0:0:0:0:
256,192,172949,1,8,0:0:0:0:
256,192,173002,1,0,0:0:0:0:
256,192,173216,1,0,0:0:0:0:
256,192,173324,1,8,0:0:0:0:
256,192,173431,1,0,0:0:0:0:
256,192,173484,1,0,0:0:0:0:
256,192,173538,1,8,0:0:0:0:
256,192,173591,1,8,0:0:0:0:
256,192,173645,1,0,0:0:0:0:
256,192,173752,1,8,0:0:0:0:
256,192,173859,1,0,0:0:0:0:
256,192,174074,1,0,0:0:0:0:
256,192,174181,1,8,0:0:0:0:
256,192,174288,1,0,0:0:0:0:
256,192,174341,1,0,0:0:0:0:
256,192,174395,1,0,0:0:0:0:
256,192,174502,1,8,0:0:0:0:
256,192,174609,1,0,0:0:0:0:
256,192,174716,1,8,0:0:0:0:
256,192,174931,1,8,0:0:0:0:
256,192,175038,1,0,0:0:0:0:
256,192,175091,1,0,0:0:0:0:
256,192,175145,1,0,0:0:0:0:
256,192,175252,1,8,0:0:0:0:
256,192,175359,1,8,0:0:0:0:
256,96,175466,1,4,0:0:0:0:
256,192,175680,1,0,0:0:0:0:
256,192,175787,1,8,0:0:0:0:
256,192,175894,1,0,0:0:0:0:
256,192,176001,1,8,0:0:0:0:
256,192,176055,1,0,0:0:0:0:
256,192,176108,1,8,0:0:0:0:
256,192,176162,1,8,0:0:0:0:
256,192,176216,1,0,0:0:0:0:
256,192,176323,1,8,0:0:0:0:
256,192,176537,1,0,0:0:0:0:
256,192,176644,1,8,0:0:0:0:
256,192,176751,1,0,0:0:0:0:
256,192,176805,1,0,0:0:0:0:
256,192,176858,1,8,0:0:0:0:
256,192,176966,1,0,0:0:0:0:
256,192,177073,1,8,0:0:0:0:
256,192,177180,1,0,0:0:0:0:
256,192,177287,1,8,0:0:0:0:
256,192,177501,1,8,0:0:0:0:
256,192,177608,1,0,0:0:0:0:
256,192,177716,1,8,0:0:0:0:
256,192,177769,1,0,0:0:0:0:
256,192,177823,1,8,0:0:0:0:
256,192,177930,1,0,0:0:0:0:
256,192,178037,1,8,0:0:0:0:
256,192,178091,1,8,0:0:0:0:
256,192,178144,1,0,0:0:0:0:
256,192,178198,1,0,0:0:0:0:
256,192,178251,1,8,0:0:0:0:
256,192,178358,1,0,0:0:0:0:
256,192,178466,1,8,0:0:0:0:
256,192,178519,1,8,0:0:0:0:
256,192,178573,1,0,0:0:0:0:
256,192,178680,1,8,0:0:0:0:
256,192,178733,1,8,0:0:0:0:
256,192,178787,1,8,0:0:0:0:
256,192,178894,1,0,0:0:0:0:
256,192,178948,1,0,0:0:0:0:
256,192,179001,1,0,0:0:0:0:
256,192,179055,1,0,0:0:0:0:
256,192,179108,1,8,0:0:0:0:
256,192,179216,1,0,0:0:0:0:
256,192,179323,1,8,0:0:0:0:
256,192,179430,1,0,0:0:0:0:
256,192,179537,1,8,0:0:0:0:
256,192,179591,1,8,0:0:0:0:
256,192,179644,1,8,0:0:0:0:
256,192,179751,1,0,0:0:0:0:
256,192,179805,1,0,0:0:0:0:
256,192,179858,1,8,0:0:0:0:
256,192,179912,1,8,0:0:0:0:
256,192,179966,1,0,0:0:0:0:
256,192,180073,1,8,0:0:0:0:
256,192,180180,1,0,0:0:0:0:
256,192,180287,1,0,0:0:0:0:
256,192,180394,1,8,0:0:0:0:
256,192,180448,1,8,0:0:0:0:
256,192,180501,1,0,0:0:0:0:
256,192,180555,1,8,0:0:0:0:
256,192,180608,1,0,0:0:0:0:
256,192,180662,1,0,0:0:0:0:
256,192,180716,1,8,0:0:0:0:
256,192,180823,1,0,0:0:0:0:
256,192,180930,1,8,0:0:0:0:
256,192,180983,1,8,0:0:0:0:
256,192,181037,1,0,0:0:0:0:
256,192,181144,1,8,0:0:0:0:
256,192,181251,1,0,0:0:0:0:
256,192,181467,1,8,0:0:0:0:
256,192,181571,1,8,0:0:0:0:
256,192,181676,1,8,0:0:0:0:
256,192,181778,1,8,0:0:0:0:
256,192,181880,1,8,0:0:0:0:
256,192,181982,1,8,0:0:0:0:
256,192,182091,1,8,0:0:0:0:
256,192,182195,1,8,0:0:0:0:
256,192,184039,5,0,0:0:0:0:
256,192,184467,1,8,0:0:0:0:
288,192,184789,1,0,0:0:0:0:
288,192,184896,1,8,0:0:0:0:
288,192,185110,1,0,0:0:0:0:
288,192,185324,1,8,0:0:0:0:
288,192,185431,1,8,0:0:0:0:
288,192,185539,1,0,0:0:0:0:
224,192,185860,1,8,0:0:0:0:
224,192,185967,1,8,0:0:0:0:
224,192,186181,1,0,0:0:0:0:
224,192,186503,1,0,0:0:0:0:
224,192,186610,1,8,0:0:0:0:
288,192,186717,1,8,0:0:0:0:
224,192,186824,1,0,0:0:0:0:
224,192,187039,1,8,0:0:0:0:
256,192,187253,1,8,0:0:0:0:
256,192,187360,1,8,0:0:0:0:
256,192,187467,1,0,0:0:0:0:
288,192,187896,1,8,0:0:0:0:
288,192,188217,1,0,0:0:0:0:
288,192,188324,1,8,0:0:0:0:
288,192,188539,1,0,0:0:0:0:
288,192,188753,1,8,0:0:0:0:
288,192,188967,1,8,0:0:0:0:
288,192,189289,1,8,0:0:0:0:
288,192,189396,1,0,0:0:0:0:
288,192,189610,1,8,0:0:0:0:
288,192,189931,1,0,0:0:0:0:
288,192,190039,1,8,0:0:0:0:
288,224,190146,1,0,0:0:0:0:
320,192,190253,1,8,0:0:0:0:
320,192,190467,1,0,0:0:0:0:
320,192,190681,1,8,0:0:0:0:
320,192,190789,1,8,0:0:0:0:
320,192,190896,1,0,0:0:0:0:
256,192,191324,1,0,0:0:0:0:
256,192,191646,1,8,0:0:0:0:
256,192,191753,1,0,0:0:0:0:
256,192,191967,1,8,0:0:0:0:
256,192,192181,1,8,0:0:0:0:
256,192,192396,1,0,0:0:0:0:
256,192,192610,1,8,0:0:0:0:
256,192,192717,1,8,0:0:0:0:
256,192,192824,1,8,0:0:0:0:
256,192,193039,1,0,0:0:0:0:
256,192,193360,1,0,0:0:0:0:
256,192,193467,1,8,0:0:0:0:
256,192,193681,1,8,0:0:0:0:
256,192,193896,1,0,0:0:0:0:
256,192,194110,1,8,0:0:0:0:
256,192,194217,1,0,0:0:0:0:
256,192,194324,1,8,0:0:0:0:
256,192,194753,1,0,0:0:0:0:
288,192,195074,1,0,0:0:0:0:
288,192,195181,1,8,0:0:0:0:
288,192,195396,1,0,0:0:0:0:
288,192,195610,1,0,0:0:0:0:
288,192,195824,1,8,0:0:0:0:
288,192,196253,1,8,0:0:0:0:
288,192,196467,1,0,0:0:0:0:
288,192,196574,1,0,0:0:0:0:
288,192,196681,1,8,0:0:0:0:
288,192,196896,1,0,0:0:0:0:
288,192,197110,1,8,0:0:0:0:
320,192,197324,1,8,0:0:0:0:
288,192,197539,1,0,0:0:0:0:
256,192,197753,12,8,199039,0:0:0:0:
