osu file format v14

[General]
AudioFilename: audio.mp3
AudioLeadIn: 0
PreviewTime: 71371
Countdown: 0
SampleSet: Normal
StackLeniency: 0.7
Mode: 1
LetterboxInBreaks: 0
WidescreenStoryboard: 1

[Editor]
Bookmarks: 16031,45174,72603,86317,100032,113746,127460,141174,154889,169032,182917
DistanceSpacing: 0.3
BeatDivisor: 4
GridSize: 32
TimelineZoom: 1.499999

[Metadata]
Title:Tsuki ga Michiru
TitleUnicode:月が満ちる
Artist:Tsukuyomi
ArtistUnicode:月詠み
Creator:arcpotato
Version:Oni
Source:
Tags:ツクヨミ 2943 hivie kyex japanese rock j-rock jrock pop j-pop jpop sing the moon YurryCanon yurry canon ユリイカノン ユリイ・カノン yue エポック epoch とうかさ toukasa なおk naok
BeatmapID:3964066
BeatmapSetID:1916119

[Difficulty]
HPDrainRate:6
CircleSize:2
OverallDifficulty:5.5
ApproachRate:10
SliderMultiplier:1.4
SliderTickRate:1

[Events]
//Background and Video events
0,0,"100979531_p0.jpg",0,-30
//Break Periods
2,65951,68729
2,134317,137301
2,141379,145872
2,153701,154443
//Storyboard Layer 0 (Background)
//Storyboard Layer 1 (Fail)
//Storyboard Layer 2 (Pass)
//Storyboard Layer 3 (Foreground)
//Storyboard Layer 4 (Overlay)
//Storyboard Sound Samples

[TimingPoints]
14323,428.571428571429,4,1,0,50,1,0
14323,-100,4,1,0,50,0,0
16037,428.571428571429,4,1,0,70,1,0
16037,-83.3333333333333,4,1,0,70,0,0
17322,-100,4,1,0,70,0,0
17751,428.571428571429,4,1,0,70,1,0
17751,-83.3333333333333,4,1,0,70,0,0
31465,-76.9230769230769,4,1,0,70,0,0
45179,-76.9230769230769,4,1,0,70,0,0
45394,-83.3333333333333,4,1,0,70,0,0
57179,-76.9230769230769,4,1,0,70,0,0
58037,-125,4,1,0,55,0,0
65858,-125,4,1,0,20,0,0
69176,-90.9090909090909,4,1,0,70,0,0
69498,-87.908144958737,4,1,0,70,0,0
69712,-86.0209660430356,4,1,0,70,0,0
69819,-85.1074388367823,4,1,0,70,0,0
70034,-83.3292842913367,4,1,0,70,0,0
70355,-80.8085567544645,4,1,0,70,0,0
70676,-78.4358563914933,4,1,0,70,0,0
70891,-74.0740740740741,4,1,0,70,0,0
71215,-71.4285714285714,4,1,0,70,0,0
71536,-68.9655172413793,4,1,0,70,0,0
72153,-100,4,1,0,50,0,0
72608,-76.9230769230769,4,1,0,80,0,1
85465,-76.9230769230769,4,1,0,80,0,0
86322,-76.9230769230769,4,1,0,70,0,0
98748,-76.9230769230769,4,1,0,60,0,0
98962,-75.9508622726199,4,1,0,60,0,0
99176,-75.0029161320425,4,1,0,60,0,0
99391,-74.0740740740741,4,1,0,60,0,0
99605,-73.172119487909,4,1,0,60,0,0
99819,-72.2918657597392,4,1,0,60,0,0
100034,-71.4285714285714,4,1,0,60,0,0
101751,-90.9090909090909,4,1,0,60,0,0
102822,-100,4,1,0,60,0,0
103465,-90.9090909090909,4,1,0,60,0,0
104322,-100,4,1,0,60,0,0
105393,-90.9090909090909,4,1,0,60,0,0
106893,-83.3333333333333,4,1,0,60,0,0
112010,-76.9230769230769,4,1,0,60,0,0
113001,-83.3333333333333,4,1,0,60,0,0
113750,-76.9230769230769,4,1,0,80,0,0
113751,-76.9230769230769,4,1,0,80,0,1
127465,-76.9230769230769,4,1,0,80,0,0
127679,-100,4,1,0,60,0,0
134322,-111.111111111111,4,1,0,20,0,0
137319,-100,4,1,0,70,0,0
137748,-90.9090909090909,4,1,0,70,0,0
138069,-87.9154698399672,4,1,0,70,0,0
138390,-85.1127222167047,4,1,0,70,0,0
138605,-83.3333333333333,4,1,0,70,0,0
138819,-81.6345970661078,4,1,0,70,0,0
138926,-80.8109382366808,4,1,0,70,0,0
139033,-80.0037341299477,4,1,0,70,0,0
139140,-79.2124965338756,4,1,0,70,0,0
139248,-78.4295781092706,4,1,0,70,0,0
139462,-74.0740740740741,4,1,0,70,0,0
139786,-71.4285714285714,4,1,0,70,0,0
140108,-68.9655172413793,4,1,0,70,0,0
141179,-100,4,1,0,50,0,0
141394,-111.111111111111,4,1,0,50,0,0
146269,-83.3333333333333,4,1,0,70,0,0
146697,-100,4,1,0,50,0,0
146858,-100,4,1,0,70,0,0
147608,-83.3333333333333,4,1,0,70,0,0
147929,-100,4,1,0,60,0,0
148465,-76.9230769230769,4,1,0,80,0,1
153179,-71.4285714285714,4,1,0,80,0,0
153822,-100,4,1,0,50,0,0
154893,-76.9230769230769,4,1,0,80,0,1
161750,-71.4285714285714,4,1,0,80,0,1
165394,-76.9230769230769,4,1,0,80,0,1
167108,389.61038961039,4,1,0,80,1,9
167108,-84.6153846153846,4,1,0,80,0,9
167205,405.405405405405,4,1,0,80,1,9
167205,-81.3186813186815,4,1,0,80,0,9
167407,416.666666666667,4,1,0,80,1,9
167407,-79.1208791208791,4,1,0,80,0,9
167508,-79.1208791208791,4,1,0,80,0,9
167719,-79.1208791208791,4,1,0,80,0,0
168149,416.666666666667,4,1,0,60,1,8
168357,434.782608695652,4,1,0,70,1,8
168465,550.45871559633,4,1,0,70,1,8
168602,550.45871559633,4,1,0,70,1,0
168602,-71.4285714285714,4,1,0,70,0,0
168722,416.666666666667,4,1,0,70,1,8
169031,-79.1208791208791,4,1,0,70,0,8
169037,428.571428571429,4,1,0,70,1,8
169037,-76.9230769230769,4,1,0,70,0,0
169462,-76.9230769230769,4,1,0,70,0,0
170324,428.571428571429,4,1,0,70,1,0
170324,-76.9230769230769,4,1,0,70,0,0
175466,428.571428571429,4,1,0,70,1,0
175466,-76.9230769230769,4,1,0,70,0,0
181467,416.666666666667,4,1,0,70,1,8
181467,-79.1208791208791,4,1,0,70,0,8
181571,405.405405405405,4,1,0,70,1,8
181676,408.163265306122,4,1,0,70,1,8
181676,-80.223492600072,4,1,0,70,0,8
181775,-78.2133843062693,4,1,0,70,0,8
181877,-76.3015457053632,4,1,0,70,0,8
181982,437.956204379562,4,1,0,70,1,8
181982,-69.4142116858975,4,1,0,70,0,8
182091,416.666666666667,7,1,0,70,1,8
182091,-71.1468126767709,7,1,0,70,0,8
182192,-69.4980694980694,7,1,0,70,0,8
184039,428.571428571429,4,1,0,35,1,0
197753,-100,4,1,0,20,0,0

[HitObjects]
256,192,16037,5,4,0:0:0:0:
256,192,16358,1,4,0:0:0:0:
256,192,16679,1,12,0:0:0:0:
256,192,17322,1,0,0:0:0:0:
256,192,17751,1,12,0:0:0:0:
256,192,18179,1,0,0:0:0:0:
256,192,18393,1,0,0:0:0:0:
256,192,18608,1,8,0:0:0:0:
256,192,19036,1,0,0:0:0:0:
256,192,19465,1,8,0:0:0:0:
256,192,19893,1,0,0:0:0:0:
256,192,20108,1,0,0:0:0:0:
288,192,20322,1,8,0:0:0:0:
288,160,20536,1,0,0:0:0:0:
288,160,20751,1,8,0:0:0:0:
256,192,20965,1,8,0:0:0:0:
288,160,21179,1,4,0:0:0:0:
256,192,21608,1,8,0:0:0:0:
256,192,21822,1,8,0:0:0:0:
256,192,22036,1,0,0:0:0:0:
256,192,22251,1,0,0:0:0:0:
256,192,22465,1,8,0:0:0:0:
256,192,22893,1,0,0:0:0:0:
256,192,23322,1,8,0:0:0:0:
256,192,23536,1,0,0:0:0:0:
256,192,23751,1,8,0:0:0:0:
256,192,23965,1,8,0:0:0:0:
256,192,24179,1,4,0:0:0:0:
256,192,24608,1,12,0:0:0:0:
256,192,25036,1,0,0:0:0:0:
256,192,25251,1,0,0:0:0:0:
256,192,25465,1,8,0:0:0:0:
256,192,25893,1,0,0:0:0:0:
256,192,26108,1,8,0:0:0:0:
256,192,26322,1,0,0:0:0:0:
256,192,26751,1,8,0:0:0:0:
256,192,26965,1,0,0:0:0:0:
256,192,27179,1,0,0:0:0:0:
256,192,27393,1,0,0:0:0:0:
256,192,27608,1,8,0:0:0:0:
256,192,27822,1,8,0:0:0:0:
256,192,28036,1,4,0:0:0:0:
256,192,28465,1,8,0:0:0:0:
256,192,28679,1,8,0:0:0:0:
256,192,28893,1,0,0:0:0:0:
256,192,29322,1,8,0:0:0:0:
256,192,29536,1,8,0:0:0:0:
256,192,29751,1,0,0:0:0:0:
288,160,29965,1,0,0:0:0:0:
288,160,30179,1,8,0:0:0:0:
288,160,30393,1,8,0:0:0:0:
288,160,30608,1,4,0:0:0:0:
256,192,31465,1,12,0:0:0:0:
288,192,31786,1,8,0:0:0:0:
256,192,32001,1,0,0:0:0:0:
288,192,32108,1,8,0:0:0:0:
288,192,32322,1,0,0:0:0:0:
256,192,32536,1,0,0:0:0:0:
256,192,32751,1,8,0:0:0:0:
256,192,33179,1,0,0:0:0:0:
288,192,33286,1,8,0:0:0:0:
288,192,33501,1,0,0:0:0:0:
256,192,33715,1,8,0:0:0:0:
256,192,33822,1,8,0:0:0:0:
256,192,33929,1,0,0:0:0:0:
256,192,34036,1,0,0:0:0:0:
256,192,34143,1,0,0:0:0:0:
288,192,34358,1,8,0:0:0:0:
288,192,34572,1,0,0:0:0:0:
256,192,34679,1,8,0:0:0:0:
256,192,34893,1,0,0:0:0:0:
256,192,35215,1,8,0:0:0:0:
256,192,35429,1,0,0:0:0:0:
288,192,35536,1,8,0:0:0:0:
288,192,35751,1,0,0:0:0:0:
256,192,35965,1,8,0:0:0:0:
256,192,36179,1,0,0:0:0:0:
288,192,36608,1,8,0:0:0:0:
256,192,36715,1,8,0:0:0:0:
256,192,36929,1,0,0:0:0:0:
256,192,37143,1,8,0:0:0:0:
288,192,37251,1,8,0:0:0:0:
288,160,37465,1,0,0:0:0:0:
256,192,37572,1,0,0:0:0:0:
288,192,37679,1,8,0:0:0:0:
320,192,37893,1,8,0:0:0:0:
320,192,38001,1,8,0:0:0:0:
320,192,38108,1,0,0:0:0:0:
288,192,38322,1,12,0:0:0:0:
288,192,38643,1,0,0:0:0:0:
224,192,38858,1,8,0:0:0:0:
288,192,38965,1,0,0:0:0:0:
288,192,39179,1,8,0:0:0:0:
224,192,39393,1,0,0:0:0:0:
224,160,39608,1,8,0:0:0:0:
224,160,40036,1,0,0:0:0:0:
224,192,40143,1,0,0:0:0:0:
224,160,40358,1,8,0:0:0:0:
288,192,40572,1,8,0:0:0:0:
224,160,40679,1,0,0:0:0:0:
256,160,40786,1,0,0:0:0:0:
288,192,40893,1,0,0:0:0:0:
224,192,41001,1,8,0:0:0:0:
224,192,41215,1,0,0:0:0:0:
256,160,41429,1,8,0:0:0:0:
256,160,41536,1,8,0:0:0:0:
256,160,41751,1,0,0:0:0:0:
288,192,42072,1,8,0:0:0:0:
224,192,42286,1,0,0:0:0:0:
288,192,42393,1,8,0:0:0:0:
288,192,42608,1,0,0:0:0:0:
256,192,42822,1,8,0:0:0:0:
288,192,43036,1,8,0:0:0:0:
224,192,43465,1,8,0:0:0:0:
224,192,43572,1,8,0:0:0:0:
224,192,43786,1,0,0:0:0:0:
256,192,44108,1,0,0:0:0:0:
256,192,44322,1,8,0:0:0:0:
256,192,44536,1,0,0:0:0:0:
256,192,44643,1,0,0:0:0:0:
256,192,44751,1,0,0:0:0:0:
256,192,45179,1,12,0:0:0:0:
288,160,45608,1,0,0:0:0:0:
224,160,45822,1,8,0:0:0:0:
288,160,46036,1,0,0:0:0:0:
256,160,46143,1,8,0:0:0:0:
256,160,46358,1,8,0:0:0:0:
256,160,46465,1,0,0:0:0:0:
256,192,46679,1,8,0:0:0:0:
256,192,46893,1,0,0:0:0:0:
256,192,47108,1,8,0:0:0:0:
256,192,47322,1,0,0:0:0:0:
256,160,47536,1,8,0:0:0:0:
256,160,47643,1,0,0:0:0:0:
256,160,47751,1,8,0:0:0:0:
256,160,47858,1,8,0:0:0:0:
256,192,47965,1,0,0:0:0:0:
320,192,48179,1,8,0:0:0:0:
288,192,48393,1,8,0:0:0:0:
288,192,48608,1,0,0:0:0:0:
288,192,49036,1,8,0:0:0:0:
320,192,49251,1,0,0:0:0:0:
288,192,49465,1,8,0:0:0:0:
288,192,49572,1,0,0:0:0:0:
256,192,49786,1,8,0:0:0:0:
288,192,49893,1,8,0:0:0:0:
256,192,50108,1,0,0:0:0:0:
256,192,50322,1,8,0:0:0:0:
256,192,50536,1,0,0:0:0:0:
256,192,50643,1,0,0:0:0:0:
256,192,50751,1,8,0:0:0:0:
256,192,50858,1,0,0:0:0:0:
256,192,50965,1,8,0:0:0:0:
288,160,51179,1,0,0:0:0:0:
288,160,51286,1,8,0:0:0:0:
256,192,51393,1,0,0:0:0:0:
288,160,51608,1,8,0:0:0:0:
288,160,51822,1,8,0:0:0:0:
288,192,51929,1,8,0:0:0:0:
288,160,52036,1,4,0:0:0:0:
320,128,52465,1,0,0:0:0:0:
320,128,52679,1,8,0:0:0:0:
288,160,52893,1,0,0:0:0:0:
320,160,53001,1,0,0:0:0:0:
320,160,53215,1,8,0:0:0:0:
320,160,53322,1,0,0:0:0:0:
256,192,53536,1,8,0:0:0:0:
288,160,53751,1,8,0:0:0:0:
256,192,53965,1,0,0:0:0:0:
256,192,54179,1,0,0:0:0:0:
256,160,54393,1,8,0:0:0:0:
256,192,54501,1,8,0:0:0:0:
288,192,54608,1,0,0:0:0:0:
288,192,54715,1,0,0:0:0:0:
256,192,54822,1,8,0:0:0:0:
256,192,55036,1,0,0:0:0:0:
256,192,55251,1,0,0:0:0:0:
256,192,55465,1,12,0:0:0:0:
256,160,55893,1,8,0:0:0:0:
256,160,56108,1,0,0:0:0:0:
256,192,56322,1,8,0:0:0:0:
256,192,56429,1,8,0:0:0:0:
288,192,56643,1,0,0:0:0:0:
288,192,56751,1,8,0:0:0:0:
288,192,56858,1,8,0:0:0:0:
256,192,56965,1,0,0:0:0:0:
256,192,57179,1,12,0:0:0:0:
256,192,57501,1,12,0:0:0:0:
256,192,57822,1,4,0:0:0:0:
256,192,58893,5,4,0:0:0:0:
256,192,59215,1,8,0:0:0:0:
288,160,59536,1,8,0:0:0:0:
256,192,59751,1,0,0:0:0:0:
256,192,60072,1,0,0:0:0:0:
256,192,60393,1,0,0:0:0:0:
256,192,60608,1,8,0:0:0:0:
256,192,60929,1,8,0:0:0:0:
256,192,61251,1,8,0:0:0:0:
256,192,61465,1,0,0:0:0:0:
256,192,61893,1,0,0:0:0:0:
256,192,62108,1,0,0:0:0:0:
256,192,62322,1,12,0:0:0:0:
256,192,62536,1,0,0:0:0:0:
256,192,62643,1,8,0:0:0:0:
256,192,62965,1,0,0:0:0:0:
256,192,63179,1,8,0:0:0:0:
256,192,63501,1,0,0:0:0:0:
256,192,63822,1,0,0:0:0:0:
256,192,64036,1,8,0:0:0:0:
288,192,64251,1,0,0:0:0:0:
256,192,64465,1,8,0:0:0:0:
256,192,64679,1,8,0:0:0:0:
256,192,64893,1,0,0:0:0:0:
256,192,65322,1,0,0:0:0:0:
256,192,65751,1,8,0:0:0:0:
256,192,69179,5,12,0:0:0:0:
256,192,69501,1,12,0:0:0:0:
256,192,69715,1,0,0:0:0:0:
256,192,69822,1,8,0:0:0:0:
256,192,70036,1,0,0:0:0:0:
256,192,70358,1,8,0:0:0:0:
256,192,70679,1,8,0:0:0:0:
256,192,70893,1,4,0:0:0:0:
256,192,71215,1,4,0:0:0:0:
256,192,71536,1,12,0:0:0:0:
256,192,72179,1,0,0:0:0:0:
256,192,72608,5,12,0:0:0:0:
256,192,73036,1,0,0:0:0:0:
288,192,73251,1,8,0:0:0:0:
256,192,73465,1,0,0:0:0:0:
256,192,73572,1,0,0:0:0:0:
320,160,73786,1,8,0:0:0:0:
256,192,73893,1,0,0:0:0:0:
288,192,74108,1,8,0:0:0:0:
288,192,74322,1,0,0:0:0:0:
288,192,74429,1,0,0:0:0:0:
288,192,74536,1,0,0:0:0:0:
288,192,74751,1,8,0:0:0:0:
288,160,74858,1,8,0:0:0:0:
288,160,74965,1,0,0:0:0:0:
288,192,75072,1,0,0:0:0:0:
256,192,75179,1,8,0:0:0:0:
288,160,75286,1,8,0:0:0:0:
320,160,75393,1,0,0:0:0:0:
256,192,75608,1,8,0:0:0:0:
288,160,75715,1,0,0:0:0:0:
256,192,75822,1,8,0:0:0:0:
256,192,76036,1,0,0:0:0:0:
256,192,76465,1,0,0:0:0:0:
256,192,76679,1,0,0:0:0:0:
256,192,76893,1,8,0:0:0:0:
288,160,77001,1,0,0:0:0:0:
256,192,77215,1,0,0:0:0:0:
256,192,77322,1,8,0:0:0:0:
256,192,77536,1,8,0:0:0:0:
256,192,77751,1,4,0:0:0:0:
288,192,77965,1,8,0:0:0:0:
288,192,78072,1,0,0:0:0:0:
256,192,78179,1,8,0:0:0:0:
256,192,78393,1,0,0:0:0:0:
288,160,78501,1,0,0:0:0:0:
256,192,78608,1,12,0:0:0:0:
256,192,78822,1,0,0:0:0:0:
256,192,79036,1,8,0:0:0:0:
288,160,79143,1,8,0:0:0:0:
256,192,79251,1,8,0:0:0:0:
288,160,79358,1,8,0:0:0:0:
256,192,79465,1,4,0:0:0:0:
384,192,79893,1,8,0:0:0:0:
384,192,80108,1,8,0:0:0:0:
352,192,80322,1,0,0:0:0:0:
288,160,80429,1,8,0:0:0:0:
288,160,80643,1,8,0:0:0:0:
256,192,80751,1,0,0:0:0:0:
288,160,80965,1,8,0:0:0:0:
288,160,81179,1,0,0:0:0:0:
288,160,81286,1,8,0:0:0:0:
320,160,81393,1,8,0:0:0:0:
256,160,81608,1,0,0:0:0:0:
224,192,81715,1,0,0:0:0:0:
288,160,81822,1,8,0:0:0:0:
288,160,81929,1,8,0:0:0:0:
288,160,82036,1,0,0:0:0:0:
288,192,82143,1,0,0:0:0:0:
288,160,82251,1,8,0:0:0:0:
320,160,82465,1,0,0:0:0:0:
288,160,82572,1,0,0:0:0:0:
288,160,82679,1,8,0:0:0:0:
288,128,82893,1,0,0:0:0:0:
256,160,83322,1,0,0:0:0:0:
256,160,83536,1,0,0:0:0:0:
256,160,83751,1,8,0:0:0:0:
288,192,83858,1,8,0:0:0:0:
288,160,84072,1,0,0:0:0:0:
288,160,84179,1,8,0:0:0:0:
256,160,84393,1,8,0:0:0:0:
256,160,84608,1,4,0:0:0:0:
256,128,84822,1,8,0:0:0:0:
288,160,84929,1,8,0:0:0:0:
256,128,85036,1,0,0:0:0:0:
256,128,85143,1,0,0:0:0:0:
288,160,85251,1,0,0:0:0:0:
288,160,85465,1,8,0:0:0:0:
256,192,86322,1,12,0:0:0:0:
288,192,86643,1,8,0:0:0:0:
256,192,86858,1,0,0:0:0:0:
288,192,86965,1,8,0:0:0:0:
288,192,87179,1,0,0:0:0:0:
256,192,87393,1,0,0:0:0:0:
256,192,87608,1,8,0:0:0:0:
256,192,88036,1,0,0:0:0:0:
288,192,88143,1,8,0:0:0:0:
288,192,88358,1,0,0:0:0:0:
256,192,88572,1,8,0:0:0:0:
256,192,88679,1,8,0:0:0:0:
288,192,88786,1,0,0:0:0:0:
256,192,88893,1,0,0:0:0:0:
256,192,89001,1,0,0:0:0:0:
288,192,89215,1,8,0:0:0:0:
288,192,89429,1,0,0:0:0:0:
256,192,89536,1,8,0:0:0:0:
256,192,89751,1,0,0:0:0:0:
256,192,90072,1,8,0:0:0:0:
256,192,90286,1,0,0:0:0:0:
288,192,90393,1,8,0:0:0:0:
288,192,90608,1,0,0:0:0:0:
256,192,90822,1,8,0:0:0:0:
256,192,91036,1,0,0:0:0:0:
288,192,91465,1,8,0:0:0:0:
256,192,91572,1,8,0:0:0:0:
256,192,91786,1,0,0:0:0:0:
256,192,92001,1,8,0:0:0:0:
288,192,92108,1,8,0:0:0:0:
288,160,92322,1,0,0:0:0:0:
288,192,92429,1,8,0:0:0:0:
288,192,92536,1,0,0:0:0:0:
320,192,92751,1,8,0:0:0:0:
320,192,92858,1,8,0:0:0:0:
320,192,92965,1,0,0:0:0:0:
288,192,93179,1,12,0:0:0:0:
288,192,93501,1,0,0:0:0:0:
224,192,93715,1,8,0:0:0:0:
288,192,93822,1,0,0:0:0:0:
288,192,94036,1,8,0:0:0:0:
224,192,94251,1,0,0:0:0:0:
224,160,94465,1,8,0:0:0:0:
224,160,94893,1,0,0:0:0:0:
224,192,95001,1,0,0:0:0:0:
224,160,95215,1,8,0:0:0:0:
288,192,95429,1,8,0:0:0:0:
224,160,95536,1,0,0:0:0:0:
256,160,95643,1,8,0:0:0:0:
288,192,95751,1,0,0:0:0:0:
224,192,95858,1,8,0:0:0:0:
224,192,96072,1,0,0:0:0:0:
256,160,96286,1,8,0:0:0:0:
256,160,96393,1,8,0:0:0:0:
256,160,96608,1,0,0:0:0:0:
288,192,96929,1,8,0:0:0:0:
224,192,97143,1,0,0:0:0:0:
288,192,97251,1,8,0:0:0:0:
288,192,97465,1,0,0:0:0:0:
256,192,97679,1,8,0:0:0:0:
288,192,97893,1,8,0:0:0:0:
224,192,98108,1,0,0:0:0:0:
224,192,98322,1,12,0:0:0:0:
224,192,98751,1,0,0:0:0:0:
256,192,98965,5,0,0:0:0:0:
256,192,99179,1,8,0:0:0:0:
256,192,99393,5,8,0:0:0:0:
256,160,99608,1,0,0:0:0:0:
256,192,99822,1,0,0:0:0:0:
256,192,100036,1,12,0:0:0:0:
224,192,101751,1,12,0:0:0:0:
224,192,102072,1,4,0:0:0:0:
224,192,102393,1,12,0:0:0:0:
224,192,102822,1,8,0:0:0:0:
224,192,103036,1,0,0:0:0:0:
224,192,103251,1,0,0:0:0:0:
224,192,103465,1,12,0:0:0:0:
256,192,104322,1,0,0:0:0:0:
256,192,104751,1,8,0:0:0:0:
256,192,104858,1,8,0:0:0:0:
256,192,104965,1,8,0:0:0:0:
128,160,105072,1,8,0:0:0:0:
256,192,105393,1,12,0:0:0:0:
256,192,105715,1,4,0:0:0:0:
256,192,106036,1,12,0:0:0:0:
256,192,106358,1,12,0:0:0:0:
256,192,106893,1,4,0:0:0:0:
224,192,107322,1,0,0:0:0:0:
224,192,107536,1,8,0:0:0:0:
256,160,107751,1,0,0:0:0:0:
256,192,107858,1,8,0:0:0:0:
256,192,108072,1,8,0:0:0:0:
256,192,108179,1,0,0:0:0:0:
256,160,108393,1,8,0:0:0:0:
256,160,108608,1,4,0:0:0:0:
256,160,108822,1,8,0:0:0:0:
256,192,109036,1,8,0:0:0:0:
256,160,109251,1,0,0:0:0:0:
256,160,109358,1,0,0:0:0:0:
256,192,109465,1,8,0:0:0:0:
256,192,109572,1,8,0:0:0:0:
256,160,109679,1,0,0:0:0:0:
256,160,109893,1,8,0:0:0:0:
256,160,110108,1,8,0:0:0:0:
256,160,110322,1,4,0:0:0:0:
288,160,110751,1,8,0:0:0:0:
256,160,110965,1,8,0:0:0:0:
224,128,111179,1,0,0:0:0:0:
224,128,111286,1,0,0:0:0:0:
256,160,111393,1,8,0:0:0:0:
256,160,111608,1,0,0:0:0:0:
256,128,111822,1,0,0:0:0:0:
288,160,112036,1,12,0:0:0:0:
288,160,112358,1,4,0:0:0:0:
288,160,112679,1,12,0:0:0:0:
256,192,113322,1,0,0:0:0:0:
256,192,113429,1,0,0:0:0:0:
256,192,113536,1,0,0:0:0:0:
256,192,113751,5,12,0:0:0:0:
256,160,114072,1,0,0:0:0:0:
256,192,114179,1,0,0:0:0:0:
224,160,114393,1,8,0:0:0:0:
224,160,114608,1,0,0:0:0:0:
256,160,115036,1,8,0:0:0:0:
256,160,115251,1,8,0:0:0:0:
256,160,115465,1,0,0:0:0:0:
288,160,115572,1,0,0:0:0:0:
256,160,115679,1,8,0:0:0:0:
288,160,115786,1,0,0:0:0:0:
256,160,115893,1,8,0:0:0:0:
256,160,116108,1,0,0:0:0:0:
256,160,116322,1,8,0:0:0:0:
256,160,116536,1,0,0:0:0:0:
256,160,116643,1,0,0:0:0:0:
288,160,116751,1,8,0:0:0:0:
288,160,116965,1,0,0:0:0:0:
288,160,117179,1,8,0:0:0:0:
256,160,117393,1,8,0:0:0:0:
288,160,117501,1,0,0:0:0:0:
288,160,117608,1,0,0:0:0:0:
288,160,117822,1,8,0:0:0:0:
288,160,118036,1,0,0:0:0:0:
160,192,118465,1,0,0:0:0:0:
160,192,118679,1,0,0:0:0:0:
224,192,118893,1,12,0:0:0:0:
256,192,119108,1,0,0:0:0:0:
288,160,119215,1,8,0:0:0:0:
256,192,119322,1,0,0:0:0:0:
256,192,119536,1,8,0:0:0:0:
288,160,119643,1,0,0:0:0:0:
256,192,119751,1,8,0:0:0:0:
256,192,119965,1,0,0:0:0:0:
288,160,120072,1,8,0:0:0:0:
288,160,120179,1,8,0:0:0:0:
288,160,120286,1,8,0:0:0:0:
288,160,120393,1,0,0:0:0:0:
224,192,120608,1,4,0:0:0:0:
288,192,120822,1,8,0:0:0:0:
256,160,121036,1,8,0:0:0:0:
224,160,121143,1,0,0:0:0:0:
256,160,121358,1,8,0:0:0:0:
192,160,121572,1,0,0:0:0:0:
128,192,121679,1,0,0:0:0:0:
224,192,121893,1,8,0:0:0:0:
256,160,122108,1,0,0:0:0:0:
256,160,122322,1,8,0:0:0:0:
224,192,122536,1,8,0:0:0:0:
224,192,122751,1,0,0:0:0:0:
224,192,122858,1,0,0:0:0:0:
256,160,123072,1,8,0:0:0:0:
224,160,123286,1,0,0:0:0:0:
288,128,123393,1,8,0:0:0:0:
224,160,123608,1,8,0:0:0:0:
224,128,124036,1,4,0:0:0:0:
256,128,124251,1,8,0:0:0:0:
256,128,124358,1,8,0:0:0:0:
256,128,124465,1,0,0:0:0:0:
256,192,124679,1,8,0:0:0:0:
256,128,124786,1,8,0:0:0:0:
256,128,124893,1,8,0:0:0:0:
288,160,125108,1,0,0:0:0:0:
288,160,125215,1,0,0:0:0:0:
288,160,125322,1,8,0:0:0:0:
224,192,125429,1,8,0:0:0:0:
256,192,125536,1,0,0:0:0:0:
256,192,125751,1,8,0:0:0:0:
256,128,125965,1,8,0:0:0:0:
256,192,126179,1,0,0:0:0:0:
256,192,126393,1,0,0:0:0:0:
256,192,126608,1,8,0:0:0:0:
256,128,126822,1,0,0:0:0:0:
256,128,127036,1,8,0:0:0:0:
256,128,127143,1,8,0:0:0:0:
256,128,127251,1,8,0:0:0:0:
256,192,127358,1,8,0:0:0:0:
256,192,127465,1,4,0:0:0:0:
256,192,127786,1,8,0:0:0:0:
256,192,128108,1,8,0:0:0:0:
256,192,128322,1,0,0:0:0:0:
256,192,128643,1,0,0:0:0:0:
256,192,128965,1,0,0:0:0:0:
256,192,129179,1,8,0:0:0:0:
256,192,129393,1,8,0:0:0:0:
256,192,129501,1,0,0:0:0:0:
256,192,129822,1,0,0:0:0:0:
256,192,130036,1,8,0:0:0:0:
256,224,130465,1,0,0:0:0:0:
256,224,130679,1,0,0:0:0:0:
256,224,130893,1,8,0:0:0:0:
256,224,131108,1,0,0:0:0:0:
256,192,131215,1,0,0:0:0:0:
256,224,131322,1,8,0:0:0:0:
256,224,131536,1,0,0:0:0:0:
256,224,131643,1,8,0:0:0:0:
288,192,131965,1,8,0:0:0:0:
320,192,132072,1,8,0:0:0:0:
256,224,132179,1,0,0:0:0:0:
288,192,132393,1,0,0:0:0:0:
288,192,132608,1,8,0:0:0:0:
288,224,132929,1,8,0:0:0:0:
288,224,133143,1,8,0:0:0:0:
256,224,133251,1,0,0:0:0:0:
256,224,133465,1,8,0:0:0:0:
320,192,133893,1,0,0:0:0:0:
256,160,137751,5,12,0:0:0:0:
288,160,138072,1,12,0:0:0:0:
288,160,138393,1,0,0:0:0:0:
288,160,138608,1,8,0:0:0:0:
256,160,138822,1,8,0:0:0:0:
256,160,138929,1,0,0:0:0:0:
256,160,139036,1,8,0:0:0:0:
256,160,139143,1,8,0:0:0:0:
288,160,139251,1,0,0:0:0:0:
288,160,139465,1,12,0:0:0:0:
288,160,139786,1,12,0:0:0:0:
288,160,140108,1,4,0:0:0:0:
256,192,141179,1,12,0:0:0:0:
256,192,146322,5,12,0:0:0:0:
256,192,147608,5,4,0:0:0:0:
256,192,148036,1,0,0:0:0:0:
256,192,148143,1,0,0:0:0:0:
256,192,148251,1,0,0:0:0:0:
256,192,148465,1,12,0:0:0:0:
256,192,148893,1,8,0:0:0:0:
256,192,149001,1,8,0:0:0:0:
256,224,149215,1,0,0:0:0:0:
256,192,149322,1,8,0:0:0:0:
288,224,149536,1,8,0:0:0:0:
256,192,149751,1,0,0:0:0:0:
256,192,149858,1,8,0:0:0:0:
256,192,150072,1,8,0:0:0:0:
256,192,150179,1,0,0:0:0:0:
256,192,150393,1,0,0:0:0:0:
256,192,150608,1,8,0:0:0:0:
256,192,150715,1,8,0:0:0:0:
256,192,150822,1,8,0:0:0:0:
256,192,151036,1,0,0:0:0:0:
256,192,151251,1,8,0:0:0:0:
256,192,151358,1,0,0:0:0:0:
288,192,151465,1,8,0:0:0:0:
256,192,151572,1,8,0:0:0:0:
256,192,151679,1,0,0:0:0:0:
256,192,151893,1,8,0:0:0:0:
256,192,152108,1,8,0:0:0:0:
256,192,152322,1,0,0:0:0:0:
256,192,152429,1,0,0:0:0:0:
256,192,152536,1,8,0:0:0:0:
256,192,152643,1,8,0:0:0:0:
256,160,152751,1,8,0:0:0:0:
256,192,152965,1,0,0:0:0:0:
256,192,153179,1,12,0:0:0:0:
256,192,153501,1,12,0:0:0:0:
256,192,154893,5,12,0:0:0:0:
256,192,155322,1,0,0:0:0:0:
288,192,155536,1,8,0:0:0:0:
256,192,155751,1,8,0:0:0:0:
256,192,155858,1,0,0:0:0:0:
320,160,156072,1,0,0:0:0:0:
256,192,156179,1,8,0:0:0:0:
288,192,156393,1,0,0:0:0:0:
288,192,156608,1,8,0:0:0:0:
288,192,156715,1,8,0:0:0:0:
288,192,156822,1,0,0:0:0:0:
288,192,157036,1,8,0:0:0:0:
288,160,157143,1,0,0:0:0:0:
288,160,157251,1,8,0:0:0:0:
288,192,157358,1,8,0:0:0:0:
256,192,157465,1,0,0:0:0:0:
288,160,157572,1,0,0:0:0:0:
320,160,157679,1,8,0:0:0:0:
256,192,157893,1,0,0:0:0:0:
288,160,158001,1,0,0:0:0:0:
256,192,158108,1,8,0:0:0:0:
256,192,158322,1,0,0:0:0:0:
256,192,158751,1,8,0:0:0:0:
256,192,158965,1,0,0:0:0:0:
256,192,159179,1,8,0:0:0:0:
288,160,159286,1,8,0:0:0:0:
256,192,159501,1,0,0:0:0:0:
256,192,159608,1,8,0:0:0:0:
256,192,159822,1,0,0:0:0:0:
256,192,160036,1,12,0:0:0:0:
288,192,160251,1,0,0:0:0:0:
288,192,160358,1,8,0:0:0:0:
256,192,160465,1,8,0:0:0:0:
256,192,160679,1,0,0:0:0:0:
288,160,160786,1,0,0:0:0:0:
256,192,160893,1,12,0:0:0:0:
256,192,161108,1,0,0:0:0:0:
256,192,161322,1,8,0:0:0:0:
288,160,161429,1,8,0:0:0:0:
256,192,161536,1,8,0:0:0:0:
288,160,161643,1,8,0:0:0:0:
256,192,161751,5,4,0:0:0:0:
384,192,162179,5,8,0:0:0:0:
224,192,162286,1,0,0:0:0:0:
256,192,162393,1,8,0:0:0:0:
256,192,162501,1,8,0:0:0:0:
352,192,162608,1,0,0:0:0:0:
256,192,162822,1,8,0:0:0:0:
352,192,163036,1,0,0:0:0:0:
352,192,163143,1,0,0:0:0:0:
256,192,163251,1,8,0:0:0:0:
256,192,163358,1,8,0:0:0:0:
256,192,163465,1,0,0:0:0:0:
256,192,163679,1,8,0:0:0:0:
256,192,163893,1,0,0:0:0:0:
256,192,164001,1,8,0:0:0:0:
256,192,164108,1,8,0:0:0:0:
256,192,164215,1,8,0:0:0:0:
256,160,164322,1,0,0:0:0:0:
256,160,164536,1,8,0:0:0:0:
256,160,164751,1,0,0:0:0:0:
256,192,164858,1,0,0:0:0:0:
288,192,164965,1,0,0:0:0:0:
288,192,165072,1,0,0:0:0:0:
256,160,165179,1,12,0:0:0:0:
256,192,165501,1,0,0:0:0:0:
256,160,165608,1,8,0:0:0:0:
256,160,165822,1,0,0:0:0:0:
256,160,166036,1,8,0:0:0:0:
256,160,166143,1,8,0:0:0:0:
256,160,166251,1,8,0:0:0:0:
256,160,166465,1,0,0:0:0:0:
256,160,166572,1,0,0:0:0:0:
256,160,166679,1,8,0:0:0:0:
256,160,166893,1,4,0:0:0:0:
256,160,167108,1,8,0:0:0:0:
288,160,167205,1,8,0:0:0:0:
320,192,167306,1,8,0:0:0:0:
256,160,167407,1,8,0:0:0:0:
288,160,167511,1,0,0:0:0:0:
288,160,167719,1,12,0:0:0:0:
256,192,168602,1,0,0:0:0:0:
256,192,169037,1,12,0:0:0:0:
288,192,169465,1,0,0:0:0:0:
256,192,169679,1,0,0:0:0:0:
256,192,169894,1,8,0:0:0:0:
256,192,170324,1,0,0:0:0:0:
288,192,170431,1,8,0:0:0:0:
288,192,170645,1,0,0:0:0:0:
256,192,170859,1,8,0:0:0:0:
256,192,170966,1,8,0:0:0:0:
288,160,171074,1,0,0:0:0:0:
256,192,171181,1,8,0:0:0:0:
256,192,171288,1,0,0:0:0:0:
288,192,171502,1,8,0:0:0:0:
288,192,171716,1,0,0:0:0:0:
256,192,171824,1,8,0:0:0:0:
256,192,172038,1,0,0:0:0:0:
256,192,172359,1,8,0:0:0:0:
256,192,172574,1,0,0:0:0:0:
288,192,172681,1,8,0:0:0:0:
288,192,172895,1,0,0:0:0:0:
256,192,173109,1,8,0:0:0:0:
256,192,173324,1,0,0:0:0:0:
288,192,173752,1,8,0:0:0:0:
256,192,173859,1,8,0:0:0:0:
256,192,174074,1,0,0:0:0:0:
256,192,174288,1,8,0:0:0:0:
288,192,174395,1,8,0:0:0:0:
288,160,174609,1,0,0:0:0:0:
288,192,174824,1,8,0:0:0:0:
288,192,174931,1,0,0:0:0:0:
320,192,175038,1,8,0:0:0:0:
320,192,175145,1,8,0:0:0:0:
320,192,175252,1,0,0:0:0:0:
288,192,175466,1,12,0:0:0:0:
288,192,175787,1,0,0:0:0:0:
224,192,176001,1,8,0:0:0:0:
288,192,176108,1,0,0:0:0:0:
288,192,176323,1,8,0:0:0:0:
224,192,176537,1,0,0:0:0:0:
224,160,176751,1,8,0:0:0:0:
224,160,177180,1,0,0:0:0:0:
224,192,177287,1,0,0:0:0:0:
224,160,177501,1,8,0:0:0:0:
288,192,177716,1,0,0:0:0:0:
224,160,177823,1,0,0:0:0:0:
192,160,177930,1,8,0:0:0:0:
288,192,178037,1,8,0:0:0:0:
288,160,178144,1,0,0:0:0:0:
224,192,178358,1,0,0:0:0:0:
256,160,178466,1,8,0:0:0:0:
256,160,178680,1,8,0:0:0:0:
256,160,178894,1,0,0:0:0:0:
256,192,179216,5,0,0:0:0:0:
256,192,179323,1,8,0:0:0:0:
256,192,179537,1,0,0:0:0:0:
256,192,179751,1,8,0:0:0:0:
288,160,180073,1,8,0:0:0:0:
288,160,180180,1,0,0:0:0:0:
256,192,180394,1,8,0:0:0:0:
288,192,180608,1,0,0:0:0:0:
256,192,180930,1,0,0:0:0:0:
256,160,181037,1,0,0:0:0:0:
256,192,181251,1,8,0:0:0:0:
288,192,181467,1,8,0:0:0:0:
288,192,181676,1,8,0:0:0:0:
256,224,181778,1,8,0:0:0:0:
288,192,181880,1,8,0:0:0:0:
256,224,181982,1,8,0:0:0:0:
288,192,182091,1,8,0:0:0:0:
192,192,182195,1,8,0:0:0:0:
256,192,184039,5,0,0:0:0:0:
256,192,184467,1,8,0:0:0:0:
288,192,184789,1,0,0:0:0:0:
288,192,184896,1,8,0:0:0:0:
288,192,185110,1,0,0:0:0:0:
288,192,185324,1,8,0:0:0:0:
288,192,185431,1,8,0:0:0:0:
288,192,185539,1,0,0:0:0:0:
224,192,185860,1,8,0:0:0:0:
224,192,185967,1,8,0:0:0:0:
224,192,186181,1,0,0:0:0:0:
224,192,186503,1,0,0:0:0:0:
224,192,186610,1,8,0:0:0:0:
224,192,186824,1,0,0:0:0:0:
224,192,187039,1,8,0:0:0:0:
256,192,187253,1,8,0:0:0:0:
256,192,187360,1,8,0:0:0:0:
256,192,187467,1,0,0:0:0:0:
288,192,187896,1,8,0:0:0:0:
288,192,188217,1,0,0:0:0:0:
288,192,188324,1,8,0:0:0:0:
288,192,188539,1,0,0:0:0:0:
288,192,188753,1,8,0:0:0:0:
288,192,188967,1,8,0:0:0:0:
288,192,189289,1,8,0:0:0:0:
288,192,189396,1,0,0:0:0:0:
288,192,189610,1,8,0:0:0:0:
288,192,189931,1,0,0:0:0:0:
288,192,190039,1,8,0:0:0:0:
320,192,190253,1,8,0:0:0:0:
320,192,190467,1,0,0:0:0:0:
320,192,190681,1,8,0:0:0:0:
320,192,190789,1,8,0:0:0:0:
320,192,190896,1,0,0:0:0:0:
256,192,191324,1,0,0:0:0:0:
256,192,191646,1,8,0:0:0:0:
256,192,191753,1,0,0:0:0:0:
256,192,191967,1,8,0:0:0:0:
256,192,192181,1,8,0:0:0:0:
256,192,192396,1,0,0:0:0:0:
256,192,192610,1,8,0:0:0:0:
256,192,192717,1,8,0:0:0:0:
256,192,192824,1,8,0:0:0:0:
256,192,193039,1,0,0:0:0:0:
256,192,193360,1,0,0:0:0:0:
256,192,193467,1,8,0:0:0:0:
256,192,193681,1,8,0:0:0:0:
256,192,193896,1,0,0:0:0:0:
256,192,194110,1,8,0:0:0:0:
256,192,194217,1,0,0:0:0:0:
256,192,194324,1,8,0:0:0:0:
256,192,194753,1,0,0:0:0:0:
288,192,195074,1,0,0:0:0:0:
288,192,195181,1,8,0:0:0:0:
288,192,195396,1,0,0:0:0:0:
288,192,195610,1,0,0:0:0:0:
288,192,195824,1,8,0:0:0:0:
288,192,196253,1,8,0:0:0:0:
288,192,196467,1,0,0:0:0:0:
288,192,196574,1,0,0:0:0:0:
288,192,196681,1,8,0:0:0:0:
288,192,196896,1,0,0:0:0:0:
288,192,197110,1,8,0:0:0:0:
320,192,197324,5,8,0:0:0:0:
288,192,197539,1,0,0:0:0:0:
256,192,197753,12,0,199039,0:0:0:0:
