osu file format v14

[General]
AudioFilename: audio.mp3
AudioLeadIn: 0
PreviewTime: 71371
Countdown: 0
SampleSet: Normal
StackLeniency: 0.7
Mode: 1
LetterboxInBreaks: 0
WidescreenStoryboard: 1

[Editor]
Bookmarks: 16031,45174,72603,86317,100032,113746,127460,141174,154889,169032,182917
DistanceSpacing: 0.3
BeatDivisor: 4
GridSize: 32
TimelineZoom: 1.099999

[Metadata]
Title:Tsuki ga Michiru
TitleUnicode:月が満ちる
Artist:Tsukuyomi
ArtistUnicode:月詠み
Creator:arcpotato
Version:Kantan
Source:
Tags:ツクヨミ 2943 hivie kyex japanese rock j-rock jrock pop j-pop jpop sing the moon YurryCanon yurry canon ユリイカノン ユリイ・カノン yue エポック epoch とうかさ toukasa なおk naok
BeatmapID:3953909
BeatmapSetID:1916119

[Difficulty]
HPDrainRate:8
CircleSize:2
OverallDifficulty:3
ApproachRate:10
SliderMultiplier:1.4
SliderTickRate:1

[Events]
//Background and Video events
0,0,"100979531_p0.jpg",0,-30
//Break Periods
2,65951,68729
2,134317,136872
2,141379,145872
2,153701,154443
//Storyboard Layer 0 (Background)
//Storyboard Layer 1 (Fail)
//Storyboard Layer 2 (Pass)
//Storyboard Layer 3 (Foreground)
//Storyboard Layer 4 (Overlay)
//Storyboard Sound Samples

[TimingPoints]
14323,428.571428571429,4,1,0,50,1,0
14323,-100,4,1,0,50,0,0
16037,428.571428571429,4,1,0,70,1,0
17751,428.571428571429,4,1,0,70,1,0
17751,-100,4,1,0,70,0,0
31465,-100,4,1,0,70,0,0
45179,-100,4,1,0,70,0,0
57179,-100,4,1,0,70,0,0
58037,-100,4,1,0,55,0,0
65858,-100,4,1,0,20,0,0
69176,-100,4,1,0,70,0,0
72153,-100,4,1,0,50,0,0
72608,-100,4,1,0,80,0,1
85465,-100,4,1,0,80,0,0
86322,-100,4,1,0,70,0,0
98748,-100,4,1,0,60,0,0
101751,-100,4,1,0,60,0,0
106894,-100,4,1,0,60,0,0
113751,-100,4,1,0,80,0,1
127465,-100,4,1,0,80,0,0
127679,-100,4,1,0,60,0,0
134322,-100,4,1,0,20,0,0
137319,-100,4,1,0,70,0,0
141179,-100,4,1,0,50,0,0
141394,-100,4,1,0,50,0,0
146269,-100,4,1,0,70,0,0
146697,-100,4,1,0,50,0,0
146858,-100,4,1,0,70,0,0
147929,-100,4,1,0,60,0,0
148465,-100,4,1,0,80,0,1
153179,-100,4,1,0,80,0,0
153822,-100,4,1,0,50,0,0
154893,-100,4,1,0,80,0,1
161751,-100,4,1,0,80,0,1
165394,-100,4,1,0,80,0,1
167108,389.61038961039,4,1,0,80,1,9
167205,405.405405405405,4,1,0,80,1,9
167205,-88.0952380952383,4,1,0,80,0,9
167407,416.666666666667,4,1,0,80,1,9
167508,-85.7142857142857,4,1,0,80,0,9
167719,-102.857142857143,4,1,0,80,0,0
168149,416.666666666667,4,1,0,60,1,8
168357,434.782608695652,4,1,0,70,1,8
168465,550.45871559633,4,1,0,70,1,8
168602,550.45871559633,4,1,0,70,1,0
168602,-77.8571428404592,4,1,0,70,0,0
168722,416.666666666667,4,1,0,70,1,8
169026,-102.857142857143,4,1,0,70,0,8
169037,428.571428571429,4,1,0,70,1,8
169037,-100,4,1,0,70,0,0
169886,-100,4,1,0,70,0,0
170324,428.571428571429,4,1,0,70,1,0
170324,-100,4,1,0,70,0,0
175466,428.571428571429,4,1,0,70,1,0
181467,416.666666666667,4,1,0,70,1,8
181467,-102.857142857143,4,1,0,70,0,8
181571,405.405405405405,4,1,0,70,1,8
181676,408.163265306122,4,1,0,70,1,8
181676,-87.5000000000002,4,1,0,70,0,8
181877,-105,4,1,0,70,0,8
181982,437.956204379562,4,1,0,70,1,8
182091,416.666666666667,7,1,0,70,1,8
182091,-85.7142857142857,7,1,0,70,0,8
184039,428.571428571429,4,1,0,35,1,0
197753,-100,4,1,0,20,0,0

[HitObjects]
256,192,16037,5,4,0:0:0:0:
256,192,16679,1,12,0:0:0:0:
256,160,17751,1,4,0:0:0:0:
256,192,18608,1,8,0:0:0:0:
256,192,19036,1,0,0:0:0:0:
256,192,19465,1,8,0:0:0:0:
288,192,20322,1,8,0:0:0:0:
288,160,20751,1,8,0:0:0:0:
288,160,21179,1,4,0:0:0:0:
256,192,22036,1,0,0:0:0:0:
256,192,22465,1,8,0:0:0:0:
256,192,22893,1,0,0:0:0:0:
256,192,23322,1,8,0:0:0:0:
256,192,24608,1,12,0:0:0:0:
256,192,25465,1,8,0:0:0:0:
256,192,25893,1,0,0:0:0:0:
256,192,26322,1,0,0:0:0:0:
256,192,27179,1,0,0:0:0:0:
256,192,27608,1,8,0:0:0:0:
256,192,28036,1,4,0:0:0:0:
256,192,28893,1,8,0:0:0:0:
256,192,29322,1,8,0:0:0:0:
256,192,29751,1,0,0:0:0:0:
224,192,30179,1,8,0:0:0:0:
288,160,30608,1,4,0:0:0:0:
256,192,31465,1,12,0:0:0:0:
256,192,32751,1,8,0:0:0:0:
256,192,33179,1,0,0:0:0:0:
256,192,34036,1,0,0:0:0:0:
256,192,34465,1,0,0:0:0:0:
256,192,34893,1,8,0:0:0:0:
128,96,35751,1,0,0:0:0:0:
256,192,36179,1,8,0:0:0:0:
288,192,36608,1,0,0:0:0:0:
288,160,37465,1,8,0:0:0:0:
288,192,37893,1,0,0:0:0:0:
288,192,38322,1,12,0:0:0:0:
224,160,39608,1,8,0:0:0:0:
224,160,40036,1,0,0:0:0:0:
224,160,40893,1,0,0:0:0:0:
224,160,41322,1,8,0:0:0:0:
256,160,41751,1,8,0:0:0:0:
256,192,42608,1,0,0:0:0:0:
256,192,43036,1,8,0:0:0:0:
288,192,43465,1,0,0:0:0:0:
256,192,44322,1,8,0:0:0:0:
256,192,45179,1,12,0:0:0:0:
320,160,45608,1,0,0:0:0:0:
256,192,46036,1,8,0:0:0:0:
256,192,46893,1,0,0:0:0:0:
256,192,48179,1,8,0:0:0:0:
288,192,48608,1,0,0:0:0:0:
288,192,49465,1,8,0:0:0:0:
288,192,49893,1,8,0:0:0:0:
288,160,50322,1,0,0:0:0:0:
160,160,50965,1,8,0:0:0:0:
288,160,52036,1,4,0:0:0:0:
288,160,52465,1,8,0:0:0:0:
288,160,52893,1,0,0:0:0:0:
288,160,53751,1,8,0:0:0:0:
256,192,55036,1,0,0:0:0:0:
256,192,55465,1,12,0:0:0:0:
256,192,55893,1,0,0:0:0:0:
256,192,56322,1,8,0:0:0:0:
256,192,57179,1,12,0:0:0:0:
256,192,57822,1,4,0:0:0:0:
256,192,58893,5,4,0:0:0:0:
256,192,59322,1,8,0:0:0:0:
256,192,59751,1,0,0:0:0:0:
256,192,60608,1,0,0:0:0:0:
256,192,61036,1,0,0:0:0:0:
256,192,61465,1,8,0:0:0:0:
256,192,62322,1,12,0:0:0:0:
256,192,62751,1,0,0:0:0:0:
256,192,63179,1,8,0:0:0:0:
256,192,64036,1,8,0:0:0:0:
256,192,64465,1,8,0:0:0:0:
256,192,64893,1,0,0:0:0:0:
256,192,65751,1,8,0:0:0:0:
256,192,69179,5,12,0:0:0:0:
256,192,70036,1,0,0:0:0:0:
256,192,70465,1,8,0:0:0:0:
256,192,70893,1,4,0:0:0:0:
256,192,71536,1,12,0:0:0:0:
256,192,72608,5,12,0:0:0:0:
256,192,73465,1,0,0:0:0:0:
256,192,73893,1,0,0:0:0:0:
256,192,74322,1,8,0:0:0:0:
256,192,74751,1,0,0:0:0:0:
256,192,75179,1,8,0:0:0:0:
256,192,75608,1,8,0:0:0:0:
256,192,76036,1,0,0:0:0:0:
256,192,76893,1,0,0:0:0:0:
256,192,77322,1,8,0:0:0:0:
256,192,77751,1,4,0:0:0:0:
136,230,79036,1,8,0:0:0:0:
256,192,79465,1,4,0:0:0:0:
256,192,80322,1,8,0:0:0:0:
256,192,80751,1,8,0:0:0:0:
256,192,81179,1,0,0:0:0:0:
256,192,81608,1,8,0:0:0:0:
256,160,82036,1,0,0:0:0:0:
256,160,82465,1,0,0:0:0:0:
256,160,82893,1,8,0:0:0:0:
256,160,83751,1,8,0:0:0:0:
256,160,84608,1,4,0:0:0:0:
224,160,86322,1,4,0:0:0:0:
224,160,87608,1,0,0:0:0:0:
256,192,88036,1,8,0:0:0:0:
256,192,88893,1,8,0:0:0:0:
256,192,89322,1,0,0:0:0:0:
256,192,89751,1,8,0:0:0:0:
256,192,90608,1,8,0:0:0:0:
256,192,91036,1,8,0:0:0:0:
256,192,91465,1,0,0:0:0:0:
288,192,92322,1,0,0:0:0:0:
256,192,92751,1,0,0:0:0:0:
256,192,93179,1,12,0:0:0:0:
256,192,94465,1,0,0:0:0:0:
256,192,94893,1,0,0:0:0:0:
256,192,95751,1,8,0:0:0:0:
256,192,96179,1,8,0:0:0:0:
256,192,96608,1,0,0:0:0:0:
256,192,97465,1,0,0:0:0:0:
256,192,97893,1,8,0:0:0:0:
256,160,98322,1,4,0:0:0:0:
256,192,99179,1,8,0:0:0:0:
256,160,99608,1,0,0:0:0:0:
256,192,100036,1,12,0:0:0:0:
224,192,101751,1,12,0:0:0:0:
224,192,102393,1,12,0:0:0:0:
224,192,103036,1,0,0:0:0:0:
224,192,103465,1,12,0:0:0:0:
256,192,104322,1,0,0:0:0:0:
256,192,104751,1,8,0:0:0:0:
256,192,105393,1,4,0:0:0:0:
256,192,106036,1,12,0:0:0:0:
256,192,106893,1,4,0:0:0:0:
256,160,107322,1,8,0:0:0:0:
256,160,107751,1,0,0:0:0:0:
256,160,108608,1,4,0:0:0:0:
256,160,109036,1,8,0:0:0:0:
256,160,110322,1,4,0:0:0:0:
288,160,110751,1,8,0:0:0:0:
288,160,111179,1,0,0:0:0:0:
288,160,111608,1,0,0:0:0:0:
288,160,112036,1,12,0:0:0:0:
288,160,112679,1,12,0:0:0:0:
256,192,113751,5,12,0:0:0:0:
224,192,115036,1,0,0:0:0:0:
256,160,115465,1,8,0:0:0:0:
256,160,115893,1,0,0:0:0:0:
256,160,116322,1,8,0:0:0:0:
224,128,117179,1,0,0:0:0:0:
224,192,117608,1,8,0:0:0:0:
224,192,118036,1,8,0:0:0:0:
224,192,118893,1,12,0:0:0:0:
256,192,119322,1,0,0:0:0:0:
256,192,119751,1,8,0:0:0:0:
256,192,120179,1,8,0:0:0:0:
224,192,120608,1,4,0:0:0:0:
224,192,121893,1,8,0:0:0:0:
224,160,122322,1,0,0:0:0:0:
224,160,122751,1,0,0:0:0:0:
224,160,123179,1,8,0:0:0:0:
224,128,124036,1,12,0:0:0:0:
256,192,124465,1,0,0:0:0:0:
224,160,124893,1,8,0:0:0:0:
256,192,125322,1,8,0:0:0:0:
256,192,125751,1,0,0:0:0:0:
224,160,126179,1,8,0:0:0:0:
224,160,126608,1,0,0:0:0:0:
256,192,127465,1,12,0:0:0:0:
224,160,128322,1,0,0:0:0:0:
224,160,129179,1,8,0:0:0:0:
224,160,130036,1,0,0:0:0:0:
224,160,130893,1,8,0:0:0:0:
224,160,131751,1,8,0:0:0:0:
256,160,132608,1,0,0:0:0:0:
256,160,133465,1,0,0:0:0:0:
256,160,137322,5,0,0:0:0:0:
256,160,137751,5,12,0:0:0:0:
288,160,138608,1,0,0:0:0:0:
288,160,139465,1,12,0:0:0:0:
288,160,140108,1,4,0:0:0:0:
256,192,141179,1,12,0:0:0:0:
256,192,146322,5,12,0:0:0:0:
256,192,147608,1,4,0:0:0:0:
256,192,148465,1,4,0:0:0:0:
256,192,148893,1,8,0:0:0:0:
256,192,149322,1,8,0:0:0:0:
256,192,149751,1,0,0:0:0:0:
256,192,150608,1,0,0:0:0:0:
256,192,151036,1,8,0:0:0:0:
256,192,151465,1,8,0:0:0:0:
256,192,152322,1,8,0:0:0:0:
256,192,152751,1,0,0:0:0:0:
256,192,153179,1,12,0:0:0:0:
256,192,153501,1,12,0:0:0:0:
256,192,154893,5,12,0:0:0:0:
256,192,155751,1,0,0:0:0:0:
256,192,156179,1,8,0:0:0:0:
256,192,156608,1,0,0:0:0:0:
256,192,157036,1,0,0:0:0:0:
256,192,157465,1,8,0:0:0:0:
256,192,157893,1,8,0:0:0:0:
256,192,158322,1,0,0:0:0:0:
256,192,159179,1,8,0:0:0:0:
256,192,159608,1,0,0:0:0:0:
256,192,160036,1,12,0:0:0:0:
256,192,161322,1,8,0:0:0:0:
256,192,161751,1,4,0:0:0:0:
352,192,162608,1,8,0:0:0:0:
256,192,163036,1,0,0:0:0:0:
256,160,163465,1,8,0:0:0:0:
256,160,163893,1,8,0:0:0:0:
256,160,164322,1,0,0:0:0:0:
384,192,164751,1,0,0:0:0:0:
256,160,165179,1,12,0:0:0:0:
256,160,166036,1,8,0:0:0:0:
256,160,166465,1,8,0:0:0:0:
256,160,166893,1,4,0:0:0:0:
288,160,167719,1,12,0:0:0:0:
256,192,169037,1,12,0:0:0:0:
256,192,169894,1,8,0:0:0:0:
256,192,170324,1,0,0:0:0:0:
256,192,171181,1,8,0:0:0:0:
256,192,172038,1,0,0:0:0:0:
256,192,172466,1,8,0:0:0:0:
256,192,172895,1,0,0:0:0:0:
256,192,173324,1,0,0:0:0:0:
288,192,173752,1,8,0:0:0:0:
288,192,175038,1,0,0:0:0:0:
288,192,175466,1,12,0:0:0:0:
224,192,176323,1,8,0:0:0:0:
224,160,176751,1,8,0:0:0:0:
224,160,177180,1,0,0:0:0:0:
224,160,178037,1,8,0:0:0:0:
224,160,178466,1,0,0:0:0:0:
256,160,178894,1,8,0:0:0:0:
256,192,179751,1,8,0:0:0:0:
256,192,180608,1,0,0:0:0:0:
288,192,181467,1,8,0:0:0:0:
288,192,181880,1,8,0:0:0:0:
256,192,184039,1,0,0:0:0:0:
256,192,184467,1,0,0:0:0:0:
256,192,185539,1,0,0:0:0:0:
256,192,186396,1,8,0:0:0:0:
256,192,187467,1,8,0:0:0:0:
256,192,187896,1,0,0:0:0:0:
256,160,188967,1,8,0:0:0:0:
256,160,189824,1,0,0:0:0:0:
256,160,190896,1,0,0:0:0:0:
256,160,191324,1,8,0:0:0:0:
256,160,192396,1,0,0:0:0:0:
256,160,193253,1,8,0:0:0:0:
256,160,194324,1,8,0:0:0:0:
256,160,194753,1,8,0:0:0:0:
256,160,195824,1,0,0:0:0:0:
256,160,196896,1,8,0:0:0:0:
256,192,197753,12,0,199039,0:0:0:0:
