osu file format v14

[General]
AudioFilename: audio.mp3
AudioLeadIn: 0
PreviewTime: 71371
Countdown: 0
SampleSet: Normal
StackLeniency: 0.7
Mode: 1
LetterboxInBreaks: 0
WidescreenStoryboard: 1

[Editor]
Bookmarks: 16031,45174,72603,86317,100032,113746,127460,141174,154889,169032,182917
DistanceSpacing: 0.3
BeatDivisor: 6
GridSize: 32
TimelineZoom: 0.8999989

[Metadata]
Title:Tsuki ga Michiru
TitleUnicode:月が満ちる
Artist:Tsukuyomi
ArtistUnicode:月詠み
Creator:arcpotato
Version:Futsuu
Source:
Tags:ツクヨミ 2943 hivie kyex japanese rock j-rock jrock pop j-pop jpop sing the moon YurryCanon yurry canon ユリイカノン ユリイ・カノン yue エポック epoch とうかさ toukasa なおk naok
BeatmapID:3953872
BeatmapSetID:1916119

[Difficulty]
HPDrainRate:7
CircleSize:2
OverallDifficulty:4
ApproachRate:10
SliderMultiplier:1.4
SliderTickRate:1

[Events]
//Background and Video events
0,0,"100979531_p0.jpg",0,-30
//Break Periods
2,65951,68729
2,134317,137301
2,141379,145872
2,153701,154443
//Storyboard Layer 0 (Background)
//Storyboard Layer 1 (Fail)
//Storyboard Layer 2 (Pass)
//Storyboard Layer 3 (Foreground)
//Storyboard Layer 4 (Overlay)
//Storyboard Sound Samples

[TimingPoints]
14323,428.571428571429,4,1,0,50,1,0
14323,-100,4,1,0,50,0,0
16037,428.571428571429,4,1,0,70,1,0
16037,-83.3333333333333,4,1,0,70,0,0
17751,428.571428571429,4,1,0,70,1,0
17751,-100,4,1,0,70,0,0
31465,-83.3333333333333,4,1,0,70,0,0
45179,-100,4,1,0,70,0,0
58037,-125,4,1,0,55,0,0
65858,-125,4,1,0,20,0,0
69176,-90.9090909090909,4,1,0,70,0,0
72153,-100,4,1,0,50,0,0
72608,-83.3333333333333,4,1,0,80,0,1
85465,-83.3333333333333,4,1,0,80,0,0
86322,-83.3333333333333,4,1,0,70,0,0
98748,-83.3333333333333,4,1,0,60,0,0
101751,-111.111111111111,4,1,0,60,0,0
106893,-100,4,1,0,60,0,0
113750,-83.3333333333333,4,1,0,80,0,0
113751,-83.3333333333333,4,1,0,80,0,1
127465,-100,4,1,0,80,0,0
127679,-100,4,1,0,60,0,0
134322,-111.111111111111,4,1,0,20,0,0
137319,-100,4,1,0,70,0,0
141179,-100,4,1,0,50,0,0
141394,-111.111111111111,4,1,0,50,0,0
146269,-100,4,1,0,70,0,0
146697,-100,4,1,0,50,0,0
146858,-100,4,1,0,70,0,0
147929,-100,4,1,0,60,0,0
148465,-83.3333333333333,4,1,0,80,0,1
153179,-83.3333333333333,4,1,0,80,0,0
153822,-100,4,1,0,50,0,0
154893,-83.3333333333333,4,1,0,80,0,1
161750,-76.9230769230769,4,1,0,80,0,1
165394,-83.3333333333333,4,1,0,80,0,1
166891,-83.3333333333333,4,1,0,80,0,1
167108,389.61038961039,4,1,0,80,1,9
167205,405.405405405405,4,1,0,80,1,9
167205,-88.0952380952383,4,1,0,80,0,9
167407,416.666666666667,4,1,0,80,1,9
167508,-85.7142857142857,4,1,0,80,0,9
167719,-85.7142857142857,4,1,0,80,0,0
168149,416.666666666667,4,1,0,60,1,8
168357,434.782608695652,4,1,0,70,1,8
168465,550.45871559633,4,1,0,70,1,8
168602,550.45871559633,4,1,0,70,1,0
168602,-64.8809523809525,4,1,0,70,0,0
168722,416.666666666667,4,1,0,70,1,8
169031,-85.7142857142857,4,1,0,70,0,8
169037,428.571428571429,4,1,0,70,1,8
169037,-83.3333333333333,4,1,0,70,0,0
169462,-83.3333333333333,4,1,0,70,0,0
170324,428.571428571429,4,1,0,70,1,0
170324,-83.3333333333333,4,1,0,70,0,0
175466,428.571428571429,4,1,0,70,1,0
175466,-83.3333333333333,4,1,0,70,0,0
181467,416.666666666667,4,1,0,70,1,8
181467,-85.7142857142857,4,1,0,70,0,8
181571,405.405405405405,4,1,0,70,1,8
181676,408.163265306122,4,1,0,70,1,8
181676,-87.5000000000002,4,1,0,70,0,8
181982,437.956204379562,4,1,0,70,1,8
182091,416.666666666667,7,1,0,70,1,8
182091,-85.7142857142857,7,1,0,70,0,8
184039,428.571428571429,4,1,0,35,1,0
197753,-100,4,1,0,20,0,0

[HitObjects]
256,192,16037,5,4,0:0:0:0:
256,192,16358,1,4,0:0:0:0:
256,192,16679,1,12,0:0:0:0:
256,160,17751,1,4,0:0:0:0:
256,160,18179,1,8,0:0:0:0:
256,192,18393,1,0,0:0:0:0:
256,192,18608,1,8,0:0:0:0:
256,192,19036,1,0,0:0:0:0:
256,192,19465,1,8,0:0:0:0:
256,192,19893,1,0,0:0:0:0:
256,192,20108,1,0,0:0:0:0:
288,192,20322,1,8,0:0:0:0:
288,160,20536,1,0,0:0:0:0:
288,160,20751,1,8,0:0:0:0:
288,160,21179,1,4,0:0:0:0:
256,192,21608,1,8,0:0:0:0:
256,192,21822,1,8,0:0:0:0:
256,192,22036,1,0,0:0:0:0:
256,192,22465,1,8,0:0:0:0:
256,192,22893,1,0,0:0:0:0:
256,192,23322,1,8,0:0:0:0:
256,192,24179,1,4,0:0:0:0:
256,192,24608,1,12,0:0:0:0:
256,192,25036,1,0,0:0:0:0:
256,192,25251,1,0,0:0:0:0:
256,192,25465,1,8,0:0:0:0:
256,192,25893,1,0,0:0:0:0:
256,192,26108,1,8,0:0:0:0:
256,192,26322,1,0,0:0:0:0:
256,192,26751,1,8,0:0:0:0:
256,192,26965,1,0,0:0:0:0:
256,192,27179,1,0,0:0:0:0:
256,192,27393,1,0,0:0:0:0:
256,192,27608,1,8,0:0:0:0:
256,192,28036,1,4,0:0:0:0:
256,192,28465,1,8,0:0:0:0:
256,192,28679,1,8,0:0:0:0:
256,192,28893,1,0,0:0:0:0:
256,192,29322,1,8,0:0:0:0:
256,192,29751,1,0,0:0:0:0:
288,160,29965,1,0,0:0:0:0:
288,160,30179,1,8,0:0:0:0:
288,160,30393,1,8,0:0:0:0:
288,160,30608,1,4,0:0:0:0:
256,192,31465,1,12,0:0:0:0:
256,192,31786,1,0,0:0:0:0:
256,192,32108,1,8,0:0:0:0:
256,192,32322,1,0,0:0:0:0:
256,192,32536,1,0,0:0:0:0:
256,192,32751,1,8,0:0:0:0:
256,192,33179,1,0,0:0:0:0:
256,192,33501,1,8,0:0:0:0:
256,192,33822,1,8,0:0:0:0:
256,192,34036,1,0,0:0:0:0:
256,192,34893,1,8,0:0:0:0:
256,192,35215,1,8,0:0:0:0:
256,192,35536,1,0,0:0:0:0:
256,192,35751,1,0,0:0:0:0:
256,192,35965,1,8,0:0:0:0:
256,192,36179,1,0,0:0:0:0:
288,192,36608,1,8,0:0:0:0:
288,192,36929,1,0,0:0:0:0:
288,192,37251,1,8,0:0:0:0:
288,160,37465,1,0,0:0:0:0:
160,192,37786,1,8,0:0:0:0:
288,192,38108,1,0,0:0:0:0:
288,192,38322,1,12,0:0:0:0:
224,192,38643,1,0,0:0:0:0:
224,192,38965,1,8,0:0:0:0:
224,192,39179,1,8,0:0:0:0:
224,192,39393,1,0,0:0:0:0:
224,160,39608,1,8,0:0:0:0:
224,160,40036,1,0,0:0:0:0:
224,160,40358,1,8,0:0:0:0:
224,160,40679,1,0,0:0:0:0:
224,160,40893,1,8,0:0:0:0:
256,160,41751,1,8,0:0:0:0:
256,192,42072,1,8,0:0:0:0:
256,192,42393,1,0,0:0:0:0:
256,192,42608,1,8,0:0:0:0:
256,192,42822,1,8,0:0:0:0:
256,192,43036,1,0,0:0:0:0:
288,192,43465,1,0,0:0:0:0:
256,192,43786,1,8,0:0:0:0:
256,192,44108,1,8,0:0:0:0:
256,192,44322,1,0,0:0:0:0:
256,192,45179,1,12,0:0:0:0:
288,160,45608,1,0,0:0:0:0:
288,160,46036,1,0,0:0:0:0:
256,192,46679,1,8,0:0:0:0:
256,192,46893,1,0,0:0:0:0:
256,192,47322,1,0,0:0:0:0:
288,192,47643,1,8,0:0:0:0:
256,192,47965,1,0,0:0:0:0:
256,192,48179,1,0,0:0:0:0:
288,192,48393,1,0,0:0:0:0:
288,192,48608,1,8,0:0:0:0:
288,192,49036,1,0,0:0:0:0:
288,192,49465,1,8,0:0:0:0:
288,160,49679,1,0,0:0:0:0:
288,192,49893,1,8,0:0:0:0:
288,160,50322,1,0,0:0:0:0:
288,160,50643,1,0,0:0:0:0:
160,160,50965,1,8,0:0:0:0:
288,160,52036,1,4,0:0:0:0:
288,160,52465,1,8,0:0:0:0:
288,160,52893,1,0,0:0:0:0:
288,160,53536,1,0,0:0:0:0:
288,160,53751,1,8,0:0:0:0:
256,192,54179,1,0,0:0:0:0:
256,192,54501,1,8,0:0:0:0:
256,192,54822,1,8,0:0:0:0:
256,192,55036,1,0,0:0:0:0:
256,192,55251,1,0,0:0:0:0:
256,192,55465,1,12,0:0:0:0:
256,192,55893,1,0,0:0:0:0:
256,192,56322,1,8,0:0:0:0:
256,192,56751,1,8,0:0:0:0:
256,192,56965,1,0,0:0:0:0:
256,192,57179,1,12,0:0:0:0:
256,192,57501,1,12,0:0:0:0:
256,192,57822,1,4,0:0:0:0:
256,192,58893,5,4,0:0:0:0:
256,192,59215,1,8,0:0:0:0:
128,192,59536,1,8,0:0:0:0:
256,192,59751,1,0,0:0:0:0:
256,192,60072,1,0,0:0:0:0:
256,192,60393,1,8,0:0:0:0:
256,192,60608,1,0,0:0:0:0:
256,192,60929,1,8,0:0:0:0:
256,192,61251,1,8,0:0:0:0:
256,192,61465,1,0,0:0:0:0:
256,192,62322,1,12,0:0:0:0:
256,192,62643,1,0,0:0:0:0:
256,192,62965,1,0,0:0:0:0:
256,192,63179,1,8,0:0:0:0:
256,192,63501,1,0,0:0:0:0:
256,192,63822,1,0,0:0:0:0:
256,192,64036,1,8,0:0:0:0:
256,192,64465,1,8,0:0:0:0:
256,192,64679,1,8,0:0:0:0:
256,192,64893,1,0,0:0:0:0:
256,192,65322,1,0,0:0:0:0:
256,192,65751,1,8,0:0:0:0:
256,192,69179,5,12,0:0:0:0:
256,192,69501,1,12,0:0:0:0:
256,192,69822,1,0,0:0:0:0:
256,192,70036,1,8,0:0:0:0:
256,192,70358,1,8,0:0:0:0:
256,192,70679,1,8,0:0:0:0:
256,192,70893,1,4,0:0:0:0:
256,192,71215,1,4,0:0:0:0:
256,192,71536,1,12,0:0:0:0:
256,192,72179,1,0,0:0:0:0:
256,192,72608,5,12,0:0:0:0:
256,192,73036,1,0,0:0:0:0:
256,192,73251,1,0,0:0:0:0:
256,192,73465,1,8,0:0:0:0:
256,192,73893,1,0,0:0:0:0:
256,192,74322,1,8,0:0:0:0:
256,192,74751,1,0,0:0:0:0:
256,192,74965,1,0,0:0:0:0:
256,192,75179,1,8,0:0:0:0:
256,192,75393,1,0,0:0:0:0:
256,192,75608,1,8,0:0:0:0:
256,192,75822,1,8,0:0:0:0:
256,192,76036,1,0,0:0:0:0:
256,192,76465,1,8,0:0:0:0:
256,192,76679,1,8,0:0:0:0:
256,192,76893,1,0,0:0:0:0:
256,192,77108,1,0,0:0:0:0:
256,192,77322,1,8,0:0:0:0:
256,192,77751,1,4,0:0:0:0:
256,192,78179,1,8,0:0:0:0:
256,192,78393,1,0,0:0:0:0:
256,192,78608,1,12,0:0:0:0:
256,192,79465,1,4,0:0:0:0:
384,192,79893,1,8,0:0:0:0:
384,192,80108,1,8,0:0:0:0:
352,192,80322,1,0,0:0:0:0:
256,192,80751,1,8,0:0:0:0:
256,192,80965,1,0,0:0:0:0:
256,160,81179,1,8,0:0:0:0:
256,160,81608,1,8,0:0:0:0:
256,160,81822,1,8,0:0:0:0:
256,160,82036,1,0,0:0:0:0:
256,160,82251,1,8,0:0:0:0:
256,160,82465,1,0,0:0:0:0:
256,160,82679,1,0,0:0:0:0:
256,160,82893,1,8,0:0:0:0:
256,160,83322,1,0,0:0:0:0:
256,160,83536,1,0,0:0:0:0:
256,160,83751,1,8,0:0:0:0:
256,160,84179,1,0,0:0:0:0:
256,160,84393,1,8,0:0:0:0:
256,160,84608,1,4,0:0:0:0:
288,160,84929,1,8,0:0:0:0:
288,160,85251,1,0,0:0:0:0:
288,160,85465,1,8,0:0:0:0:
224,160,86322,1,4,0:0:0:0:
256,192,86643,1,8,0:0:0:0:
256,192,86965,1,0,0:0:0:0:
256,192,87179,1,0,0:0:0:0:
224,160,87393,1,8,0:0:0:0:
224,160,87608,1,0,0:0:0:0:
256,192,88036,1,8,0:0:0:0:
256,192,88358,1,0,0:0:0:0:
256,192,88679,1,0,0:0:0:0:
256,192,88893,1,8,0:0:0:0:
256,192,89751,1,8,0:0:0:0:
256,192,90072,1,0,0:0:0:0:
256,192,90393,1,8,0:0:0:0:
256,192,90608,1,8,0:0:0:0:
256,192,90822,1,0,0:0:0:0:
256,192,91036,1,8,0:0:0:0:
256,192,91465,1,0,0:0:0:0:
256,192,91786,1,8,0:0:0:0:
256,192,92108,1,8,0:0:0:0:
288,192,92322,1,0,0:0:0:0:
256,192,92751,1,8,0:0:0:0:
256,192,92965,1,0,0:0:0:0:
256,192,93179,1,12,0:0:0:0:
256,192,93501,1,0,0:0:0:0:
256,192,93822,1,0,0:0:0:0:
256,192,94036,1,8,0:0:0:0:
256,192,94251,1,8,0:0:0:0:
256,192,94465,1,0,0:0:0:0:
256,192,94893,1,0,0:0:0:0:
256,192,95215,1,8,0:0:0:0:
256,192,95536,1,0,0:0:0:0:
256,192,95751,1,8,0:0:0:0:
256,192,96608,1,0,0:0:0:0:
256,192,96929,1,8,0:0:0:0:
256,192,97251,1,8,0:0:0:0:
256,192,97465,1,0,0:0:0:0:
256,192,97679,1,0,0:0:0:0:
256,192,97893,1,8,0:0:0:0:
256,160,98322,1,4,0:0:0:0:
224,192,98751,1,0,0:0:0:0:
256,192,99179,1,8,0:0:0:0:
256,160,99608,1,0,0:0:0:0:
256,192,100036,1,12,0:0:0:0:
224,192,101751,1,12,0:0:0:0:
224,192,102072,1,4,0:0:0:0:
224,192,102393,1,12,0:0:0:0:
224,192,102822,1,8,0:0:0:0:
224,192,103036,1,0,0:0:0:0:
224,192,103251,1,0,0:0:0:0:
224,192,103465,1,12,0:0:0:0:
256,192,104322,1,0,0:0:0:0:
256,192,104751,1,8,0:0:0:0:
256,192,104965,1,8,0:0:0:0:
256,192,105393,1,12,0:0:0:0:
256,192,105715,1,4,0:0:0:0:
256,192,106036,1,12,0:0:0:0:
256,192,106893,1,4,0:0:0:0:
256,160,107322,1,8,0:0:0:0:
256,160,107751,1,0,0:0:0:0:
256,160,108393,1,8,0:0:0:0:
256,160,108608,1,4,0:0:0:0:
256,160,109036,1,8,0:0:0:0:
256,160,109358,1,0,0:0:0:0:
256,160,109679,1,0,0:0:0:0:
256,160,109893,1,8,0:0:0:0:
256,160,110108,1,8,0:0:0:0:
256,160,110322,1,4,0:0:0:0:
288,160,110751,1,8,0:0:0:0:
288,160,111179,1,0,0:0:0:0:
288,160,111608,1,0,0:0:0:0:
288,160,111822,1,0,0:0:0:0:
288,160,112036,1,12,0:0:0:0:
288,160,112358,1,4,0:0:0:0:
288,160,112679,1,12,0:0:0:0:
256,192,113751,5,12,0:0:0:0:
256,192,114179,1,0,0:0:0:0:
256,192,114393,1,0,0:0:0:0:
256,192,114608,1,8,0:0:0:0:
256,160,115036,1,8,0:0:0:0:
256,160,115251,1,0,0:0:0:0:
256,160,115465,1,8,0:0:0:0:
256,160,115679,1,8,0:0:0:0:
256,160,115893,1,0,0:0:0:0:
256,160,116108,1,0,0:0:0:0:
256,160,116322,1,8,0:0:0:0:
256,160,116751,1,0,0:0:0:0:
256,160,116965,1,8,0:0:0:0:
224,128,117179,1,0,0:0:0:0:
224,192,117608,1,8,0:0:0:0:
224,192,117822,1,0,0:0:0:0:
224,192,118036,1,8,0:0:0:0:
224,192,118893,1,12,0:0:0:0:
256,192,119322,1,0,0:0:0:0:
256,192,119536,1,0,0:0:0:0:
256,192,119751,1,8,0:0:0:0:
256,192,119965,1,0,0:0:0:0:
256,192,120179,1,8,0:0:0:0:
160,192,120393,1,8,0:0:0:0:
224,192,120608,1,4,0:0:0:0:
224,192,121036,1,8,0:0:0:0:
224,192,121358,1,8,0:0:0:0:
128,192,121679,1,8,0:0:0:0:
224,192,121893,1,0,0:0:0:0:
224,160,122322,1,0,0:0:0:0:
224,160,122751,1,8,0:0:0:0:
224,160,123072,1,0,0:0:0:0:
224,160,123393,1,8,0:0:0:0:
224,160,123608,1,8,0:0:0:0:
224,128,124036,1,4,0:0:0:0:
256,192,124465,1,0,0:0:0:0:
256,192,124679,1,0,0:0:0:0:
256,192,124893,1,8,0:0:0:0:
256,192,125108,1,8,0:0:0:0:
256,192,125322,1,0,0:0:0:0:
256,192,125536,1,8,0:0:0:0:
256,192,125751,1,0,0:0:0:0:
256,192,126179,1,8,0:0:0:0:
256,192,126393,1,0,0:0:0:0:
256,192,126608,1,8,0:0:0:0:
256,192,127465,1,4,0:0:0:0:
224,160,127786,1,8,0:0:0:0:
224,160,128108,1,8,0:0:0:0:
224,160,128322,1,0,0:0:0:0:
224,160,129179,1,8,0:0:0:0:
224,160,129501,1,0,0:0:0:0:
224,160,129822,1,0,0:0:0:0:
224,160,130036,1,8,0:0:0:0:
224,160,130893,1,8,0:0:0:0:
256,160,131215,1,0,0:0:0:0:
224,160,131536,1,8,0:0:0:0:
224,160,131751,1,0,0:0:0:0:
256,160,132608,1,8,0:0:0:0:
256,160,132929,1,8,0:0:0:0:
256,160,133251,1,0,0:0:0:0:
256,160,133465,1,8,0:0:0:0:
256,160,137751,5,12,0:0:0:0:
288,160,138072,1,12,0:0:0:0:
288,160,138393,1,0,0:0:0:0:
288,160,138608,1,8,0:0:0:0:
288,160,138929,1,0,0:0:0:0:
288,160,139251,1,0,0:0:0:0:
288,160,139465,1,12,0:0:0:0:
288,160,139786,1,12,0:0:0:0:
288,160,140108,1,4,0:0:0:0:
256,192,141179,1,12,0:0:0:0:
256,192,146322,5,12,0:0:0:0:
256,192,147608,1,4,0:0:0:0:
256,192,148036,1,8,0:0:0:0:
256,192,148465,1,4,0:0:0:0:
256,192,148893,1,8,0:0:0:0:
256,192,149108,1,0,0:0:0:0:
256,192,149322,1,8,0:0:0:0:
256,192,149751,1,0,0:0:0:0:
256,192,150179,1,8,0:0:0:0:
256,192,150393,1,8,0:0:0:0:
256,192,150608,1,0,0:0:0:0:
256,192,150822,1,0,0:0:0:0:
256,192,151036,1,8,0:0:0:0:
288,192,151251,1,0,0:0:0:0:
288,192,151465,1,8,0:0:0:0:
256,192,151893,1,0,0:0:0:0:
256,192,152108,1,8,0:0:0:0:
256,192,152322,1,0,0:0:0:0:
256,192,152751,1,0,0:0:0:0:
256,192,152965,1,0,0:0:0:0:
256,192,153179,1,12,0:0:0:0:
256,192,153501,1,12,0:0:0:0:
256,192,154893,5,12,0:0:0:0:
256,192,155322,1,0,0:0:0:0:
256,192,155536,1,8,0:0:0:0:
256,192,155751,1,0,0:0:0:0:
256,192,156179,1,8,0:0:0:0:
256,192,156608,1,0,0:0:0:0:
256,192,157036,1,8,0:0:0:0:
256,192,157251,1,8,0:0:0:0:
256,192,157465,1,0,0:0:0:0:
256,192,157679,1,0,0:0:0:0:
256,192,157893,1,8,0:0:0:0:
256,192,158108,1,0,0:0:0:0:
256,192,158322,1,8,0:0:0:0:
256,192,158751,1,0,0:0:0:0:
256,192,158965,1,0,0:0:0:0:
256,192,159179,1,8,0:0:0:0:
256,192,159608,1,8,0:0:0:0:
256,192,159822,1,0,0:0:0:0:
256,192,160036,1,12,0:0:0:0:
256,192,160465,1,0,0:0:0:0:
256,192,160679,1,8,0:0:0:0:
256,192,160893,1,4,0:0:0:0:
256,192,161751,1,4,0:0:0:0:
384,192,162179,1,8,0:0:0:0:
384,192,162393,1,0,0:0:0:0:
352,192,162608,1,0,0:0:0:0:
256,192,162822,1,0,0:0:0:0:
256,192,163036,1,8,0:0:0:0:
256,192,163251,1,8,0:0:0:0:
256,160,163465,1,0,0:0:0:0:
256,160,163893,1,8,0:0:0:0:
256,160,164108,1,8,0:0:0:0:
256,160,164322,1,0,0:0:0:0:
256,160,164536,1,8,0:0:0:0:
256,160,164751,1,0,0:0:0:0:
256,160,164965,1,0,0:0:0:0:
256,160,165179,1,12,0:0:0:0:
256,160,165608,1,0,0:0:0:0:
256,160,165822,1,0,0:0:0:0:
256,160,166036,1,8,0:0:0:0:
256,160,166465,1,0,0:0:0:0:
256,160,166679,1,8,0:0:0:0:
256,160,166893,1,4,0:0:0:0:
288,160,167205,1,8,0:0:0:0:
288,160,167511,1,0,0:0:0:0:
288,160,167719,1,12,0:0:0:0:
256,192,168602,1,0,0:0:0:0:
256,192,169037,1,12,0:0:0:0:
256,192,169465,1,0,0:0:0:0:
256,192,169679,1,0,0:0:0:0:
256,192,169894,1,8,0:0:0:0:
256,192,170324,1,0,0:0:0:0:
256,192,170645,1,8,0:0:0:0:
256,192,170966,1,8,0:0:0:0:
256,192,171181,1,0,0:0:0:0:
320,224,171609,1,8,0:0:0:0:
256,192,172038,1,0,0:0:0:0:
256,192,172466,1,8,0:0:0:0:
256,192,172681,1,8,0:0:0:0:
256,192,172895,1,0,0:0:0:0:
256,192,173324,1,0,0:0:0:0:
256,192,173538,1,0,0:0:0:0:
288,192,173752,1,8,0:0:0:0:
256,192,174609,1,8,0:0:0:0:
160,192,174824,1,8,0:0:0:0:
288,192,175038,1,0,0:0:0:0:
288,192,175466,1,12,0:0:0:0:
224,192,175787,1,0,0:0:0:0:
224,192,176108,1,8,0:0:0:0:
224,192,176323,1,8,0:0:0:0:
224,192,176537,1,0,0:0:0:0:
224,160,176751,1,8,0:0:0:0:
224,160,177180,1,0,0:0:0:0:
224,160,177501,1,8,0:0:0:0:
224,160,177823,1,0,0:0:0:0:
224,160,178037,1,8,0:0:0:0:
224,160,178466,1,0,0:0:0:0:
256,160,178894,1,8,0:0:0:0:
256,192,179537,1,0,0:0:0:0:
256,192,179751,1,8,0:0:0:0:
256,192,180394,1,8,0:0:0:0:
256,192,180608,1,0,0:0:0:0:
256,192,180930,1,0,0:0:0:0:
256,192,181251,1,8,0:0:0:0:
288,192,181467,1,8,0:0:0:0:
288,192,181676,1,8,0:0:0:0:
288,192,181880,1,8,0:0:0:0:
256,192,182091,1,8,0:0:0:0:
256,192,184467,1,0,0:0:0:0:
256,192,184896,1,8,0:0:0:0:
256,192,185324,1,0,0:0:0:0:
256,192,185539,1,8,0:0:0:0:
256,192,185967,1,0,0:0:0:0:
256,192,186396,1,8,0:0:0:0:
256,192,186824,1,8,0:0:0:0:
256,192,187039,1,0,0:0:0:0:
256,192,187896,1,0,0:0:0:0:
256,160,188324,1,8,0:0:0:0:
256,160,188753,1,0,0:0:0:0:
256,192,188967,1,0,0:0:0:0:
256,192,189396,1,8,0:0:0:0:
256,160,189824,1,0,0:0:0:0:
256,192,190253,1,0,0:0:0:0:
256,192,190467,1,8,0:0:0:0:
256,192,191324,1,8,0:0:0:0:
256,192,191753,1,0,0:0:0:0:
256,192,192181,1,0,0:0:0:0:
256,192,192396,1,8,0:0:0:0:
256,192,192824,1,8,0:0:0:0:
256,192,193253,1,0,0:0:0:0:
256,192,193681,1,8,0:0:0:0:
256,160,193896,1,8,0:0:0:0:
256,192,194753,1,0,0:0:0:0:
256,160,195181,1,8,0:0:0:0:
256,160,195610,1,0,0:0:0:0:
256,160,195824,1,8,0:0:0:0:
256,160,196253,1,0,0:0:0:0:
256,160,196681,1,8,0:0:0:0:
256,160,196896,1,0,0:0:0:0:
256,160,197110,1,0,0:0:0:0:
256,160,197324,1,8,0:0:0:0:
256,192,197753,12,0,199039,0:0:0:0:
