osu file format v14

[General]
AudioFilename: audio.mp3
AudioLeadIn: 0
PreviewTime: 180966
Countdown: 0
SampleSet: Normal
StackLeniency: 0.7
Mode: 1
LetterboxInBreaks: 0
WidescreenStoryboard: 1

[Editor]
Bookmarks: 383,5716,11049,21716,32382,43049,53716,64216,74882,85716,96382,107049,117716,128382,139049,160382,171049,181549,192216,202882,213549,227049,237716,248382,248466,248549,248632,248716
DistanceSpacing: 4.3
BeatDivisor: 4
GridSize: 32
TimelineZoom: 0.8999997

[Metadata]
Title:Shinsekai kara
TitleUnicode:新世界から
Artist:Tsukuyomi
ArtistUnicode:月詠み
Creator:Slyme
Version:Yuemiao's Muzukashii
Source:ガンダムビルドリアル
Tags:ツクヨミ 2943 rock j-rock jrock yurrycanon yurry canon ユリイカノン ユリイ・カノン mikoto エポック epoch とうかさ toukasa 欠けた心象、世のよすが kaketa shinshou yo no yosuga episode 1 リノ 3rd song japanese j-pop jpop pop ガンプラ40周年記念映像 mari_0hara mari 0hara yuemiao from the new world GUNDAM BUILD REAL
BeatmapID:4157286
BeatmapSetID:1999755

[Difficulty]
HPDrainRate:6
CircleSize:5
OverallDifficulty:5
ApproachRate:5
SliderMultiplier:1.4
SliderTickRate:1

[Events]
//Background and Video events
0,0,"BG.jpg",0,70
//Break Periods
2,181749,185849
//Storyboard Layer 0 (Background)
//Storyboard Layer 1 (Fail)
//Storyboard Layer 2 (Pass)
//Storyboard Layer 3 (Foreground)
//Storyboard Layer 4 (Overlay)
//Storyboard Sound Samples

[TimingPoints]
383,333.333333333333,4,1,0,50,1,0
383,-111.111111111111,4,1,0,50,0,8
4716,-111.111111111111,4,1,0,53,0,8
4882,-111.111111111111,4,1,0,56,0,8
5049,-111.111111111111,4,1,0,59,0,8
5216,-111.111111111111,4,1,0,61,0,8
5382,-111.111111111111,4,1,0,64,0,8
5716,-105.263157894737,4,1,0,70,0,8
6049,-105.263157894737,4,1,0,71,0,8
6216,-105.263157894737,4,1,0,72,0,8
6466,-105.263157894737,4,1,0,73,0,8
6716,-105.263157894737,4,1,0,74,0,8
6966,-105.263157894737,4,1,0,75,0,8
7216,-105.263157894737,4,1,0,76,0,8
7466,-105.263157894737,4,1,0,77,0,8
7716,-105.263157894737,4,1,0,78,0,8
8049,-105.263157894737,4,1,0,79,0,8
8299,-105.263157894737,4,1,0,80,0,8
10549,-105.263157894737,4,1,0,77,0,8
10716,-105.263157894737,4,1,0,73,0,8
10882,-105.263157894737,4,1,0,70,0,8
11049,-100,4,1,0,90,0,1
20049,-102.040816326531,4,1,0,90,0,1
20216,-103.092783505155,4,1,0,90,0,1
20382,-104.166666666667,4,1,0,90,0,1
20549,-104.166666666667,4,1,0,87,0,1
20716,-106.382978723404,4,1,0,85,0,1
20799,-106.382978723404,4,1,0,84,0,1
20882,-107.52688172043,4,1,0,83,0,1
20966,-108.108108108108,4,1,0,83,0,1
21049,-108.695652173913,4,1,0,80,0,1
21132,-108.695652173913,4,1,0,79,0,1
21216,-109.89010989011,4,1,0,78,0,1
21382,-111.111111111111,4,1,0,75,0,1
21549,-111.111111111111,4,1,0,73,0,1
21716,-111.111111111111,4,1,0,70,0,0
40549,-111.111111111111,4,1,0,71,0,0
40716,-111.111111111111,4,1,0,72,0,0
40882,-111.111111111111,4,1,0,73,0,0
41216,-111.111111111111,4,1,0,74,0,0
41382,-111.111111111111,4,1,0,75,0,0
41549,-111.111111111111,4,1,0,76,0,0
41882,-111.111111111111,4,1,0,78,0,0
42216,-111.111111111111,4,1,0,79,0,0
42382,-109.89010989011,4,1,0,80,0,0
42549,-108.695652173913,4,1,0,80,0,0
42632,-108.108108108108,4,1,0,77,0,0
42716,-107.52688172043,4,1,0,73,0,0
42799,-107.52688172043,4,1,0,70,0,0
42882,-106.382978723404,4,1,0,67,0,0
42966,-106.382978723404,4,1,0,63,0,0
43049,-105.263157894737,4,1,0,60,0,0
43382,-105.263157894737,4,1,0,80,0,0
53216,-105.263157894737,4,1,0,75,0,0
53382,-105.263157894737,4,1,0,70,0,0
53466,-105.263157894737,4,1,0,67,0,0
53549,-105.263157894737,4,1,0,65,0,0
53716,-105.263157894737,4,1,0,60,0,0
54049,-105.263157894737,4,1,0,80,0,0
63716,-105.263157894737,4,1,0,60,0,0
64216,-100,4,1,0,90,0,1
73882,-100,4,1,0,84,0,1
74049,-100,4,1,0,81,0,1
74132,-100,4,1,0,80,0,1
74216,-100,4,1,0,79,0,1
74299,-100,4,1,0,77,0,1
74382,-100,4,1,0,76,0,1
74549,-100,4,1,0,73,0,1
74632,-100,4,1,0,71,0,1
74716,-100,4,1,0,70,0,1
74882,-100,4,1,0,90,0,1
84549,-100,4,1,0,82,0,1
84716,-100,4,1,0,78,0,1
84799,-100,4,1,0,76,0,1
84882,-100,4,1,0,74,0,1
85049,-100,4,1,0,70,0,0
85716,-100,4,1,0,90,0,1
95216,-100,4,1,0,86,0,1
95382,-102.040816326531,4,1,0,83,0,1
95466,-102.040816326531,4,1,0,81,0,1
95549,-104.166666666667,4,1,0,79,0,1
95632,-105.263157894737,4,1,0,79,0,1
95716,-106.382978723404,4,1,0,75,0,1
95799,-106.382978723404,4,1,0,73,0,1
95882,-108.695652173913,4,1,0,71,0,1
96049,-111.111111111111,4,1,0,67,0,1
96216,-111.111111111111,4,1,0,64,0,1
96382,-111.111111111111,4,1,0,60,0,0
104549,-111.111111111111,4,1,0,63,0,0
104716,-111.111111111111,4,1,0,66,0,0
104882,-111.111111111111,4,1,0,69,0,0
105049,-111.111111111111,4,1,0,71,0,0
105216,-111.111111111111,4,1,0,74,0,0
105382,-111.111111111111,4,1,0,77,0,0
105549,-111.111111111111,4,1,0,80,0,0
106632,-111.111111111111,4,1,0,78,0,0
106716,-111.111111111111,4,1,0,77,0,0
106799,-111.111111111111,4,1,0,75,0,0
106882,-111.111111111111,4,1,0,73,0,0
106966,-111.111111111111,4,1,0,72,0,0
107049,-111.111111111111,4,1,0,70,0,0
117716,-105.263157894737,4,1,0,70,0,0
138299,-105.263157894737,4,1,0,71,0,0
138382,-104.166666666667,4,1,0,72,0,0
138549,-103.092783505155,4,1,0,74,0,0
138632,-102.564102564103,4,1,0,75,0,0
138716,-102.040816326531,4,1,0,76,0,0
138799,-102.040816326531,4,1,0,77,0,0
138882,-101.010101010101,4,1,0,78,0,0
138966,-101.010101010101,4,1,0,79,0,0
139049,-100,4,1,0,80,0,0
159382,-100,4,1,0,78,0,0
159549,-100,4,1,0,77,0,0
159716,-100,4,1,0,75,0,0
159882,-100,4,1,0,73,0,0
160049,-100,4,1,0,72,0,0
160216,-100,4,1,0,70,0,0
160382,-105.263157894737,4,1,0,80,0,0
170549,-105.263157894737,4,1,0,75,0,0
170716,-105.263157894737,4,1,0,70,0,0
170799,-105.263157894737,4,1,0,67,0,0
170882,-105.263157894737,4,1,0,65,0,0
171049,-105.263157894737,4,1,0,60,0,0
171382,-105.263157894737,4,1,0,80,0,0
181049,-105.263157894737,4,1,0,40,0,0
181549,-105.263157894737,4,1,0,50,0,0
187216,-105.263157894737,4,1,0,51,0,0
187382,-105.263157894737,4,1,0,52,0,0
187549,-105.263157894737,4,1,0,53,0,0
187716,-105.263157894737,4,1,0,54,0,0
187799,-105.263157894737,4,1,0,55,0,0
188049,-105.263157894737,4,1,0,56,0,0
188216,-105.263157894737,4,1,0,58,0,0
188382,-105.263157894737,4,1,0,59,0,0
188549,-105.263157894737,4,1,0,60,0,0
188716,-105.263157894737,4,1,0,61,0,0
188882,-105.263157894737,4,1,0,62,0,0
189049,-105.263157894737,4,1,0,63,0,0
189216,-105.263157894737,4,1,0,64,0,0
189382,-105.263157894737,4,1,0,65,0,0
189466,-105.263157894737,4,1,0,66,0,0
189632,-105.263157894737,4,1,0,67,0,0
189882,-105.263157894737,4,1,0,68,0,0
190049,-105.263157894737,4,1,0,69,0,0
190216,-105.263157894737,4,1,0,70,0,0
190299,-105.263157894737,4,1,0,71,0,0
190549,-105.263157894737,4,1,0,72,0,0
190716,-105.263157894737,4,1,0,74,0,0
190882,-105.263157894737,4,1,0,75,0,0
191049,-105.263157894737,4,1,0,76,0,0
191216,-105.263157894737,4,1,0,77,0,0
191382,-105.263157894737,4,1,0,78,0,0
191549,-105.263157894737,4,1,0,79,0,0
191716,-104.166666666667,4,1,0,80,0,0
191882,-103.092783505155,4,1,0,75,0,0
192049,-102.040816326531,4,1,0,70,0,0
192216,-100,4,1,0,90,0,1
202382,-100,4,1,0,90,0,0
202549,-100,4,1,0,80,0,0
202716,-100,4,1,0,70,0,0
202882,-100,4,1,0,90,0,1
212549,-100,4,1,0,84,0,1
212716,-100,4,1,0,81,0,1
212799,-100,4,1,0,80,0,1
212882,-100,4,1,0,79,0,1
212966,-100,4,1,0,77,0,1
213049,-100,4,1,0,76,0,1
213216,-100,4,1,0,73,0,1
213299,-100,4,1,0,71,0,1
213382,-100,4,1,0,70,0,1
213549,-100,4,1,0,90,0,1
225882,-100,4,1,0,82,0,1
226049,-100,4,1,0,78,0,1
226132,-100,4,1,0,76,0,1
226216,-100,4,1,0,74,0,1
226382,-100,4,1,0,70,0,0
227049,-100,4,1,0,90,0,1
248382,-100,4,1,0,90,0,0

[HitObjects]
256,192,4382,12,0,5382,0:0:0:0:
256,192,5716,5,12,0:0:0:0:
256,192,6049,1,0,0:0:0:0:
256,192,6216,1,0,0:0:0:0:
256,192,6382,1,8,0:0:0:0:
256,192,6549,1,0,0:0:0:0:
256,192,6632,1,0,0:0:0:0:
256,192,6716,1,0,0:0:0:0:
256,192,6882,1,0,0:0:0:0:
256,192,7049,1,8,0:0:0:0:
256,192,7382,1,0,0:0:0:0:
256,192,7549,1,0,0:0:0:0:
256,192,7716,1,8,0:0:0:0:
256,192,7882,1,8,0:0:0:0:
256,192,7966,1,8,0:0:0:0:
256,192,8049,1,8,0:0:0:0:
256,192,8216,1,0,0:0:0:0:
256,192,8382,1,12,0:0:0:0:
256,192,8716,1,8,0:0:0:0:
256,192,8882,1,8,0:0:0:0:
256,192,9049,1,0,0:0:0:0:
256,192,9216,1,0,0:0:0:0:
256,192,9382,1,0,0:0:0:0:
256,192,9549,1,12,0:0:0:0:
256,192,9882,1,8,0:0:0:0:
256,192,10049,1,8,0:0:0:0:
256,192,10216,1,8,0:0:0:0:
256,192,11049,1,12,0:0:0:0:
256,192,11549,1,0,0:0:0:0:
256,192,11716,1,8,0:0:0:0:
256,192,12049,1,8,0:0:0:0:
256,192,12216,1,8,0:0:0:0:
256,192,12382,1,0,0:0:0:0:
256,192,12466,1,0,0:0:0:0:
256,192,12549,1,0,0:0:0:0:
256,192,12716,1,8,0:0:0:0:
256,192,12882,1,0,0:0:0:0:
256,192,13049,1,8,0:0:0:0:
256,192,13382,1,8,0:0:0:0:
256,192,13716,1,0,0:0:0:0:
256,192,13882,1,0,0:0:0:0:
256,192,14216,1,0,0:0:0:0:
256,192,14382,1,8,0:0:0:0:
256,192,14716,1,8,0:0:0:0:
256,192,14882,1,8,0:0:0:0:
256,192,15049,1,0,0:0:0:0:
256,192,15132,1,0,0:0:0:0:
256,192,15216,1,0,0:0:0:0:
256,192,15382,1,0,0:0:0:0:
256,192,15716,1,8,0:0:0:0:
256,192,15799,1,8,0:0:0:0:
256,192,15882,1,8,0:0:0:0:
256,192,16049,1,0,0:0:0:0:
256,192,16216,1,0,0:0:0:0:
256,192,16382,1,12,0:0:0:0:
256,192,16882,1,0,0:0:0:0:
256,192,17049,1,8,0:0:0:0:
256,192,17382,1,8,0:0:0:0:
256,192,17549,1,8,0:0:0:0:
256,192,17716,1,0,0:0:0:0:
256,192,17799,1,0,0:0:0:0:
256,192,17882,1,0,0:0:0:0:
256,192,18049,1,8,0:0:0:0:
256,192,18216,1,0,0:0:0:0:
256,192,18382,1,8,0:0:0:0:
256,192,18716,1,8,0:0:0:0:
256,192,19049,1,0,0:0:0:0:
256,192,19216,1,0,0:0:0:0:
256,192,19549,1,0,0:0:0:0:
256,192,19716,1,8,0:0:0:0:
256,192,20049,1,8,0:0:0:0:
256,192,20216,1,8,0:0:0:0:
256,192,20382,1,0,0:0:0:0:
256,192,20716,1,8,0:0:0:0:
256,192,20882,1,8,0:0:0:0:
256,192,20966,1,8,0:0:0:0:
256,192,21049,1,8,0:0:0:0:
256,192,21216,1,0,0:0:0:0:
256,192,21382,1,0,0:0:0:0:
256,192,21716,1,4,0:0:0:0:
256,192,22049,1,8,0:0:0:0:
256,192,22382,1,0,0:0:0:0:
256,192,22716,1,0,0:0:0:0:
256,192,22882,1,8,0:0:0:0:
256,192,23216,1,8,0:0:0:0:
256,192,23382,1,0,0:0:0:0:
256,192,23549,1,8,0:0:0:0:
256,192,23882,1,0,0:0:0:0:
256,192,24049,1,8,0:0:0:0:
256,192,24216,1,8,0:0:0:0:
256,192,24382,1,0,0:0:0:0:
256,192,24716,1,0,0:0:0:0:
256,192,25049,1,8,0:0:0:0:
256,192,25216,1,0,0:0:0:0:
256,192,25382,1,0,0:0:0:0:
256,192,25549,1,8,0:0:0:0:
256,192,25882,1,0,0:0:0:0:
256,192,26049,1,8,0:0:0:0:
256,192,26216,1,0,0:0:0:0:
256,192,26716,1,0,0:0:0:0:
256,192,27049,1,4,0:0:0:0:
256,192,27382,1,8,0:0:0:0:
256,192,27716,1,0,0:0:0:0:
256,192,28049,1,0,0:0:0:0:
256,192,28216,1,8,0:0:0:0:
256,192,28549,1,8,0:0:0:0:
256,192,28716,1,0,0:0:0:0:
256,192,28882,1,8,0:0:0:0:
256,192,29216,1,0,0:0:0:0:
256,192,29549,1,8,0:0:0:0:
256,192,29716,1,0,0:0:0:0:
256,192,29882,1,0,0:0:0:0:
256,192,30049,1,8,0:0:0:0:
256,192,30382,1,8,0:0:0:0:
256,192,30716,1,0,0:0:0:0:
256,192,30882,1,8,0:0:0:0:
256,192,31216,1,8,0:0:0:0:
256,192,31382,1,0,0:0:0:0:
256,192,31549,1,8,0:0:0:0:
256,192,31716,1,8,0:0:0:0:
256,192,32382,1,4,0:0:0:0:
256,192,32716,1,8,0:0:0:0:
256,192,33049,1,0,0:0:0:0:
256,192,33216,1,0,0:0:0:0:
256,192,33382,1,8,0:0:0:0:
256,192,33549,1,0,0:0:0:0:
256,192,34049,1,8,0:0:0:0:
256,192,34382,1,0,0:0:0:0:
256,192,34466,1,0,0:0:0:0:
256,192,34549,1,0,0:0:0:0:
256,192,34716,1,8,0:0:0:0:
256,192,34882,1,8,0:0:0:0:
256,192,35049,1,0,0:0:0:0:
256,192,35382,1,8,0:0:0:0:
256,192,35716,1,0,0:0:0:0:
256,192,35882,1,0,0:0:0:0:
256,192,36049,1,8,0:0:0:0:
256,192,36216,1,0,0:0:0:0:
256,192,36549,1,0,0:0:0:0:
256,192,36716,1,8,0:0:0:0:
256,192,36882,1,0,0:0:0:0:
256,192,37049,1,8,0:0:0:0:
256,192,37132,1,8,0:0:0:0:
256,192,37216,1,8,0:0:0:0:
256,192,37382,1,8,0:0:0:0:
256,192,37716,1,0,0:0:0:0:
256,192,38049,1,8,0:0:0:0:
256,192,38382,1,0,0:0:0:0:
256,192,38549,1,0,0:0:0:0:
256,192,38716,1,8,0:0:0:0:
256,192,38882,1,0,0:0:0:0:
256,192,39382,1,8,0:0:0:0:
256,192,39716,1,0,0:0:0:0:
256,192,39799,1,0,0:0:0:0:
256,192,39882,1,0,0:0:0:0:
256,192,40049,1,8,0:0:0:0:
256,192,40216,1,8,0:0:0:0:
256,192,40382,1,0,0:0:0:0:
256,192,40716,1,8,0:0:0:0:
256,192,41049,1,0,0:0:0:0:
256,192,41216,1,0,0:0:0:0:
256,192,41382,1,8,0:0:0:0:
256,192,41549,1,4,0:0:0:0:
256,192,41882,1,0,0:0:0:0:
256,192,42049,1,8,0:0:0:0:
256,192,42216,1,0,0:0:0:0:
256,192,42382,1,8,0:0:0:0:
256,192,42549,1,8,0:0:0:0:
256,192,42632,1,8,0:0:0:0:
256,192,42716,1,8,0:0:0:0:
256,192,42882,1,0,0:0:0:0:
256,192,43049,1,12,0:0:0:0:
256,192,43382,1,8,0:0:0:0:
256,192,43716,1,8,0:0:0:0:
256,192,43882,1,0,0:0:0:0:
256,192,44049,1,8,0:0:0:0:
256,192,44382,1,8,0:0:0:0:
256,192,44716,1,0,0:0:0:0:
256,192,44882,1,0,0:0:0:0:
256,192,45049,1,8,0:0:0:0:
256,192,45216,1,0,0:0:0:0:
256,192,45382,1,8,0:0:0:0:
256,192,45716,1,8,0:0:0:0:
256,192,46049,1,8,0:0:0:0:
256,192,46382,1,0,0:0:0:0:
256,192,46549,1,8,0:0:0:0:
256,192,46716,1,0,0:0:0:0:
256,192,47049,1,8,0:0:0:0:
256,192,47216,1,0,0:0:0:0:
256,192,47382,1,0,0:0:0:0:
256,192,47549,1,8,0:0:0:0:
256,192,47632,1,8,0:0:0:0:
256,192,47716,1,8,0:0:0:0:
256,192,47882,1,8,0:0:0:0:
256,192,48049,1,0,0:0:0:0:
256,192,48382,1,0,0:0:0:0:
256,192,48716,1,0,0:0:0:0:
256,192,49049,1,0,0:0:0:0:
256,192,49216,1,8,0:0:0:0:
256,192,49382,1,0,0:0:0:0:
256,192,49716,1,0,0:0:0:0:
256,192,50049,1,8,0:0:0:0:
256,192,50216,1,8,0:0:0:0:
256,192,50382,1,0,0:0:0:0:
256,192,50549,1,8,0:0:0:0:
256,192,50716,1,0,0:0:0:0:
256,192,51049,1,0,0:0:0:0:
256,192,51382,1,0,0:0:0:0:
256,192,51716,1,8,0:0:0:0:
256,192,51882,1,0,0:0:0:0:
256,192,52049,1,8,0:0:0:0:
256,192,52382,1,0,0:0:0:0:
256,192,52549,1,8,0:0:0:0:
256,192,52716,1,8,0:0:0:0:
256,192,52882,1,0,0:0:0:0:
256,192,52966,1,0,0:0:0:0:
256,192,53049,1,0,0:0:0:0:
256,192,53216,1,0,0:0:0:0:
256,192,53382,1,8,0:0:0:0:
256,192,53716,1,12,0:0:0:0:
256,192,54049,1,8,0:0:0:0:
256,192,54216,1,0,0:0:0:0:
256,192,54382,1,8,0:0:0:0:
256,192,54466,1,8,0:0:0:0:
256,192,54549,1,8,0:0:0:0:
256,192,54716,1,8,0:0:0:0:
256,192,55049,1,0,0:0:0:0:
256,192,55216,1,8,0:0:0:0:
256,192,55382,1,0,0:0:0:0:
256,192,55549,1,0,0:0:0:0:
256,192,55716,1,8,0:0:0:0:
256,192,56049,1,8,0:0:0:0:
256,192,56382,1,0,0:0:0:0:
256,192,56716,1,0,0:0:0:0:
256,192,56882,1,0,0:0:0:0:
256,192,57049,1,8,0:0:0:0:
256,192,57132,1,8,0:0:0:0:
256,192,57216,1,8,0:0:0:0:
256,192,57382,1,8,0:0:0:0:
256,192,57716,1,12,0:0:0:0:
256,192,58049,1,0,0:0:0:0:
256,192,58216,1,12,0:0:0:0:
256,192,58716,1,12,0:0:0:0:
256,192,59049,1,4,0:0:0:0:
256,192,59716,1,0,0:0:0:0:
256,192,59882,1,0,0:0:0:0:
256,192,60049,1,8,0:0:0:0:
256,192,60382,1,0,0:0:0:0:
256,192,60716,1,8,0:0:0:0:
256,192,60882,1,8,0:0:0:0:
256,192,60966,1,8,0:0:0:0:
256,192,61049,1,8,0:0:0:0:
256,192,61216,1,8,0:0:0:0:
256,192,61382,1,0,0:0:0:0:
256,192,61716,1,12,0:0:0:0:
256,192,62049,1,8,0:0:0:0:
256,192,62216,1,8,0:0:0:0:
256,192,62382,1,0,0:0:0:0:
256,192,62549,1,0,0:0:0:0:
256,192,62716,1,0,0:0:0:0:
256,192,62882,1,12,0:0:0:0:
256,192,63216,1,8,0:0:0:0:
256,192,63382,1,8,0:0:0:0:
256,192,64216,1,4,0:0:0:0:
256,192,64716,1,8,0:0:0:0:
256,192,64882,1,8,0:0:0:0:
256,192,65049,1,0,0:0:0:0:
256,192,65132,1,0,0:0:0:0:
256,192,65216,1,0,0:0:0:0:
256,192,65382,1,8,0:0:0:0:
256,192,65549,1,0,0:0:0:0:
256,192,65882,1,0,0:0:0:0:
256,192,66049,1,8,0:0:0:0:
256,192,66382,1,0,0:0:0:0:
256,192,66549,1,0,0:0:0:0:
256,192,66716,1,8,0:0:0:0:
256,192,66882,1,0,0:0:0:0:
256,192,67216,1,0,0:0:0:0:
256,192,67382,1,8,0:0:0:0:
256,192,67549,1,0,0:0:0:0:
256,192,67716,1,8,0:0:0:0:
256,192,67799,1,8,0:0:0:0:
256,192,67882,1,8,0:0:0:0:
256,192,68049,1,8,0:0:0:0:
256,192,68216,1,0,0:0:0:0:
256,192,68549,1,0,0:0:0:0:
256,192,68716,1,8,0:0:0:0:
256,192,68882,1,0,0:0:0:0:
256,192,69216,1,0,0:0:0:0:
256,192,69382,1,8,0:0:0:0:
256,192,69716,1,4,0:0:0:0:
256,192,70216,1,0,0:0:0:0:
256,192,70382,1,8,0:0:0:0:
256,192,70549,1,8,0:0:0:0:
256,192,70716,1,0,0:0:0:0:
256,192,70799,1,0,0:0:0:0:
256,192,70882,1,0,0:0:0:0:
256,192,71049,1,8,0:0:0:0:
256,192,71382,1,8,0:0:0:0:
256,192,71549,1,0,0:0:0:0:
256,192,71882,1,0,0:0:0:0:
256,192,72049,1,8,0:0:0:0:
256,192,72216,1,8,0:0:0:0:
256,192,72382,1,0,0:0:0:0:
256,192,72716,1,8,0:0:0:0:
256,192,72882,1,0,0:0:0:0:
256,192,73049,1,8,0:0:0:0:
256,192,73132,1,8,0:0:0:0:
256,192,73216,1,8,0:0:0:0:
256,192,73382,1,8,0:0:0:0:
256,192,73549,1,4,0:0:0:0:
256,192,73882,1,0,0:0:0:0:
256,192,74049,1,8,0:0:0:0:
256,192,74382,1,8,0:0:0:0:
256,192,74882,1,4,0:0:0:0:
256,192,75382,1,8,0:0:0:0:
256,192,75549,1,8,0:0:0:0:
256,192,75716,1,0,0:0:0:0:
256,192,75799,1,0,0:0:0:0:
256,192,75882,1,0,0:0:0:0:
256,192,76049,1,8,0:0:0:0:
256,192,76216,1,0,0:0:0:0:
256,192,76549,1,0,0:0:0:0:
256,192,76716,1,8,0:0:0:0:
256,192,77049,1,0,0:0:0:0:
256,192,77216,1,0,0:0:0:0:
256,192,77382,1,8,0:0:0:0:
256,192,77549,1,0,0:0:0:0:
256,192,77882,1,0,0:0:0:0:
256,192,78049,1,8,0:0:0:0:
256,192,78216,1,0,0:0:0:0:
256,192,78382,1,8,0:0:0:0:
256,192,78466,1,8,0:0:0:0:
256,192,78549,1,8,0:0:0:0:
256,192,78716,1,8,0:0:0:0:
256,192,78882,1,0,0:0:0:0:
256,192,79216,1,0,0:0:0:0:
256,192,79382,1,8,0:0:0:0:
256,192,79549,1,0,0:0:0:0:
256,192,79882,1,0,0:0:0:0:
256,192,80049,1,8,0:0:0:0:
256,192,80382,1,4,0:0:0:0:
256,192,80882,1,0,0:0:0:0:
256,192,81049,1,8,0:0:0:0:
256,192,81216,1,8,0:0:0:0:
256,192,81382,1,0,0:0:0:0:
256,192,81466,1,0,0:0:0:0:
256,192,81549,1,0,0:0:0:0:
256,192,81716,1,8,0:0:0:0:
256,192,82049,1,8,0:0:0:0:
256,192,82216,1,0,0:0:0:0:
256,192,82549,1,0,0:0:0:0:
256,192,82716,1,8,0:0:0:0:
256,192,82882,1,8,0:0:0:0:
256,192,83049,1,0,0:0:0:0:
256,192,83382,1,8,0:0:0:0:
256,192,83549,1,0,0:0:0:0:
256,192,83716,1,8,0:0:0:0:
256,192,83799,1,8,0:0:0:0:
256,192,83882,1,8,0:0:0:0:
256,192,84049,1,8,0:0:0:0:
256,192,84216,1,4,0:0:0:0:
256,192,84549,1,0,0:0:0:0:
256,192,84716,1,0,0:0:0:0:
256,192,84882,1,0,0:0:0:0:
256,192,85716,1,12,0:0:0:0:
256,192,86216,1,0,0:0:0:0:
256,192,86382,1,8,0:0:0:0:
256,192,86716,1,8,0:0:0:0:
256,192,86882,1,8,0:0:0:0:
256,192,87049,1,0,0:0:0:0:
256,192,87132,1,0,0:0:0:0:
256,192,87216,1,0,0:0:0:0:
256,192,87382,1,8,0:0:0:0:
256,192,87549,1,0,0:0:0:0:
256,192,87716,1,8,0:0:0:0:
256,192,88049,1,8,0:0:0:0:
256,192,88382,1,0,0:0:0:0:
256,192,88549,1,0,0:0:0:0:
256,192,88882,1,0,0:0:0:0:
256,192,89049,1,8,0:0:0:0:
256,192,89382,1,8,0:0:0:0:
256,192,89549,1,8,0:0:0:0:
256,192,89716,1,0,0:0:0:0:
256,192,89799,1,0,0:0:0:0:
256,192,89882,1,0,0:0:0:0:
256,192,90049,1,0,0:0:0:0:
256,192,90382,1,8,0:0:0:0:
256,192,90466,1,8,0:0:0:0:
256,192,90549,1,8,0:0:0:0:
256,192,90716,1,0,0:0:0:0:
256,192,90882,1,0,0:0:0:0:
256,192,91049,1,12,0:0:0:0:
256,192,91549,1,0,0:0:0:0:
256,192,91716,1,8,0:0:0:0:
256,192,92049,1,8,0:0:0:0:
256,192,92216,1,8,0:0:0:0:
256,192,92382,1,0,0:0:0:0:
256,192,92466,1,0,0:0:0:0:
256,192,92549,1,0,0:0:0:0:
256,192,92716,1,8,0:0:0:0:
256,192,92882,1,0,0:0:0:0:
256,192,93049,1,8,0:0:0:0:
256,192,93382,1,8,0:0:0:0:
256,192,93716,1,0,0:0:0:0:
256,192,93882,1,0,0:0:0:0:
256,192,94216,1,0,0:0:0:0:
256,192,94382,1,8,0:0:0:0:
256,192,94716,1,8,0:0:0:0:
256,192,94882,1,8,0:0:0:0:
256,192,95049,1,0,0:0:0:0:
256,192,95382,1,8,0:0:0:0:
256,192,95549,1,8,0:0:0:0:
256,192,95632,1,8,0:0:0:0:
256,192,95716,1,8,0:0:0:0:
256,192,95882,1,0,0:0:0:0:
256,192,96049,1,0,0:0:0:0:
256,192,96382,1,4,0:0:0:0:
256,192,97049,1,0,0:0:0:0:
256,192,97382,1,0,0:0:0:0:
256,192,97549,1,8,0:0:0:0:
256,192,98049,1,0,0:0:0:0:
256,192,98382,1,0,0:0:0:0:
256,192,98716,1,0,0:0:0:0:
256,192,98882,1,0,0:0:0:0:
256,192,99049,1,8,0:0:0:0:
256,192,99716,1,0,0:0:0:0:
256,192,100049,1,0,0:0:0:0:
256,192,100216,1,8,0:0:0:0:
256,192,100549,1,0,0:0:0:0:
256,192,100716,1,8,0:0:0:0:
256,192,100882,1,0,0:0:0:0:
256,192,101382,1,8,0:0:0:0:
256,192,101716,1,4,0:0:0:0:
256,192,102382,1,0,0:0:0:0:
256,192,102716,1,0,0:0:0:0:
256,192,102882,1,8,0:0:0:0:
256,192,103382,1,0,0:0:0:0:
256,192,103716,1,0,0:0:0:0:
256,192,104049,1,0,0:0:0:0:
256,192,104216,1,0,0:0:0:0:
256,192,104382,1,8,0:0:0:0:
256,192,105049,1,0,0:0:0:0:
256,192,105382,1,0,0:0:0:0:
256,192,105549,1,12,0:0:0:0:
256,192,106049,1,8,0:0:0:0:
256,192,106382,1,8,0:0:0:0:
256,192,106549,1,8,0:0:0:0:
256,192,106632,1,8,0:0:0:0:
256,192,106716,1,8,0:0:0:0:
256,192,106882,1,8,0:0:0:0:
256,192,107049,1,4,0:0:0:0:
256,192,107382,1,8,0:0:0:0:
256,192,107716,1,0,0:0:0:0:
256,192,107882,1,0,0:0:0:0:
256,192,108049,1,0,0:0:0:0:
256,192,108216,1,8,0:0:0:0:
256,192,108549,1,0,0:0:0:0:
256,192,108716,1,8,0:0:0:0:
256,192,109049,1,0,0:0:0:0:
256,192,109132,1,0,0:0:0:0:
256,192,109216,1,0,0:0:0:0:
256,192,109382,1,8,0:0:0:0:
256,192,109716,1,0,0:0:0:0:
256,192,110049,1,8,0:0:0:0:
256,192,110382,1,0,0:0:0:0:
256,192,110549,1,0,0:0:0:0:
256,192,110716,1,8,0:0:0:0:
256,192,110882,1,0,0:0:0:0:
256,192,111216,1,0,0:0:0:0:
256,192,111382,1,8,0:0:0:0:
256,192,111549,1,0,0:0:0:0:
256,192,112049,1,8,0:0:0:0:
256,192,112216,1,0,0:0:0:0:
256,192,112299,1,0,0:0:0:0:
256,192,112382,1,0,0:0:0:0:
256,192,112716,1,8,0:0:0:0:
256,192,113049,1,0,0:0:0:0:
256,192,113216,1,0,0:0:0:0:
256,192,113382,1,0,0:0:0:0:
256,192,113549,1,8,0:0:0:0:
256,192,113882,1,0,0:0:0:0:
256,192,114049,1,8,0:0:0:0:
256,192,114382,1,0,0:0:0:0:
256,192,114466,1,0,0:0:0:0:
256,192,114549,1,0,0:0:0:0:
256,192,114716,1,8,0:0:0:0:
256,192,115049,1,0,0:0:0:0:
256,192,115382,1,8,0:0:0:0:
256,192,115716,1,0,0:0:0:0:
256,192,115882,1,0,0:0:0:0:
256,192,116049,1,8,0:0:0:0:
256,192,116216,1,8,0:0:0:0:
256,192,116549,1,0,0:0:0:0:
256,192,116716,1,8,0:0:0:0:
256,192,116882,1,0,0:0:0:0:
256,192,116966,1,0,0:0:0:0:
256,192,117049,1,0,0:0:0:0:
256,192,117216,1,0,0:0:0:0:
256,192,117382,1,8,0:0:0:0:
256,192,117716,1,4,0:0:0:0:
256,192,118382,1,0,0:0:0:0:
256,192,118549,1,0,0:0:0:0:
256,192,118716,1,8,0:0:0:0:
256,192,118882,1,0,0:0:0:0:
256,192,119216,1,8,0:0:0:0:
256,192,119382,1,8,0:0:0:0:
256,192,119549,1,0,0:0:0:0:
256,192,119882,1,0,0:0:0:0:
256,192,120049,1,8,0:0:0:0:
256,192,120382,1,0,0:0:0:0:
256,192,120716,1,8,0:0:0:0:
256,192,121049,1,0,0:0:0:0:
256,192,121216,1,0,0:0:0:0:
256,192,121382,1,8,0:0:0:0:
256,192,121549,1,0,0:0:0:0:
256,192,121882,1,0,0:0:0:0:
256,192,122049,1,8,0:0:0:0:
256,192,122216,1,8,0:0:0:0:
256,192,122549,1,0,0:0:0:0:
256,192,122716,1,8,0:0:0:0:
256,192,123049,1,4,0:0:0:0:
256,192,123716,1,0,0:0:0:0:
256,192,123882,1,0,0:0:0:0:
256,192,124049,1,8,0:0:0:0:
256,192,124216,1,0,0:0:0:0:
256,192,124549,1,8,0:0:0:0:
256,192,124716,1,8,0:0:0:0:
256,192,124882,1,0,0:0:0:0:
256,192,125216,1,0,0:0:0:0:
256,192,125382,1,8,0:0:0:0:
256,192,125716,1,8,0:0:0:0:
256,192,126049,1,8,0:0:0:0:
256,192,126216,1,8,0:0:0:0:
256,192,126382,1,0,0:0:0:0:
256,192,126549,1,0,0:0:0:0:
256,192,126716,1,8,0:0:0:0:
256,192,126882,1,0,0:0:0:0:
256,192,127216,1,0,0:0:0:0:
256,192,127382,1,8,0:0:0:0:
256,192,127549,1,8,0:0:0:0:
256,192,127632,1,8,0:0:0:0:
256,192,127716,1,8,0:0:0:0:
256,192,127882,1,0,0:0:0:0:
256,192,128049,1,8,0:0:0:0:
256,192,128382,1,4,0:0:0:0:
256,192,129049,1,0,0:0:0:0:
256,192,129216,1,0,0:0:0:0:
256,192,129382,1,8,0:0:0:0:
256,192,129549,1,0,0:0:0:0:
256,192,129882,1,8,0:0:0:0:
256,192,130049,1,8,0:0:0:0:
256,192,130216,1,0,0:0:0:0:
256,192,130549,1,0,0:0:0:0:
256,192,130716,1,8,0:0:0:0:
256,192,130799,1,8,0:0:0:0:
256,192,130882,1,8,0:0:0:0:
256,192,131049,1,0,0:0:0:0:
256,192,131382,1,8,0:0:0:0:
256,192,131549,1,8,0:0:0:0:
256,192,131716,1,0,0:0:0:0:
256,192,131882,1,0,0:0:0:0:
256,192,132049,1,8,0:0:0:0:
256,192,132216,1,0,0:0:0:0:
256,192,132549,1,0,0:0:0:0:
256,192,132716,1,8,0:0:0:0:
256,192,132882,1,8,0:0:0:0:
256,192,133216,1,0,0:0:0:0:
256,192,133382,1,8,0:0:0:0:
256,192,133716,1,4,0:0:0:0:
256,192,134382,1,0,0:0:0:0:
256,192,134549,1,0,0:0:0:0:
256,192,134716,1,8,0:0:0:0:
256,192,134882,1,0,0:0:0:0:
256,192,135216,1,8,0:0:0:0:
256,192,135382,1,8,0:0:0:0:
256,192,135549,1,0,0:0:0:0:
256,192,135882,1,0,0:0:0:0:
256,192,136049,1,8,0:0:0:0:
256,192,136132,1,8,0:0:0:0:
256,192,136216,1,8,0:0:0:0:
256,192,136382,1,8,0:0:0:0:
256,192,136716,1,8,0:0:0:0:
256,192,136882,1,8,0:0:0:0:
256,192,137049,1,0,0:0:0:0:
256,192,137216,1,0,0:0:0:0:
256,192,137382,1,8,0:0:0:0:
256,192,137549,1,0,0:0:0:0:
256,192,137882,1,0,0:0:0:0:
256,192,138049,1,8,0:0:0:0:
256,192,138382,1,8,0:0:0:0:
256,192,138549,1,8,0:0:0:0:
256,192,138632,1,8,0:0:0:0:
256,192,138716,1,8,0:0:0:0:
256,192,138882,1,8,0:0:0:0:
256,192,139049,1,4,0:0:0:0:
256,192,139382,1,8,0:0:0:0:
256,192,139716,1,0,0:0:0:0:
256,192,139882,1,0,0:0:0:0:
256,192,140049,1,8,0:0:0:0:
256,192,140216,1,4,0:0:0:0:
256,192,140716,1,8,0:0:0:0:
256,192,141049,1,0,0:0:0:0:
256,192,141216,1,8,0:0:0:0:
256,192,141382,1,8,0:0:0:0:
256,192,141549,1,4,0:0:0:0:
256,192,142049,1,8,0:0:0:0:
256,192,142382,1,8,0:0:0:0:
256,192,142549,1,8,0:0:0:0:
256,192,142716,1,8,0:0:0:0:
256,192,142882,1,4,0:0:0:0:
256,192,143216,1,4,0:0:0:0:
256,192,143549,1,12,0:0:0:0:
256,192,143882,1,8,0:0:0:0:
256,192,143966,1,8,0:0:0:0:
256,192,144049,1,8,0:0:0:0:
256,192,144216,1,8,0:0:0:0:
256,192,144382,1,4,0:0:0:0:
256,192,145049,1,8,0:0:0:0:
256,192,145216,1,8,0:0:0:0:
256,192,145382,1,0,0:0:0:0:
256,192,145549,1,8,0:0:0:0:
256,192,145716,1,0,0:0:0:0:
256,192,146049,1,0,0:0:0:0:
256,192,146216,1,8,0:0:0:0:
256,192,146382,1,0,0:0:0:0:
256,192,146549,1,8,0:0:0:0:
256,192,146716,1,8,0:0:0:0:
256,192,146882,1,0,0:0:0:0:
256,192,147049,1,8,0:0:0:0:
256,192,147382,1,8,0:0:0:0:
256,192,147549,1,0,0:0:0:0:
256,192,147882,1,0,0:0:0:0:
256,192,148216,1,12,0:0:0:0:
256,192,148716,1,8,0:0:0:0:
256,192,148882,1,0,0:0:0:0:
256,192,149049,1,8,0:0:0:0:
256,192,149216,1,8,0:0:0:0:
256,192,149382,1,8,0:0:0:0:
256,192,149549,1,4,0:0:0:0:
256,192,150049,1,8,0:0:0:0:
256,192,150216,1,0,0:0:0:0:
256,192,150382,1,0,0:0:0:0:
256,192,150549,1,0,0:0:0:0:
256,192,150716,1,8,0:0:0:0:
256,192,150882,1,4,0:0:0:0:
256,192,151216,1,0,0:0:0:0:
256,192,151382,1,8,0:0:0:0:
256,192,151549,1,0,0:0:0:0:
256,192,151716,1,0,0:0:0:0:
256,192,151882,1,8,0:0:0:0:
256,192,152049,1,8,0:0:0:0:
256,192,152216,1,4,0:0:0:0:
256,192,152549,1,0,0:0:0:0:
256,192,152716,1,8,0:0:0:0:
256,192,152882,1,0,0:0:0:0:
256,192,153049,1,8,0:0:0:0:
256,192,153216,1,8,0:0:0:0:
256,192,153382,1,8,0:0:0:0:
256,192,153549,1,4,0:0:0:0:
256,192,153882,1,8,0:0:0:0:
256,192,154216,1,4,0:0:0:0:
256,192,154549,1,8,0:0:0:0:
256,192,154632,1,8,0:0:0:0:
256,192,154716,1,8,0:0:0:0:
256,192,154882,1,8,0:0:0:0:
256,192,155049,1,4,0:0:0:0:
256,192,155716,1,8,0:0:0:0:
256,192,155882,1,8,0:0:0:0:
256,192,156049,1,0,0:0:0:0:
256,192,156216,1,8,0:0:0:0:
256,192,156382,1,0,0:0:0:0:
256,192,156716,1,0,0:0:0:0:
256,192,156882,1,8,0:0:0:0:
256,192,157049,1,0,0:0:0:0:
256,192,157216,1,8,0:0:0:0:
256,192,157382,1,8,0:0:0:0:
256,192,157549,1,0,0:0:0:0:
256,192,157716,1,8,0:0:0:0:
256,192,158049,1,8,0:0:0:0:
256,192,158216,1,0,0:0:0:0:
256,192,158549,1,0,0:0:0:0:
256,192,158882,1,12,0:0:0:0:
256,192,159216,1,8,0:0:0:0:
256,192,159382,1,8,0:0:0:0:
256,192,159549,1,8,0:0:0:0:
256,192,160382,1,12,0:0:0:0:
256,192,160716,1,8,0:0:0:0:
256,192,161049,1,8,0:0:0:0:
256,192,161216,1,0,0:0:0:0:
256,192,161382,1,8,0:0:0:0:
256,192,161716,1,8,0:0:0:0:
256,192,162049,1,0,0:0:0:0:
256,192,162216,1,0,0:0:0:0:
256,192,162382,1,8,0:0:0:0:
256,192,162549,1,0,0:0:0:0:
256,192,162716,1,8,0:0:0:0:
256,192,163049,1,8,0:0:0:0:
256,192,163382,1,8,0:0:0:0:
256,192,163716,1,0,0:0:0:0:
256,192,163882,1,8,0:0:0:0:
256,192,164049,1,0,0:0:0:0:
256,192,164382,1,8,0:0:0:0:
256,192,164549,1,0,0:0:0:0:
256,192,164716,1,0,0:0:0:0:
256,192,164882,1,8,0:0:0:0:
256,192,164966,1,8,0:0:0:0:
256,192,165049,1,8,0:0:0:0:
256,192,165216,1,8,0:0:0:0:
256,192,165382,1,0,0:0:0:0:
256,192,165716,1,0,0:0:0:0:
256,192,166049,1,0,0:0:0:0:
256,192,166382,1,0,0:0:0:0:
256,192,166549,1,8,0:0:0:0:
256,192,166716,1,0,0:0:0:0:
256,192,167049,1,0,0:0:0:0:
256,192,167382,1,8,0:0:0:0:
256,192,167549,1,8,0:0:0:0:
256,192,167716,1,0,0:0:0:0:
256,192,167882,1,8,0:0:0:0:
256,192,168049,1,0,0:0:0:0:
256,192,168382,1,0,0:0:0:0:
256,192,168716,1,0,0:0:0:0:
256,192,169049,1,8,0:0:0:0:
256,192,169216,1,0,0:0:0:0:
256,192,169382,1,8,0:0:0:0:
256,192,169716,1,0,0:0:0:0:
256,192,169882,1,8,0:0:0:0:
256,192,170049,1,8,0:0:0:0:
256,192,170216,1,0,0:0:0:0:
256,192,170299,1,0,0:0:0:0:
256,192,170382,1,0,0:0:0:0:
256,192,170549,1,0,0:0:0:0:
256,192,170716,1,8,0:0:0:0:
256,192,171049,1,12,0:0:0:0:
256,192,171382,1,8,0:0:0:0:
256,192,171549,1,0,0:0:0:0:
256,192,171716,1,8,0:0:0:0:
256,192,171799,1,8,0:0:0:0:
256,192,171882,1,8,0:0:0:0:
256,192,172049,1,8,0:0:0:0:
256,192,172382,1,0,0:0:0:0:
256,192,172549,1,8,0:0:0:0:
256,192,172716,1,0,0:0:0:0:
256,192,172882,1,0,0:0:0:0:
256,192,173049,1,8,0:0:0:0:
256,192,173382,1,8,0:0:0:0:
256,192,173716,1,0,0:0:0:0:
256,192,174049,1,0,0:0:0:0:
256,192,174216,1,0,0:0:0:0:
256,192,174382,1,8,0:0:0:0:
256,192,174466,1,8,0:0:0:0:
256,192,174549,1,8,0:0:0:0:
256,192,174716,1,8,0:0:0:0:
256,192,175049,1,12,0:0:0:0:
256,192,175382,1,0,0:0:0:0:
256,192,175549,1,12,0:0:0:0:
256,192,176049,1,12,0:0:0:0:
256,192,176382,1,4,0:0:0:0:
256,192,177049,1,0,0:0:0:0:
256,192,177216,1,0,0:0:0:0:
256,192,177382,1,8,0:0:0:0:
256,192,177716,1,0,0:0:0:0:
256,192,178049,1,8,0:0:0:0:
256,192,178216,1,8,0:0:0:0:
256,192,178299,1,8,0:0:0:0:
256,192,178382,1,8,0:0:0:0:
256,192,178549,1,8,0:0:0:0:
256,192,178716,1,0,0:0:0:0:
256,192,179049,1,12,0:0:0:0:
256,192,179382,1,8,0:0:0:0:
256,192,179549,1,8,0:0:0:0:
256,192,179716,1,0,0:0:0:0:
256,192,179882,1,0,0:0:0:0:
256,192,180049,1,0,0:0:0:0:
256,192,180216,1,12,0:0:0:0:
256,192,180549,1,8,0:0:0:0:
256,192,180716,1,8,0:0:0:0:
256,192,181549,1,4,0:0:0:0:
256,192,187049,5,0,0:0:0:0:
256,192,187382,1,0,0:0:0:0:
256,192,187716,1,0,0:0:0:0:
256,192,188049,1,0,0:0:0:0:
256,192,188216,1,0,0:0:0:0:
256,192,188382,1,0,0:0:0:0:
256,192,188716,1,0,0:0:0:0:
256,192,188882,1,0,0:0:0:0:
256,192,189049,1,0,0:0:0:0:
256,192,189132,1,0,0:0:0:0:
256,192,189216,1,0,0:0:0:0:
256,192,189382,1,0,0:0:0:0:
256,192,189549,1,0,0:0:0:0:
256,192,189716,1,12,0:0:0:0:
256,192,190049,1,0,0:0:0:0:
256,192,190216,1,0,0:0:0:0:
256,192,190382,1,0,0:0:0:0:
256,192,190549,1,0,0:0:0:0:
256,192,190716,1,0,0:0:0:0:
256,192,190882,1,8,0:0:0:0:
256,192,191216,1,8,0:0:0:0:
256,192,191382,1,8,0:0:0:0:
256,192,191716,1,4,0:0:0:0:
256,192,191882,1,4,0:0:0:0:
256,192,192049,1,4,0:0:0:0:
256,192,192216,1,4,0:0:0:0:
256,192,192716,1,8,0:0:0:0:
256,192,192882,1,8,0:0:0:0:
256,192,193049,1,0,0:0:0:0:
256,192,193132,1,0,0:0:0:0:
256,192,193216,1,0,0:0:0:0:
256,192,193382,1,8,0:0:0:0:
256,192,193549,1,0,0:0:0:0:
256,192,193882,1,0,0:0:0:0:
256,192,194049,1,8,0:0:0:0:
256,192,194382,1,0,0:0:0:0:
256,192,194549,1,0,0:0:0:0:
256,192,194716,1,8,0:0:0:0:
256,192,194882,1,0,0:0:0:0:
256,192,195216,1,0,0:0:0:0:
256,192,195382,1,8,0:0:0:0:
256,192,195549,1,0,0:0:0:0:
256,192,195716,1,8,0:0:0:0:
256,192,195799,1,8,0:0:0:0:
256,192,195882,1,8,0:0:0:0:
256,192,196049,1,8,0:0:0:0:
256,192,196216,1,0,0:0:0:0:
256,192,196549,1,0,0:0:0:0:
256,192,196716,1,8,0:0:0:0:
256,192,196882,1,0,0:0:0:0:
256,192,197216,1,0,0:0:0:0:
256,192,197382,1,8,0:0:0:0:
256,192,197716,1,4,0:0:0:0:
256,192,198216,1,0,0:0:0:0:
256,192,198382,1,8,0:0:0:0:
256,192,198549,1,8,0:0:0:0:
256,192,198716,1,0,0:0:0:0:
256,192,198799,1,0,0:0:0:0:
256,192,198882,1,0,0:0:0:0:
256,192,199049,1,8,0:0:0:0:
256,192,199382,1,8,0:0:0:0:
256,192,199549,1,0,0:0:0:0:
256,192,199882,1,0,0:0:0:0:
256,192,200049,1,8,0:0:0:0:
256,192,200216,1,8,0:0:0:0:
256,192,200382,1,0,0:0:0:0:
256,192,200716,1,8,0:0:0:0:
256,192,200882,1,0,0:0:0:0:
256,192,201049,1,8,0:0:0:0:
256,192,201132,1,8,0:0:0:0:
256,192,201216,1,8,0:0:0:0:
256,192,201382,1,8,0:0:0:0:
256,192,201549,1,4,0:0:0:0:
256,192,201882,1,0,0:0:0:0:
256,192,202049,1,0,0:0:0:0:
256,192,202216,1,0,0:0:0:0:
256,192,202882,1,4,0:0:0:0:
256,192,203382,1,8,0:0:0:0:
256,192,203549,1,8,0:0:0:0:
256,192,203716,1,0,0:0:0:0:
256,192,203799,1,0,0:0:0:0:
256,192,203882,1,0,0:0:0:0:
256,192,204049,1,8,0:0:0:0:
256,192,204216,1,0,0:0:0:0:
256,192,204549,1,0,0:0:0:0:
256,192,204716,1,8,0:0:0:0:
256,192,204882,1,0,0:0:0:0:
256,192,205049,1,0,0:0:0:0:
256,192,205132,1,0,0:0:0:0:
256,192,205216,1,0,0:0:0:0:
256,192,205382,1,8,0:0:0:0:
256,192,205549,1,0,0:0:0:0:
256,192,205882,1,0,0:0:0:0:
256,192,206049,1,8,0:0:0:0:
256,192,206216,1,0,0:0:0:0:
256,192,206382,1,8,0:0:0:0:
256,192,206466,1,8,0:0:0:0:
256,192,206549,1,8,0:0:0:0:
256,192,206716,1,8,0:0:0:0:
256,192,206882,1,0,0:0:0:0:
256,192,207216,1,0,0:0:0:0:
256,192,207382,1,8,0:0:0:0:
256,192,207549,1,0,0:0:0:0:
256,192,207882,1,0,0:0:0:0:
256,192,208049,1,8,0:0:0:0:
256,192,208382,1,4,0:0:0:0:
256,192,208882,1,0,0:0:0:0:
256,192,209049,1,8,0:0:0:0:
256,192,209216,1,8,0:0:0:0:
256,192,209382,1,0,0:0:0:0:
256,192,209466,1,0,0:0:0:0:
256,192,209549,1,0,0:0:0:0:
256,192,209716,1,8,0:0:0:0:
256,192,210049,1,8,0:0:0:0:
256,192,210216,1,0,0:0:0:0:
256,192,210549,1,0,0:0:0:0:
256,192,210716,1,8,0:0:0:0:
256,192,210882,1,8,0:0:0:0:
256,192,211049,1,0,0:0:0:0:
256,192,211382,1,8,0:0:0:0:
256,192,211549,1,0,0:0:0:0:
256,192,211716,1,8,0:0:0:0:
256,192,211799,1,8,0:0:0:0:
256,192,211882,1,8,0:0:0:0:
256,192,212049,1,8,0:0:0:0:
256,192,212216,1,4,0:0:0:0:
256,192,212549,1,0,0:0:0:0:
256,192,212716,1,8,0:0:0:0:
256,192,213049,1,8,0:0:0:0:
256,192,213549,1,4,0:0:0:0:
256,192,214049,1,8,0:0:0:0:
256,192,214216,1,8,0:0:0:0:
256,192,214382,1,0,0:0:0:0:
256,192,214466,1,0,0:0:0:0:
256,192,214549,1,0,0:0:0:0:
256,192,214716,1,8,0:0:0:0:
256,192,214882,1,0,0:0:0:0:
256,192,215216,1,0,0:0:0:0:
256,192,215382,1,8,0:0:0:0:
256,192,215549,1,0,0:0:0:0:
256,192,215716,1,0,0:0:0:0:
256,192,215799,1,0,0:0:0:0:
256,192,215882,1,0,0:0:0:0:
256,192,216049,1,8,0:0:0:0:
256,192,216216,1,0,0:0:0:0:
256,192,216549,1,0,0:0:0:0:
256,192,216716,1,8,0:0:0:0:
256,192,216882,1,0,0:0:0:0:
256,192,217049,1,8,0:0:0:0:
256,192,217132,1,8,0:0:0:0:
256,192,217216,1,8,0:0:0:0:
256,192,217382,1,8,0:0:0:0:
256,192,217549,1,0,0:0:0:0:
256,192,217882,1,0,0:0:0:0:
256,192,218049,1,8,0:0:0:0:
256,192,218216,1,0,0:0:0:0:
256,192,218549,1,0,0:0:0:0:
256,192,218716,1,8,0:0:0:0:
256,192,219049,1,4,0:0:0:0:
256,192,219549,1,0,0:0:0:0:
256,192,219716,1,8,0:0:0:0:
256,192,219882,1,8,0:0:0:0:
256,192,220049,1,0,0:0:0:0:
256,192,220132,1,0,0:0:0:0:
256,192,220216,1,0,0:0:0:0:
256,192,220382,1,8,0:0:0:0:
256,192,220716,1,8,0:0:0:0:
256,192,220882,1,0,0:0:0:0:
256,192,221216,1,0,0:0:0:0:
256,192,221382,1,8,0:0:0:0:
256,192,221549,1,8,0:0:0:0:
256,192,221716,1,0,0:0:0:0:
256,192,222049,1,8,0:0:0:0:
256,192,222216,1,0,0:0:0:0:
256,192,222382,1,8,0:0:0:0:
256,192,222466,1,8,0:0:0:0:
256,192,222549,1,8,0:0:0:0:
256,192,222716,1,8,0:0:0:0:
256,192,222882,1,4,0:0:0:0:
256,192,223382,1,8,0:0:0:0:
256,192,223716,1,8,0:0:0:0:
256,192,224049,1,8,0:0:0:0:
256,192,224216,1,8,0:0:0:0:
256,192,224382,1,0,0:0:0:0:
256,192,224716,1,0,0:0:0:0:
256,192,224882,1,8,0:0:0:0:
256,192,225049,1,0,0:0:0:0:
256,192,225132,1,0,0:0:0:0:
256,192,225216,1,0,0:0:0:0:
256,192,225382,1,0,0:0:0:0:
256,192,225549,1,12,0:0:0:0:
256,192,225882,1,8,0:0:0:0:
256,192,226049,1,8,0:0:0:0:
256,192,226216,1,8,0:0:0:0:
256,192,227049,1,12,0:0:0:0:
256,192,227549,1,0,0:0:0:0:
256,192,227716,1,8,0:0:0:0:
256,192,228049,1,8,0:0:0:0:
256,192,228216,1,8,0:0:0:0:
256,192,228382,1,0,0:0:0:0:
256,192,228466,1,0,0:0:0:0:
256,192,228549,1,0,0:0:0:0:
256,192,228716,1,8,0:0:0:0:
256,192,228882,1,0,0:0:0:0:
256,192,229049,1,8,0:0:0:0:
256,192,229382,1,8,0:0:0:0:
256,192,229716,1,0,0:0:0:0:
256,192,229882,1,0,0:0:0:0:
256,192,230216,1,0,0:0:0:0:
256,192,230382,1,8,0:0:0:0:
256,192,230716,1,8,0:0:0:0:
256,192,230882,1,8,0:0:0:0:
256,192,231049,1,0,0:0:0:0:
256,192,231132,1,0,0:0:0:0:
256,192,231216,1,0,0:0:0:0:
256,192,231382,1,0,0:0:0:0:
256,192,231716,1,8,0:0:0:0:
256,192,231799,1,8,0:0:0:0:
256,192,231882,1,8,0:0:0:0:
256,192,232049,1,0,0:0:0:0:
256,192,232216,1,0,0:0:0:0:
256,192,232382,1,12,0:0:0:0:
256,192,232882,1,0,0:0:0:0:
256,192,233049,1,8,0:0:0:0:
256,192,233382,1,8,0:0:0:0:
256,192,233549,1,8,0:0:0:0:
256,192,233716,1,0,0:0:0:0:
256,192,233799,1,0,0:0:0:0:
256,192,233882,1,0,0:0:0:0:
256,192,234049,1,8,0:0:0:0:
256,192,234216,1,0,0:0:0:0:
256,192,234382,1,8,0:0:0:0:
256,192,234716,1,8,0:0:0:0:
256,192,235049,1,0,0:0:0:0:
256,192,235216,1,0,0:0:0:0:
256,192,235549,1,0,0:0:0:0:
256,192,235716,1,8,0:0:0:0:
256,192,236049,1,8,0:0:0:0:
256,192,236216,1,8,0:0:0:0:
256,192,236382,1,0,0:0:0:0:
256,192,236716,1,8,0:0:0:0:
256,192,236882,1,8,0:0:0:0:
256,192,236966,1,8,0:0:0:0:
256,192,237049,1,8,0:0:0:0:
256,192,237216,1,0,0:0:0:0:
256,192,237382,1,0,0:0:0:0:
256,192,237716,1,12,0:0:0:0:
256,192,238216,1,0,0:0:0:0:
256,192,238382,1,8,0:0:0:0:
256,192,238716,1,8,0:0:0:0:
256,192,238882,1,8,0:0:0:0:
256,192,239049,1,0,0:0:0:0:
256,192,239132,1,0,0:0:0:0:
256,192,239216,1,0,0:0:0:0:
256,192,239382,1,8,0:0:0:0:
256,192,239549,1,0,0:0:0:0:
256,192,239716,1,8,0:0:0:0:
256,192,240049,1,8,0:0:0:0:
256,192,240382,1,0,0:0:0:0:
256,192,240549,1,0,0:0:0:0:
256,192,240716,1,8,0:0:0:0:
256,192,240882,1,0,0:0:0:0:
256,192,241049,1,8,0:0:0:0:
256,192,241382,1,8,0:0:0:0:
256,192,241549,1,8,0:0:0:0:
256,192,241716,1,0,0:0:0:0:
256,192,241799,1,0,0:0:0:0:
256,192,241882,1,0,0:0:0:0:
256,192,242049,1,0,0:0:0:0:
256,192,242382,1,8,0:0:0:0:
256,192,242466,1,8,0:0:0:0:
256,192,242549,1,8,0:0:0:0:
256,192,242716,1,0,0:0:0:0:
256,192,242882,1,0,0:0:0:0:
256,192,243049,1,12,0:0:0:0:
256,192,243549,1,0,0:0:0:0:
256,192,243716,1,8,0:0:0:0:
256,192,244049,1,8,0:0:0:0:
256,192,244216,1,8,0:0:0:0:
256,192,244382,1,0,0:0:0:0:
256,192,244466,1,0,0:0:0:0:
256,192,244549,1,0,0:0:0:0:
256,192,244716,1,8,0:0:0:0:
256,192,244882,1,0,0:0:0:0:
256,192,245049,1,8,0:0:0:0:
256,192,245382,1,8,0:0:0:0:
256,192,245716,1,0,0:0:0:0:
256,192,245882,1,0,0:0:0:0:
256,192,246049,1,8,0:0:0:0:
256,192,246216,1,0,0:0:0:0:
256,192,246382,1,8,0:0:0:0:
256,192,246716,1,8,0:0:0:0:
256,192,246882,1,8,0:0:0:0:
256,192,247049,1,4,0:0:0:0:
256,192,247382,1,4,0:0:0:0:
256,192,247716,1,8,0:0:0:0:
256,192,247882,1,0,0:0:0:0:
256,192,248049,1,0,0:0:0:0:
256,192,248216,1,0,0:0:0:0:
256,192,248382,1,12,0:0:0:0:
