osu file format v14

[General]
AudioFilename: audio.mp3
AudioLeadIn: 0
PreviewTime: 180966
Countdown: 0
SampleSet: Normal
StackLeniency: 0.7
Mode: 1
LetterboxInBreaks: 0
WidescreenStoryboard: 0

[Editor]
Bookmarks: 383,5716,11049,21716,32382,43049,53716,64216,74882,85716,96382,107049,117716,128382,139049,160382,171049,181549,192216,202882,213549,227049,237716,248382,248466,248549,248632,248716
DistanceSpacing: 4.3
BeatDivisor: 4
GridSize: 32
TimelineZoom: 1.8

[Metadata]
Title:Shinsekai kara
TitleUnicode:新世界から
Artist:Tsukuyomi
ArtistUnicode:月詠み
Creator:Slyme
Version:Through Time
Source:ガンダムビルドリアル
Tags:ツクヨミ 2943 rock j-rock jrock yurrycanon yurry canon ユリイカノン ユリイ・カノン mikoto エポック epoch とうかさ toukasa 欠けた心象、世のよすが kaketa shinshou yo no yosuga episode 1 リノ 3rd song japanese j-pop jpop pop ガンプラ40周年記念映像 mari_0hara mari 0hara yuemiao from the new world GUNDAM BUILD REAL
BeatmapID:4157285
BeatmapSetID:1999755

[Difficulty]
HPDrainRate:6
CircleSize:5
OverallDifficulty:6
ApproachRate:5
SliderMultiplier:1.4
SliderTickRate:1

[Events]
//Background and Video events
0,0,"BG.jpg",0,70
//Break Periods
//Storyboard Layer 0 (Background)
//Storyboard Layer 1 (Fail)
//Storyboard Layer 2 (Pass)
//Storyboard Layer 3 (Foreground)
//Storyboard Layer 4 (Overlay)
//Storyboard Sound Samples

[TimingPoints]
383,333.333333333333,4,1,0,30,1,0
383,-142.857142857143,4,1,0,30,0,8
4716,-137.245677996001,4,1,0,33,0,8
4882,-132.088285229202,4,1,0,36,0,8
5049,-127.276693205366,4,1,0,39,0,8
5216,-122.803325265706,4,1,0,41,0,8
5382,-118.657854600915,4,1,0,44,0,8
5716,-111.111111111111,4,1,0,70,0,8
6049,-109.590167303819,4,1,0,71,0,8
6216,-108.842981954764,4,1,0,72,0,8
6382,-108.110300081103,4,1,0,72,0,8
6466,-107.743291302942,4,1,0,73,0,8
6549,-107.383090989648,4,1,0,73,0,8
6632,-107.025291047772,4,1,0,73,0,8
6716,-106.665599743939,4,1,0,74,0,8
6799,-106.312557323444,4,1,0,74,0,8
6882,-105.961844197138,4,1,0,74,0,8
6966,-105.609253684044,4,1,0,75,0,8
7049,-105.263157894737,4,1,0,75,0,8
7132,-104.919323101141,4,1,0,75,0,8
7216,-104.573625166706,4,1,0,76,0,8
7299,-104.23427297963,4,1,0,76,0,8
7382,-103.897116134061,4,1,0,76,0,8
7466,-103.558110627719,4,1,0,77,0,8
7549,-103.225306849421,4,1,0,77,0,8
7632,-102.894635275955,4,1,0,77,0,8
7716,-102.562129722244,4,1,0,78,0,8
7799,-102.235686620393,4,1,0,78,0,8
7882,-101.911314984709,4,1,0,78,0,8
7966,-101.585124218869,4,1,0,78,0,8
8049,-101.264861169142,4,1,0,79,0,8
8132,-100.946611132147,4,1,0,79,0,8
8216,-100.626556956292,4,1,0,79,0,8
8299,-100.312300109117,4,1,0,80,0,8
8382,-100,4,1,0,80,0,8
10549,-103.455410717981,4,1,0,77,0,8
10716,-107.158165452207,4,1,0,73,0,8
10882,-111.111111111111,4,1,0,70,0,8
11049,-90.9090909090909,4,1,0,90,0,9
20382,-90.909090909091,4,1,0,90,0,9
20549,-93.02649930265,4,1,0,87,0,9
20716,-95.231296402056,4,1,0,85,0,9
20799,-96.387283236994,4,1,0,84,0,9
20882,-97.55740821998,4,1,0,83,0,9
20966,-98.0392156862745,4,1,0,82,0,9
21049,-100,4,1,0,80,0,9
21132,-101.260057689388,4,1,0,79,0,9
21216,-102.552275522755,4,1,0,78,0,9
21382,-105.254852453843,4,1,0,75,0,9
21549,-108.103727714749,4,1,0,73,0,9
21716,-111.111111111111,4,1,0,70,0,8
40382,-111.111111111111,4,1,0,70,0,0
40549,-111.889578788387,4,1,0,69,0,0
40716,-112.679031644767,4,1,0,69,0,0
40799,-113.075553294327,4,1,0,68,0,0
40882,-113.474875547802,4,1,0,68,0,0
41049,-114.286938635585,4,1,0,67,0,0
41216,-115.110708273987,4,1,0,67,0,0
41382,-115.941398947963,4,1,0,66,0,0
41549,-117.647058823529,4,1,0,65,0,0
41882,-118.517530995867,4,1,0,64,0,0
41966,-118.961595075606,4,1,0,64,0,0
42049,-119.403653295129,4,1,0,64,0,0
42216,-120.303125986738,4,1,0,63,0,0
42382,-121.210743989456,4,1,0,63,0,0
42549,-122.13775416743,4,1,0,62,0,0
42632,-122.603778789133,4,1,0,62,0,0
42716,-123.079053025059,4,1,0,61,0,0
42799,-123.552302418234,4,1,0,61,0,0
42882,-124.029205227178,4,1,0,61,0,0
42966,-124.515616975582,4,1,0,60,0,0
43049,-125,4,1,0,60,0,0
43382,-100,4,1,0,80,0,8
52382,-100,4,1,0,80,0,0
52549,-102.946365561044,4,1,0,77,0,0
52716,-106.071623341211,4,1,0,74,0,0
52799,-107.696566998893,4,1,0,73,0,0
52882,-109.372071227741,4,1,0,71,0,0
52966,-111.121691106456,4,1,0,70,0,0
53049,-112.906346749226,4,1,0,69,0,0
53216,-116.676664667067,4,1,0,66,0,0
53382,-120.682523267839,4,1,0,63,0,0
53466,-122.816249210692,4,1,0,61,0,0
53549,-125,4,1,0,60,0,0
53716,-100.0299940012,4,1,0,80,0,8
54049,-100.0299940012,4,1,0,80,0,8
63716,-125,4,1,0,60,0,8
64216,-90.909090909091,4,1,0,90,0,9
73882,-95.883657875277,4,1,0,84,0,9
74049,-98.589169553096,4,1,0,81,0,9
74132,-99.99143175392,4,1,0,80,0,9
74216,-101.451795183865,4,1,0,79,0,9
74299,-102.937284996031,4,1,0,77,0,9
74382,-104.466923283502,4,1,0,76,0,9
74549,-107.686629140906,4,1,0,73,0,9
74632,-109.36182175991,4,1,0,71,0,9
74716,-111.111111111111,4,1,0,70,0,9
74882,-90.909090909091,4,1,0,90,0,9
84549,-98.034600447217,4,1,0,82,0,9
84716,-102.045816489036,4,1,0,78,0,9
84799,-104.164061523071,4,1,0,76,0,9
84882,-106.372110841527,4,1,0,74,0,9
85049,-111.111111111111,4,1,0,70,0,8
85716,-90.909090909091,4,1,0,90,0,9
95216,-94.125123570117,4,1,0,86,0,9
95382,-97.555620608899,4,1,0,83,0,9
95466,-99.388607217417,4,1,0,81,0,9
95549,-101.268707741396,4,1,0,79,0,9
95632,-103.092783505155,4,1,0,77,0,9
95716,-105.275627862897,4,1,0,75,0,9
95799,-107.387416418271,4,1,0,73,0,9
95882,-109.585662610983,4,1,0,71,0,9
96049,-114.293063534254,4,1,0,67,0,9
96216,-119.423042465508,4,1,0,64,0,9
96382,-125,4,1,0,60,0,8
104549,-120.707488622259,4,1,0,63,0,8
104716,-116.676664667067,4,1,0,66,0,8
104882,-112.928198180763,4,1,0,69,0,8
105049,-109.392575928009,4,1,0,71,0,8
105216,-106.071623341211,4,1,0,74,0,8
105382,-102.964531498147,4,1,0,77,0,8
105549,-100.017140898183,4,1,0,80,0,8
106549,-100,4,1,0,80,0,8
106632,-101.688021151108,4,1,0,78,0,8
106716,-103.455410717981,4,1,0,77,0,8
106799,-105.263157894737,4,1,0,75,0,8
106882,-107.135204628241,4,1,0,73,0,8
106966,-109.098843552258,4,1,0,72,0,8
107049,-111.111111111111,4,1,0,70,0,8
138299,-109.908958965563,4,1,0,71,0,8
138382,-108.704162860498,4,1,0,72,0,8
138549,-106.399284710691,4,1,0,74,0,8
138632,-105.269809174776,4,1,0,75,0,8
138716,-104.177088544272,4,1,0,76,0,8
138799,-103.106820151009,4,1,0,77,0,8
138882,-102.045816489036,4,1,0,78,0,8
138966,-101.018675721562,4,1,0,79,0,8
139049,-100.012006243246,4,1,0,80,0,8
159216,-100,4,1,0,80,0,8
159382,-101.688021151108,4,1,0,78,0,8
159466,-102.564102564103,4,1,0,78,0,8
159549,-103.444708803145,4,1,0,77,0,8
159716,-105.263157894737,4,1,0,75,0,8
159882,-107.135204628241,4,1,0,73,0,8
160049,-109.086942293008,4,1,0,72,0,8
160216,-111.111111111111,4,1,0,70,0,8
160382,-100.017140898183,4,1,0,80,0,8
169716,-100,4,1,0,80,0,0
169882,-102.946365561044,4,1,0,77,0,0
170049,-106.071623341211,4,1,0,74,0,0
170132,-107.696566998893,4,1,0,73,0,0
170216,-109.372071227741,4,1,0,71,0,0
170299,-111.121691106456,4,1,0,70,0,0
170382,-112.906346749226,4,1,0,69,0,0
170549,-116.676664667067,4,1,0,66,0,0
170716,-120.682523267839,4,1,0,63,0,0
170799,-122.816249210692,4,1,0,61,0,0
170882,-125,4,1,0,60,0,0
171049,-100.0299940012,4,1,0,80,0,8
171382,-100.0299940012,4,1,0,80,0,8
181049,-166.750000000001,4,1,0,40,0,8
181549,-142.918362974074,4,1,0,50,0,8
187049,-142.857142857143,4,1,0,50,0,8
187216,-140.699427193247,4,1,0,51,0,8
187382,-138.618272543662,4,1,0,52,0,8
187549,-136.585794140888,4,1,0,53,0,8
187716,-134.612056533026,4,1,0,54,0,8
187799,-133.652166442338,4,1,0,55,0,8
187882,-132.705868971793,4,1,0,55,0,8
188049,-130.841907538759,4,1,0,56,0,8
188216,-129.029582526956,4,1,0,58,0,8
188382,-127.277189920367,4,1,0,59,0,8
188466,-126.408450704225,4,1,0,59,0,8
188549,-125.561623933923,4,1,0,60,0,8
188716,-123.891691000796,4,1,0,61,0,8
188882,-122.275204359673,4,1,0,62,0,8
189049,-120.690992784918,4,1,0,63,0,8
189132,-119.918803638419,4,1,0,63,0,8
189216,-119.147306612203,4,1,0,64,0,8
189299,-118.394682767193,4,1,0,64,0,8
189382,-117.651507512353,4,1,0,65,0,8
189466,-116.908817635271,4,1,0,66,0,8
189549,-116.184122084194,4,1,0,66,0,8
189632,-115.468355683111,4,1,0,67,0,8
189716,-114.75288910745,4,1,0,67,0,8
189882,-113.36474931986,4,1,0,68,0,8
190049,-112.001727903237,4,1,0,69,0,8
190216,-110.671093194214,4,1,0,70,0,8
190299,-110.021452650935,4,1,0,71,0,8
190382,-109.379394393925,4,1,0,71,0,8
190549,-108.109986332785,4,1,0,72,0,8
190716,-106.869704602702,4,1,0,74,0,8
190882,-105.66473464952,4,1,0,75,0,8
190966,-105.065285907249,4,1,0,75,0,8
191049,-104.479616736439,4,1,0,76,0,8
191216,-103.320788133717,4,1,0,77,0,8
191299,-102.754353904754,4,1,0,77,0,8
191382,-102.194096522729,4,1,0,78,0,8
191549,-101.085143711148,4,1,0,79,0,8
191716,-100,4,1,0,80,0,8
191882,-105.246523388116,4,1,0,75,0,8
192049,-111.111111111111,4,1,0,70,0,8
192216,-90.9090909090909,4,1,0,90,0,9
201882,-90.909090909091,4,1,0,90,0,1
202049,-94.343891402715,4,1,0,86,0,1
202132,-96.14941203597,4,1,0,84,0,1
202216,-98.048436397837,4,1,0,82,0,1
202299,-100,4,1,0,80,0,1
202382,-102.030829459261,4,1,0,78,0,0
202549,-106.377551020408,4,1,0,74,0,0
202716,-111.111111111111,4,1,0,70,0,0
202882,-90.9090909090909,4,1,0,90,0,9
212216,-90.909090909091,4,1,0,90,0,9
212549,-95.883657875277,4,1,0,84,0,9
212716,-98.589169553096,4,1,0,81,0,9
212799,-99.99143175392,4,1,0,80,0,9
212882,-101.451795183865,4,1,0,79,0,9
212966,-102.937284996031,4,1,0,77,0,9
213049,-104.466923283502,4,1,0,76,0,9
213216,-107.686629140906,4,1,0,73,0,9
213299,-109.36182175991,4,1,0,71,0,9
213382,-111.111111111111,4,1,0,70,0,9
213549,-90.909090909091,4,1,0,90,0,9
225882,-98.034600447217,4,1,0,82,0,9
226049,-102.045816489036,4,1,0,78,0,9
226132,-104.164061523071,4,1,0,76,0,9
226216,-106.372110841527,4,1,0,74,0,9
226382,-111.111111111111,4,1,0,70,0,8
227049,-90.909090909091,4,1,0,90,0,9
248382,-90.9090909090909,4,1,0,90,0,8

[HitObjects]
256,192,383,5,8,1:0:0:0:
256,192,716,1,8,1:0:0:0:
256,192,882,1,0,1:0:0:0:
256,192,1049,1,8,1:0:0:0:
256,192,1382,1,8,1:0:0:0:
256,192,1549,1,0,1:0:0:0:
256,192,1882,1,0,1:0:0:0:
256,192,2049,1,8,1:0:0:0:
256,192,2216,1,0,1:0:0:0:
256,192,2382,1,8,1:0:0:0:
256,192,2716,1,8,1:0:0:0:
256,192,2882,1,0,1:0:0:0:
256,192,3216,1,0,1:0:0:0:
256,192,3382,1,0,1:0:0:0:
256,192,3549,1,8,1:0:0:0:
256,192,3716,1,0,1:0:0:0:
256,192,4049,1,8,1:0:0:0:
256,192,4216,1,0,1:0:0:0:
256,192,4549,1,0,1:0:0:0:
256,192,4716,1,8,1:0:0:0:
256,192,4882,1,0,1:0:0:0:
256,192,5049,1,8,1:0:0:0:
256,192,5216,1,0,1:0:0:0:
256,192,5382,1,8,1:0:0:0:
256,192,5716,1,12,1:0:0:0:
256,192,6049,1,0,1:0:0:0:
256,192,6216,1,0,1:0:0:0:
256,192,6382,1,8,1:0:0:0:
256,192,6466,1,8,1:0:0:0:
256,192,6549,1,0,1:0:0:0:
256,192,6632,1,0,1:0:0:0:
256,192,6716,1,8,1:0:0:0:
256,192,6799,1,0,1:0:0:0:
256,192,6882,1,8,1:0:0:0:
256,192,6966,1,0,1:0:0:0:
256,192,7049,1,8,1:0:0:0:
256,192,7132,1,8,1:0:0:0:
256,192,7216,1,8,1:0:0:0:
256,192,7299,1,0,1:0:0:0:
256,192,7382,1,8,1:0:0:0:
256,192,7466,1,0,1:0:0:0:
256,192,7549,1,0,1:0:0:0:
256,192,7632,1,0,1:0:0:0:
256,192,7716,1,8,1:0:0:0:
256,192,7799,1,0,1:0:0:0:
256,192,7882,1,8,1:0:0:0:
256,192,7966,1,0,1:0:0:0:
256,192,8049,1,8,1:0:0:0:
256,192,8132,1,8,1:0:0:0:
256,192,8216,1,0,1:0:0:0:
256,192,8299,1,0,1:0:0:0:
256,192,8382,1,12,1:0:0:0:
256,192,8716,1,8,1:0:0:0:
256,192,8882,1,8,1:0:0:0:
256,192,9049,1,0,1:0:0:0:
256,192,9216,1,8,1:0:0:0:
256,192,9299,1,8,1:0:0:0:
256,192,9382,1,0,1:0:0:0:
256,192,9549,1,12,1:0:0:0:
256,192,9882,1,8,1:0:0:0:
256,192,10049,1,8,1:0:0:0:
256,192,10216,1,0,1:0:0:0:
256,192,10299,1,0,1:0:0:0:
256,192,10382,1,8,1:0:0:0:
256,192,10549,1,8,1:0:0:0:
256,192,10716,1,8,1:0:0:0:
256,192,10882,1,0,1:0:0:0:
256,192,11049,1,12,1:0:0:0:
256,192,11216,1,8,1:0:0:0:
256,192,11299,1,0,1:0:0:0:
256,192,11382,1,8,1:0:0:0:
256,192,11466,1,8,1:0:0:0:
256,192,11549,1,0,1:0:0:0:
256,192,11716,1,8,1:0:0:0:
256,192,11882,1,0,1:0:0:0:
256,192,12049,1,8,1:0:0:0:
256,192,12132,1,0,1:0:0:0:
256,192,12216,1,0,1:0:0:0:
256,192,12299,1,0,1:0:0:0:
256,192,12382,1,8,1:0:0:0:
256,192,12549,1,0,1:0:0:0:
256,192,12716,1,8,1:0:0:0:
256,192,12799,1,8,1:0:0:0:
256,192,12882,1,0,1:0:0:0:
256,192,13049,1,0,1:0:0:0:
256,192,13132,1,8,1:0:0:0:
256,192,13216,1,0,1:0:0:0:
256,192,13299,1,0,1:0:0:0:
256,192,13382,1,8,1:0:0:0:
256,192,13549,1,0,1:0:0:0:
256,192,13716,1,8,1:0:0:0:
256,192,13799,1,8,1:0:0:0:
256,192,13882,1,0,1:0:0:0:
256,192,13966,1,8,1:0:0:0:
256,192,14049,1,0,1:0:0:0:
256,192,14216,1,8,1:0:0:0:
256,192,14382,1,0,1:0:0:0:
256,192,14549,1,8,1:0:0:0:
256,192,14632,1,0,1:0:0:0:
256,192,14716,1,8,1:0:0:0:
256,192,14799,1,0,1:0:0:0:
256,192,14882,1,8,1:0:0:0:
256,192,15049,1,0,1:0:0:0:
256,192,15216,1,8,1:0:0:0:
256,192,15382,1,0,1:0:0:0:
256,192,15466,1,0,1:0:0:0:
256,192,15549,1,8,1:0:0:0:
256,192,15632,1,0,0:0:0:0:
256,192,15716,1,8,1:0:0:0:
256,192,15799,1,8,1:0:0:0:
256,192,15882,1,0,1:0:0:0:
256,192,16049,1,8,1:0:0:0:
256,192,16216,1,8,1:0:0:0:
256,192,16382,1,4,1:0:0:0:
256,192,16549,1,8,1:0:0:0:
256,192,16632,1,0,1:0:0:0:
256,192,16716,1,8,1:0:0:0:
256,192,16799,1,8,1:0:0:0:
256,192,16882,1,0,1:0:0:0:
256,192,17049,1,8,1:0:0:0:
256,192,17216,1,0,1:0:0:0:
256,192,17382,1,8,1:0:0:0:
256,192,17466,1,8,1:0:0:0:
256,192,17549,1,0,1:0:0:0:
256,192,17632,1,0,1:0:0:0:
256,192,17716,1,8,1:0:0:0:
256,192,17882,1,0,1:0:0:0:
256,192,18049,1,8,1:0:0:0:
256,192,18132,1,0,1:0:0:0:
256,192,18216,1,8,1:0:0:0:
256,192,18382,1,0,1:0:0:0:
256,192,18466,1,8,1:0:0:0:
256,192,18549,1,0,1:0:0:0:
256,192,18632,1,0,1:0:0:0:
256,192,18716,1,8,1:0:0:0:
256,192,18882,1,0,1:0:0:0:
256,192,19049,1,8,1:0:0:0:
256,192,19132,1,8,1:0:0:0:
256,192,19216,1,0,1:0:0:0:
256,192,19299,1,8,1:0:0:0:
256,192,19382,1,0,1:0:0:0:
256,192,19549,1,0,1:0:0:0:
256,192,19716,1,8,1:0:0:0:
256,192,19882,1,0,1:0:0:0:
256,192,19966,1,0,1:0:0:0:
256,192,20049,1,8,1:0:0:0:
256,192,20132,1,0,1:0:0:0:
256,192,20216,1,8,1:0:0:0:
256,192,20382,1,0,1:0:0:0:
256,192,20549,1,8,1:0:0:0:
256,192,20716,1,0,1:0:0:0:
256,192,20799,1,0,1:0:0:0:
256,192,20882,1,8,1:0:0:0:
256,192,20966,1,0,0:0:0:0:
256,192,21049,1,8,1:0:0:0:
256,192,21132,1,8,1:0:0:0:
256,192,21216,1,0,1:0:0:0:
256,192,21382,1,8,1:0:0:0:
256,192,21716,1,12,1:0:0:0:
256,192,21882,1,0,1:0:0:0:
256,192,22049,1,8,1:0:0:0:
256,192,22132,1,8,1:0:0:0:
256,192,22216,1,0,1:0:0:0:
256,192,22382,1,8,1:0:0:0:
256,192,22716,1,8,1:0:0:0:
256,192,22882,1,8,1:0:0:0:
256,192,23049,1,0,1:0:0:0:
256,192,23216,1,8,1:0:0:0:
256,192,23299,1,0,1:0:0:0:
256,192,23382,1,0,1:0:0:0:
256,192,23549,1,8,1:0:0:0:
256,192,23716,1,0,1:0:0:0:
256,192,23799,1,8,1:0:0:0:
256,192,23882,1,0,1:0:0:0:
256,192,24049,1,8,1:0:0:0:
256,192,24216,1,0,1:0:0:0:
256,192,24382,1,8,1:0:0:0:
256,192,24549,1,0,1:0:0:0:
256,192,24716,1,8,1:0:0:0:
256,192,24799,1,8,1:0:0:0:
256,192,24882,1,0,1:0:0:0:
256,192,25049,1,8,1:0:0:0:
256,192,25382,1,8,1:0:0:0:
256,192,25549,1,0,1:0:0:0:
256,192,25716,1,0,1:0:0:0:
256,192,25882,1,0,1:0:0:0:
256,192,25966,1,8,1:0:0:0:
256,192,26049,1,0,1:0:0:0:
256,192,26216,1,0,1:0:0:0:
256,192,26382,1,8,1:0:0:0:
256,192,26466,1,0,1:0:0:0:
256,192,26549,1,8,1:0:0:0:
256,192,26716,1,8,1:0:0:0:
256,192,27049,1,12,1:0:0:0:
256,192,27216,1,0,1:0:0:0:
256,192,27382,1,8,1:0:0:0:
256,192,27466,1,8,1:0:0:0:
256,192,27549,1,0,1:0:0:0:
256,192,27716,1,8,1:0:0:0:
256,192,28049,1,8,1:0:0:0:
256,192,28216,1,8,1:0:0:0:
256,192,28382,1,0,1:0:0:0:
256,192,28549,1,8,1:0:0:0:
256,192,28632,1,0,1:0:0:0:
256,192,28716,1,0,1:0:0:0:
256,192,28882,1,8,1:0:0:0:
256,192,29049,1,0,1:0:0:0:
256,192,29132,1,8,1:0:0:0:
256,192,29216,1,0,1:0:0:0:
256,192,29382,1,8,1:0:0:0:
256,192,29549,1,0,1:0:0:0:
256,192,29716,1,8,1:0:0:0:
256,192,29882,1,0,1:0:0:0:
256,192,30049,1,8,1:0:0:0:
256,192,30132,1,8,1:0:0:0:
256,192,30216,1,0,1:0:0:0:
256,192,30382,1,8,1:0:0:0:
256,192,30549,1,0,0:0:0:0:
256,192,30716,1,8,1:0:0:0:
256,192,30882,1,0,1:0:0:0:
256,192,31216,1,8,1:0:0:0:
256,192,31299,1,8,1:0:0:0:
256,192,31382,1,0,1:0:0:0:
256,192,31549,1,0,1:0:0:0:
256,192,31716,1,8,1:0:0:0:
256,192,31799,1,0,1:0:0:0:
256,192,31882,1,8,1:0:0:0:
256,192,32049,1,8,1:0:0:0:
64,64,32216,1,0,0:0:0:0:
64,64,32300,1,0,0:0:0:0:
256,192,32382,1,12,1:0:0:0:
256,192,32549,1,0,1:0:0:0:
256,192,32716,1,8,1:0:0:0:
256,192,32799,1,8,1:0:0:0:
256,192,32882,1,0,1:0:0:0:
256,192,33049,1,8,1:0:0:0:
256,192,33216,1,0,1:0:0:0:
256,192,33382,1,8,1:0:0:0:
256,192,33549,1,8,1:0:0:0:
256,192,33882,1,8,1:0:0:0:
256,192,33966,1,0,1:0:0:0:
256,192,34049,1,0,1:0:0:0:
256,192,34216,1,8,1:0:0:0:
256,192,34382,1,0,1:0:0:0:
256,192,34466,1,8,1:0:0:0:
256,192,34549,1,0,1:0:0:0:
256,192,34716,1,8,1:0:0:0:
256,192,34882,1,0,1:0:0:0:
256,192,35049,1,8,1:0:0:0:
256,192,35216,1,0,1:0:0:0:
256,192,35382,1,8,1:0:0:0:
256,192,35466,1,8,1:0:0:0:
256,192,35549,1,0,1:0:0:0:
256,192,35716,1,8,1:0:0:0:
256,192,35882,1,0,1:0:0:0:
256,192,36049,1,8,1:0:0:0:
256,192,36216,1,0,1:0:0:0:
256,192,36549,1,0,1:0:0:0:
256,192,36632,1,8,1:0:0:0:
256,192,36716,1,0,1:0:0:0:
256,192,36882,1,0,1:0:0:0:
256,192,37049,1,8,1:0:0:0:
256,192,37132,1,0,1:0:0:0:
256,192,37216,1,8,1:0:0:0:
256,192,37382,1,8,1:0:0:0:
256,192,37716,1,8,1:0:0:0:
256,192,37882,1,0,1:0:0:0:
256,192,38049,1,8,1:0:0:0:
256,192,38132,1,8,1:0:0:0:
256,192,38216,1,0,1:0:0:0:
256,192,38382,1,8,1:0:0:0:
256,192,38549,1,0,1:0:0:0:
256,192,38716,1,8,1:0:0:0:
256,192,38882,1,8,1:0:0:0:
256,192,39216,1,8,1:0:0:0:
256,192,39299,1,0,1:0:0:0:
256,192,39382,1,0,1:0:0:0:
256,192,39549,1,8,1:0:0:0:
256,192,39716,1,0,1:0:0:0:
256,192,39799,1,8,1:0:0:0:
256,192,39882,1,0,1:0:0:0:
256,192,40049,1,8,1:0:0:0:
256,192,40216,1,0,1:0:0:0:
256,192,40382,1,8,1:0:0:0:
256,192,40549,1,0,1:0:0:0:
256,192,40716,1,8,1:0:0:0:
256,192,40799,1,8,1:0:0:0:
256,192,40882,1,0,1:0:0:0:
256,192,41049,1,8,1:0:0:0:
256,192,41216,1,0,1:0:0:0:
256,192,41382,1,0,1:0:0:0:
256,192,41549,1,12,1:0:0:0:
256,192,41882,1,8,1:0:0:0:
256,192,41966,1,8,1:0:0:0:
256,192,42049,1,0,1:0:0:0:
256,192,42216,1,0,1:0:0:0:
256,192,42382,1,12,1:0:0:0:
256,192,42549,1,8,1:0:0:0:
256,192,42632,1,8,1:0:0:0:
256,192,42716,1,0,1:0:0:0:
256,192,42799,1,0,1:0:0:0:
256,192,42882,1,8,1:0:0:0:
256,192,42966,1,8,1:0:0:0:
256,192,43049,1,4,1:0:0:0:
256,192,43382,1,8,1:0:0:0:
256,192,43466,1,8,1:0:0:0:
256,192,43549,1,0,1:0:0:0:
256,192,43632,1,0,1:0:0:0:
256,192,43716,1,8,1:0:0:0:
256,192,43882,1,0,1:0:0:0:
256,192,44049,1,0,1:0:0:0:
256,192,44132,1,0,1:0:0:0:
256,192,44216,1,8,1:0:0:0:
256,192,44382,1,0,1:0:0:0:
256,192,44549,1,8,1:0:0:0:
256,192,44716,1,8,1:0:0:0:
256,192,44799,1,8,1:0:0:0:
256,192,44882,1,0,1:0:0:0:
256,192,44966,1,0,1:0:0:0:
256,192,45049,1,8,1:0:0:0:
256,192,45216,1,0,1:0:0:0:
256,192,45382,1,0,1:0:0:0:
256,192,45466,1,8,1:0:0:0:
256,192,45549,1,8,1:0:0:0:
256,192,45716,1,0,1:0:0:0:
256,192,45882,1,8,1:0:0:0:
256,192,46049,1,8,1:0:0:0:
256,192,46132,1,0,1:0:0:0:
256,192,46216,1,8,1:0:0:0:
256,192,46299,1,8,1:0:0:0:
256,192,46382,1,0,1:0:0:0:
256,192,46549,1,0,1:0:0:0:
256,192,46716,1,0,1:0:0:0:
256,192,46799,1,8,1:0:0:0:
256,192,46882,1,0,1:0:0:0:
256,192,47049,1,8,1:0:0:0:
256,192,47216,1,0,1:0:0:0:
256,192,47382,1,8,1:0:0:0:
256,192,47466,1,8,1:0:0:0:
256,192,47549,1,0,1:0:0:0:
256,192,47632,1,0,1:0:0:0:
256,192,47716,1,8,1:0:0:0:
256,192,47882,1,0,1:0:0:0:
256,192,48049,1,0,1:0:0:0:
256,192,48132,1,0,1:0:0:0:
256,192,48216,1,8,1:0:0:0:
256,192,48382,1,12,1:0:0:0:
256,192,48716,1,8,1:0:0:0:
256,192,48799,1,0,1:0:0:0:
256,192,48882,1,8,1:0:0:0:
256,192,48966,1,0,1:0:0:0:
256,192,49049,1,8,1:0:0:0:
256,192,49216,1,0,1:0:0:0:
256,192,49382,1,0,1:0:0:0:
256,192,49466,1,0,1:0:0:0:
256,192,49549,1,8,1:0:0:0:
256,192,49716,1,0,1:0:0:0:
256,192,49882,1,8,1:0:0:0:
256,192,50049,1,8,1:0:0:0:
256,192,50132,1,0,1:0:0:0:
256,192,50216,1,8,1:0:0:0:
256,192,50299,1,8,1:0:0:0:
256,192,50382,1,0,1:0:0:0:
256,192,50549,1,0,1:0:0:0:
256,192,50716,1,0,1:0:0:0:
256,192,50799,1,8,1:0:0:0:
256,192,50882,1,8,1:0:0:0:
256,192,51049,1,8,1:0:0:0:
256,192,51216,1,0,1:0:0:0:
256,192,51382,1,8,1:0:0:0:
256,192,51466,1,0,1:0:0:0:
256,192,51549,1,8,1:0:0:0:
256,192,51632,1,0,1:0:0:0:
256,192,51716,1,0,1:0:0:0:
256,192,51882,1,0,1:0:0:0:
256,192,52049,1,0,1:0:0:0:
256,192,52132,1,0,1:0:0:0:
256,192,52216,1,8,1:0:0:0:
256,192,52382,1,8,1:0:0:0:
256,192,52549,1,0,1:0:0:0:
256,192,52716,1,8,1:0:0:0:
256,192,52799,1,0,1:0:0:0:
256,192,52882,1,8,1:0:0:0:
256,192,52966,1,8,1:0:0:0:
256,192,53049,1,0,1:0:0:0:
256,192,53216,1,0,1:0:0:0:
256,192,53382,1,0,1:0:0:0:
256,192,53466,1,0,1:0:0:0:
256,192,53549,1,8,1:0:0:0:
256,192,53716,1,4,1:0:0:0:
256,192,54049,1,8,1:0:0:0:
256,192,54132,1,0,1:0:0:0:
256,192,54216,1,8,1:0:0:0:
256,192,54299,1,0,1:0:0:0:
256,192,54382,1,8,1:0:0:0:
256,192,54549,1,8,1:0:0:0:
256,192,54716,1,0,1:0:0:0:
256,192,54799,1,0,1:0:0:0:
256,192,54882,1,8,1:0:0:0:
256,192,55049,1,8,1:0:0:0:
256,192,55216,1,0,1:0:0:0:
256,192,55382,1,8,1:0:0:0:
256,192,55466,1,0,1:0:0:0:
256,192,55549,1,0,1:0:0:0:
256,192,55632,1,0,1:0:0:0:
256,192,55716,1,8,1:0:0:0:
256,192,55882,1,8,1:0:0:0:
256,192,56049,1,0,1:0:0:0:
256,192,56132,1,0,1:0:0:0:
256,192,56216,1,8,1:0:0:0:
256,192,56382,1,0,1:0:0:0:
256,192,56549,1,8,1:0:0:0:
256,192,56716,1,8,1:0:0:0:
256,192,56799,1,8,1:0:0:0:
256,192,56882,1,0,1:0:0:0:
256,192,56966,1,0,1:0:0:0:
256,192,57049,1,8,1:0:0:0:
256,192,57216,1,0,1:0:0:0:
256,192,57382,1,8,1:0:0:0:
256,192,57466,1,8,1:0:0:0:
256,192,57549,1,0,1:0:0:0:
256,192,57716,1,8,1:0:0:0:
256,192,57799,1,0,1:0:0:0:
256,192,57882,1,0,1:0:0:0:
256,192,58049,1,8,1:0:0:0:
256,192,58216,1,8,1:0:0:0:
256,192,58299,1,8,1:0:0:0:
256,192,58382,1,0,1:0:0:0:
256,192,58549,1,8,1:0:0:0:
256,192,58716,1,0,1:0:0:0:
256,192,58799,1,0,1:0:0:0:
256,192,58882,1,8,1:0:0:0:
256,192,59049,1,12,1:0:0:0:
256,192,59382,1,8,1:0:0:0:
256,192,59466,1,0,1:0:0:0:
256,192,59549,1,8,1:0:0:0:
256,192,59632,1,0,1:0:0:0:
256,192,59716,1,8,1:0:0:0:
256,192,59882,1,0,1:0:0:0:
256,192,60049,1,8,1:0:0:0:
256,192,60216,1,8,1:0:0:0:
256,192,60299,1,8,1:0:0:0:
256,192,60382,1,0,1:0:0:0:
256,192,60549,1,8,1:0:0:0:
256,192,60716,1,8,1:0:0:0:
256,192,60799,1,0,1:0:0:0:
256,192,60882,1,8,1:0:0:0:
256,192,60966,1,8,1:0:0:0:
256,192,61049,1,0,1:0:0:0:
256,192,61216,1,0,1:0:0:0:
256,192,61382,1,0,1:0:0:0:
256,192,61466,1,0,1:0:0:0:
256,192,61549,1,8,1:0:0:0:
256,192,61632,1,0,1:0:0:0:
256,192,61716,1,12,1:0:0:0:
256,192,62049,1,8,1:0:0:0:
256,192,62216,1,8,1:0:0:0:
256,192,62382,1,0,1:0:0:0:
256,192,62466,1,8,1:0:0:0:
256,192,62549,1,0,1:0:0:0:
256,192,62716,1,8,1:0:0:0:
256,192,62882,1,4,1:0:0:0:
256,192,63216,1,12,1:0:0:0:
256,192,63382,1,12,1:0:0:0:
256,192,64216,1,4,1:0:0:0:
256,192,64549,1,8,1:0:0:0:
256,192,64632,1,0,1:0:0:0:
256,192,64716,1,8,1:0:0:0:
256,192,64799,1,8,1:0:0:0:
256,192,64882,1,0,1:0:0:0:
256,192,64966,1,0,1:0:0:0:
256,192,65049,1,8,1:0:0:0:
256,192,65216,1,0,1:0:0:0:
256,192,65382,1,8,1:0:0:0:
256,192,65549,1,8,1:0:0:0:
256,192,65632,1,8,1:0:0:0:
256,192,65716,1,0,1:0:0:0:
256,192,65882,1,8,1:0:0:0:
256,192,65966,1,0,1:0:0:0:
384,256,66049,1,0,1:0:0:0:
256,192,66216,1,0,1:0:0:0:
256,192,66382,1,8,1:0:0:0:
256,192,66466,1,0,1:0:0:0:
256,192,66549,1,0,1:0:0:0:
256,192,66632,1,0,1:0:0:0:
256,192,66716,1,8,1:0:0:0:
256,192,66882,1,4,1:0:0:0:
256,192,67216,1,8,1:0:0:0:
256,192,67299,1,8,1:0:0:0:
256,192,67382,1,0,1:0:0:0:
256,192,67466,1,0,1:0:0:0:
256,192,67549,1,8,1:0:0:0:
256,192,67632,1,0,1:0:0:0:
256,192,67716,1,8,1:0:0:0:
256,192,67882,1,0,1:0:0:0:
256,192,68049,1,8,1:0:0:0:
256,192,68216,1,8,1:0:0:0:
256,192,68299,1,8,1:0:0:0:
256,192,68382,1,0,1:0:0:0:
256,192,68549,1,0,1:0:0:0:
384,256,68716,1,8,1:0:0:0:
256,192,68799,1,0,1:0:0:0:
256,192,68882,1,8,1:0:0:0:
256,192,69049,1,8,1:0:0:0:
256,192,69132,1,0,1:0:0:0:
256,192,69216,1,0,1:0:0:0:
256,192,69299,1,0,1:0:0:0:
256,192,69382,1,8,1:0:0:0:
256,192,69549,1,8,1:0:0:0:
256,192,69716,1,4,1:0:0:0:
256,192,69882,1,0,1:0:0:0:
256,192,69966,1,0,1:0:0:0:
256,192,70049,1,8,1:0:0:0:
256,192,70216,1,0,1:0:0:0:
256,192,70382,1,8,1:0:0:0:
256,192,70466,1,0,1:0:0:0:
256,192,70549,1,8,1:0:0:0:
256,192,70632,1,8,1:0:0:0:
256,192,70716,1,0,1:0:0:0:
256,192,70799,1,0,1:0:0:0:
256,192,70882,1,8,1:0:0:0:
256,192,71049,1,8,1:0:0:0:
256,192,71216,1,0,1:0:0:0:
256,192,71382,1,8,1:0:0:0:
256,192,71466,1,0,1:0:0:0:
256,192,71549,1,8,1:0:0:0:
256,192,71632,1,8,1:0:0:0:
256,192,71716,1,0,1:0:0:0:
256,192,71882,1,0,1:0:0:0:
256,192,72049,1,8,1:0:0:0:
256,192,72132,1,0,1:0:0:0:
256,192,72216,1,8,1:0:0:0:
256,192,72382,1,8,1:0:0:0:
256,192,72549,1,0,1:0:0:0:
256,192,72716,1,8,1:0:0:0:
256,192,72799,1,8,1:0:0:0:
256,192,72882,1,0,1:0:0:0:
256,192,72966,1,0,1:0:0:0:
256,192,73049,1,8,1:0:0:0:
256,192,73216,1,8,1:0:0:0:
256,192,73299,1,0,1:0:0:0:
256,192,73382,1,8,1:0:0:0:
256,192,73466,1,8,1:0:0:0:
256,192,73549,1,4,1:0:0:0:
256,192,73882,1,8,1:0:0:0:
256,192,74049,1,8,1:0:0:0:
256,192,74132,1,8,1:0:0:0:
256,192,74216,1,0,1:0:0:0:
256,192,74299,1,0,1:0:0:0:
256,192,74382,1,8,1:0:0:0:
256,192,74549,1,8,1:0:0:0:
256,192,74632,1,0,1:0:0:0:
256,192,74716,1,8,1:0:0:0:
256,192,74882,1,4,1:0:0:0:
256,192,75216,1,8,1:0:0:0:
256,192,75299,1,0,1:0:0:0:
256,192,75382,1,8,1:0:0:0:
256,192,75466,1,0,1:0:0:0:
256,192,75549,1,8,1:0:0:0:
256,192,75632,1,8,1:0:0:0:
256,192,75716,1,0,1:0:0:0:
256,192,75882,1,0,1:0:0:0:
256,192,76049,1,8,1:0:0:0:
256,192,76216,1,0,1:0:0:0:
256,192,76299,1,0,1:0:0:0:
256,192,76382,1,8,1:0:0:0:
256,192,76549,1,8,1:0:0:0:
256,192,76632,1,8,1:0:0:0:
384,256,76716,1,0,1:0:0:0:
256,192,76882,1,0,1:0:0:0:
256,192,77049,1,8,1:0:0:0:
256,192,77132,1,0,1:0:0:0:
256,192,77216,1,0,1:0:0:0:
256,192,77299,1,0,1:0:0:0:
256,192,77382,1,8,1:0:0:0:
256,192,77549,1,4,1:0:0:0:
256,192,77882,1,8,1:0:0:0:
256,192,77966,1,0,1:0:0:0:
256,192,78049,1,8,1:0:0:0:
256,192,78132,1,8,1:0:0:0:
256,192,78216,1,0,1:0:0:0:
256,192,78299,1,0,1:0:0:0:
256,192,78382,1,8,1:0:0:0:
256,192,78549,1,0,1:0:0:0:
256,192,78716,1,8,1:0:0:0:
256,192,78882,1,8,1:0:0:0:
256,192,78966,1,0,1:0:0:0:
256,192,79049,1,0,1:0:0:0:
256,192,79216,1,0,1:0:0:0:
384,256,79382,1,8,1:0:0:0:
256,192,79466,1,0,1:0:0:0:
256,192,79549,1,8,1:0:0:0:
256,192,79716,1,8,1:0:0:0:
256,192,79799,1,0,1:0:0:0:
256,192,79882,1,8,1:0:0:0:
256,192,79966,1,8,1:0:0:0:
256,192,80049,1,0,1:0:0:0:
256,192,80216,1,8,1:0:0:0:
256,192,80382,1,4,1:0:0:0:
256,192,80549,1,0,1:0:0:0:
256,192,80632,1,0,1:0:0:0:
256,192,80716,1,8,1:0:0:0:
256,192,80882,1,0,1:0:0:0:
256,192,81049,1,8,1:0:0:0:
256,192,81132,1,8,1:0:0:0:
256,192,81216,1,0,1:0:0:0:
256,192,81299,1,0,1:0:0:0:
256,192,81382,1,8,1:0:0:0:
256,192,81466,1,0,1:0:0:0:
256,192,81549,1,8,1:0:0:0:
256,192,81716,1,8,1:0:0:0:
256,192,81882,1,0,1:0:0:0:
256,192,82049,1,8,1:0:0:0:
256,192,82132,1,8,1:0:0:0:
256,192,82216,1,0,1:0:0:0:
256,192,82299,1,0,1:0:0:0:
256,192,82382,1,8,1:0:0:0:
256,192,82549,1,0,1:0:0:0:
256,192,82716,1,8,1:0:0:0:
256,192,82799,1,0,1:0:0:0:
256,192,82882,1,8,1:0:0:0:
256,192,83049,1,8,1:0:0:0:
256,192,83216,1,0,1:0:0:0:
256,192,83382,1,8,1:0:0:0:
256,192,83466,1,0,1:0:0:0:
256,192,83549,1,8,1:0:0:0:
256,192,83632,1,8,1:0:0:0:
256,192,83716,1,0,1:0:0:0:
256,192,83882,1,8,1:0:0:0:
256,192,83966,1,0,1:0:0:0:
256,192,84049,1,8,1:0:0:0:
256,192,84132,1,0,1:0:0:0:
256,192,84216,1,12,1:0:0:0:
256,192,84549,1,0,1:0:0:0:
256,192,84716,1,8,1:0:0:0:
256,192,84799,1,8,1:0:0:0:
256,192,84882,1,0,1:0:0:0:
256,192,85049,1,8,1:0:0:0:
256,192,85382,1,0,1:0:0:0:
256,192,85716,1,12,1:0:0:0:
256,192,85882,1,8,1:0:0:0:
256,192,85966,1,0,1:0:0:0:
256,192,86049,1,8,1:0:0:0:
256,192,86132,1,8,1:0:0:0:
256,192,86216,1,0,1:0:0:0:
256,192,86382,1,8,1:0:0:0:
256,192,86549,1,0,1:0:0:0:
256,192,86716,1,8,1:0:0:0:
256,192,86799,1,0,1:0:0:0:
256,192,86882,1,8,1:0:0:0:
256,192,86966,1,0,1:0:0:0:
256,192,87049,1,8,1:0:0:0:
256,192,87216,1,0,1:0:0:0:
256,192,87382,1,8,1:0:0:0:
256,192,87466,1,0,1:0:0:0:
256,192,87549,1,8,1:0:0:0:
256,192,87716,1,0,1:0:0:0:
256,192,87799,1,8,1:0:0:0:
256,192,87882,1,0,1:0:0:0:
256,192,87966,1,0,1:0:0:0:
256,192,88049,1,8,1:0:0:0:
256,192,88216,1,0,1:0:0:0:
256,192,88382,1,8,1:0:0:0:
256,192,88466,1,8,1:0:0:0:
256,192,88549,1,0,1:0:0:0:
256,192,88632,1,8,1:0:0:0:
256,192,88716,1,0,1:0:0:0:
256,192,88882,1,0,1:0:0:0:
256,192,89049,1,8,1:0:0:0:
256,192,89216,1,0,1:0:0:0:
256,192,89299,1,0,1:0:0:0:
256,192,89382,1,8,1:0:0:0:
256,192,89466,1,0,1:0:0:0:
256,192,89549,1,8,1:0:0:0:
256,192,89716,1,0,1:0:0:0:
256,192,89882,1,8,1:0:0:0:
256,192,90049,1,0,1:0:0:0:
256,192,90132,1,0,1:0:0:0:
256,192,90216,1,8,1:0:0:0:
256,192,90299,1,8,0:0:0:0:
256,192,90382,1,0,1:0:0:0:
256,192,90466,1,0,0:0:0:0:
256,192,90549,1,8,1:0:0:0:
256,192,90716,1,0,1:0:0:0:
256,192,90882,1,8,1:0:0:0:
256,192,91049,1,4,1:0:0:0:
256,192,91216,1,8,1:0:0:0:
256,192,91299,1,0,1:0:0:0:
256,192,91382,1,8,1:0:0:0:
256,192,91466,1,8,1:0:0:0:
256,192,91549,1,0,1:0:0:0:
256,192,91716,1,8,1:0:0:0:
256,192,91882,1,0,1:0:0:0:
256,192,92049,1,8,1:0:0:0:
256,192,92132,1,8,1:0:0:0:
256,192,92216,1,0,1:0:0:0:
256,192,92299,1,0,1:0:0:0:
256,192,92382,1,8,1:0:0:0:
256,192,92549,1,0,1:0:0:0:
256,192,92716,1,8,1:0:0:0:
256,192,92799,1,8,1:0:0:0:
256,192,92882,1,0,1:0:0:0:
256,192,93049,1,0,1:0:0:0:
256,192,93132,1,8,1:0:0:0:
256,192,93216,1,0,1:0:0:0:
256,192,93299,1,0,1:0:0:0:
256,192,93382,1,8,1:0:0:0:
256,192,93549,1,0,1:0:0:0:
256,192,93716,1,8,1:0:0:0:
256,192,93799,1,0,1:0:0:0:
256,192,93882,1,8,1:0:0:0:
256,192,93966,1,0,1:0:0:0:
256,192,94049,1,8,1:0:0:0:
256,192,94216,1,0,1:0:0:0:
256,192,94382,1,8,1:0:0:0:
256,192,94549,1,0,1:0:0:0:
256,192,94632,1,8,1:0:0:0:
256,192,94716,1,0,1:0:0:0:
256,192,94799,1,0,1:0:0:0:
256,192,94882,1,8,1:0:0:0:
256,192,95049,1,0,1:0:0:0:
256,192,95216,1,8,1:0:0:0:
256,192,95382,1,0,1:0:0:0:
256,192,95466,1,0,1:0:0:0:
256,192,95549,1,8,1:0:0:0:
256,192,95632,1,0,0:0:0:0:
256,192,95716,1,8,1:0:0:0:
256,192,95799,1,8,1:0:0:0:
256,192,95882,1,0,1:0:0:0:
256,192,96049,1,8,1:0:0:0:
256,192,96382,1,12,1:0:0:0:
256,192,96549,1,0,1:0:0:0:
256,192,96716,1,8,1:0:0:0:
64,64,96883,1,0,0:0:0:0:
256,192,97049,1,8,1:0:0:0:
256,192,97216,1,0,1:0:0:0:
256,192,97382,1,8,1:0:0:0:
256,192,97549,1,8,1:0:0:0:
256,192,97882,1,8,1:0:0:0:
256,192,98049,1,0,1:0:0:0:
256,192,98216,1,8,1:0:0:0:
256,192,98382,1,0,1:0:0:0:
256,192,98466,1,8,1:0:0:0:
256,192,98549,1,0,1:0:0:0:
256,192,98716,1,8,1:0:0:0:
256,192,98882,1,0,1:0:0:0:
256,192,99049,1,8,1:0:0:0:
256,192,99216,1,8,1:0:0:0:
256,192,99382,1,0,1:0:0:0:
64,64,99550,1,0,0:0:0:0:
256,192,99716,1,8,1:0:0:0:
256,192,99882,1,0,1:0:0:0:
256,192,100049,1,8,1:0:0:0:
256,192,100216,1,0,1:0:0:0:
256,192,100549,1,8,1:0:0:0:
256,192,100716,1,0,1:0:0:0:
256,192,100882,1,8,1:0:0:0:
256,192,101049,1,8,1:0:0:0:
256,192,101132,1,0,1:0:0:0:
256,192,101216,1,8,1:0:0:0:
256,192,101382,1,8,1:0:0:0:
256,192,101549,1,0,1:0:0:0:
256,192,101716,1,12,1:0:0:0:
256,192,101882,1,0,1:0:0:0:
256,192,102049,1,8,1:0:0:0:
256,192,102216,1,0,1:0:0:0:
256,192,102382,1,8,1:0:0:0:
256,192,102549,1,0,1:0:0:0:
256,192,102716,1,8,1:0:0:0:
256,192,102882,1,8,1:0:0:0:
256,192,103216,1,8,1:0:0:0:
256,192,103382,1,0,1:0:0:0:
256,192,103549,1,8,1:0:0:0:
256,192,103716,1,0,1:0:0:0:
256,192,103799,1,8,1:0:0:0:
256,192,103882,1,0,1:0:0:0:
256,192,104049,1,8,1:0:0:0:
256,192,104216,1,0,1:0:0:0:
256,192,104382,1,12,1:0:0:0:
256,192,104549,1,8,1:0:0:0:
256,192,104716,1,0,1:0:0:0:
256,192,104882,1,0,1:0:0:0:
256,192,105049,1,8,1:0:0:0:
256,192,105216,1,0,1:0:0:0:
256,192,105382,1,8,1:0:0:0:
256,192,105549,1,4,1:0:0:0:
256,192,105882,1,8,1:0:0:0:
256,192,105966,1,8,1:0:0:0:
256,192,106049,1,0,1:0:0:0:
256,192,106216,1,0,1:0:0:0:
256,192,106382,1,8,1:0:0:0:
256,192,106549,1,8,1:0:0:0:
256,192,106632,1,0,1:0:0:0:
256,192,106716,1,8,1:0:0:0:
256,192,106799,1,8,1:0:0:0:
256,192,106882,1,0,1:0:0:0:
256,192,106966,1,0,1:0:0:0:
256,192,107049,1,12,1:0:0:0:
256,192,107216,1,0,1:0:0:0:
256,192,107382,1,8,1:0:0:0:
256,192,107549,1,8,1:0:0:0:
256,192,107632,1,8,1:0:0:0:
256,192,107716,1,0,1:0:0:0:
256,192,107882,1,0,1:0:0:0:
256,192,108049,1,8,1:0:0:0:
256,192,108216,1,0,1:0:0:0:
256,192,108466,1,0,1:0:0:0:
256,192,108549,1,8,1:0:0:0:
256,192,108632,1,0,1:0:0:0:
256,192,108716,1,8,1:0:0:0:
256,192,108882,1,8,1:0:0:0:
256,192,108966,1,0,1:0:0:0:
256,192,109049,1,8,1:0:0:0:
256,192,109216,1,8,1:0:0:0:
256,192,109382,1,8,1:0:0:0:
256,192,109466,1,8,1:0:0:0:
256,192,109549,1,0,1:0:0:0:
256,192,109716,1,8,1:0:0:0:
256,192,109882,1,0,1:0:0:0:
256,192,110049,1,8,1:0:0:0:
256,192,110216,1,8,1:0:0:0:
256,192,110299,1,0,1:0:0:0:
256,192,110382,1,8,1:0:0:0:
256,192,110549,1,0,1:0:0:0:
256,192,110716,1,8,1:0:0:0:
256,192,110882,1,0,1:0:0:0:
256,192,111132,1,0,1:0:0:0:
256,192,111216,1,8,1:0:0:0:
256,192,111382,1,0,1:0:0:0:
256,192,111549,1,8,1:0:0:0:
256,192,111632,1,0,1:0:0:0:
256,192,111716,1,8,1:0:0:0:
256,192,111882,1,8,1:0:0:0:
256,192,112049,1,0,1:0:0:0:
256,192,112216,1,0,1:0:0:0:
256,192,112299,1,0,1:0:0:0:
256,192,112382,1,12,1:0:0:0:
256,192,112549,1,0,1:0:0:0:
256,192,112716,1,8,1:0:0:0:
256,192,112882,1,0,1:0:0:0:
256,192,112966,1,8,1:0:0:0:
256,192,113049,1,8,1:0:0:0:
256,192,113216,1,0,1:0:0:0:
256,192,113382,1,8,1:0:0:0:
256,192,113549,1,0,1:0:0:0:
256,192,113799,1,0,1:0:0:0:
256,192,113882,1,8,1:0:0:0:
256,192,113966,1,0,1:0:0:0:
256,192,114049,1,8,1:0:0:0:
256,192,114216,1,8,1:0:0:0:
256,192,114299,1,8,1:0:0:0:
256,192,114382,1,0,1:0:0:0:
256,192,114549,1,8,1:0:0:0:
256,192,114716,1,8,1:0:0:0:
256,192,114799,1,0,1:0:0:0:
256,192,114882,1,0,1:0:0:0:
256,192,115049,1,8,1:0:0:0:
256,192,115216,1,0,1:0:0:0:
256,192,115382,1,8,1:0:0:0:
256,192,115549,1,8,1:0:0:0:
256,192,115632,1,0,1:0:0:0:
256,192,115716,1,8,1:0:0:0:
256,192,115882,1,0,1:0:0:0:
256,192,116049,1,8,1:0:0:0:
256,192,116216,1,0,1:0:0:0:
256,192,116466,1,0,1:0:0:0:
256,192,116549,1,8,1:0:0:0:
256,192,116716,1,0,1:0:0:0:
256,192,116882,1,8,1:0:0:0:
256,192,116966,1,0,1:0:0:0:
256,192,117049,1,8,1:0:0:0:
256,192,117216,1,0,1:0:0:0:
256,192,117382,1,8,1:0:0:0:
256,192,117466,1,8,1:0:0:0:
256,192,117549,1,0,1:0:0:0:
256,192,117632,1,0,1:0:0:0:
256,192,117716,1,12,1:0:0:0:
256,192,118049,1,8,1:0:0:0:
256,192,118216,1,0,1:0:0:0:
256,192,118382,1,8,1:0:0:0:
256,192,118466,1,8,1:0:0:0:
256,192,118549,1,0,1:0:0:0:
256,192,118632,1,8,1:0:0:0:
256,192,118716,1,0,1:0:0:0:
256,192,118882,1,8,1:0:0:0:
256,192,119216,1,8,1:0:0:0:
256,192,119299,1,8,1:0:0:0:
256,192,119382,1,0,1:0:0:0:
256,192,119549,1,8,1:0:0:0:
256,192,119632,1,0,1:0:0:0:
256,192,119716,1,0,1:0:0:0:
256,192,119882,1,0,1:0:0:0:
256,192,120049,1,8,1:0:0:0:
256,192,120382,1,8,1:0:0:0:
256,192,120549,1,8,1:0:0:0:
256,192,120632,1,0,1:0:0:0:
256,192,120716,1,8,1:0:0:0:
256,192,120882,1,0,1:0:0:0:
256,192,121049,1,8,1:0:0:0:
256,192,121132,1,8,1:0:0:0:
256,192,121216,1,0,1:0:0:0:
256,192,121299,1,0,1:0:0:0:
256,192,121382,1,8,1:0:0:0:
256,192,121549,1,0,1:0:0:0:
256,192,121882,1,8,1:0:0:0:
256,192,121966,1,0,1:0:0:0:
256,192,122049,1,8,1:0:0:0:
256,192,122216,1,8,1:0:0:0:
256,192,122299,1,0,1:0:0:0:
256,192,122382,1,0,1:0:0:0:
256,192,122549,1,0,1:0:0:0:
256,192,122716,1,8,1:0:0:0:
256,192,123049,1,12,1:0:0:0:
256,192,123216,1,0,1:0:0:0:
256,192,123382,1,8,1:0:0:0:
256,192,123549,1,0,1:0:0:0:
256,192,123632,1,0,1:0:0:0:
256,192,123716,1,8,1:0:0:0:
256,192,123799,1,8,1:0:0:0:
256,192,123882,1,0,1:0:0:0:
256,192,124049,1,0,1:0:0:0:
256,192,124216,1,8,1:0:0:0:
256,192,124549,1,8,1:0:0:0:
256,192,124632,1,8,1:0:0:0:
256,192,124716,1,0,1:0:0:0:
256,192,124882,1,0,1:0:0:0:
256,192,124966,1,0,1:0:0:0:
256,192,125049,1,8,1:0:0:0:
256,192,125216,1,0,1:0:0:0:
256,192,125382,1,8,1:0:0:0:
256,192,125466,1,0,1:0:0:0:
256,192,125549,1,0,1:0:0:0:
256,192,125716,1,8,1:0:0:0:
256,192,126049,1,8,1:0:0:0:
256,192,126132,1,0,1:0:0:0:
256,192,126216,1,8,1:0:0:0:
256,192,126299,1,8,1:0:0:0:
256,192,126382,1,0,1:0:0:0:
256,192,126549,1,8,1:0:0:0:
256,192,126716,1,0,1:0:0:0:
256,192,126882,1,8,1:0:0:0:
256,192,127216,1,8,1:0:0:0:
256,192,127299,1,8,1:0:0:0:
256,192,127382,1,0,1:0:0:0:
256,192,127549,1,8,1:0:0:0:
256,192,127632,1,0,1:0:0:0:
256,192,127716,1,8,1:0:0:0:
256,192,127882,1,8,1:0:0:0:
256,192,127966,1,0,1:0:0:0:
256,192,128049,1,8,1:0:0:0:
256,192,128132,1,8,1:0:0:0:
256,192,128216,1,0,1:0:0:0:
256,192,128299,1,0,1:0:0:0:
256,192,128382,1,12,1:0:0:0:
256,192,128716,1,8,1:0:0:0:
256,192,128882,1,0,1:0:0:0:
256,192,129049,1,8,1:0:0:0:
256,192,129132,1,0,1:0:0:0:
256,192,129216,1,8,1:0:0:0:
256,192,129299,1,0,1:0:0:0:
256,192,129382,1,8,1:0:0:0:
256,192,129549,1,12,1:0:0:0:
256,192,129882,1,8,1:0:0:0:
256,192,129966,1,8,1:0:0:0:
256,192,130049,1,0,1:0:0:0:
256,192,130216,1,8,1:0:0:0:
256,192,130299,1,0,1:0:0:0:
256,192,130382,1,0,1:0:0:0:
256,192,130549,1,0,1:0:0:0:
256,192,130716,1,8,1:0:0:0:
256,192,131049,1,12,1:0:0:0:
256,192,131216,1,8,1:0:0:0:
256,192,131299,1,0,1:0:0:0:
256,192,131382,1,8,1:0:0:0:
256,192,131549,1,0,1:0:0:0:
256,192,131716,1,8,1:0:0:0:
256,192,131799,1,0,1:0:0:0:
256,192,131882,1,8,1:0:0:0:
256,192,131966,1,8,1:0:0:0:
256,192,132049,1,0,1:0:0:0:
256,192,132216,1,12,1:0:0:0:
256,192,132549,1,8,1:0:0:0:
256,192,132632,1,0,1:0:0:0:
256,192,132716,1,8,1:0:0:0:
256,192,132882,1,8,1:0:0:0:
256,192,132966,1,0,1:0:0:0:
256,192,133049,1,0,1:0:0:0:
256,192,133216,1,0,1:0:0:0:
256,192,133382,1,8,1:0:0:0:
256,192,133716,1,12,1:0:0:0:
256,192,133882,1,0,1:0:0:0:
256,192,134049,1,8,1:0:0:0:
256,192,134216,1,0,1:0:0:0:
256,192,134299,1,0,1:0:0:0:
256,192,134382,1,8,1:0:0:0:
256,192,134466,1,0,1:0:0:0:
256,192,134549,1,8,1:0:0:0:
256,192,134716,1,0,1:0:0:0:
256,192,134882,1,12,1:0:0:0:
256,192,135216,1,8,1:0:0:0:
256,192,135299,1,8,1:0:0:0:
256,192,135382,1,0,1:0:0:0:
256,192,135549,1,8,1:0:0:0:
256,192,135632,1,0,1:0:0:0:
256,192,135716,1,8,1:0:0:0:
256,192,135882,1,8,1:0:0:0:
256,192,136049,1,0,1:0:0:0:
256,192,136132,1,0,1:0:0:0:
256,192,136216,1,8,1:0:0:0:
256,192,136382,1,4,1:0:0:0:
256,192,136716,1,8,1:0:0:0:
256,192,136799,1,0,1:0:0:0:
256,192,136882,1,8,1:0:0:0:
256,192,136966,1,8,1:0:0:0:
256,192,137049,1,0,1:0:0:0:
256,192,137216,1,8,1:0:0:0:
256,192,137382,1,0,1:0:0:0:
256,192,137549,1,12,1:0:0:0:
256,192,137882,1,8,1:0:0:0:
256,192,138049,1,0,1:0:0:0:
256,192,138216,1,8,1:0:0:0:
256,192,138299,1,0,1:0:0:0:
256,192,138382,1,8,1:0:0:0:
256,192,138549,1,8,1:0:0:0:
256,192,138632,1,8,1:0:0:0:
256,192,138716,1,0,1:0:0:0:
256,192,138799,1,0,1:0:0:0:
256,192,138882,1,8,1:0:0:0:
256,192,138966,1,0,1:0:0:0:
256,192,139049,1,12,1:0:0:0:
256,192,139216,1,0,1:0:0:0:
256,192,139382,1,8,1:0:0:0:
256,192,139466,1,8,1:0:0:0:
256,192,139549,1,0,1:0:0:0:
256,192,139632,1,0,1:0:0:0:
256,192,139716,1,8,1:0:0:0:
256,192,139882,1,0,1:0:0:0:
256,192,140049,1,8,1:0:0:0:
256,192,140216,1,4,1:0:0:0:
256,192,140549,1,8,1:0:0:0:
256,192,140716,1,0,1:0:0:0:
256,192,140882,1,8,1:0:0:0:
256,192,140966,1,0,1:0:0:0:
256,192,141049,1,8,1:0:0:0:
256,192,141132,1,8,1:0:0:0:
256,192,141216,1,0,1:0:0:0:
256,192,141382,1,8,1:0:0:0:
256,192,141549,1,4,1:0:0:0:
256,192,141882,1,0,1:0:0:0:
256,192,142049,1,8,1:0:0:0:
256,192,142216,1,8,1:0:0:0:
256,192,142299,1,0,1:0:0:0:
256,192,142382,1,8,1:0:0:0:
256,192,142466,1,0,1:0:0:0:
256,192,142549,1,0,1:0:0:0:
256,192,142716,1,8,1:0:0:0:
256,192,142882,1,4,1:0:0:0:
256,192,143216,1,0,1:0:0:0:
256,192,143382,1,8,1:0:0:0:
256,192,143466,1,8,1:0:0:0:
256,192,143549,1,0,1:0:0:0:
256,192,143716,1,8,1:0:0:0:
256,192,143882,1,0,1:0:0:0:
256,192,143966,1,0,1:0:0:0:
256,192,144049,1,8,1:0:0:0:
256,192,144132,1,0,1:0:0:0:
256,192,144216,1,8,1:0:0:0:
256,192,144299,1,8,1:0:0:0:
256,192,144382,1,4,1:0:0:0:
256,192,144716,1,8,1:0:0:0:
256,192,144882,1,0,1:0:0:0:
256,192,145049,1,8,1:0:0:0:
256,192,145216,1,8,1:0:0:0:
256,192,145299,1,0,1:0:0:0:
256,192,145382,1,8,1:0:0:0:
256,192,145466,1,8,1:0:0:0:
256,192,145549,1,0,1:0:0:0:
256,192,145716,1,8,1:0:0:0:
256,192,146049,1,8,1:0:0:0:
256,192,146216,1,0,1:0:0:0:
256,192,146382,1,8,1:0:0:0:
256,192,146549,1,0,1:0:0:0:
256,192,146632,1,0,1:0:0:0:
256,192,146716,1,8,1:0:0:0:
256,192,146799,1,8,1:0:0:0:
256,192,146882,1,0,1:0:0:0:
256,192,147049,1,8,1:0:0:0:
256,192,147382,1,8,1:0:0:0:
256,192,147549,1,0,1:0:0:0:
256,192,147716,1,0,1:0:0:0:
256,192,147882,1,8,1:0:0:0:
256,192,147966,1,8,1:0:0:0:
256,192,148049,1,0,1:0:0:0:
256,192,148216,1,12,1:0:0:0:
256,192,148549,1,0,1:0:0:0:
256,192,148716,1,8,1:0:0:0:
256,192,148882,1,0,1:0:0:0:
256,192,149049,1,8,1:0:0:0:
256,192,149132,1,0,1:0:0:0:
256,192,149216,1,8,1:0:0:0:
256,192,149299,1,8,1:0:0:0:
256,192,149382,1,0,1:0:0:0:
256,192,149549,1,12,1:0:0:0:
256,192,149882,1,8,1:0:0:0:
256,192,150049,1,0,1:0:0:0:
256,192,150132,1,0,1:0:0:0:
256,192,150216,1,8,1:0:0:0:
256,192,150299,1,0,1:0:0:0:
256,192,150382,1,8,1:0:0:0:
256,192,150549,1,0,1:0:0:0:
256,192,150632,1,0,1:0:0:0:
256,192,150716,1,8,1:0:0:0:
256,192,150882,1,4,1:0:0:0:
256,192,151216,1,0,1:0:0:0:
256,192,151382,1,8,1:0:0:0:
256,192,151549,1,0,1:0:0:0:
256,192,151632,1,0,1:0:0:0:
256,192,151716,1,8,1:0:0:0:
256,192,151882,1,8,1:0:0:0:
256,192,151966,1,8,1:0:0:0:
256,192,152049,1,0,1:0:0:0:
256,192,152216,1,12,1:0:0:0:
256,192,152549,1,8,1:0:0:0:
256,192,152716,1,0,1:0:0:0:
256,192,152882,1,8,1:0:0:0:
256,192,152966,1,0,1:0:0:0:
256,192,153049,1,8,1:0:0:0:
256,192,153132,1,8,1:0:0:0:
256,192,153216,1,0,1:0:0:0:
256,192,153382,1,8,1:0:0:0:
256,192,153549,1,4,1:0:0:0:
256,192,153882,1,0,1:0:0:0:
256,192,154049,1,0,1:0:0:0:
256,192,154216,1,8,1:0:0:0:
256,192,154382,1,4,1:0:0:0:
256,192,154549,1,8,1:0:0:0:
256,192,154632,1,0,1:0:0:0:
256,192,154716,1,8,1:0:0:0:
256,192,154799,1,8,1:0:0:0:
256,192,154882,1,0,1:0:0:0:
256,192,154966,1,0,1:0:0:0:
256,192,155049,1,12,1:0:0:0:
256,192,155382,1,8,1:0:0:0:
256,192,155549,1,0,1:0:0:0:
256,192,155716,1,8,1:0:0:0:
256,192,155799,1,8,1:0:0:0:
256,192,155882,1,0,1:0:0:0:
256,192,156049,1,0,1:0:0:0:
256,192,156132,1,0,1:0:0:0:
256,192,156216,1,8,1:0:0:0:
256,192,156382,1,0,1:0:0:0:
256,192,156716,1,8,1:0:0:0:
256,192,156882,1,0,1:0:0:0:
256,192,157049,1,0,1:0:0:0:
256,192,157132,1,0,1:0:0:0:
256,192,157216,1,8,1:0:0:0:
256,192,157382,1,0,1:0:0:0:
256,192,157466,1,8,1:0:0:0:
256,192,157549,1,8,1:0:0:0:
256,192,157716,1,8,1:0:0:0:
256,192,158049,1,8,1:0:0:0:
256,192,158216,1,0,1:0:0:0:
256,192,158382,1,8,1:0:0:0:
256,192,158549,1,0,1:0:0:0:
256,192,158632,1,0,1:0:0:0:
256,192,158716,1,8,1:0:0:0:
256,192,158882,1,4,1:0:0:0:
256,192,159216,1,0,1:0:0:0:
256,192,159382,1,8,1:0:0:0:
256,192,159466,1,8,1:0:0:0:
256,192,159549,1,0,1:0:0:0:
256,192,159716,1,8,1:0:0:0:
256,192,159882,1,0,1:0:0:0:
256,192,160049,1,8,1:0:0:0:
256,192,160216,1,0,1:0:0:0:
256,192,160382,1,12,1:0:0:0:
256,192,160716,1,8,1:0:0:0:
256,192,160799,1,8,1:0:0:0:
256,192,160882,1,0,1:0:0:0:
256,192,160966,1,0,1:0:0:0:
256,192,161049,1,8,1:0:0:0:
256,192,161216,1,0,1:0:0:0:
256,192,161382,1,0,1:0:0:0:
256,192,161466,1,0,1:0:0:0:
256,192,161549,1,8,1:0:0:0:
256,192,161716,1,0,1:0:0:0:
256,192,161882,1,8,1:0:0:0:
256,192,162049,1,8,1:0:0:0:
256,192,162132,1,8,1:0:0:0:
256,192,162216,1,0,1:0:0:0:
256,192,162299,1,0,1:0:0:0:
256,192,162382,1,8,1:0:0:0:
256,192,162549,1,0,1:0:0:0:
256,192,162716,1,0,1:0:0:0:
256,192,162799,1,8,1:0:0:0:
256,192,162882,1,8,1:0:0:0:
256,192,163049,1,0,1:0:0:0:
256,192,163216,1,8,1:0:0:0:
256,192,163382,1,8,1:0:0:0:
256,192,163466,1,0,1:0:0:0:
256,192,163549,1,8,1:0:0:0:
256,192,163632,1,8,1:0:0:0:
256,192,163716,1,0,1:0:0:0:
256,192,163882,1,0,1:0:0:0:
256,192,164049,1,0,1:0:0:0:
256,192,164132,1,8,1:0:0:0:
256,192,164216,1,0,1:0:0:0:
256,192,164382,1,8,1:0:0:0:
256,192,164549,1,0,1:0:0:0:
256,192,164716,1,8,1:0:0:0:
256,192,164799,1,0,1:0:0:0:
256,192,164882,1,8,1:0:0:0:
256,192,164966,1,0,1:0:0:0:
256,192,165049,1,8,1:0:0:0:
256,192,165216,1,0,1:0:0:0:
256,192,165382,1,0,1:0:0:0:
256,192,165466,1,0,1:0:0:0:
256,192,165549,1,8,1:0:0:0:
256,192,165716,1,12,1:0:0:0:
256,192,166049,1,8,1:0:0:0:
256,192,166132,1,0,1:0:0:0:
256,192,166216,1,8,1:0:0:0:
256,192,166299,1,8,1:0:0:0:
256,192,166382,1,0,1:0:0:0:
256,192,166549,1,8,1:0:0:0:
256,192,166716,1,0,1:0:0:0:
256,192,166799,1,0,1:0:0:0:
256,192,166882,1,8,1:0:0:0:
256,192,167049,1,0,1:0:0:0:
256,192,167216,1,8,1:0:0:0:
256,192,167382,1,8,1:0:0:0:
256,192,167466,1,8,1:0:0:0:
256,192,167549,1,0,1:0:0:0:
256,192,167632,1,0,1:0:0:0:
256,192,167716,1,8,1:0:0:0:
256,192,167882,1,0,1:0:0:0:
256,192,168049,1,0,1:0:0:0:
256,192,168132,1,8,1:0:0:0:
256,192,168216,1,8,1:0:0:0:
256,192,168382,1,8,1:0:0:0:
256,192,168549,1,0,1:0:0:0:
256,192,168716,1,8,1:0:0:0:
256,192,168799,1,0,1:0:0:0:
256,192,168882,1,8,1:0:0:0:
256,192,168966,1,8,1:0:0:0:
256,192,169049,1,0,1:0:0:0:
256,192,169216,1,0,1:0:0:0:
256,192,169382,1,0,1:0:0:0:
256,192,169466,1,0,1:0:0:0:
256,192,169549,1,8,1:0:0:0:
256,192,169716,1,8,1:0:0:0:
256,192,169882,1,0,1:0:0:0:
256,192,170049,1,8,1:0:0:0:
256,192,170132,1,0,1:0:0:0:
256,192,170216,1,8,1:0:0:0:
256,192,170299,1,0,1:0:0:0:
256,192,170382,1,8,1:0:0:0:
256,192,170549,1,8,1:0:0:0:
256,192,170716,1,8,1:0:0:0:
256,192,170799,1,8,1:0:0:0:
256,192,170882,1,0,1:0:0:0:
256,192,171049,1,12,1:0:0:0:
256,192,171382,1,8,1:0:0:0:
256,192,171466,1,8,1:0:0:0:
256,192,171549,1,0,1:0:0:0:
256,192,171632,1,0,1:0:0:0:
256,192,171716,1,8,1:0:0:0:
256,192,171882,1,0,1:0:0:0:
256,192,172049,1,0,1:0:0:0:
256,192,172132,1,0,1:0:0:0:
256,192,172216,1,8,1:0:0:0:
448,64,172382,1,8,1:0:0:0:
256,192,172549,1,0,1:0:0:0:
256,192,172716,1,8,1:0:0:0:
256,192,172799,1,0,1:0:0:0:
256,192,172882,1,0,1:0:0:0:
256,192,172966,1,0,1:0:0:0:
256,192,173049,1,8,1:0:0:0:
256,192,173216,1,8,1:0:0:0:
256,192,173382,1,0,1:0:0:0:
256,192,173466,1,0,1:0:0:0:
256,192,173549,1,8,1:0:0:0:
64,64,173716,1,0,1:0:0:0:
256,192,173882,1,8,1:0:0:0:
256,192,174049,1,8,1:0:0:0:
256,192,174132,1,0,1:0:0:0:
256,192,174216,1,0,1:0:0:0:
256,192,174299,1,0,1:0:0:0:
256,192,174382,1,8,1:0:0:0:
256,192,174549,1,0,1:0:0:0:
256,192,174716,1,8,1:0:0:0:
256,192,174799,1,8,1:0:0:0:
256,192,174882,1,0,1:0:0:0:
256,192,175049,1,8,1:0:0:0:
256,192,175132,1,0,1:0:0:0:
256,192,175216,1,8,1:0:0:0:
256,192,175382,1,0,1:0:0:0:
256,192,175549,1,8,1:0:0:0:
256,192,175632,1,8,1:0:0:0:
256,192,175716,1,0,1:0:0:0:
256,192,175882,1,8,1:0:0:0:
256,192,176049,1,0,1:0:0:0:
256,192,176132,1,8,1:0:0:0:
256,192,176216,1,0,1:0:0:0:
256,192,176382,1,12,1:0:0:0:
256,192,176716,1,8,1:0:0:0:
256,192,176799,1,0,1:0:0:0:
256,192,176882,1,8,1:0:0:0:
256,192,176966,1,0,1:0:0:0:
256,192,177049,1,8,1:0:0:0:
256,192,177216,1,0,1:0:0:0:
256,192,177382,1,8,1:0:0:0:
256,192,177549,1,8,1:0:0:0:
256,192,177632,1,8,1:0:0:0:
256,192,177716,1,0,1:0:0:0:
256,192,177882,1,8,1:0:0:0:
256,192,178049,1,8,1:0:0:0:
256,192,178132,1,8,1:0:0:0:
256,192,178216,1,0,1:0:0:0:
256,192,178299,1,0,1:0:0:0:
256,192,178382,1,8,1:0:0:0:
256,192,178549,1,0,1:0:0:0:
256,192,178716,1,8,1:0:0:0:
256,192,178799,1,0,1:0:0:0:
256,192,178882,1,8,1:0:0:0:
256,192,178966,1,0,1:0:0:0:
256,192,179049,1,12,1:0:0:0:
256,192,179382,1,8,1:0:0:0:
256,192,179549,1,8,1:0:0:0:
256,192,179716,1,0,1:0:0:0:
256,192,179799,1,0,1:0:0:0:
256,192,179882,1,8,1:0:0:0:
256,192,180049,1,8,1:0:0:0:
256,192,180216,1,4,1:0:0:0:
256,192,180549,1,12,1:0:0:0:
256,192,180716,1,0,1:0:0:0:
256,192,181549,1,4,1:0:0:0:
256,192,181882,1,0,1:0:0:0:
256,192,182049,1,8,1:0:0:0:
256,192,182216,1,0,1:0:0:0:
256,192,182382,1,8,1:0:0:0:
256,192,182716,1,8,1:0:0:0:
256,192,182882,1,8,1:0:0:0:
256,192,183216,1,0,1:0:0:0:
256,192,183382,1,8,1:0:0:0:
256,192,183549,1,8,1:0:0:0:
256,192,183716,1,0,1:0:0:0:
256,192,184049,1,8,1:0:0:0:
256,192,184216,1,0,1:0:0:0:
256,192,184549,1,0,1:0:0:0:
256,192,184716,1,8,1:0:0:0:
256,192,184882,1,0,1:0:0:0:
256,192,185049,1,8,1:0:0:0:
256,192,185216,1,0,1:0:0:0:
256,192,185382,1,8,1:0:0:0:
256,192,185549,1,0,1:0:0:0:
256,192,185882,1,0,1:0:0:0:
256,192,186049,1,8,1:0:0:0:
256,192,186216,1,0,1:0:0:0:
256,192,186382,1,8,1:0:0:0:
256,192,186549,1,0,1:0:0:0:
256,192,186716,1,8,1:0:0:0:
256,192,187049,1,4,1:0:0:0:
256,192,187216,1,0,1:0:0:0:
256,192,187382,1,8,1:0:0:0:
256,192,187549,1,0,1:0:0:0:
256,192,187716,1,8,1:0:0:0:
256,192,187799,1,0,1:0:0:0:
256,192,187882,1,8,1:0:0:0:
256,192,188049,1,0,1:0:0:0:
256,192,188216,1,8,1:0:0:0:
256,192,188382,1,0,1:0:0:0:
256,192,188466,1,8,1:0:0:0:
256,192,188549,1,0,1:0:0:0:
256,192,188716,1,8,1:0:0:0:
256,192,188882,1,0,1:0:0:0:
256,192,189049,1,8,1:0:0:0:
256,192,189132,1,8,1:0:0:0:
256,192,189216,1,0,1:0:0:0:
256,192,189299,1,0,1:0:0:0:
256,192,189382,1,8,1:0:0:0:
256,192,189466,1,0,1:0:0:0:
256,192,189549,1,8,1:0:0:0:
256,192,189632,1,0,1:0:0:0:
256,192,189716,1,12,1:0:0:0:
256,192,189882,1,0,1:0:0:0:
256,192,190049,1,8,1:0:0:0:
256,192,190216,1,0,1:0:0:0:
256,192,190299,1,0,1:0:0:0:
256,192,190382,1,8,1:0:0:0:
256,192,190549,1,0,1:0:0:0:
256,192,190716,1,0,1:0:0:0:
256,192,190882,1,8,1:0:0:0:
256,192,190966,1,8,1:0:0:0:
256,192,191049,1,0,1:0:0:0:
256,192,191216,1,8,1:0:0:0:
256,192,191299,1,0,1:0:0:0:
256,192,191382,1,8,1:0:0:0:
256,192,191549,1,0,1:0:0:0:
256,192,191716,1,8,1:0:0:0:
256,192,191882,1,8,1:0:0:0:
256,192,192049,1,8,1:0:0:0:
256,192,192216,1,4,1:0:0:0:
256,192,192549,1,8,1:0:0:0:
256,192,192632,1,0,1:0:0:0:
256,192,192716,1,8,1:0:0:0:
256,192,192799,1,8,1:0:0:0:
256,192,192882,1,0,1:0:0:0:
256,192,192966,1,0,1:0:0:0:
256,192,193049,1,8,1:0:0:0:
256,192,193216,1,0,1:0:0:0:
256,192,193382,1,8,1:0:0:0:
256,192,193549,1,8,1:0:0:0:
256,192,193632,1,8,1:0:0:0:
256,192,193716,1,0,1:0:0:0:
256,192,193882,1,8,1:0:0:0:
256,192,193966,1,0,1:0:0:0:
384,256,194049,1,8,1:0:0:0:
256,192,194216,1,0,1:0:0:0:
256,192,194382,1,8,1:0:0:0:
256,192,194466,1,0,1:0:0:0:
256,192,194549,1,8,1:0:0:0:
256,192,194632,1,0,1:0:0:0:
256,192,194716,1,8,1:0:0:0:
256,192,194882,1,4,1:0:0:0:
256,192,195216,1,8,1:0:0:0:
256,192,195299,1,8,1:0:0:0:
256,192,195382,1,0,1:0:0:0:
256,192,195466,1,0,1:0:0:0:
256,192,195549,1,8,1:0:0:0:
256,192,195632,1,0,1:0:0:0:
256,192,195716,1,8,1:0:0:0:
256,192,195882,1,0,1:0:0:0:
256,192,196049,1,8,1:0:0:0:
256,192,196216,1,8,1:0:0:0:
256,192,196299,1,0,1:0:0:0:
256,192,196382,1,0,1:0:0:0:
256,192,196549,1,0,1:0:0:0:
384,256,196716,1,8,1:0:0:0:
256,192,196799,1,0,1:0:0:0:
256,192,196882,1,8,1:0:0:0:
256,192,197049,1,8,1:0:0:0:
256,192,197132,1,0,1:0:0:0:
256,192,197216,1,0,1:0:0:0:
256,192,197299,1,0,1:0:0:0:
256,192,197382,1,8,1:0:0:0:
256,192,197549,1,0,1:0:0:0:
256,192,197716,1,12,1:0:0:0:
256,192,197882,1,0,1:0:0:0:
256,192,197966,1,0,1:0:0:0:
256,192,198049,1,8,1:0:0:0:
256,192,198216,1,0,1:0:0:0:
256,192,198383,1,8,1:0:0:0:
256,192,198466,1,0,1:0:0:0:
256,192,198549,1,8,1:0:0:0:
256,192,198632,1,8,1:0:0:0:
256,192,198716,1,0,1:0:0:0:
256,192,198799,1,0,1:0:0:0:
256,192,198882,1,8,1:0:0:0:
256,192,199049,1,8,1:0:0:0:
256,192,199216,1,0,1:0:0:0:
256,192,199382,1,8,1:0:0:0:
256,192,199466,1,0,1:0:0:0:
256,192,199549,1,8,1:0:0:0:
256,192,199632,1,8,1:0:0:0:
256,192,199716,1,0,1:0:0:0:
256,192,199882,1,0,1:0:0:0:
256,192,200049,1,8,1:0:0:0:
256,192,200132,1,8,1:0:0:0:
256,192,200216,1,0,1:0:0:0:
256,192,200382,1,8,1:0:0:0:
256,192,200549,1,0,1:0:0:0:
256,192,200716,1,8,1:0:0:0:
256,192,200799,1,0,1:0:0:0:
256,192,200882,1,8,1:0:0:0:
256,192,200966,1,8,1:0:0:0:
256,192,201049,1,0,1:0:0:0:
256,192,201216,1,8,1:0:0:0:
256,192,201299,1,8,1:0:0:0:
256,192,201382,1,0,1:0:0:0:
256,192,201466,1,0,1:0:0:0:
256,192,201549,1,12,1:0:0:0:
256,192,201882,1,8,1:0:0:0:
256,192,202049,1,8,1:0:0:0:
256,192,202132,1,0,1:0:0:0:
256,192,202216,1,8,1:0:0:0:
256,192,202299,1,0,1:0:0:0:
256,192,202382,1,8,1:0:0:0:
256,192,202549,1,0,1:0:0:0:
256,192,202716,1,0,1:0:0:0:
256,192,202882,1,12,1:0:0:0:
256,192,203216,1,8,1:0:0:0:
256,192,203299,1,0,1:0:0:0:
256,192,203382,1,8,1:0:0:0:
256,192,203466,1,0,1:0:0:0:
256,192,203549,1,8,1:0:0:0:
256,192,203632,1,8,1:0:0:0:
256,192,203716,1,0,1:0:0:0:
256,192,203882,1,0,1:0:0:0:
256,192,204049,1,8,1:0:0:0:
256,192,204216,1,0,1:0:0:0:
256,192,204299,1,0,1:0:0:0:
256,192,204382,1,8,1:0:0:0:
256,192,204549,1,8,1:0:0:0:
256,192,204632,1,0,1:0:0:0:
384,256,204716,1,8,1:0:0:0:
256,192,204882,1,0,1:0:0:0:
256,192,205049,1,8,1:0:0:0:
256,192,205132,1,0,1:0:0:0:
256,192,205216,1,8,1:0:0:0:
256,192,205299,1,0,1:0:0:0:
256,192,205382,1,8,1:0:0:0:
256,192,205549,1,4,1:0:0:0:
256,192,205882,1,8,1:0:0:0:
256,192,205966,1,0,1:0:0:0:
256,192,206049,1,8,1:0:0:0:
256,192,206132,1,8,1:0:0:0:
256,192,206216,1,0,1:0:0:0:
256,192,206299,1,0,1:0:0:0:
256,192,206382,1,8,1:0:0:0:
256,192,206549,1,0,1:0:0:0:
256,192,206716,1,8,1:0:0:0:
256,192,206882,1,8,1:0:0:0:
256,192,206966,1,0,1:0:0:0:
256,192,207049,1,0,1:0:0:0:
256,192,207216,1,0,1:0:0:0:
384,256,207382,1,8,1:0:0:0:
256,192,207466,1,8,1:0:0:0:
256,192,207549,1,0,1:0:0:0:
256,192,207716,1,8,1:0:0:0:
256,192,207799,1,0,1:0:0:0:
256,192,207882,1,8,1:0:0:0:
256,192,207966,1,8,1:0:0:0:
256,192,208049,1,0,1:0:0:0:
256,192,208216,1,8,1:0:0:0:
256,192,208382,1,4,1:0:0:0:
256,192,208549,1,0,1:0:0:0:
256,192,208632,1,0,1:0:0:0:
256,192,208716,1,8,1:0:0:0:
256,192,208882,1,0,1:0:0:0:
256,192,209049,1,8,1:0:0:0:
256,192,209132,1,0,1:0:0:0:
256,192,209216,1,8,1:0:0:0:
256,192,209299,1,0,1:0:0:0:
256,192,209382,1,8,1:0:0:0:
256,192,209466,1,8,1:0:0:0:
256,192,209549,1,0,1:0:0:0:
256,192,209716,1,8,1:0:0:0:
256,192,209882,1,0,1:0:0:0:
256,192,210049,1,8,1:0:0:0:
256,192,210132,1,8,1:0:0:0:
256,192,210216,1,0,1:0:0:0:
256,192,210299,1,0,1:0:0:0:
256,192,210382,1,8,1:0:0:0:
256,192,210549,1,0,1:0:0:0:
256,192,210716,1,8,1:0:0:0:
256,192,210799,1,0,1:0:0:0:
256,192,210882,1,8,1:0:0:0:
256,192,211049,1,8,1:0:0:0:
256,192,211216,1,0,1:0:0:0:
256,192,211382,1,8,1:0:0:0:
256,192,211466,1,0,1:0:0:0:
256,192,211549,1,0,1:0:0:0:
256,192,211632,1,0,1:0:0:0:
256,192,211716,1,8,1:0:0:0:
256,192,211882,1,8,1:0:0:0:
256,192,211966,1,0,1:0:0:0:
256,192,212049,1,8,1:0:0:0:
256,192,212132,1,0,1:0:0:0:
256,192,212216,1,12,1:0:0:0:
256,192,212549,1,8,1:0:0:0:
256,192,212716,1,8,1:0:0:0:
256,192,212799,1,8,1:0:0:0:
256,192,212882,1,0,1:0:0:0:
256,192,212966,1,0,1:0:0:0:
256,192,213049,1,8,1:0:0:0:
256,192,213216,1,8,1:0:0:0:
256,192,213299,1,0,1:0:0:0:
256,192,213382,1,8,1:0:0:0:
256,192,213549,1,4,1:0:0:0:
256,192,213882,1,8,1:0:0:0:
256,192,213966,1,0,1:0:0:0:
256,192,214049,1,8,1:0:0:0:
256,192,214132,1,8,1:0:0:0:
256,192,214216,1,0,1:0:0:0:
256,192,214299,1,0,1:0:0:0:
256,192,214382,1,8,1:0:0:0:
256,192,214549,1,0,1:0:0:0:
256,192,214716,1,8,1:0:0:0:
256,192,214882,1,8,1:0:0:0:
256,192,214966,1,8,1:0:0:0:
256,192,215049,1,0,1:0:0:0:
256,192,215216,1,8,1:0:0:0:
256,192,215299,1,0,1:0:0:0:
384,256,215382,1,8,1:0:0:0:
256,192,215549,1,0,1:0:0:0:
256,192,215716,1,8,1:0:0:0:
256,192,215799,1,0,1:0:0:0:
256,192,215882,1,0,1:0:0:0:
256,192,215966,1,0,1:0:0:0:
256,192,216049,1,8,1:0:0:0:
256,192,216216,1,4,1:0:0:0:
256,192,216549,1,8,1:0:0:0:
256,192,216632,1,8,1:0:0:0:
256,192,216716,1,0,1:0:0:0:
256,192,216799,1,0,1:0:0:0:
256,192,216882,1,8,1:0:0:0:
256,192,216966,1,0,1:0:0:0:
256,192,217049,1,8,1:0:0:0:
256,192,217216,1,0,1:0:0:0:
256,192,217382,1,8,1:0:0:0:
256,192,217549,1,8,1:0:0:0:
256,192,217632,1,8,1:0:0:0:
256,192,217716,1,0,1:0:0:0:
256,192,217882,1,0,1:0:0:0:
384,256,218049,1,8,1:0:0:0:
256,192,218132,1,0,1:0:0:0:
256,192,218216,1,8,1:0:0:0:
256,192,218382,1,8,1:0:0:0:
256,192,218466,1,0,1:0:0:0:
256,192,218549,1,0,1:0:0:0:
256,192,218632,1,0,1:0:0:0:
256,192,218716,1,8,1:0:0:0:
256,192,218799,1,0,1:0:0:0:
256,192,218882,1,8,1:0:0:0:
256,192,219049,1,4,1:0:0:0:
256,192,219216,1,0,1:0:0:0:
256,192,219299,1,0,1:0:0:0:
256,192,219382,1,8,1:0:0:0:
256,192,219549,1,0,1:0:0:0:
256,192,219716,1,8,1:0:0:0:
256,192,219799,1,0,1:0:0:0:
256,192,219882,1,8,1:0:0:0:
256,192,219966,1,8,1:0:0:0:
256,192,220049,1,0,1:0:0:0:
256,192,220132,1,0,1:0:0:0:
256,192,220216,1,8,1:0:0:0:
256,192,220382,1,8,1:0:0:0:
256,192,220549,1,0,1:0:0:0:
256,192,220716,1,8,1:0:0:0:
256,192,220799,1,0,1:0:0:0:
256,192,220882,1,8,1:0:0:0:
256,192,220966,1,8,1:0:0:0:
256,192,221049,1,0,1:0:0:0:
256,192,221216,1,0,1:0:0:0:
256,192,221382,1,8,1:0:0:0:
256,192,221466,1,0,1:0:0:0:
256,192,221549,1,8,1:0:0:0:
256,192,221716,1,8,1:0:0:0:
256,192,221882,1,0,1:0:0:0:
256,192,222049,1,8,1:0:0:0:
256,192,222132,1,8,1:0:0:0:
256,192,222216,1,0,1:0:0:0:
256,192,222299,1,0,1:0:0:0:
256,192,222382,1,8,1:0:0:0:
256,192,222549,1,8,1:0:0:0:
256,192,222632,1,0,1:0:0:0:
256,192,222716,1,8,1:0:0:0:
256,192,222799,1,8,1:0:0:0:
256,192,222882,1,4,1:0:0:0:
256,192,223216,1,8,1:0:0:0:
256,192,223382,1,8,1:0:0:0:
256,192,223466,1,8,1:0:0:0:
256,192,223549,1,0,1:0:0:0:
256,192,223632,1,0,1:0:0:0:
256,192,223716,1,8,1:0:0:0:
256,192,223882,1,8,1:0:0:0:
256,192,224049,1,0,1:0:0:0:
256,192,224132,1,0,1:0:0:0:
256,192,224216,1,8,1:0:0:0:
256,192,224382,1,8,1:0:0:0:
256,192,224549,1,0,1:0:0:0:
256,192,224716,1,8,1:0:0:0:
256,192,224799,1,8,1:0:0:0:
256,192,224882,1,0,1:0:0:0:
256,192,224966,1,0,1:0:0:0:
256,192,225049,1,8,1:0:0:0:
256,192,225216,1,8,1:0:0:0:
256,192,225299,1,0,1:0:0:0:
256,192,225382,1,8,1:0:0:0:
256,192,225466,1,0,1:0:0:0:
256,192,225549,1,12,1:0:0:0:
256,192,225882,1,0,1:0:0:0:
256,192,226049,1,8,1:0:0:0:
256,192,226132,1,0,1:0:0:0:
256,192,226216,1,8,1:0:0:0:
256,192,226382,1,0,1:0:0:0:
256,192,226716,1,8,1:0:0:0:
256,192,227049,1,12,1:0:0:0:
256,192,227216,1,8,1:0:0:0:
256,192,227299,1,0,1:0:0:0:
256,192,227382,1,8,1:0:0:0:
256,192,227466,1,8,1:0:0:0:
256,192,227549,1,0,1:0:0:0:
256,192,227716,1,8,1:0:0:0:
256,192,227882,1,0,1:0:0:0:
256,192,228049,1,8,1:0:0:0:
256,192,228132,1,0,1:0:0:0:
256,192,228216,1,8,1:0:0:0:
256,192,228299,1,0,1:0:0:0:
256,192,228382,1,8,1:0:0:0:
256,192,228549,1,0,1:0:0:0:
256,192,228716,1,8,1:0:0:0:
256,192,228799,1,8,1:0:0:0:
256,192,228882,1,0,1:0:0:0:
256,192,229049,1,0,1:0:0:0:
256,192,229132,1,0,1:0:0:0:
256,192,229216,1,8,1:0:0:0:
256,192,229299,1,8,1:0:0:0:
256,192,229382,1,0,1:0:0:0:
256,192,229549,1,8,1:0:0:0:
256,192,229716,1,0,1:0:0:0:
256,192,229799,1,8,1:0:0:0:
256,192,229882,1,0,1:0:0:0:
256,192,229966,1,0,1:0:0:0:
256,192,230049,1,8,1:0:0:0:
256,192,230216,1,8,1:0:0:0:
256,192,230382,1,0,1:0:0:0:
256,192,230549,1,8,1:0:0:0:
256,192,230632,1,0,1:0:0:0:
256,192,230716,1,0,1:0:0:0:
256,192,230799,1,0,1:0:0:0:
256,192,230882,1,8,1:0:0:0:
256,192,231049,1,0,1:0:0:0:
256,192,231216,1,8,1:0:0:0:
256,192,231382,1,0,1:0:0:0:
256,192,231466,1,0,1:0:0:0:
256,192,231549,1,8,1:0:0:0:
256,192,231632,1,0,0:0:0:0:
256,192,231716,1,8,1:0:0:0:
256,192,231799,1,8,1:0:0:0:
256,192,231882,1,0,1:0:0:0:
256,192,232049,1,8,1:0:0:0:
256,192,232216,1,8,1:0:0:0:
256,192,232382,1,4,1:0:0:0:
256,192,232549,1,8,1:0:0:0:
256,192,232632,1,0,1:0:0:0:
256,192,232716,1,8,1:0:0:0:
256,192,232799,1,8,1:0:0:0:
256,192,232882,1,0,1:0:0:0:
256,192,233049,1,8,1:0:0:0:
256,192,233216,1,0,1:0:0:0:
256,192,233382,1,8,1:0:0:0:
256,192,233466,1,8,1:0:0:0:
256,192,233549,1,0,1:0:0:0:
256,192,233632,1,0,1:0:0:0:
256,192,233716,1,8,1:0:0:0:
256,192,233882,1,0,1:0:0:0:
256,192,234049,1,8,1:0:0:0:
256,192,234132,1,0,1:0:0:0:
256,192,234216,1,8,1:0:0:0:
256,192,234382,1,0,1:0:0:0:
256,192,234466,1,8,1:0:0:0:
256,192,234549,1,0,1:0:0:0:
256,192,234632,1,0,1:0:0:0:
256,192,234716,1,8,1:0:0:0:
256,192,234882,1,0,1:0:0:0:
256,192,235049,1,8,1:0:0:0:
256,192,235132,1,0,1:0:0:0:
256,192,235216,1,0,1:0:0:0:
256,192,235299,1,8,1:0:0:0:
256,192,235382,1,0,1:0:0:0:
256,192,235549,1,0,1:0:0:0:
256,192,235716,1,8,1:0:0:0:
256,192,235882,1,0,1:0:0:0:
256,192,235966,1,0,1:0:0:0:
256,192,236049,1,8,1:0:0:0:
256,192,236132,1,8,1:0:0:0:
256,192,236216,1,0,1:0:0:0:
256,192,236382,1,8,1:0:0:0:
256,192,236549,1,0,1:0:0:0:
256,192,236716,1,8,1:0:0:0:
256,192,236799,1,0,1:0:0:0:
256,192,236882,1,8,1:0:0:0:
256,192,236966,1,8,1:0:0:0:
256,192,237049,1,0,1:0:0:0:
256,192,237132,1,8,1:0:0:0:
256,192,237216,1,0,1:0:0:0:
256,192,237382,1,8,1:0:0:0:
256,192,237466,1,8,1:0:0:0:
256,192,237549,1,0,1:0:0:0:
256,192,237716,1,12,1:0:0:0:
256,192,237882,1,8,1:0:0:0:
256,192,237966,1,0,1:0:0:0:
256,192,238049,1,8,1:0:0:0:
256,192,238132,1,8,1:0:0:0:
256,192,238216,1,0,1:0:0:0:
256,192,238382,1,8,1:0:0:0:
256,192,238549,1,0,1:0:0:0:
256,192,238716,1,8,1:0:0:0:
256,192,238799,1,0,1:0:0:0:
256,192,238882,1,0,1:0:0:0:
256,192,238966,1,0,1:0:0:0:
256,192,239049,1,8,1:0:0:0:
256,192,239216,1,0,1:0:0:0:
256,192,239382,1,8,1:0:0:0:
256,192,239466,1,0,1:0:0:0:
256,192,239549,1,8,1:0:0:0:
256,192,239716,1,0,1:0:0:0:
256,192,239799,1,8,1:0:0:0:
256,192,239882,1,0,1:0:0:0:
256,192,239966,1,0,1:0:0:0:
256,192,240049,1,8,1:0:0:0:
256,192,240216,1,0,1:0:0:0:
256,192,240382,1,8,1:0:0:0:
256,192,240466,1,8,1:0:0:0:
256,192,240549,1,0,1:0:0:0:
256,192,240632,1,8,1:0:0:0:
256,192,240716,1,0,1:0:0:0:
256,192,240882,1,8,1:0:0:0:
256,192,241049,1,0,1:0:0:0:
256,192,241216,1,8,1:0:0:0:
256,192,241299,1,0,1:0:0:0:
256,192,241382,1,8,1:0:0:0:
256,192,241466,1,0,1:0:0:0:
256,192,241549,1,8,1:0:0:0:
256,192,241716,1,0,1:0:0:0:
256,192,241882,1,8,1:0:0:0:
256,192,242049,1,0,1:0:0:0:
256,192,242132,1,0,1:0:0:0:
256,192,242216,1,8,1:0:0:0:
256,192,242299,1,0,0:0:0:0:
256,192,242382,1,8,1:0:0:0:
256,192,242466,1,8,1:0:0:0:
256,192,242549,1,0,1:0:0:0:
256,192,242716,1,8,1:0:0:0:
256,192,242882,1,8,1:0:0:0:
256,192,243049,1,4,1:0:0:0:
256,192,243216,1,8,1:0:0:0:
256,192,243299,1,0,1:0:0:0:
256,192,243382,1,8,1:0:0:0:
256,192,243466,1,8,1:0:0:0:
256,192,243549,1,0,1:0:0:0:
256,192,243716,1,8,1:0:0:0:
256,192,243882,1,0,1:0:0:0:
256,192,244049,1,8,1:0:0:0:
256,192,244132,1,8,1:0:0:0:
256,192,244216,1,0,1:0:0:0:
256,192,244299,1,0,1:0:0:0:
256,192,244382,1,8,1:0:0:0:
256,192,244549,1,0,1:0:0:0:
256,192,244716,1,8,1:0:0:0:
256,192,244799,1,0,1:0:0:0:
256,192,244882,1,8,1:0:0:0:
256,192,245049,1,0,1:0:0:0:
256,192,245132,1,8,1:0:0:0:
256,192,245216,1,0,1:0:0:0:
256,192,245299,1,0,1:0:0:0:
256,192,245382,1,8,1:0:0:0:
256,192,245549,1,0,1:0:0:0:
256,192,245716,1,8,1:0:0:0:
256,192,245799,1,8,1:0:0:0:
256,192,245882,1,0,1:0:0:0:
256,192,245966,1,8,1:0:0:0:
256,192,246049,1,0,1:0:0:0:
256,192,246216,1,0,1:0:0:0:
256,192,246382,1,8,1:0:0:0:
256,192,246549,1,0,1:0:0:0:
256,192,246632,1,0,1:0:0:0:
256,192,246716,1,8,1:0:0:0:
256,192,246799,1,0,1:0:0:0:
256,192,246882,1,8,1:0:0:0:
256,192,247049,1,4,1:0:0:0:
256,192,247216,1,8,1:0:0:0:
256,192,247382,1,0,1:0:0:0:
256,192,247466,1,0,1:0:0:0:
256,192,247549,1,8,1:0:0:0:
256,192,247632,1,0,0:0:0:0:
256,192,247716,1,8,1:0:0:0:
256,192,247799,1,0,1:0:0:0:
256,192,247882,1,8,1:0:0:0:
256,192,248049,1,0,1:0:0:0:
256,192,248216,1,0,1:0:0:0:
256,192,248382,1,12,1:0:0:0:
