osu file format v14

[General]
AudioFilename: audio.ogg
AudioLeadIn: 0
PreviewTime: 65362
Countdown: 0
SampleSet: Normal
StackLeniency: 0.7
Mode: 1
LetterboxInBreaks: 0
WidescreenStoryboard: 1

[Editor]
Bookmarks: 1314,8933,15600,20362,27980,35600,43219,50838,58457,66076,81314,96552,104171,111790,127028,142266,149885,157504,176551,187980,203218,218456,175469
DistanceSpacing: 0.2
BeatDivisor: 4
GridSize: 32
TimelineZoom: 1.799998

[Metadata]
Title:Reason For Existence
TitleUnicode:生きるよすが
Artist:Tsukuyomi
ArtistUnicode:月詠み
Creator:gaston_2199
Version:Oni
Source:
Tags:月が満ちる Tsuki ga Michiru Sing The Moon ツクヨミ 2943 Ikiru Yosuga ユリイカノン ユリイ・カノン yurry canon cannon yurrycanon Yue エポック epoch とうかさ toukasa なおk naok japanese rock j-rock jrock j-pop jpop pop
BeatmapID:4035586
BeatmapSetID:1939697

[Difficulty]
HPDrainRate:5
CircleSize:2
OverallDifficulty:6
ApproachRate:10
SliderMultiplier:1.4
SliderTickRate:1

[Events]
//Background and Video events
0,0,"BG.jpg",0,60
//Break Periods
2,98655,103243
//Storyboard Layer 0 (Background)
//Storyboard Layer 1 (Fail)
//Storyboard Layer 2 (Pass)
//Storyboard Layer 3 (Foreground)
//Storyboard Layer 4 (Overlay)
//Storyboard Sound Samples

[TimingPoints]
1314,476.190476190476,4,1,0,50,1,0
1314,-90.9090909090909,4,1,0,50,0,0
8928,-83.3333333333333,4,1,0,60,0,0
15595,-66.6666666666667,4,1,0,80,0,0
16785,-76.9230769230769,4,1,0,70,0,0
18452,-55.5555555555556,4,1,0,80,0,0
20357,-66.6666666666667,4,1,0,80,0,0
36071,-90.9090909090909,4,1,0,60,0,0
43214,-83.3333333333333,4,1,0,60,0,0
48928,-71.4285714285714,4,1,0,80,0,0
51190,-83.3333333333333,4,1,0,80,0,0
62501,-85.1054324517513,4,1,0,80,0,0
62739,-86.954537155377,4,1,0,80,0,0
62977,-88.8857782754759,4,1,0,80,0,0
63215,-90.9047528154228,4,1,0,80,0,0
63453,-93.017578125,4,1,0,80,0,0
63691,-95.2309538092382,4,1,0,80,0,0
63930,-97.5622247260063,4,1,0,80,0,0
64168,-100,4,1,0,80,0,0
66075,238.095238095238,4,1,0,90,1,1
66075,-100,4,1,0,90,0,1
73694,-111.111111111111,4,1,0,90,0,0
74170,-100,4,1,0,90,0,1
80836,-100,4,1,0,90,0,0
81313,-100,4,1,0,90,0,1
88455,-100,4,1,0,90,0,0
88932,-100,4,1,0,90,0,1
91905,-102.272727272727,4,1,0,90,0,1
92024,-103.448275862069,4,1,0,90,0,1
92143,-104.651162790698,4,1,0,90,0,1
92262,-105.882352941176,4,1,0,90,0,1
92381,-107.142857142857,4,1,0,90,0,1
92500,-108.433734939759,4,1,0,90,0,1
92619,-109.756097560976,4,1,0,90,0,1
92734,-111.111111111111,4,1,0,90,0,1
92974,-125,4,1,0,90,0,1
94877,-117.647058823529,4,1,0,90,0,1
95115,-111.111111111111,4,1,0,90,0,1
95353,-105.263157894737,4,1,0,90,0,1
95591,-100,4,1,0,90,0,1
96551,476.190476190476,4,1,0,80,1,0
96551,-50,4,1,0,80,0,0
98450,-100,4,1,0,60,0,0
104165,-76.9230769230769,4,1,0,80,0,0
112022,-83.3333333333333,4,1,0,80,0,0
140360,-66.6666666666667,4,1,0,80,0,0
140833,-83.3333333333333,4,1,0,80,0,0
141071,-80.0022393908857,4,1,0,80,0,0
141309,-76.92721791559,4,1,0,80,0,0
141547,-74.0798341109383,4,1,0,80,0,0
141786,-71.4250012495627,4,1,0,80,0,0
142024,-68.9638530958931,4,1,0,80,0,0
142143,-67.7958060537053,4,1,0,80,0,0
142260,-66.6666666666667,4,1,0,80,0,0
149879,-62.5,4,1,0,80,0,0
157741,-83.3333333333333,4,1,0,80,0,0
170831,-66.6666666666667,4,1,0,80,0,0
172741,238.095238095238,4,1,0,80,1,0
172741,-111.111111111111,4,1,0,80,0,0
172855,-111.111111111111,4,1,0,70,0,0
173569,-111.111111111111,4,1,0,80,0,0
174642,-111.111111111111,4,1,0,70,0,0
175474,-111.111111111111,4,1,0,80,0,0
175950,-111.111111111111,4,1,0,70,0,0
176550,-100,4,1,0,90,0,1
180360,-111.111111111111,4,1,0,90,0,0
180836,-100,4,1,0,90,0,1
187502,-100,4,1,0,90,0,0
187979,-100,4,1,0,90,0,1
195598,-111.111111111111,4,1,0,90,0,0
196074,-100,4,1,0,90,0,1
202741,-100,4,1,0,90,0,0
203217,-100,4,1,0,90,0,1
210360,-100,4,1,0,90,0,0
210836,-100,4,1,0,90,0,1
213805,-102.272727272727,4,1,0,90,0,1
213924,-103.448275862069,4,1,0,90,0,1
214043,-104.651162790698,4,1,0,90,0,1
214162,-105.882352941176,4,1,0,90,0,1
214281,-107.142857142857,4,1,0,90,0,1
214400,-108.433734939759,4,1,0,90,0,1
214519,-109.756097560976,4,1,0,90,0,1
214634,-111.111111111111,4,1,0,90,0,1
214874,-125,4,1,0,90,0,1
216777,-117.647058823529,4,1,0,90,0,1
217015,-111.111111111111,4,1,0,90,0,1
217253,-105.263157894737,4,1,0,90,0,1
217491,-100,4,1,0,90,0,1
218455,476.190476190476,4,1,0,80,1,0
218455,-50,4,1,0,80,0,0
218688,-66.6666666666667,4,1,0,80,0,0

[HitObjects]
256,192,1314,5,0,0:0:0:0:
256,192,1790,1,8,0:0:0:0:
256,192,2028,1,8,0:0:0:0:
256,192,2147,1,0,0:0:0:0:
256,192,2504,1,8,0:0:0:0:
256,192,2623,1,0,0:0:0:0:
256,192,2742,1,8,0:0:0:0:
256,192,2980,1,8,0:0:0:0:
256,192,3218,1,0,0:0:0:0:
256,192,3694,1,8,0:0:0:0:
256,192,3933,1,0,0:0:0:0:
256,192,4052,1,8,0:0:0:0:
256,192,4409,1,0,0:0:0:0:
256,192,4528,1,8,0:0:0:0:
256,192,4647,1,0,0:0:0:0:
256,192,4885,1,8,0:0:0:0:
256,192,5123,1,0,0:0:0:0:
256,192,5599,1,8,0:0:0:0:
256,192,5837,1,8,0:0:0:0:
256,192,5956,1,0,0:0:0:0:
256,192,6313,1,0,0:0:0:0:
256,192,6433,1,0,0:0:0:0:
256,192,6552,1,8,0:0:0:0:
256,192,6790,1,8,0:0:0:0:
256,192,7028,1,0,0:0:0:0:
256,192,7504,1,8,0:0:0:0:
256,192,7742,1,0,0:0:0:0:
256,192,7861,1,8,0:0:0:0:
256,192,8218,1,8,0:0:0:0:
256,192,8337,1,8,0:0:0:0:
256,192,8456,1,0,0:0:0:0:
256,192,8694,1,8,0:0:0:0:
256,192,8933,1,0,0:0:0:0:
256,192,9409,1,8,0:0:0:0:
256,192,9647,1,8,0:0:0:0:
256,192,9766,1,8,0:0:0:0:
256,192,9885,1,0,0:0:0:0:
256,192,10123,1,0,0:0:0:0:
256,192,10361,1,8,0:0:0:0:
256,192,10599,1,8,0:0:0:0:
256,192,10837,1,0,0:0:0:0:
256,192,11313,1,8,0:0:0:0:
256,192,11552,1,0,0:0:0:0:
256,192,11671,1,8,0:0:0:0:
256,160,11790,1,0,0:0:0:0:
256,192,12028,1,0,0:0:0:0:
256,192,12266,1,8,0:0:0:0:
256,192,12504,1,8,0:0:0:0:
256,192,12742,1,0,0:0:0:0:
256,192,13218,1,8,0:0:0:0:
256,192,13456,1,8,0:0:0:0:
256,192,13575,1,0,0:0:0:0:
288,160,13694,1,0,0:0:0:0:
256,192,13933,1,0,0:0:0:0:
256,192,14171,1,8,0:0:0:0:
256,192,14409,1,8,0:0:0:0:
256,192,15599,1,4,0:0:0:0:
256,192,15837,1,8,0:0:0:0:
256,192,16075,1,8,0:0:0:0:
256,192,16194,1,8,0:0:0:0:
256,192,16313,1,8,0:0:0:0:
256,192,16433,1,8,0:0:0:0:
256,192,16552,1,4,0:0:0:0:
256,192,16790,1,8,0:0:0:0:
256,192,16909,1,0,0:0:0:0:
256,192,17147,1,0,0:0:0:0:
256,192,17266,1,8,0:0:0:0:
256,192,17385,1,0,0:0:0:0:
256,192,17623,1,0,0:0:0:0:
256,192,17861,1,8,0:0:0:0:
256,192,17980,1,0,0:0:0:0:
256,192,18099,1,0,0:0:0:0:
256,192,18218,1,8,0:0:0:0:
256,192,18456,1,8,0:0:0:0:
256,192,18575,1,8,0:0:0:0:
256,192,18813,1,8,0:0:0:0:
256,192,18933,1,8,0:0:0:0:
256,192,19171,1,8,0:0:0:0:
224,192,19290,1,8,0:0:0:0:
224,192,19528,1,8,0:0:0:0:
224,192,19647,1,8,0:0:0:0:
224,192,19885,1,0,0:0:0:0:
256,192,20361,1,4,0:0:0:0:
256,192,20599,1,0,0:0:0:0:
256,192,20718,1,0,0:0:0:0:
256,192,20837,1,8,0:0:0:0:
256,192,21075,1,8,0:0:0:0:
256,192,21194,1,0,0:0:0:0:
256,192,21433,1,0,0:0:0:0:
256,192,21552,1,8,0:0:0:0:
256,192,21790,1,0,0:0:0:0:
256,192,21909,1,0,0:0:0:0:
256,192,22028,1,8,0:0:0:0:
256,192,22147,1,8,0:0:0:0:
255,191,22266,1,0,0:0:0:0:
256,192,22504,1,0,0:0:0:0:
256,192,22623,1,8,0:0:0:0:
256,192,22742,1,8,0:0:0:0:
248,183,22861,1,0,0:0:0:0:
256,192,22980,1,8,0:0:0:0:
256,198,23099,1,0,0:0:0:0:
256,192,23337,1,0,0:0:0:0:
256,192,23456,1,8,0:0:0:0:
256,192,23694,1,8,0:0:0:0:
256,192,23813,1,0,0:0:0:0:
256,192,23933,1,8,0:0:0:0:
256,192,24052,1,8,0:0:0:0:
256,192,24171,1,4,0:0:0:0:
256,192,24409,1,0,0:0:0:0:
256,192,24528,1,0,0:0:0:0:
256,192,24647,1,8,0:0:0:0:
256,192,24885,1,8,0:0:0:0:
256,192,25004,1,0,0:0:0:0:
256,192,25242,1,0,0:0:0:0:
256,192,25361,1,8,0:0:0:0:
256,192,25599,1,8,0:0:0:0:
256,192,25718,1,0,0:0:0:0:
256,192,25837,1,8,0:0:0:0:
256,192,25956,1,8,0:0:0:0:
256,192,26075,1,0,0:0:0:0:
256,192,26194,1,12,0:0:0:0:
256,192,26433,1,0,0:0:0:0:
256,192,26552,1,8,0:0:0:0:
256,192,26790,1,8,0:0:0:0:
256,192,26909,1,0,0:0:0:0:
256,192,27147,1,0,0:0:0:0:
256,192,27266,1,8,0:0:0:0:
256,192,27504,1,0,0:0:0:0:
250,185,27623,1,0,0:0:0:0:
256,192,27742,1,0,0:0:0:0:
256,192,27980,1,4,0:0:0:0:
256,192,28218,1,0,0:0:0:0:
256,192,28337,1,0,0:0:0:0:
256,192,28456,1,8,0:0:0:0:
256,192,28694,1,8,0:0:0:0:
256,192,28813,1,0,0:0:0:0:
256,192,29052,1,0,0:0:0:0:
256,192,29171,1,8,0:0:0:0:
256,192,29409,1,0,0:0:0:0:
256,192,29528,1,0,0:0:0:0:
256,192,29647,1,8,0:0:0:0:
256,192,29766,1,8,0:0:0:0:
255,191,29885,1,0,0:0:0:0:
256,192,30123,1,0,0:0:0:0:
256,192,30242,1,8,0:0:0:0:
256,192,30361,1,8,0:0:0:0:
248,183,30480,1,0,0:0:0:0:
256,192,30599,1,8,0:0:0:0:
256,198,30718,1,0,0:0:0:0:
256,192,30956,1,0,0:0:0:0:
256,192,31075,1,8,0:0:0:0:
256,192,31313,1,8,0:0:0:0:
256,192,31433,1,0,0:0:0:0:
256,192,31552,1,8,0:0:0:0:
256,192,31671,1,8,0:0:0:0:
256,192,31790,1,4,0:0:0:0:
256,192,32028,1,0,0:0:0:0:
256,192,32147,1,0,0:0:0:0:
256,192,32266,1,8,0:0:0:0:
256,192,32504,1,8,0:0:0:0:
256,192,32623,1,0,0:0:0:0:
256,192,32861,1,0,0:0:0:0:
256,192,32980,1,8,0:0:0:0:
256,192,33218,1,8,0:0:0:0:
256,192,33337,1,0,0:0:0:0:
256,192,33456,1,8,0:0:0:0:
256,192,33575,1,8,0:0:0:0:
256,192,33694,1,0,0:0:0:0:
256,192,33813,1,12,0:0:0:0:
256,192,34052,1,0,0:0:0:0:
256,192,34171,1,8,0:0:0:0:
256,192,34409,1,8,0:0:0:0:
256,192,34528,1,0,0:0:0:0:
256,192,34766,1,0,0:0:0:0:
256,192,34885,1,8,0:0:0:0:
256,192,35123,1,0,0:0:0:0:
256,192,35242,1,0,0:0:0:0:
256,192,35361,1,0,0:0:0:0:
256,192,35599,1,4,0:0:0:0:
256,192,36075,5,8,0:0:0:0:
256,192,36552,1,0,0:0:0:0:
256,192,37028,1,0,0:0:0:0:
256,192,37266,1,8,0:0:0:0:
256,192,37504,1,0,0:0:0:0:
256,192,37980,1,0,0:0:0:0:
256,192,38456,1,8,0:0:0:0:
256,192,38933,1,8,0:0:0:0:
256,192,39171,1,0,0:0:0:0:
256,192,39409,1,8,0:0:0:0:
256,192,39885,1,8,0:0:0:0:
256,192,40361,1,0,0:0:0:0:
256,192,40837,1,8,0:0:0:0:
256,160,41075,1,0,0:0:0:0:
256,192,41313,1,0,0:0:0:0:
256,192,41790,1,8,0:0:0:0:
256,192,42266,1,0,0:0:0:0:
256,192,42742,1,8,0:0:0:0:
256,192,42980,1,8,0:0:0:0:
256,192,43218,1,4,0:0:0:0:
256,192,43694,1,8,0:0:0:0:
256,192,44052,1,8,0:0:0:0:
256,192,44171,1,0,0:0:0:0:
256,192,44409,1,0,0:0:0:0:
256,192,44647,1,8,0:0:0:0:
256,192,44885,1,8,0:0:0:0:
256,192,45123,1,0,0:0:0:0:
256,192,45599,1,8,0:0:0:0:
256,192,45837,1,0,0:0:0:0:
256,192,45956,1,8,0:0:0:0:
256,192,46313,1,0,0:0:0:0:
256,192,46552,1,8,0:0:0:0:
256,192,46790,1,8,0:0:0:0:
256,192,47028,1,0,0:0:0:0:
256,192,47504,1,8,0:0:0:0:
256,160,47623,1,0,0:0:0:0:
256,192,47861,1,8,0:0:0:0:
256,160,48218,1,0,0:0:0:0:
256,160,48456,1,8,0:0:0:0:
256,160,48694,1,8,0:0:0:0:
256,160,48933,1,0,0:0:0:0:
256,160,49052,1,8,0:0:0:0:
256,160,49171,1,0,0:0:0:0:
256,160,49290,1,0,0:0:0:0:
256,160,49409,1,8,0:0:0:0:
256,160,49647,1,8,0:0:0:0:
256,160,49766,1,0,0:0:0:0:
256,160,50004,1,8,0:0:0:0:
256,160,50123,1,0,0:0:0:0:
256,160,50242,1,0,0:0:0:0:
256,160,50361,1,8,0:0:0:0:
256,160,50480,1,8,0:0:0:0:
256,160,50599,1,0,0:0:0:0:
256,160,50837,1,4,0:0:0:0:
256,192,51194,1,0,0:0:0:0:
256,160,51313,1,8,0:0:0:0:
256,160,51552,1,0,0:0:0:0:
256,160,51790,1,8,0:0:0:0:
256,160,52028,1,0,0:0:0:0:
256,152,52147,1,8,0:0:0:0:
256,160,52266,1,8,0:0:0:0:
256,160,52504,1,4,0:0:0:0:
256,160,52861,1,8,0:0:0:0:
256,160,52980,1,0,0:0:0:0:
256,160,53218,1,8,0:0:0:0:
256,160,53456,1,0,0:0:0:0:
256,160,53575,1,8,0:0:0:0:
256,160,53694,1,0,0:0:0:0:
256,160,53933,1,0,0:0:0:0:
256,160,54171,1,8,0:0:0:0:
256,160,54409,1,8,0:0:0:0:
256,160,54528,1,8,0:0:0:0:
256,160,54647,1,4,0:0:0:0:
256,160,55004,1,0,0:0:0:0:
256,160,55123,1,8,0:0:0:0:
256,160,55361,1,8,0:0:0:0:
256,160,55599,1,0,0:0:0:0:
256,160,55837,1,0,0:0:0:0:
256,160,55956,1,0,0:0:0:0:
256,160,56075,1,8,0:0:0:0:
256,160,56313,1,12,0:0:0:0:
256,160,56671,1,8,0:0:0:0:
256,160,56790,1,0,0:0:0:0:
256,160,57028,1,8,0:0:0:0:
256,160,57266,1,0,0:0:0:0:
259,166,57385,1,0,0:0:0:0:
256,160,57504,1,8,0:0:0:0:
256,160,57742,1,0,0:0:0:0:
256,160,57980,1,8,0:0:0:0:
256,160,58218,1,8,0:0:0:0:
256,160,58456,1,4,0:0:0:0:
256,192,58813,1,0,0:0:0:0:
256,160,58933,1,8,0:0:0:0:
256,160,59171,1,0,0:0:0:0:
256,160,59409,1,8,0:0:0:0:
256,160,59647,1,0,0:0:0:0:
256,160,59766,1,8,0:0:0:0:
256,160,59885,1,8,0:0:0:0:
256,160,60123,1,0,0:0:0:0:
256,128,60361,1,12,0:0:0:0:
256,160,60599,1,0,0:0:0:0:
256,160,60837,1,12,0:0:0:0:
256,160,61075,1,0,0:0:0:0:
256,160,61313,1,12,0:0:0:0:
256,160,61552,1,0,0:0:0:0:
256,160,61790,1,8,0:0:0:0:
256,128,61909,1,8,0:0:0:0:
256,160,62028,1,0,0:0:0:0:
256,160,62266,1,12,0:0:0:0:
256,160,62742,1,0,0:0:0:0:
256,160,62980,1,0,0:0:0:0:
256,160,63218,1,8,0:0:0:0:
256,160,63456,1,0,0:0:0:0:
256,160,63694,1,8,0:0:0:0:
256,160,63933,1,8,0:0:0:0:
256,128,64171,1,4,0:0:0:0:
256,160,64528,1,12,0:0:0:0:
256,160,64885,1,4,0:0:0:0:
256,160,66075,1,4,0:0:0:0:
256,160,66313,1,8,0:0:0:0:
256,160,66432,1,0,0:0:0:0:
256,160,66551,1,8,0:0:0:0:
256,128,66789,1,8,0:0:0:0:
256,160,66908,1,8,0:0:0:0:
256,160,66967,1,8,0:0:0:0:
256,160,67027,1,0,0:0:0:0:
245,148,67146,1,0,0:0:0:0:
256,160,67265,1,8,0:0:0:0:
256,160,67503,1,0,0:0:0:0:
256,160,67622,1,0,0:0:0:0:
256,160,67741,1,8,0:0:0:0:
256,128,67979,1,0,0:0:0:0:
256,128,68217,1,8,0:0:0:0:
244,133,68336,1,0,0:0:0:0:
256,128,68455,1,8,0:0:0:0:
245,122,68515,1,8,0:0:0:0:
256,128,68575,1,0,0:0:0:0:
256,128,68694,1,8,0:0:0:0:
256,128,68813,1,0,0:0:0:0:
256,160,69051,1,0,0:0:0:0:
256,160,69170,1,8,0:0:0:0:
224,96,69408,1,8,0:0:0:0:
256,128,69527,1,0,0:0:0:0:
256,128,69646,1,8,0:0:0:0:
256,160,69884,1,0,0:0:0:0:
256,160,70122,1,8,0:0:0:0:
256,160,70241,1,8,0:0:0:0:
256,160,70360,1,0,0:0:0:0:
256,160,70479,1,0,0:0:0:0:
256,128,70598,1,8,0:0:0:0:
256,160,70717,1,0,0:0:0:0:
256,160,70955,1,0,0:0:0:0:
256,160,71075,1,8,0:0:0:0:
256,160,71194,1,0,0:0:0:0:
256,160,71313,1,8,0:0:0:0:
256,128,71372,1,0,0:0:0:0:
256,160,71432,1,0,0:0:0:0:
256,160,71551,1,8,0:0:0:0:
256,128,71670,1,0,0:0:0:0:
256,128,71789,1,12,0:0:0:0:
256,128,72027,1,8,0:0:0:0:
249,147,72146,1,8,0:0:0:0:
256,128,72265,1,8,0:0:0:0:
256,128,72384,1,8,0:0:0:0:
256,128,72503,1,8,0:0:0:0:
256,128,72622,1,4,0:0:0:0:
256,160,72979,1,8,0:0:0:0:
256,160,73098,1,8,0:0:0:0:
224,96,73217,1,4,0:0:0:0:
256,128,73455,1,8,0:0:0:0:
256,128,73694,1,0,0:0:0:0:
256,128,73813,1,0,0:0:0:0:
256,128,73932,1,0,0:0:0:0:
256,160,74051,1,0,0:0:0:0:
256,160,74170,1,12,0:0:0:0:
256,128,74408,1,8,0:0:0:0:
256,160,74527,1,0,0:0:0:0:
256,160,74586,1,0,0:0:0:0:
256,160,74646,1,8,0:0:0:0:
256,160,74765,1,0,0:0:0:0:
256,160,74884,1,8,0:0:0:0:
256,160,75122,1,0,0:0:0:0:
256,160,75241,1,0,0:0:0:0:
269,141,75360,1,8,0:0:0:0:
256,128,75598,1,0,0:0:0:0:
256,128,75717,1,0,0:0:0:0:
256,128,75836,1,8,0:0:0:0:
256,128,75955,1,0,0:0:0:0:
256,128,76075,1,8,0:0:0:0:
256,128,76134,1,0,0:0:0:0:
256,128,76194,1,0,0:0:0:0:
256,128,76313,1,8,0:0:0:0:
256,128,76432,1,0,0:0:0:0:
256,160,76670,1,0,0:0:0:0:
256,160,76789,1,8,0:0:0:0:
224,96,77027,1,8,0:0:0:0:
256,128,77086,1,8,0:0:0:0:
256,128,77146,1,0,0:0:0:0:
256,128,77265,1,8,0:0:0:0:
256,128,77384,1,0,0:0:0:0:
256,160,77503,1,12,0:0:0:0:
256,160,77741,1,8,0:0:0:0:
256,160,77860,1,0,0:0:0:0:
256,160,77979,1,0,0:0:0:0:
256,160,78098,1,0,0:0:0:0:
256,128,78217,1,8,0:0:0:0:
256,160,78336,1,0,0:0:0:0:
256,160,78575,1,0,0:0:0:0:
256,160,78694,1,8,0:0:0:0:
256,160,78813,1,0,0:0:0:0:
256,160,78932,1,8,0:0:0:0:
256,160,79051,1,0,0:0:0:0:
256,128,79110,1,0,0:0:0:0:
256,160,79170,1,8,0:0:0:0:
256,128,79289,1,0,0:0:0:0:
256,128,79408,1,12,0:0:0:0:
256,128,79765,1,0,0:0:0:0:
256,128,79884,1,8,0:0:0:0:
256,128,80122,1,8,0:0:0:0:
256,128,80241,1,4,0:0:0:0:
256,160,80598,1,8,0:0:0:0:
256,160,80717,1,8,0:0:0:0:
224,96,80836,1,0,0:0:0:0:
256,128,80955,1,0,0:0:0:0:
256,128,81075,1,8,0:0:0:0:
256,128,81313,1,4,0:0:0:0:
256,128,81551,5,8,0:0:0:0:
256,160,81789,1,8,0:0:0:0:
256,128,81908,1,0,0:0:0:0:
256,128,82027,1,8,0:0:0:0:
256,128,82146,1,8,0:0:0:0:
256,128,82205,1,8,0:0:0:0:
256,128,82265,1,8,0:0:0:0:
256,128,82384,1,0,0:0:0:0:
256,128,82503,1,8,0:0:0:0:
256,128,82741,1,8,0:0:0:0:
256,128,82860,1,0,0:0:0:0:
256,128,82979,1,8,0:0:0:0:
256,128,83098,1,0,0:0:0:0:
256,96,83217,1,0,0:0:0:0:
224,160,83455,1,8,0:0:0:0:
224,160,83694,1,0,0:0:0:0:
224,160,83813,1,0,0:0:0:0:
224,96,83932,1,8,0:0:0:0:
224,96,84051,1,0,0:0:0:0:
224,96,84110,1,0,0:0:0:0:
224,96,84170,1,0,0:0:0:0:
224,128,84289,1,0,0:0:0:0:
224,128,84408,1,8,0:0:0:0:
224,96,84646,1,8,0:0:0:0:
224,96,84765,1,0,0:0:0:0:
224,96,84825,1,0,0:0:0:0:
224,96,84884,1,8,0:0:0:0:
224,96,85003,1,0,0:0:0:0:
192,64,85122,1,12,0:0:0:0:
256,128,85360,1,8,0:0:0:0:
256,160,85598,1,0,0:0:0:0:
256,128,85717,1,0,0:0:0:0:
256,128,85836,1,8,0:0:0:0:
256,128,85955,1,0,0:0:0:0:
256,128,86015,1,0,0:0:0:0:
256,128,86075,1,0,0:0:0:0:
256,128,86194,1,0,0:0:0:0:
256,128,86313,1,8,0:0:0:0:
256,128,86551,1,8,0:0:0:0:
256,128,86670,1,0,0:0:0:0:
256,128,86789,1,8,0:0:0:0:
224,160,86848,1,0,0:0:0:0:
256,128,86908,1,0,0:0:0:0:
256,96,87027,1,12,0:0:0:0:
224,160,87265,1,8,0:0:0:0:
224,160,87384,1,0,0:0:0:0:
224,160,87503,1,8,0:0:0:0:
224,160,87622,1,0,0:0:0:0:
224,96,87741,1,0,0:0:0:0:
224,96,87860,1,12,0:0:0:0:
224,128,88217,1,8,0:0:0:0:
224,96,88336,1,0,0:0:0:0:
224,96,88455,1,8,0:0:0:0:
224,96,88574,1,8,0:0:0:0:
224,96,88694,1,8,0:0:0:0:
224,96,88813,1,8,0:0:0:0:
256,128,88932,1,4,0:0:0:0:
256,128,89170,1,8,0:0:0:0:
256,160,89408,1,0,0:0:0:0:
256,128,89527,1,0,0:0:0:0:
256,128,89646,1,8,0:0:0:0:
256,128,89765,1,8,0:0:0:0:
256,128,89824,1,8,0:0:0:0:
256,128,89884,1,8,0:0:0:0:
256,128,90003,1,0,0:0:0:0:
256,128,90122,1,8,0:0:0:0:
256,128,90360,1,0,0:0:0:0:
256,128,90479,1,0,0:0:0:0:
256,128,90598,1,8,0:0:0:0:
256,128,90717,1,0,0:0:0:0:
256,96,90836,1,12,0:0:0:0:
224,160,91074,1,8,0:0:0:0:
224,160,91313,1,0,0:0:0:0:
224,160,91432,1,0,0:0:0:0:
224,96,91551,1,8,0:0:0:0:
224,96,91670,1,4,0:0:0:0:
224,128,92027,1,0,0:0:0:0:
224,96,92146,1,0,0:0:0:0:
224,96,92265,1,8,0:0:0:0:
224,96,92384,1,0,0:0:0:0:
224,96,92503,1,0,0:0:0:0:
192,64,92741,1,12,0:0:0:0:
256,160,93098,1,0,0:0:0:0:
256,160,93217,1,8,0:0:0:0:
256,128,93455,1,8,0:0:0:0:
256,128,93574,1,8,0:0:0:0:
256,128,93932,1,0,0:0:0:0:
256,128,94170,1,8,0:0:0:0:
256,128,94408,1,8,0:0:0:0:
256,128,94527,1,8,0:0:0:0:
256,96,94646,1,0,0:0:0:0:
256,192,94884,1,0,0:0:0:0:
256,128,95122,1,8,0:0:0:0:
256,128,95360,1,8,0:0:0:0:
256,128,95598,1,4,0:0:0:0:
256,192,96074,1,12,0:0:0:0:
256,192,96551,1,4,0:0:0:0:
256,192,96670,12,8,98455,0:0:0:0:
256,192,103693,5,0,0:0:0:0:
256,192,104170,1,12,0:0:0:0:
256,192,104408,1,0,0:0:0:0:
256,192,104527,1,0,0:0:0:0:
256,192,104646,1,8,0:0:0:0:
256,192,104884,1,8,0:0:0:0:
256,192,105003,1,0,0:0:0:0:
256,192,105241,1,0,0:0:0:0:
256,192,105360,1,8,0:0:0:0:
256,192,105598,1,8,0:0:0:0:
256,192,105717,1,0,0:0:0:0:
256,192,105836,1,8,0:0:0:0:
256,192,105955,1,8,0:0:0:0:
256,192,106074,1,0,0:0:0:0:
256,192,106312,1,8,0:0:0:0:
256,192,106431,1,0,0:0:0:0:
256,192,106551,1,8,0:0:0:0:
256,192,106789,1,8,0:0:0:0:
256,192,106908,1,0,0:0:0:0:
256,192,107146,1,0,0:0:0:0:
256,192,107265,1,8,0:0:0:0:
256,192,107503,1,8,0:0:0:0:
256,192,107622,1,0,0:0:0:0:
256,192,107741,1,8,0:0:0:0:
256,192,107860,1,8,0:0:0:0:
256,192,107979,1,0,0:0:0:0:
256,192,108217,1,0,0:0:0:0:
256,192,108336,1,0,0:0:0:0:
256,192,108455,1,8,0:0:0:0:
256,192,108693,1,8,0:0:0:0:
256,192,108812,1,0,0:0:0:0:
256,192,109051,1,0,0:0:0:0:
256,192,109170,1,8,0:0:0:0:
256,192,109408,1,8,0:0:0:0:
256,192,109527,1,0,0:0:0:0:
256,192,109646,1,8,0:0:0:0:
256,192,109765,1,8,0:0:0:0:
256,192,109884,1,4,0:0:0:0:
256,192,110241,1,0,0:0:0:0:
256,192,110360,1,8,0:0:0:0:
256,192,110598,1,8,0:0:0:0:
256,192,110717,1,8,0:0:0:0:
256,160,110836,1,0,0:0:0:0:
256,192,110955,1,8,0:0:0:0:
256,192,111193,1,8,0:0:0:0:
256,192,111312,1,8,0:0:0:0:
256,192,111431,1,8,0:0:0:0:
256,192,111551,1,0,0:0:0:0:
256,192,111789,1,4,0:0:0:0:
256,160,112146,1,0,0:0:0:0:
256,160,112265,1,8,0:0:0:0:
256,160,112503,1,0,0:0:0:0:
256,160,112622,1,8,0:0:0:0:
256,160,112741,1,0,0:0:0:0:
256,160,112979,1,0,0:0:0:0:
256,160,113217,1,8,0:0:0:0:
256,160,113455,1,0,0:0:0:0:
256,160,113693,1,8,0:0:0:0:
256,160,114051,1,0,0:0:0:0:
256,160,114170,1,8,0:0:0:0:
256,160,114408,1,8,0:0:0:0:
256,160,114527,1,8,0:0:0:0:
256,160,114646,1,0,0:0:0:0:
256,160,114884,1,0,0:0:0:0:
256,160,115122,1,8,0:0:0:0:
256,160,115360,1,8,0:0:0:0:
256,160,115598,1,0,0:0:0:0:
256,160,116074,1,8,0:0:0:0:
256,160,116312,1,0,0:0:0:0:
256,160,116431,1,8,0:0:0:0:
256,160,116551,1,0,0:0:0:0:
256,160,116789,1,0,0:0:0:0:
256,160,117027,1,8,0:0:0:0:
256,160,117265,1,0,0:0:0:0:
256,160,117503,1,8,0:0:0:0:
256,160,117741,1,0,0:0:0:0:
256,160,117860,1,0,0:0:0:0:
256,160,117979,1,8,0:0:0:0:
256,160,118217,1,0,0:0:0:0:
256,160,118336,1,8,0:0:0:0:
256,160,118574,1,8,0:0:0:0:
256,160,118693,1,0,0:0:0:0:
256,160,118931,1,8,0:0:0:0:
256,160,119170,1,8,0:0:0:0:
256,192,119408,1,4,0:0:0:0:
256,160,119765,1,0,0:0:0:0:
256,160,119884,1,8,0:0:0:0:
256,160,120122,1,8,0:0:0:0:
256,160,120241,1,8,0:0:0:0:
256,160,120360,1,0,0:0:0:0:
256,160,120598,1,0,0:0:0:0:
256,160,120836,1,8,0:0:0:0:
256,160,121074,1,8,0:0:0:0:
256,160,121312,1,0,0:0:0:0:
256,160,121670,1,0,0:0:0:0:
256,160,121789,1,8,0:0:0:0:
256,160,122027,1,0,0:0:0:0:
256,160,122146,1,8,0:0:0:0:
256,160,122265,1,0,0:0:0:0:
256,160,122503,1,0,0:0:0:0:
256,160,122741,1,8,0:0:0:0:
256,160,122979,1,0,0:0:0:0:
256,160,123217,1,0,0:0:0:0:
256,160,123693,1,8,0:0:0:0:
256,160,123931,1,8,0:0:0:0:
256,160,124050,1,8,0:0:0:0:
256,160,124170,1,0,0:0:0:0:
256,160,124408,1,0,0:0:0:0:
256,160,124646,1,8,0:0:0:0:
256,160,124884,1,8,0:0:0:0:
256,160,125122,1,0,0:0:0:0:
256,160,125360,1,0,0:0:0:0:
256,160,125479,1,0,0:0:0:0:
256,160,125598,1,8,0:0:0:0:
256,160,125836,1,8,0:0:0:0:
256,160,125955,1,8,0:0:0:0:
256,160,126193,1,8,0:0:0:0:
256,160,126312,1,0,0:0:0:0:
256,160,126550,1,8,0:0:0:0:
256,160,126789,1,8,0:0:0:0:
256,160,127027,1,4,0:0:0:0:
256,160,127265,1,0,0:0:0:0:
256,160,127503,1,8,0:0:0:0:
256,160,127741,1,8,0:0:0:0:
256,160,127860,1,0,0:0:0:0:
256,160,128217,1,0,0:0:0:0:
256,160,128455,1,8,0:0:0:0:
256,160,128693,1,8,0:0:0:0:
256,160,128931,1,0,0:0:0:0:
256,160,129170,1,0,0:0:0:0:
256,160,129408,1,8,0:0:0:0:
256,160,129646,1,0,0:0:0:0:
256,160,129765,1,8,0:0:0:0:
256,160,130122,1,8,0:0:0:0:
256,160,130241,1,0,0:0:0:0:
256,160,130360,1,8,0:0:0:0:
256,160,130479,1,0,0:0:0:0:
256,160,130598,1,8,0:0:0:0:
256,160,130836,1,0,0:0:0:0:
224,160,131074,1,0,0:0:0:0:
224,160,131312,1,8,0:0:0:0:
224,160,131551,1,8,0:0:0:0:
224,160,131670,1,0,0:0:0:0:
224,160,132027,1,0,0:0:0:0:
224,160,132265,1,8,0:0:0:0:
224,160,132503,1,8,0:0:0:0:
224,160,132741,1,0,0:0:0:0:
224,160,132979,1,0,0:0:0:0:
256,128,133217,1,8,0:0:0:0:
256,128,133455,1,0,0:0:0:0:
256,128,133574,1,0,0:0:0:0:
256,128,133812,1,8,0:0:0:0:
256,128,133931,1,0,0:0:0:0:
256,128,134170,1,12,0:0:0:0:
256,128,134408,1,8,0:0:0:0:
256,160,134646,1,4,0:0:0:0:
256,160,134884,1,0,0:0:0:0:
256,160,135122,1,8,0:0:0:0:
256,160,135360,1,8,0:0:0:0:
256,160,135479,1,0,0:0:0:0:
256,160,135836,1,0,0:0:0:0:
256,160,136074,1,8,0:0:0:0:
256,160,136312,1,8,0:0:0:0:
256,160,136551,1,0,0:0:0:0:
256,160,136789,1,0,0:0:0:0:
256,160,137027,1,8,0:0:0:0:
256,160,137265,1,0,0:0:0:0:
256,160,137384,1,8,0:0:0:0:
256,160,137741,1,8,0:0:0:0:
256,160,137860,1,0,0:0:0:0:
256,160,137979,1,8,0:0:0:0:
256,160,138098,1,0,0:0:0:0:
256,160,138217,1,8,0:0:0:0:
256,160,138455,1,0,0:0:0:0:
256,160,140360,1,4,0:0:0:0:
256,160,140836,1,0,0:0:0:0:
256,160,141074,1,8,0:0:0:0:
256,160,141312,1,8,0:0:0:0:
256,160,141550,1,0,0:0:0:0:
256,160,141789,1,8,0:0:0:0:
256,160,142027,1,8,0:0:0:0:
256,160,142265,1,4,0:0:0:0:
256,160,142503,1,8,0:0:0:0:
256,160,142622,1,0,0:0:0:0:
256,160,142741,1,8,0:0:0:0:
256,160,142979,1,0,0:0:0:0:
256,160,143098,1,8,0:0:0:0:
256,160,143336,1,0,0:0:0:0:
256,160,143455,1,0,0:0:0:0:
256,160,143693,1,8,0:0:0:0:
256,160,143812,1,0,0:0:0:0:
256,160,143931,1,8,0:0:0:0:
256,160,144170,1,0,0:0:0:0:
256,160,144289,1,0,0:0:0:0:
256,160,144527,1,0,0:0:0:0:
256,160,144646,1,8,0:0:0:0:
256,160,144884,1,0,0:0:0:0:
251,172,145003,1,0,0:0:0:0:
256,160,145241,1,0,0:0:0:0:
256,160,145360,1,8,0:0:0:0:
256,160,145479,1,8,0:0:0:0:
256,160,145598,1,0,0:0:0:0:
256,160,145836,1,8,0:0:0:0:
256,160,146074,1,4,0:0:0:0:
256,160,146312,1,8,0:0:0:0:
256,160,146431,1,0,0:0:0:0:
256,160,146550,1,8,0:0:0:0:
256,160,146789,1,0,0:0:0:0:
256,160,146908,1,8,0:0:0:0:
256,160,147146,1,0,0:0:0:0:
256,160,147265,1,8,0:0:0:0:
256,160,147384,1,0,0:0:0:0:
256,160,147503,1,8,0:0:0:0:
256,160,147741,1,8,0:0:0:0:
256,160,147979,1,0,0:0:0:0:
256,160,148098,1,12,0:0:0:0:
256,160,148336,1,0,0:0:0:0:
256,160,148455,1,8,0:0:0:0:
256,160,148693,1,0,0:0:0:0:
256,160,148812,1,0,0:0:0:0:
256,160,149050,1,0,0:0:0:0:
256,160,149170,1,12,0:0:0:0:
256,160,149408,1,8,0:0:0:0:
256,160,149527,1,8,0:0:0:0:
256,160,149646,1,0,0:0:0:0:
256,160,149884,1,4,0:0:0:0:
256,160,150122,1,8,0:0:0:0:
256,160,150241,1,0,0:0:0:0:
256,160,150479,1,8,0:0:0:0:
256,160,150717,1,0,0:0:0:0:
256,160,151074,1,8,0:0:0:0:
247,144,151312,1,8,0:0:0:0:
256,160,151431,1,0,0:0:0:0:
256,160,151550,1,8,0:0:0:0:
256,160,151670,1,8,0:0:0:0:
256,160,151789,1,0,0:0:0:0:
256,160,152027,1,8,0:0:0:0:
256,160,152146,1,0,0:0:0:0:
256,160,152384,1,8,0:0:0:0:
256,160,152622,1,0,0:0:0:0:
256,160,152979,1,8,0:0:0:0:
221,114,153098,1,8,0:0:0:0:
256,160,153217,1,0,0:0:0:0:
256,160,153455,1,8,0:0:0:0:
256,160,153693,1,4,0:0:0:0:
256,160,153931,1,0,0:0:0:0:
256,160,154050,1,0,0:0:0:0:
256,160,154170,1,8,0:0:0:0:
256,160,154408,1,0,0:0:0:0:
256,160,154527,1,8,0:0:0:0:
245,145,154765,1,8,0:0:0:0:
256,160,154884,1,0,0:0:0:0:
256,160,155122,1,8,0:0:0:0:
256,160,155360,1,8,0:0:0:0:
256,160,155598,1,0,0:0:0:0:
256,128,155717,1,8,0:0:0:0:
256,128,155836,1,0,0:0:0:0:
256,128,155955,1,0,0:0:0:0:
256,128,156074,1,8,0:0:0:0:
256,128,156312,1,8,0:0:0:0:
256,128,156431,1,0,0:0:0:0:
256,128,156670,1,8,0:0:0:0:
256,128,156789,1,0,0:0:0:0:
256,128,157027,1,8,0:0:0:0:
256,128,157146,1,0,0:0:0:0:
256,128,157265,1,8,0:0:0:0:
256,128,157503,1,4,0:0:0:0:
256,192,157979,1,8,0:0:0:0:
256,192,158217,1,8,0:0:0:0:
256,192,158336,1,8,0:0:0:0:
256,192,158455,1,0,0:0:0:0:
256,192,158693,1,0,0:0:0:0:
256,192,158931,1,8,0:0:0:0:
256,192,159170,1,0,0:0:0:0:
256,192,159408,1,8,0:0:0:0:
256,160,159527,1,8,0:0:0:0:
256,192,159646,1,0,0:0:0:0:
256,192,159884,1,8,0:0:0:0:
256,192,160122,1,8,0:0:0:0:
256,192,160241,1,0,0:0:0:0:
256,192,160479,1,0,0:0:0:0:
256,192,160598,1,8,0:0:0:0:
245,182,160836,1,8,0:0:0:0:
245,182,161074,1,0,0:0:0:0:
256,192,161193,1,0,0:0:0:0:
256,192,161312,1,8,0:0:0:0:
245,182,161789,1,8,0:0:0:0:
245,182,162027,1,0,0:0:0:0:
256,192,162146,1,8,0:0:0:0:
256,192,162265,1,0,0:0:0:0:
256,192,162503,1,0,0:0:0:0:
256,192,162741,1,8,0:0:0:0:
256,192,163217,1,0,0:0:0:0:
251,175,163336,1,8,0:0:0:0:
256,192,163455,1,0,0:0:0:0:
256,192,163693,1,8,0:0:0:0:
256,192,163931,1,0,0:0:0:0:
256,192,164050,1,8,0:0:0:0:
256,192,164289,1,8,0:0:0:0:
256,192,164408,1,0,0:0:0:0:
256,192,164646,1,8,0:0:0:0:
256,192,164884,1,8,0:0:0:0:
256,128,165122,1,4,0:0:0:0:
256,192,165598,1,8,0:0:0:0:
256,192,165836,1,0,0:0:0:0:
256,192,165955,1,8,0:0:0:0:
256,192,166074,1,0,0:0:0:0:
256,192,166312,1,0,0:0:0:0:
256,192,166550,1,8,0:0:0:0:
256,192,166789,1,0,0:0:0:0:
256,192,167027,1,8,0:0:0:0:
256,160,167146,1,8,0:0:0:0:
256,192,167265,1,0,0:0:0:0:
256,192,167503,1,8,0:0:0:0:
256,192,167741,1,0,0:0:0:0:
256,192,167860,1,8,0:0:0:0:
256,192,168098,1,8,0:0:0:0:
256,192,168217,1,0,0:0:0:0:
245,182,168455,1,8,0:0:0:0:
245,182,168693,1,8,0:0:0:0:
256,192,168931,1,4,0:0:0:0:
256,192,170836,1,4,0:0:0:0:
256,192,171193,1,4,0:0:0:0:
256,192,171550,1,4,0:0:0:0:
256,192,172741,1,12,0:0:0:0:
256,160,173098,1,0,0:0:0:0:
256,160,173217,1,8,0:0:0:0:
256,128,173455,1,8,0:0:0:0:
256,160,173574,1,4,0:0:0:0:
256,160,173931,1,8,0:0:0:0:
256,160,174050,1,0,0:0:0:0:
256,160,174169,1,8,0:0:0:0:
256,160,174288,1,0,0:0:0:0:
256,160,174407,1,8,0:0:0:0:
256,128,174645,1,8,0:0:0:0:
256,128,174725,1,8,0:0:0:0:
256,128,174804,1,8,0:0:0:0:
256,128,174883,1,0,0:0:0:0:
256,128,175121,1,0,0:0:0:0:
256,128,175360,1,8,0:0:0:0:
256,128,175479,1,4,0:0:0:0:
256,160,175836,1,12,0:0:0:0:
224,96,176074,1,8,0:0:0:0:
256,128,176193,1,8,0:0:0:0:
256,128,176312,1,8,0:0:0:0:
256,128,176431,1,8,0:0:0:0:
224,96,176550,1,4,0:0:0:0:
256,160,176788,1,8,0:0:0:0:
256,160,176907,1,8,0:0:0:0:
256,160,177026,1,0,0:0:0:0:
256,160,177145,1,0,0:0:0:0:
256,128,177264,1,8,0:0:0:0:
256,160,177383,1,0,0:0:0:0:
256,160,177621,1,0,0:0:0:0:
256,160,177741,1,8,0:0:0:0:
256,160,177860,1,0,0:0:0:0:
256,160,177979,1,8,0:0:0:0:
256,128,178038,1,0,0:0:0:0:
256,160,178098,1,0,0:0:0:0:
256,160,178217,1,8,0:0:0:0:
256,128,178336,1,0,0:0:0:0:
256,128,178455,1,12,0:0:0:0:
256,128,178693,1,8,0:0:0:0:
249,147,178812,1,8,0:0:0:0:
256,128,178931,1,8,0:0:0:0:
256,128,179050,1,8,0:0:0:0:
256,128,179169,1,8,0:0:0:0:
256,128,179288,1,4,0:0:0:0:
256,160,179645,1,8,0:0:0:0:
256,160,179764,1,8,0:0:0:0:
224,96,179883,1,4,0:0:0:0:
256,128,180121,1,8,0:0:0:0:
256,128,180360,1,0,0:0:0:0:
256,128,180479,1,0,0:0:0:0:
256,128,180598,1,0,0:0:0:0:
256,160,180717,1,0,0:0:0:0:
256,160,180836,1,12,0:0:0:0:
256,128,181074,1,8,0:0:0:0:
256,160,181193,1,0,0:0:0:0:
256,160,181252,1,0,0:0:0:0:
256,160,181312,1,8,0:0:0:0:
256,160,181431,1,0,0:0:0:0:
256,160,181550,1,8,0:0:0:0:
256,160,181788,1,0,0:0:0:0:
256,160,181907,1,0,0:0:0:0:
269,141,182026,1,8,0:0:0:0:
256,128,182264,1,0,0:0:0:0:
256,128,182383,1,0,0:0:0:0:
256,128,182502,1,8,0:0:0:0:
256,128,182621,1,0,0:0:0:0:
256,128,182741,1,8,0:0:0:0:
256,128,182800,1,0,0:0:0:0:
256,128,182860,1,0,0:0:0:0:
256,128,182979,1,8,0:0:0:0:
256,128,183098,1,0,0:0:0:0:
256,160,183336,1,0,0:0:0:0:
256,160,183455,1,8,0:0:0:0:
224,96,183693,1,8,0:0:0:0:
256,128,183752,1,8,0:0:0:0:
256,128,183812,1,0,0:0:0:0:
256,128,183931,1,8,0:0:0:0:
256,128,184050,1,0,0:0:0:0:
256,160,184169,1,12,0:0:0:0:
256,160,184407,1,8,0:0:0:0:
256,160,184526,1,0,0:0:0:0:
256,160,184645,1,0,0:0:0:0:
256,160,184764,1,0,0:0:0:0:
256,128,184883,1,8,0:0:0:0:
256,160,185002,1,0,0:0:0:0:
256,160,185241,1,0,0:0:0:0:
256,160,185360,1,8,0:0:0:0:
256,160,185479,1,0,0:0:0:0:
256,160,185598,1,8,0:0:0:0:
256,160,185717,1,0,0:0:0:0:
256,128,185776,1,0,0:0:0:0:
256,160,185836,1,8,0:0:0:0:
256,128,185955,1,0,0:0:0:0:
256,128,186074,1,12,0:0:0:0:
256,128,186431,1,0,0:0:0:0:
256,128,186550,1,8,0:0:0:0:
256,128,186788,1,8,0:0:0:0:
256,128,186907,1,4,0:0:0:0:
256,128,187264,1,8,0:0:0:0:
256,128,187383,1,8,0:0:0:0:
256,128,187502,1,0,0:0:0:0:
256,128,187621,1,0,0:0:0:0:
256,128,187741,1,8,0:0:0:0:
256,160,187979,1,4,0:0:0:0:
256,160,188217,1,8,0:0:0:0:
256,160,188336,1,0,0:0:0:0:
256,160,188395,1,0,0:0:0:0:
256,160,188455,1,8,0:0:0:0:
256,160,188574,1,0,0:0:0:0:
256,128,188693,1,8,0:0:0:0:
256,160,188812,1,8,0:0:0:0:
256,160,188871,1,8,0:0:0:0:
256,160,188931,1,0,0:0:0:0:
245,148,189050,1,0,0:0:0:0:
256,160,189169,1,8,0:0:0:0:
256,160,189407,1,8,0:0:0:0:
256,160,189526,1,0,0:0:0:0:
256,160,189645,1,8,0:0:0:0:
256,128,189883,1,0,0:0:0:0:
256,160,189943,1,0,0:0:0:0:
256,160,190002,1,0,0:0:0:0:
256,128,190121,1,8,0:0:0:0:
244,133,190240,1,0,0:0:0:0:
256,128,190359,1,8,0:0:0:0:
245,122,190419,1,8,0:0:0:0:
256,128,190479,1,0,0:0:0:0:
256,128,190598,1,8,0:0:0:0:
256,128,190717,1,0,0:0:0:0:
256,160,190955,1,0,0:0:0:0:
256,160,191074,1,8,0:0:0:0:
224,96,191312,1,8,0:0:0:0:
256,128,191431,1,0,0:0:0:0:
256,128,191550,1,8,0:0:0:0:
256,160,191788,1,4,0:0:0:0:
256,160,192026,1,8,0:0:0:0:
256,160,192145,1,8,0:0:0:0:
256,160,192264,1,0,0:0:0:0:
256,160,192324,1,0,0:0:0:0:
256,160,192383,1,0,0:0:0:0:
256,128,192502,1,8,0:0:0:0:
256,160,192621,1,0,0:0:0:0:
256,160,192859,1,0,0:0:0:0:
256,160,192979,1,8,0:0:0:0:
256,160,193098,1,0,0:0:0:0:
256,160,193217,1,8,0:0:0:0:
256,128,193276,1,0,0:0:0:0:
256,160,193336,1,0,0:0:0:0:
256,160,193455,1,8,0:0:0:0:
256,128,193574,1,0,0:0:0:0:
256,128,193693,1,12,0:0:0:0:
256,128,193931,1,8,0:0:0:0:
249,147,194050,1,8,0:0:0:0:
256,128,194169,1,8,0:0:0:0:
256,128,194288,1,8,0:0:0:0:
256,128,194407,1,8,0:0:0:0:
256,128,194526,1,4,0:0:0:0:
256,160,194883,1,8,0:0:0:0:
256,160,195002,1,8,0:0:0:0:
224,96,195121,1,4,0:0:0:0:
256,128,195359,1,8,0:0:0:0:
256,128,195598,1,0,0:0:0:0:
256,128,195717,1,0,0:0:0:0:
256,128,195836,1,0,0:0:0:0:
256,160,195955,1,0,0:0:0:0:
256,160,196074,1,12,0:0:0:0:
256,128,196312,1,8,0:0:0:0:
256,160,196431,1,0,0:0:0:0:
256,160,196490,1,0,0:0:0:0:
256,160,196550,1,8,0:0:0:0:
256,160,196669,1,0,0:0:0:0:
256,160,196788,1,8,0:0:0:0:
256,160,196907,1,8,0:0:0:0:
256,160,197026,1,0,0:0:0:0:
256,160,197086,1,0,0:0:0:0:
256,160,197145,1,0,0:0:0:0:
269,141,197264,1,8,0:0:0:0:
256,128,197502,1,0,0:0:0:0:
256,128,197621,1,0,0:0:0:0:
256,128,197740,1,8,0:0:0:0:
256,128,197859,1,0,0:0:0:0:
256,128,197979,1,8,0:0:0:0:
256,128,198038,1,0,0:0:0:0:
256,128,198098,1,0,0:0:0:0:
256,128,198217,1,8,0:0:0:0:
256,128,198336,1,0,0:0:0:0:
256,160,198574,1,0,0:0:0:0:
256,160,198693,1,8,0:0:0:0:
224,96,198931,1,8,0:0:0:0:
256,128,198990,1,8,0:0:0:0:
256,128,199050,1,0,0:0:0:0:
256,128,199169,1,8,0:0:0:0:
256,128,199288,1,0,0:0:0:0:
256,160,199407,1,12,0:0:0:0:
256,160,199645,1,8,0:0:0:0:
256,160,199764,1,0,0:0:0:0:
256,160,199883,1,0,0:0:0:0:
256,128,199943,1,0,0:0:0:0:
256,160,200002,1,0,0:0:0:0:
256,128,200121,1,8,0:0:0:0:
256,160,200240,1,0,0:0:0:0:
256,160,200479,1,0,0:0:0:0:
256,160,200598,1,8,0:0:0:0:
256,160,200717,1,0,0:0:0:0:
256,160,200836,1,8,0:0:0:0:
256,160,200955,1,0,0:0:0:0:
256,128,201014,1,0,0:0:0:0:
256,160,201074,1,8,0:0:0:0:
256,128,201193,1,0,0:0:0:0:
256,128,201312,1,12,0:0:0:0:
256,128,201669,1,0,0:0:0:0:
256,128,201788,1,8,0:0:0:0:
256,128,202026,1,8,0:0:0:0:
256,128,202145,1,4,0:0:0:0:
256,160,202502,1,8,0:0:0:0:
256,160,202621,1,8,0:0:0:0:
224,96,202740,1,0,0:0:0:0:
256,128,202859,1,0,0:0:0:0:
256,128,202979,1,8,0:0:0:0:
256,128,203217,1,4,0:0:0:0:
256,128,203455,5,8,0:0:0:0:
256,160,203693,1,8,0:0:0:0:
256,128,203812,1,0,0:0:0:0:
256,128,203931,1,8,0:0:0:0:
256,128,204050,1,8,0:0:0:0:
256,128,204109,1,8,0:0:0:0:
256,128,204169,1,8,0:0:0:0:
256,128,204288,1,0,0:0:0:0:
256,128,204407,1,8,0:0:0:0:
256,128,204526,1,0,0:0:0:0:
256,128,204645,1,8,0:0:0:0:
256,128,204764,1,0,0:0:0:0:
256,128,204883,1,8,0:0:0:0:
256,128,204943,1,0,0:0:0:0:
256,128,205002,1,0,0:0:0:0:
256,96,205121,1,8,0:0:0:0:
224,160,205359,1,8,0:0:0:0:
224,160,205598,1,0,0:0:0:0:
224,160,205717,1,0,0:0:0:0:
224,96,205836,1,8,0:0:0:0:
224,96,205955,1,0,0:0:0:0:
224,96,206014,1,8,0:0:0:0:
224,96,206074,1,0,0:0:0:0:
224,128,206193,1,0,0:0:0:0:
224,128,206312,1,8,0:0:0:0:
224,96,206550,1,8,0:0:0:0:
224,96,206669,1,0,0:0:0:0:
224,96,206729,1,0,0:0:0:0:
224,96,206788,1,8,0:0:0:0:
224,96,206907,1,0,0:0:0:0:
192,64,207026,1,12,0:0:0:0:
256,128,207264,1,8,0:0:0:0:
256,160,207502,1,0,0:0:0:0:
256,128,207621,1,0,0:0:0:0:
256,128,207740,1,8,0:0:0:0:
256,128,207859,1,0,0:0:0:0:
256,128,207919,1,0,0:0:0:0:
256,128,207979,1,0,0:0:0:0:
256,128,208098,1,0,0:0:0:0:
256,128,208217,1,8,0:0:0:0:
256,128,208336,1,0,0:0:0:0:
256,128,208455,1,8,0:0:0:0:
256,128,208574,1,0,0:0:0:0:
256,128,208693,1,8,0:0:0:0:
224,160,208752,1,0,0:0:0:0:
256,128,208812,1,0,0:0:0:0:
256,96,208931,1,12,0:0:0:0:
224,160,209169,1,8,0:0:0:0:
224,160,209288,1,0,0:0:0:0:
224,160,209407,1,8,0:0:0:0:
224,160,209526,1,0,0:0:0:0:
224,96,209645,1,0,0:0:0:0:
224,96,209764,1,12,0:0:0:0:
224,128,210121,1,8,0:0:0:0:
224,96,210240,1,0,0:0:0:0:
224,96,210359,1,8,0:0:0:0:
224,96,210478,1,8,0:0:0:0:
224,96,210598,1,8,0:0:0:0:
224,96,210717,1,8,0:0:0:0:
256,128,210836,1,4,0:0:0:0:
256,128,211074,1,8,0:0:0:0:
256,160,211312,1,0,0:0:0:0:
256,128,211431,1,0,0:0:0:0:
256,128,211550,1,8,0:0:0:0:
256,128,211669,1,8,0:0:0:0:
256,128,211728,1,8,0:0:0:0:
256,128,211788,1,8,0:0:0:0:
256,128,211907,1,0,0:0:0:0:
256,128,212026,1,8,0:0:0:0:
253,117,212145,1,8,0:0:0:0:
256,128,212264,1,0,0:0:0:0:
253,126,212324,1,0,0:0:0:0:
256,128,212383,1,0,0:0:0:0:
256,128,212502,1,8,0:0:0:0:
256,128,212621,1,0,0:0:0:0:
256,96,212740,1,12,0:0:0:0:
224,160,212978,1,8,0:0:0:0:
224,160,213217,1,0,0:0:0:0:
224,160,213336,1,0,0:0:0:0:
224,96,213455,1,8,0:0:0:0:
224,96,213574,1,4,0:0:0:0:
224,128,213931,1,0,0:0:0:0:
224,96,214050,1,0,0:0:0:0:
224,96,214169,1,8,0:0:0:0:
224,96,214288,1,0,0:0:0:0:
224,96,214407,1,0,0:0:0:0:
192,64,214645,1,12,0:0:0:0:
256,160,215002,1,0,0:0:0:0:
256,160,215121,1,8,0:0:0:0:
256,128,215359,1,8,0:0:0:0:
256,128,215479,1,8,0:0:0:0:
256,128,215836,1,0,0:0:0:0:
256,128,216074,1,8,0:0:0:0:
256,128,216312,1,8,0:0:0:0:
256,128,216431,1,8,0:0:0:0:
256,96,216550,1,0,0:0:0:0:
256,192,216788,1,0,0:0:0:0:
256,128,217026,1,8,0:0:0:0:
256,128,217264,1,8,0:0:0:0:
256,128,217502,1,4,0:0:0:0:
256,192,217978,1,12,0:0:0:0:
256,192,218455,1,4,0:0:0:0:
256,192,218693,1,0,0:0:0:0:
256,192,218812,1,0,0:0:0:0:
256,192,218931,1,8,0:0:0:0:
256,192,219169,1,8,0:0:0:0:
256,192,219288,1,0,0:0:0:0:
256,192,219527,1,0,0:0:0:0:
256,192,219646,1,8,0:0:0:0:
256,192,219884,1,0,0:0:0:0:
256,192,220003,1,0,0:0:0:0:
256,192,220122,1,8,0:0:0:0:
256,192,220241,1,8,0:0:0:0:
255,191,220360,1,0,0:0:0:0:
256,192,220598,1,0,0:0:0:0:
256,192,220717,1,8,0:0:0:0:
256,192,220836,1,8,0:0:0:0:
248,183,220955,1,0,0:0:0:0:
256,192,221074,1,8,0:0:0:0:
256,198,221193,1,0,0:0:0:0:
256,192,221431,1,0,0:0:0:0:
256,192,221550,1,8,0:0:0:0:
256,192,221788,1,8,0:0:0:0:
256,192,221907,1,0,0:0:0:0:
256,192,222027,1,8,0:0:0:0:
256,192,222146,1,8,0:0:0:0:
256,192,222265,1,4,0:0:0:0:
256,192,222503,1,0,0:0:0:0:
256,192,222622,1,0,0:0:0:0:
256,192,222741,1,8,0:0:0:0:
256,192,222979,1,8,0:0:0:0:
256,192,223098,1,0,0:0:0:0:
256,192,223336,1,0,0:0:0:0:
256,192,223455,1,8,0:0:0:0:
256,192,223693,1,8,0:0:0:0:
256,192,223812,1,0,0:0:0:0:
256,192,223931,1,8,0:0:0:0:
256,192,224050,1,8,0:0:0:0:
256,192,224169,1,0,0:0:0:0:
256,192,224288,1,12,0:0:0:0:
256,192,224527,1,0,0:0:0:0:
256,192,224646,1,8,0:0:0:0:
256,192,224884,1,8,0:0:0:0:
256,192,225003,1,0,0:0:0:0:
256,192,225241,1,0,0:0:0:0:
256,192,225360,1,8,0:0:0:0:
256,192,225598,1,0,0:0:0:0:
250,185,225717,1,0,0:0:0:0:
256,192,225836,1,0,0:0:0:0:
256,192,226074,1,4,0:0:0:0:
256,192,226312,1,0,0:0:0:0:
256,192,226431,1,0,0:0:0:0:
256,192,226550,1,8,0:0:0:0:
256,192,226788,1,8,0:0:0:0:
256,192,226907,1,0,0:0:0:0:
256,192,227146,1,0,0:0:0:0:
256,192,227265,1,8,0:0:0:0:
256,192,227503,1,0,0:0:0:0:
256,192,227622,1,0,0:0:0:0:
256,192,227741,1,8,0:0:0:0:
256,192,227860,1,8,0:0:0:0:
255,191,227979,1,0,0:0:0:0:
256,192,228217,1,0,0:0:0:0:
256,192,228336,1,8,0:0:0:0:
256,192,228455,1,8,0:0:0:0:
248,183,228574,1,0,0:0:0:0:
256,192,228693,1,8,0:0:0:0:
256,198,228812,1,0,0:0:0:0:
256,192,229050,1,0,0:0:0:0:
256,192,229169,1,8,0:0:0:0:
256,192,229407,1,8,0:0:0:0:
256,192,229527,1,0,0:0:0:0:
256,192,229646,1,8,0:0:0:0:
256,192,229765,1,8,0:0:0:0:
256,192,229884,1,4,0:0:0:0:
256,192,230122,1,0,0:0:0:0:
256,192,230241,1,0,0:0:0:0:
256,192,230360,1,8,0:0:0:0:
256,192,230598,1,8,0:0:0:0:
256,192,230717,1,0,0:0:0:0:
256,192,230955,1,0,0:0:0:0:
256,192,231074,1,8,0:0:0:0:
256,192,231312,1,8,0:0:0:0:
256,192,231431,1,0,0:0:0:0:
256,192,231550,1,8,0:0:0:0:
256,192,231669,1,8,0:0:0:0:
256,192,231788,1,0,0:0:0:0:
256,192,231907,1,12,0:0:0:0:
256,192,232146,1,0,0:0:0:0:
256,192,232265,1,8,0:0:0:0:
256,192,232503,1,8,0:0:0:0:
256,192,232622,1,0,0:0:0:0:
256,192,232860,1,0,0:0:0:0:
256,192,232979,1,8,0:0:0:0:
256,192,233217,1,0,0:0:0:0:
256,192,233336,1,0,0:0:0:0:
256,192,233455,1,0,0:0:0:0:
256,192,233574,1,8,0:0:0:0:
