osu file format v14

[General]
AudioFilename: audio.mp3
AudioLeadIn: 0
PreviewTime: 65306
Countdown: 0
SampleSet: Soft
StackLeniency: 0.4
Mode: 0
LetterboxInBreaks: 0
WidescreenStoryboard: 1

[Editor]
DistanceSpacing: 1
BeatDivisor: 4
GridSize: 32
TimelineZoom: 8

[Metadata]
Title:Reason For Existence
TitleUnicode:生きるよすが
Artist:Tsukuyomi
ArtistUnicode:月詠み
Creator:Nevertary
Version:Please Give This Life a Reason to Live Tomorrow
Source:
Tags:Ikiru Yosuga 1st Story ユエ Yue ユリイ・カノン YurryCanon japanese rock j-rock jrock my angel jeremy my_angel_jeremy
BeatmapID:3594038
BeatmapSetID:1756246

[Difficulty]
HPDrainRate:5
CircleSize:4.2
OverallDifficulty:8.5
ApproachRate:9.6
SliderMultiplier:1.7
SliderTickRate:1

[Events]
//Background and Video events
Video,-100,"bgv.mp4"
0,0,"BG.jpg",0,0
//Break Periods
2,98660,103189
//Storyboard Layer 0 (Background)
//Storyboard Layer 1 (Fail)
//Storyboard Layer 2 (Pass)
//Storyboard Layer 3 (Foreground)
//Storyboard Layer 4 (Overlay)
//Storyboard Sound Samples

[TimingPoints]
1318,238.095238095238,4,2,2,60,1,0
1318,-142.857142857143,4,2,2,60,0,0
15603,-100,4,2,2,60,0,0
16556,-142.857142857143,4,2,2,60,0,0
19889,-1000,4,2,2,60,0,0
20306,-1000,4,2,2,5,0,0
20365,-71.4285714285714,4,2,1,75,0,0
20544,-71.4285714285714,4,2,1,5,0,0
20603,-100,4,2,1,75,0,0
24175,-76.9230769230769,4,2,1,75,0,0
24353,-76.9230769230769,4,2,1,5,0,0
24413,-100,4,2,1,75,0,0
26198,-76.9230769230769,4,2,1,75,0,0
26556,-100,4,2,1,75,0,0
27984,-71.4285714285714,4,2,1,75,0,0
28163,-71.4285714285714,4,2,1,5,0,0
28222,-100,4,2,1,75,0,0
31794,-71.4285714285714,4,2,1,75,0,0
31972,-71.4285714285714,4,2,1,5,0,0
32032,-100,4,2,1,75,0,0
33817,-76.9230769230769,4,2,1,75,0,0
34175,-100,4,2,1,75,0,0
35603,-166.666666666667,4,2,2,55,0,0
43222,-142.857142857143,4,2,2,60,0,0
44591,-142.857142857143,4,2,2,5,0,0
44651,-142.857142857143,4,2,2,60,0,0
46496,-142.857142857143,4,2,2,5,0,0
46556,-142.857142857143,4,2,2,60,0,0
48401,-142.857142857143,4,2,2,5,0,0
48460,-142.857142857143,4,2,2,60,0,0
48937,-100,4,2,2,60,0,0
49591,-100,4,2,2,5,0,0
49651,-100,4,2,2,60,0,0
50841,-125,4,2,2,65,0,0
54115,-125,4,2,2,5,0,0
54175,-125,4,2,2,65,0,0
60365,-100,4,2,2,70,0,0
60544,-100,4,2,2,5,0,0
60603,-100,4,2,2,70,0,0
60841,-83.3333333333333,4,2,2,75,0,0
61020,-83.3333333333333,4,2,2,5,0,0
61079,-83.3333333333333,4,2,2,75,0,0
61317,-71.4285714285714,4,2,2,80,0,0
61496,-71.4285714285714,4,2,2,5,0,0
61556,-71.4285714285714,4,2,2,80,0,0
62270,-250,4,2,2,45,0,0
62389,-250,4,2,2,5,0,0
62508,-166.666666666667,4,2,2,50,0,0
62627,-166.666666666667,4,2,2,5,0,0
62746,-125,4,2,2,55,0,0
62865,-125,4,2,2,5,0,0
62984,-100,4,2,2,60,0,0
63103,-100,4,2,2,5,0,0
63222,-83.3333333333333,4,2,2,65,0,0
63341,-83.3333333333333,4,2,2,5,0,0
63460,-71.4285714285714,4,2,2,70,0,0
63579,-71.4285714285714,4,2,2,5,0,0
63698,-62.5,4,2,2,75,0,0
63817,-62.5,4,2,2,5,0,0
63937,-55.5555555555556,4,2,2,80,0,0
64056,-55.5555555555556,4,2,2,5,0,0
64175,-71.4285714285714,4,2,2,70,0,0
64413,-71.4285714285714,4,2,2,5,0,0
64532,-71.4285714285714,4,2,2,70,0,0
64770,-71.4285714285714,4,2,2,5,0,0
64889,-100,4,2,2,70,0,0
66079,-76.9230769230769,4,2,1,80,0,1
66258,-76.9230769230769,4,2,1,5,0,1
66317,-76.9230769230769,4,2,1,80,0,1
66556,-90.9090909090909,4,2,1,80,0,1
66913,-76.9230769230769,4,2,1,80,0,1
67091,-76.9230769230769,4,2,1,5,0,1
67151,-76.9230769230769,4,2,1,80,0,1
67270,-90.9090909090909,4,2,1,80,0,1
67508,-76.9230769230769,4,2,1,80,0,1
67746,-90.9090909090909,4,2,1,80,0,1
67925,-90.9090909090909,4,2,1,5,0,1
67984,-90.9090909090909,4,2,1,80,0,1
68460,-66.6666666666667,4,2,1,80,0,1
68639,-66.6666666666667,4,2,1,5,0,1
68698,-66.6666666666667,4,2,1,80,0,1
68817,-71.4285714285714,4,2,1,80,0,1
68996,-71.4285714285714,4,2,1,5,0,1
69056,-71.4285714285714,4,2,1,80,0,1
69175,-90.9090909090909,4,2,1,80,0,1
69651,-76.9230769230769,4,2,1,80,0,1
69829,-76.9230769230769,4,2,1,5,0,1
69889,-90.9090909090909,4,2,1,80,0,1
70365,-76.9230769230769,4,2,1,80,0,1
70722,-90.9090909090909,4,2,1,80,0,1
71556,-76.9230769230769,4,2,1,80,0,1
71734,-76.9230769230769,4,2,1,5,0,1
71794,-66.6666666666667,4,2,1,80,0,1
71972,-66.6666666666667,4,2,1,5,0,1
72032,-66.6666666666667,4,2,1,80,0,1
73401,-66.6666666666667,4,2,1,5,0,1
73460,-90.9090909090909,4,2,1,80,0,1
74175,-66.6666666666667,4,2,1,80,0,1
74353,-66.6666666666667,4,2,1,5,0,1
74413,-66.6666666666667,4,2,1,80,0,1
74532,-76.9230769230769,4,2,1,80,0,1
74889,-90.9090909090909,4,2,1,80,0,1
75365,-76.9230769230769,4,2,1,80,0,1
75544,-76.9230769230769,4,2,1,5,0,1
75603,-90.9090909090909,4,2,1,80,0,1
76079,-66.6666666666667,4,2,1,80,0,1
76258,-66.6666666666667,4,2,1,5,0,1
76317,-66.6666666666667,4,2,1,80,0,1
76437,-71.4285714285714,4,2,1,80,0,1
76615,-71.4285714285714,4,2,1,5,0,1
76675,-71.4285714285714,4,2,1,80,0,1
76794,-90.9090909090909,4,2,1,80,0,1
77270,-76.9230769230769,4,2,1,80,0,1
77448,-76.9230769230769,4,2,1,5,0,1
77508,-90.9090909090909,4,2,1,80,0,1
77984,-76.9230769230769,4,2,1,80,0,1
78163,-76.9230769230769,4,2,1,5,0,1
78222,-76.9230769230769,4,2,1,80,0,1
78341,-90.9090909090909,4,2,1,80,0,1
78937,-76.9230769230769,4,2,1,80,0,1
79175,-90.9090909090909,4,2,1,80,0,1
79413,-66.6666666666667,4,2,1,80,0,1
79889,-83.3333333333333,4,2,1,80,0,1
80841,-90.9090909090909,4,2,1,80,0,1
81317,-66.6666666666667,4,2,1,80,0,1
81496,-66.6666666666667,4,2,1,5,0,1
81556,-90.9090909090909,4,2,1,80,0,1
81972,-90.9090909090909,4,2,1,5,0,1
82032,-90.9090909090909,4,2,1,80,0,1
82151,-76.9230769230769,4,2,1,80,0,1
82508,-66.6666666666667,4,2,1,80,0,1
82746,-90.9090909090909,4,2,1,80,0,1
82984,-83.3333333333333,4,2,1,80,0,1
83163,-83.3333333333333,4,2,1,5,0,1
83222,-90.9090909090909,4,2,1,80,0,1
83698,-76.9230769230769,4,2,1,80,0,1
84056,-90.9090909090909,4,2,1,80,0,1
84651,-83.3333333333333,4,2,1,80,0,1
84889,-76.9230769230769,4,2,1,80,0,1
85127,-66.6666666666667,4,2,1,80,0,1
85306,-66.6666666666667,4,2,1,5,0,1
85365,-90.9090909090909,4,2,1,80,0,1
85782,-90.9090909090909,4,2,1,5,0,1
85841,-90.9090909090909,4,2,1,80,0,1
85960,-76.9230769230769,4,2,1,80,0,1
86317,-66.6666666666667,4,2,1,80,0,1
86556,-90.9090909090909,4,2,1,80,0,1
87032,-76.9230769230769,4,2,1,80,0,1
87210,-76.9230769230769,4,2,1,5,0,1
87270,-90.9090909090909,4,2,1,80,0,1
87508,-66.6666666666667,4,2,1,80,0,1
87687,-66.6666666666667,4,2,1,5,0,1
87746,-66.6666666666667,4,2,1,80,0,1
87865,-58.8235294117647,4,2,1,80,0,1
88103,-58.8235294117647,4,2,1,80,0,1
88222,-90.9090909090909,4,2,1,80,0,1
88937,-66.6666666666667,4,2,1,80,0,1
89115,-66.6666666666667,4,2,1,5,0,1
89175,-90.9090909090909,4,2,1,80,0,1
89591,-90.9090909090909,4,2,1,5,0,1
89651,-90.9090909090909,4,2,1,80,0,1
89770,-76.9230769230769,4,2,1,80,0,1
90127,-66.6666666666667,4,2,1,80,0,1
90306,-66.6666666666667,4,2,1,5,0,1
90365,-90.9090909090909,4,2,1,80,0,1
90603,-83.3333333333333,4,2,1,80,0,1
90782,-90.9090909090909,4,2,1,5,0,1
90841,-90.9090909090909,4,2,1,80,0,1
91020,-90.9090909090909,4,2,1,5,0,1
91079,-90.9090909090909,4,2,1,80,0,1
91317,-76.9230769230769,4,2,1,80,0,1
91675,-66.6666666666667,4,2,1,80,0,1
92746,-90.9090909090909,4,2,1,80,0,1
93401,-90.9090909090909,4,2,1,5,0,1
93460,-90.9090909090909,4,2,1,80,0,1
94115,-90.9090909090909,4,2,1,5,0,1
94175,-90.9090909090909,4,2,1,80,0,1
94353,-90.9090909090909,4,2,1,5,0,1
94413,-90.9090909090909,4,2,1,80,0,1
94651,-100,4,2,1,80,0,1
94770,-100,4,2,1,5,0,1
94889,-83.3333333333333,4,2,1,80,0,1
95008,-83.3333333333333,4,2,1,5,0,1
95127,-55.5555555555556,4,2,1,80,0,1
95246,-55.5555555555556,4,2,1,5,0,1
95365,-50,4,2,1,80,0,1
95484,-50,4,2,1,5,0,1
95603,-83.3333333333333,4,2,1,80,0,1
96556,-100,4,2,1,70,0,0
98460,-100,4,2,1,20,0,0
103698,-100,4,2,1,70,0,0
104175,-125,4,2,1,70,0,0
111794,-142.857142857143,4,2,2,65,0,0
113222,-166.666666666667,4,2,2,65,0,0
113460,-200.000000000001,4,2,2,65,0,0
113698,-142.857142857143,4,2,2,65,0,0
115127,-125,4,2,2,65,0,0
115365,-111.111111111111,4,2,2,65,0,0
115603,-142.857142857143,4,2,2,65,0,0
117032,-166.666666666667,4,2,2,65,0,0
117270,-200,4,2,2,65,0,0
117508,-142.857142857143,4,2,2,65,0,0
118937,-166.666666666667,4,2,2,65,0,0
119175,-200,4,2,2,65,0,0
119413,-142.857142857143,4,2,2,65,0,0
120841,-166.666666666667,4,2,2,65,0,0
121079,-200,4,2,2,65,0,0
121317,-142.857142857143,4,2,2,65,0,0
122746,-125,4,2,2,65,0,0
122984,-111.111111111111,4,2,2,65,0,0
123222,-142.857142857143,4,2,2,65,0,0
124651,-166.666666666667,4,2,2,65,0,0
124889,-200,4,2,2,65,0,0
125127,-142.857142857143,4,2,2,65,0,0
125603,-111.111111111111,4,2,2,65,0,0
125782,-111.111111111111,4,2,2,5,0,0
125841,-111.111111111111,4,2,2,65,0,0
126317,-90.909090909091,4,2,2,65,0,0
126556,-76.9230769230769,4,2,2,65,0,0
126972,-76.9230769230769,4,2,2,5,0,0
127032,-125,4,2,2,70,0,0
127210,-125,4,2,2,5,0,0
127270,-125,4,2,2,70,0,0
127508,-100,4,2,2,70,0,0
127687,-100,4,2,2,5,0,0
127746,-125,4,2,2,70,0,0
127865,-125,4,2,2,70,0,0
128222,-100,4,2,2,70,0,0
128698,-125,4,2,2,70,0,0
128877,-125,4,2,2,5,0,0
128937,-100,4,2,2,70,0,0
129175,-125,4,2,2,70,0,0
129413,-100,4,2,2,70,0,0
129591,-100,4,2,2,5,0,0
129651,-100,4,2,2,70,0,0
130127,-125,4,2,2,70,0,0
130782,-125,4,2,2,5,0,0
130841,-125,4,2,2,70,0,0
131079,-100,4,2,2,70,0,0
131496,-100,4,2,2,5,0,0
131556,-100,4,2,2,70,0,0
131675,-125,4,2,2,70,0,0
132032,-100,4,2,2,70,0,0
132508,-125,4,2,2,70,0,0
132687,-125,4,2,2,5,0,0
132746,-100,4,2,2,70,0,0
132984,-125,4,2,2,70,0,0
133401,-125,4,2,2,5,0,0
133460,-125,4,2,2,70,0,0
133579,-100,4,2,2,70,0,0
133937,-125,4,2,2,70,0,0
134175,-100,4,2,2,70,0,0
134651,-83.3333333333333,4,2,2,70,0,0
134829,-83.3333333333333,4,2,2,5,0,0
134889,-100,4,2,2,70,0,0
135306,-100,4,2,2,5,0,0
135365,-100,4,2,2,70,0,0
135484,-125,4,2,2,70,0,0
135841,-100,4,2,2,70,0,0
136079,-125,4,2,2,70,0,0
136317,-100,4,2,2,70,0,0
136496,-100,4,2,2,5,0,0
136556,-125,4,2,2,70,0,0
137032,-100,4,2,2,70,0,0
137210,-100,4,2,2,5,0,0
137270,-100,4,2,2,70,0,0
137389,-125,4,2,2,70,0,0
137746,-142.857142857143,4,2,2,70,0,0
137984,-166.666666666667,4,2,2,70,0,0
138222,-200,4,2,2,70,0,0
138460,-250,4,2,2,60,0,0
140365,-166.666666666667,4,2,2,70,0,0
140484,-166.666666666667,4,2,2,5,0,0
140603,-125,4,2,2,50,0,0
140722,-125,4,2,2,5,0,0
140841,-100,4,2,2,55,0,0
140960,-100,4,2,2,5,0,0
141079,-83.3333333333333,4,2,2,60,0,0
141198,-83.3333333333333,4,2,2,5,0,0
141317,-71.4285714285714,4,2,2,65,0,0
141437,-71.4285714285714,4,2,2,5,0,0
141556,-62.5,4,2,2,70,0,0
141675,-62.5,4,2,2,5,0,0
141794,-55.5555555555556,4,2,2,75,0,0
141913,-55.5555555555556,4,2,2,5,0,0
142032,-50,4,2,2,80,0,0
142270,-90.9090909090909,4,2,1,75,0,0
144175,-100,4,2,1,75,0,0
146079,-90.9090909090909,4,2,1,75,0,0
147091,-90.9090909090909,4,2,1,5,0,0
147151,-90.9090909090909,4,2,1,75,0,0
147984,-76.9230769230769,4,2,1,75,0,0
148817,-90.9090909090909,4,2,1,75,0,0
149889,-76.9230769230769,4,2,1,75,0,0
150067,-76.9230769230769,4,2,1,5,0,0
150127,-76.9230769230769,4,2,1,75,0,0
150246,-90.9090909090909,4,2,1,75,0,0
150484,-76.9230769230769,4,2,1,75,0,0
150722,-90.9090909090909,4,2,1,75,0,0
151794,-83.3333333333333,4,2,1,75,0,0
151972,-83.3333333333333,4,2,1,5,0,0
152032,-83.3333333333333,4,2,1,75,0,0
152151,-100,4,2,1,75,0,0
152389,-83.3333333333333,4,2,1,75,0,0
152627,-100,4,2,1,75,0,0
153698,-76.9230769230769,4,2,1,75,0,0
153877,-76.9230769230769,4,2,1,5,0,0
153937,-76.9230769230769,4,2,1,75,0,0
154056,-90.9090909090909,4,2,1,75,0,0
154532,-76.9230769230769,4,2,1,75,0,0
154889,-90.9090909090909,4,2,1,75,0,0
155127,-100,4,2,1,75,0,0
155960,-90.9090909090909,4,2,1,75,0,0
157508,-142.857142857143,4,2,2,60,0,0
158341,-111.111111111111,4,2,2,60,0,0
158698,-142.857142857143,4,2,2,60,0,0
159353,-142.857142857143,4,2,2,5,0,0
159413,-111.111111111111,4,2,2,60,0,0
159889,-142.857142857143,4,2,2,60,0,0
165127,-111.111111111111,4,2,2,60,0,0
165603,-142.857142857143,4,2,2,60,0,0
165960,-111.111111111111,4,2,2,60,0,0
166317,-142.857142857143,4,2,2,60,0,0
166972,-142.857142857143,4,2,2,5,0,0
167032,-111.111111111111,4,2,2,60,0,0
167508,-142.857142857143,4,2,2,60,0,0
168460,-166.666666666667,4,2,2,60,0,0
168698,-200,4,2,2,60,0,0
168937,-249.999999999999,4,2,2,50,0,0
170841,-71.4285714285714,4,2,2,70,0,0
171079,-71.4285714285714,4,2,2,5,0,0
171198,-71.4285714285714,4,2,2,70,0,0
171437,-71.4285714285714,4,2,2,5,0,0
171556,-71.4285714285714,4,2,2,70,0,0
172746,-76.9230769230769,4,2,2,75,0,0
173579,-66.6666666666667,4,2,2,75,0,0
173937,-90.9090909090909,4,2,2,75,0,0
174889,-100,4,2,2,75,0,0
175425,-100,4,2,2,5,0,0
175484,-62.5,4,2,2,75,0,0
175663,-62.5,4,2,2,5,0,0
175722,-62.5,4,2,2,75,0,0
175841,-90.9090909090909,4,2,2,75,0,0
176556,-76.9230769230769,4,2,1,80,0,1
176734,-76.9230769230769,4,2,1,5,0,1
176794,-76.9230769230769,4,2,1,80,0,1
177210,-76.9230769230769,4,2,1,5,0,1
177270,-76.9230769230769,4,2,1,80,0,1
177389,-90.9090909090909,4,2,1,80,0,1
178222,-76.9230769230769,4,2,1,80,0,1
178401,-76.9230769230769,4,2,1,5,0,1
178460,-66.6666666666667,4,2,1,80,0,1
178639,-66.6666666666667,4,2,1,5,0,1
178698,-66.6666666666667,4,2,1,80,0,1
180067,-66.6666666666667,4,2,1,5,0,1
180127,-90.9090909090909,4,2,1,80,0,1
180841,-66.6666666666667,4,2,1,80,0,1
181020,-66.6666666666667,4,2,1,5,0,1
181079,-66.6666666666667,4,2,1,80,0,1
181198,-76.9230769230769,4,2,1,80,0,1
181377,-76.9230769230769,4,2,1,5,0,1
181437,-76.9230769230769,4,2,1,80,0,1
181556,-90.9090909090909,4,2,1,80,0,1
182032,-76.9230769230769,4,2,1,80,0,1
182210,-76.9230769230769,4,2,1,5,0,1
182270,-90.9090909090909,4,2,1,80,0,1
182746,-66.6666666666667,4,2,1,80,0,1
182925,-66.6666666666667,4,2,1,5,0,1
182984,-66.6666666666667,4,2,1,80,0,1
183103,-71.4285714285714,4,2,1,80,0,1
183282,-71.4285714285714,4,2,1,5,0,1
183341,-71.4285714285714,4,2,1,80,0,1
183460,-90.9090909090909,4,2,1,80,0,1
183937,-76.9230769230769,4,2,1,80,0,1
184115,-76.9230769230769,4,2,1,5,0,1
184175,-90.9090909090909,4,2,1,80,0,1
184413,-90.9090909090909,4,2,1,80,0,1
184651,-76.9230769230769,4,2,1,80,0,1
184829,-76.9230769230769,4,2,1,5,0,1
184889,-76.9230769230769,4,2,1,80,0,1
185008,-90.9090909090909,4,2,1,80,0,1
185603,-76.9230769230769,4,2,1,80,0,1
185841,-90.9090909090909,4,2,1,80,0,1
186079,-66.6666666666667,4,2,1,80,0,1
186913,-83.3333333333333,4,2,1,80,0,1
187508,-90.9090909090909,4,2,1,80,0,0
187984,-66.6666666666667,4,2,1,80,0,1
188163,-66.6666666666667,4,2,1,5,0,1
188222,-66.6666666666667,4,2,1,80,0,1
188401,-66.6666666666667,4,2,1,5,0,1
188460,-90.9090909090909,4,2,1,80,0,1
188817,-66.6666666666667,4,2,1,80,0,1
188996,-66.6666666666667,4,2,1,5,0,1
189056,-66.6666666666667,4,2,1,80,0,1
189175,-90.9090909090909,4,2,1,80,0,1
189413,-66.6666666666667,4,2,1,80,0,1
189651,-90.9090909090909,4,2,1,80,0,1
189829,-90.9090909090909,4,2,1,5,0,1
189889,-66.6666666666667,4,2,1,80,0,1
190127,-90.9090909090909,4,2,1,80,0,1
190365,-58.8235294117647,4,2,1,80,0,1
190544,-58.8235294117647,4,2,1,5,0,1
190603,-58.8235294117647,4,2,1,80,0,1
190722,-62.5,4,2,1,80,0,1
190901,-62.5,4,2,1,5,0,1
190960,-62.5,4,2,1,80,0,1
191079,-90.9090909090909,4,2,1,80,0,1
191556,-66.6666666666667,4,2,1,80,0,1
191734,-66.6666666666667,4,2,1,5,0,1
191794,-90.9090909090909,4,2,1,80,0,1
191972,-90.9090909090909,4,2,1,5,0,1
192032,-90.9090909090909,4,2,1,80,0,1
192270,-66.6666666666667,4,2,1,80,0,1
192448,-66.6666666666667,4,2,1,5,0,1
192508,-66.6666666666667,4,2,1,80,0,1
192627,-90.9090909090909,4,2,1,80,0,1
192984,-66.6666666666667,4,2,1,80,0,1
193222,-90.9090909090909,4,2,1,80,0,1
193639,-90.9090909090909,4,2,1,5,0,1
193698,-58.8235294117647,4,2,1,80,0,1
193877,-58.8235294117647,4,2,1,5,0,1
193937,-58.8235294117647,4,2,1,80,0,1
195306,-58.8235294117647,4,2,1,5,0,1
195365,-76.9230769230769,4,2,1,80,0,1
196079,-58.8235294117647,4,2,1,80,0,1
196258,-58.8235294117647,4,2,1,5,0,1
196317,-58.8235294117647,4,2,1,80,0,1
196437,-66.6666666666667,4,2,1,80,0,1
196615,-66.6666666666667,4,2,1,5,0,1
196675,-66.6666666666667,4,2,1,80,0,1
196794,-62.5,4,2,1,80,0,1
197032,-90.9090909090909,4,2,1,80,0,1
197270,-66.6666666666667,4,2,1,80,0,1
197448,-66.6666666666667,4,2,1,5,0,1
197508,-90.9090909090909,4,2,1,80,0,1
197687,-90.9090909090909,4,2,1,5,0,1
197746,-90.9090909090909,4,2,1,80,0,1
197984,-58.8235294117647,4,2,1,80,0,1
198163,-58.8235294117647,4,2,1,5,0,1
198222,-58.8235294117647,4,2,1,80,0,1
198341,-62.5,4,2,1,80,0,1
198520,-62.5,4,2,1,5,0,1
198579,-62.5,4,2,1,80,0,1
198698,-90.9090909090909,4,2,1,80,0,1
198937,-66.6666666666667,4,2,1,80,0,1
199175,-71.4285714285714,4,2,1,80,0,1
199353,-71.4285714285714,4,2,1,5,0,1
199413,-90.9090909090909,4,2,1,80,0,1
199591,-90.9090909090909,4,2,1,5,0,1
199651,-90.9090909090909,4,2,1,80,0,1
199889,-66.6666666666667,4,2,1,80,0,1
200067,-66.6666666666667,4,2,1,5,0,1
200127,-66.6666666666667,4,2,1,80,0,1
200246,-90.9090909090909,4,2,1,80,0,1
200603,-66.6666666666667,4,2,1,80,0,1
200782,-66.6666666666667,4,2,1,5,0,1
200841,-90.9090909090909,4,2,1,80,0,1
201079,-66.6666666666667,4,2,1,80,0,1
201258,-66.6666666666667,4,2,1,5,0,1
201317,-58.8235294117647,4,2,1,80,0,1
201794,-71.4285714285714,4,2,1,80,0,1
202746,-90.9090909090909,4,2,1,80,0,1
203222,-58.8235294117647,4,2,1,80,0,1
203401,-58.8235294117647,4,2,1,5,0,1
203460,-90.9090909090909,4,2,1,80,0,1
203877,-90.9090909090909,4,2,1,5,0,1
203937,-90.9090909090909,4,2,1,80,0,1
204056,-66.6666666666667,4,2,1,80,0,1
204413,-58.8235294117647,4,2,1,80,0,1
204651,-90.9090909090909,4,2,1,80,0,1
204889,-71.4285714285714,4,2,1,80,0,1
205067,-71.4285714285714,4,2,1,5,0,1
205127,-90.9090909090909,4,2,1,80,0,1
205603,-66.6666666666667,4,2,1,80,0,1
205960,-90.9090909090909,4,2,1,80,0,1
206556,-71.4285714285714,4,2,1,80,0,1
206794,-66.6666666666667,4,2,1,80,0,1
207032,-58.8235294117647,4,2,1,80,0,1
207210,-58.8235294117647,4,2,1,5,0,1
207270,-90.9090909090909,4,2,1,80,0,1
207687,-90.9090909090909,4,2,1,5,0,1
207746,-90.9090909090909,4,2,1,80,0,1
207865,-66.6666666666667,4,2,1,80,0,1
208222,-58.8235294117647,4,2,1,80,0,1
208460,-90.9090909090909,4,2,1,80,0,1
208698,-66.6666666666667,4,2,1,80,0,1
208937,-90.9090909090909,4,2,1,80,0,1
209115,-90.9090909090909,4,2,1,5,0,1
209175,-90.9090909090909,4,2,1,80,0,1
209413,-58.8235294117647,4,2,1,80,0,1
209591,-58.8235294117647,4,2,1,5,0,1
209651,-58.8235294117647,4,2,1,80,0,1
209770,-52.6315789473684,4,2,1,80,0,1
210127,-90.9090909090909,4,2,1,80,0,1
210841,-58.8235294117647,4,2,1,80,0,1
211020,-58.8235294117647,4,2,1,5,0,1
211079,-90.9090909090909,4,2,1,80,0,1
211496,-90.9090909090909,4,2,1,5,0,1
211556,-90.9090909090909,4,2,1,80,0,1
211675,-66.6666666666667,4,2,1,80,0,1
212032,-58.8235294117647,4,2,1,80,0,1
212270,-90.9090909090909,4,2,1,80,0,1
212508,-71.4285714285714,4,2,1,80,0,1
212687,-71.4285714285714,4,2,1,5,0,1
212746,-90.9090909090909,4,2,1,80,0,1
213222,-66.6666666666667,4,2,1,80,0,1
213579,-71.4285714285714,4,2,1,80,0,1
214651,-90.9090909090909,4,2,1,80,0,1
215306,-90.9090909090909,4,2,1,5,0,1
215365,-90.9090909090909,4,2,1,80,0,1
216556,-100,4,2,1,80,0,1
216675,-100,4,2,1,5,0,1
216794,-83.3333333333333,4,2,1,80,0,1
216913,-83.3333333333333,4,2,1,5,0,1
217032,-55.5555555555556,4,2,1,80,0,1
217151,-55.5555555555556,4,2,1,5,0,1
217270,-50,4,2,1,80,0,1
217389,-50,4,2,1,5,0,1
217508,-83.3333333333333,4,2,1,80,0,1
218460,-71.4285714285714,4,2,1,75,0,0
218639,-71.4285714285714,4,2,1,5,0,0
218698,-100,4,2,1,75,0,0
222270,-76.9230769230769,4,2,1,75,0,0
222448,-76.9230769230769,4,2,1,5,0,0
222508,-100,4,2,1,75,0,0
224294,-71.4285714285714,4,2,1,75,0,0
224651,-100,4,2,1,75,0,0
226079,-71.4285714285714,4,2,1,75,0,0
226258,-71.4285714285714,4,2,1,5,0,0
226317,-100,4,2,1,75,0,0
229889,-76.9230769230769,4,2,1,75,0,0
230067,-76.9230769230769,4,2,1,5,0,0
230127,-100,4,2,1,75,0,0
231913,-71.4285714285714,4,2,1,75,0,0
232627,-100,4,2,1,75,0,0

[Colours]
Combo1 : 113,168,213
Combo2 : 22,75,107
Combo3 : 132,147,204
Combo4 : 211,118,86

[HitObjects]
10,51,8937,6,0,B|75:55|42:105|112:108,1,118.999996368408,2|0,1:2|0:0,0:0:0:0:
245,287,9413,6,0,P|220:268|213:242,1,59.4999981842042,2|0,1:2|0:0,0:0:0:0:
224,146,9651,1,0,0:0:0:0:
225,156,9770,2,0,P|212:204|145:221,1,118.999996368408,2|0,0:0|0:0,0:0:0:0:
135,222,10127,1,2,0:0:0:0:
309,57,10365,5,2,1:2:0:0:
429,132,10603,1,0,0:0:0:0:
494,86,10841,6,0,P|473:135|463:206,1,118.999996368408,2|0,1:2|0:0,0:0:0:0:
412,382,11317,6,0,P|402:351|320:312,1,118.999996368408,2|0,1:2|0:0,0:0:0:0:
246,307,11675,2,0,B|288:334|344:292|298:268|352:232|397:251,1,178.499994552612,2|0,0:0|0:0,0:0:0:0:
311,63,12270,5,2,1:2:0:0:
176,177,12508,1,0,0:0:0:0:
142,103,12746,6,0,P|207:100|247:136,1,118.999996368408,2|0,1:2|0:0,0:0:0:0:
97,346,13222,6,0,P|97:316|80:293,1,59.4999981842042,2|0,1:2|0:0,0:0:0:0:
4,273,13460,1,0,0:0:0:0:
12,271,13579,2,0,B|132:239,1,118.999996368408,2|0,0:0|0:0,0:0:0:0:
140,237,13937,1,2,0:0:0:0:
63,55,14175,5,2,1:2:0:0:
89,130,14413,1,0,0:0:0:0:
140,68,14651,1,2,0:0:0:0:
417,224,15603,6,0,P|407:271|370:293,1,85,4|0,1:2|0:0,0:0:0:0:
378,109,15841,2,0,P|388:62|425:40,1,85,8|0,0:0|0:0,0:0:0:0:
331,195,16079,5,8,0:0:0:0:
467,151,16198,1,8,0:0:0:0:
284,125,16317,5,8,0:0:0:0:
412,211,16437,1,8,0:0:0:0:
205,318,16556,5,6,1:2:0:0:
196,315,16675,2,0,L|136:298,1,59.4999981842042
33,247,16913,2,0,L|150:213,1,118.999996368408,2|0,0:0|0:0,0:0:0:0:
194,17,17270,5,0,0:0:0:0:
197,26,17389,2,0,L|213:85,1,59.4999981842042,0|0,0:0|1:0,0:0:0:0:
268,182,17627,2,0,L|284:122,1,59.4999981842042,0|0,0:0|0:0,0:0:0:0:
495,25,17865,5,0,0:0:0:0:
446,114,17984,1,0,1:0:0:0:
425,45,18103,1,0,0:0:0:0:
512,95,18222,1,0,0:0:0:0:
291,322,18460,5,8,0:0:0:0:
106,264,18579,1,8,0:0:0:0:
98,275,18817,5,8,0:0:0:0:
283,217,18936,1,8,0:0:0:0:
291,229,19175,5,8,0:0:0:0:
106,171,19294,1,8,0:0:0:0:
98,182,19532,5,8,0:0:0:0:
283,124,19651,1,8,0:0:0:0:
31,68,19889,6,0,L|22:96,1,29.75,0|0,1:0|0:0,0:0:0:0:
15,112,20365,6,0,B|71:105|89:157|89:157|106:209|164:200,1,178.499994552612,6|0,1:2|0:0,0:0:0:0:
230,151,20603,5,2,0:0:0:0:
240,154,20722,1,0,1:0:0:0:
182,41,20841,2,0,L|159:122,1,85,10|0,0:0|0:0,0:0:0:0:
135,330,21079,5,0,1:0:0:0:
5,286,21198,2,0,P|47:235|149:254,1,170,2|0,1:2|1:0,0:0:0:0:
235,376,21556,2,0,L|212:294,1,85,2|0,1:2|0:0,0:0:0:0:
449,96,21794,5,0,1:0:0:0:
449,213,21913,1,0,1:0:0:0:
380,118,22032,1,10,0:0:0:0:
491,154,22151,1,0,1:0:0:0:
380,190,22270,1,2,1:2:0:0:
164,140,22508,5,2,1:2:0:0:
164,151,22627,1,0,1:0:0:0:
243,14,22746,2,0,P|197:36|184:70,1,85,10|0,0:0|0:0,0:0:0:0:
163,161,22984,5,0,1:0:0:0:
243,296,23103,2,0,P|245:245|223:217,1,85,2|0,1:2|0:0,0:0:0:0:
163,173,23341,5,0,1:0:0:0:
4,173,23460,2,0,P|46:202|82:196,1,85,2|0,1:2|0:0,0:0:0:0:
367,36,23698,5,0,1:0:0:0:
367,153,23817,1,0,1:0:0:0:
436,58,23936,1,10,0:0:0:0:
325,94,24055,1,0,1:0:0:0:
438,132,24175,2,0,P|338:153|325:209,1,165.749992412568,6|0,1:2|0:0,0:0:0:0:
312,291,24413,5,2,0:0:0:0:
309,301,24532,1,0,1:0:0:0:
416,349,24651,2,0,L|393:267,1,85,10|0,0:0|0:0,0:0:0:0:
328,115,24889,5,0,1:0:0:0:
226,219,25008,2,0,B|297:198|297:198|317:204|317:204|389:183,1,170,2|0,1:2|1:0,0:0:0:0:
305,33,25365,2,0,L|327:114,1,85,2|0,1:2|0:0,0:0:0:0:
10,328,25603,5,0,1:0:0:0:
119,286,25722,1,0,1:0:0:0:
55,384,25841,1,10,0:0:0:0:
49,268,25960,1,0,1:0:0:0:
122,358,26079,1,2,1:2:0:0:
56,131,26198,6,0,P|162:169|203:263,1,220.999989883423,12|0,0:0|1:0,0:0:0:0:
270,45,26556,2,0,P|242:83|204:84,1,85,10|0,0:0|1:0,0:0:0:0:
202,5,26794,5,8,0:0:0:0:
300,145,26913,2,0,B|371:124|371:124|391:130|391:130|463:109,1,170,2|0,1:2|1:0,0:0:0:0:
512,252,27270,2,0,P|484:214|446:213,1,85,10|0,0:0|0:0,0:0:0:0:
267,286,27508,6,0,L|244:368,1,85,0|0,1:0|1:0,0:0:0:0:
133,208,27746,2,0,P|179:200|207:225,1,85,2|0,1:2|1:0,0:0:0:0:
58,361,27984,6,0,B|21:345|-6:353|-6:353|102:322,1,178.499994552612,6|0,1:2|0:0,0:0:0:0:
174,345,28222,5,2,0:0:0:0:
184,348,28341,1,0,1:0:0:0:
133,208,28460,2,0,L|110:289,1,85,10|0,0:0|0:0,0:0:0:0:
328,368,28698,5,0,1:0:0:0:
402,255,28817,2,0,P|468:253|487:343,1,170,2|0,1:2|1:0,0:0:0:0:
317,247,29175,2,0,L|295:165,1,85,2|0,1:2|0:0,0:0:0:0:
65,31,29413,5,0,1:0:0:0:
65,148,29532,1,0,1:0:0:0:
134,53,29651,1,10,0:0:0:0:
23,89,29770,1,0,1:0:0:0:
134,125,29889,1,2,1:2:0:0:
352,137,30127,5,2,1:2:0:0:
352,148,30246,1,0,1:0:0:0:
273,11,30365,2,0,P|318:33|331:67,1,85,10|0,0:0|0:0,0:0:0:0:
353,158,30603,5,0,1:0:0:0:
273,293,30722,2,0,P|270:242|292:214,1,85,2|0,1:2|0:0,0:0:0:0:
353,170,30960,5,0,1:0:0:0:
512,170,31079,2,0,P|469:199|433:193,1,85,2|0,1:2|0:0,0:0:0:0:
28,60,31317,5,0,1:0:0:0:
111,142,31436,1,0,1:0:0:0:
93,26,31555,1,10,0:0:0:0:
40,130,31674,1,0,1:0:0:0:
147,75,31794,2,0,B|112:119|147:161|147:161|183:202|145:248,1,178.499994552612,6|0,1:2|0:0,0:0:0:0:
137,346,32032,5,2,0:0:0:0:
140,356,32151,1,0,1:0:0:0:
49,243,32270,2,0,L|130:265,1,85,10|0,0:0|0:0,0:0:0:0:
352,74,32508,5,0,1:0:0:0:
297,202,32627,2,0,B|267:98|267:98|274:131|311:150,1,170,2|0,1:2|1:0,0:0:0:0:
460,248,32984,2,0,L|378:225,1,85,2|0,1:2|0:0,0:0:0:0:
105,262,33222,5,0,1:0:0:0:
216,227,33341,1,0,1:0:0:0:
145,321,33460,1,10,0:0:0:0:
148,204,33579,1,0,1:0:0:0:
214,299,33698,1,2,1:2:0:0:
7,360,33817,6,0,B|146:321|146:321|102:332|87:368,1,220.999989883423,12|0,0:0|1:0,0:0:0:0:
386,371,34175,2,0,P|336:355|323:324,1,85,10|0,0:0|1:0,0:0:0:0:
373,163,34413,5,8,0:0:0:0:
468,304,34532,2,0,B|399:284|399:284|382:255|382:255|314:236,1,170,2|0,1:2|1:0,0:0:0:0:
462,87,34889,2,0,P|472:60|466:88,1,85,10|0,0:0|0:0,0:0:0:0:
174,193,35127,5,0,1:0:0:0:
190,263,35246,1,0,1:0:0:0:
242,214,35365,1,2,1:2:0:0:
169,333,35484,5,8,0:0:0:0:
227,142,35603,1,4,1:2:0:0:
18,30,35841,5,2,0:0:0:0:
20,40,35960,1,0,0:0:0:0:
2,143,36079,2,0,P|21:121|43:113,1,50.9999984436036,2|0,1:2|0:0,0:0:0:0:
114,14,36317,1,0,0:0:0:0:
109,22,36437,2,0,B|94:48|111:73|111:73|128:96|116:120,1,101.999996887207,2|0,0:0|0:0,0:0:0:0:
114,130,36794,1,2,0:0:0:0:
301,79,37032,6,0,L|353:64,1,50.9999984436036,2|0,1:2|0:0,0:0:0:0:
402,39,37270,2,0,L|350:54,1,50.9999984436036,0|0,0:0|0:0,0:0:0:0:
260,209,37508,6,0,P|298:163|340:160,1,101.999996887207,2|0,1:2|0:0,0:0:0:0:
512,344,37984,6,0,L|462:329,1,50.9999984436036,2|0,1:2|0:0,0:0:0:0:
405,250,38222,1,0,0:0:0:0:
403,258,38341,2,0,L|374:357,1,101.999996887207,2|0,0:0|0:0,0:0:0:0:
370,368,38698,1,2,0:0:0:0:
181,238,38937,6,0,P|159:219|151:197,1,50.9999984436036,2|0,1:2|0:0,0:0:0:0:
217,150,39175,2,0,P|239:169|247:191,1,50.9999984436036,0|0,0:0|0:0,0:0:0:0:
116,362,39413,6,0,B|145:365|162:340|162:340|176:315|203:317,1,101.999996887207,2|0,1:2|0:0,0:0:0:0:
82,132,39889,5,2,0:0:0:0:
80,122,40008,1,0,0:0:0:0:
64,26,40127,5,0,0:0:0:0:
0,75,40246,2,0,P|42:104|93:100,1,101.999996887207,2|0,0:0|0:0,0:0:0:0:
155,69,40603,1,2,0:0:0:0:
217,265,40841,6,0,L|232:317,1,50.9999984436036,2|0,1:2|0:0,0:0:0:0:
257,368,41079,2,0,L|242:316,1,50.9999984436036,0|0,0:0|0:0,0:0:0:0:
401,237,41317,6,0,B|371:233|354:258|354:258|340:283|313:281,1,101.999996887207,2|0,1:2|0:0,0:0:0:0:
438,9,41794,6,0,P|460:28|468:50,1,50.9999984436036,2|0,1:2|0:0,0:0:0:0:
506,137,42032,1,0,0:0:0:0:
498,135,42151,2,0,L|399:106,1,101.999996887207,2|0,0:0|0:0,0:0:0:0:
388,102,42508,1,2,0:0:0:0:
219,265,42746,6,0,P|197:246|189:224,1,50.9999984436036,2|0,1:2|0:0,0:0:0:0:
236,213,42984,2,0,P|238:241|228:263,1,50.9999984436036,0|0,0:0|0:0,0:0:0:0:
181,40,43222,5,4,1:2:0:0:
7,265,43460,5,2,0:0:0:0:
9,275,43579,1,0,0:0:0:0:
0,359,43698,2,0,L|60:342,1,59.4999981842042,2|0,1:2|0:0,0:0:0:0:
226,338,43937,5,0,0:0:0:0:
151,373,44056,2,0,B|129:346|147:315|147:315|165:281|146:257,1,118.999996368408,2|0,0:0|0:0,0:0:0:0:
103,100,44413,2,0,P|76:147|87:180,1,89.2499972763062,2|0,0:0|0:0,0:0:0:0:
92,193,44651,6,0,L|32:176,1,59.4999981842042,10|0,0:0|0:0,0:0:0:0:
184,112,44889,2,0,L|201:52,1,59.4999981842042,0|0,0:0|0:0,0:0:0:0:
294,152,45127,6,0,B|247:164|247:164|228:184|228:184|181:196,1,118.999996368408,2|0,1:2|0:0,0:0:0:0:
464,94,45603,6,0,P|490:70|496:42,1,59.4999981842042,2|0,1:2|0:0,0:0:0:0:
406,172,45841,1,0,0:0:0:0:
379,93,45960,2,0,P|420:91|482:136,1,118.999996368408,2|0,0:0|0:0,0:0:0:0:
474,274,46317,6,0,P|448:298|392:300,1,89.2499972763062,2|0,0:0|0:0,0:0:0:0:
382,308,46556,6,0,L|439:324,1,59.4999981842042,10|0,0:0|0:0,0:0:0:0:
249,355,46794,2,0,L|309:372,1,59.4999981842042,0|0,0:0|0:0,0:0:0:0:
126,334,47032,6,0,B|159:338|177:307|177:307|197:274|227:278,1,118.999996368408,2|0,1:2|0:0,0:0:0:0:
61,41,47508,5,2,1:2:0:0:
63,51,47627,1,0,0:0:0:0:
88,161,47746,1,0,0:0:0:0:
21,114,47865,2,0,P|72:80|129:91,1,118.999996368408,2|0,0:0|0:0,0:0:0:0:
308,119,48222,6,0,P|344:98|360:54,1,89.2499972763062,2|0,0:0|0:0,0:0:0:0:
364,43,48460,6,0,L|381:103,1,59.4999981842042,10|0,0:0|0:0,0:0:0:0:
512,130,48698,2,0,L|452:147,1,59.4999981842042,0|0,0:0|0:0,0:0:0:0:
327,316,48937,5,6,1:2:0:0:
390,248,49056,1,8,0:0:0:0:
401,291,49175,1,4,3:0:0:0:
415,334,49294,1,2,3:0:0:0:
265,253,49413,6,0,B|179:231|179:231|163:247|146:252,1,127.5,10|0,0:0|0:0,0:0:0:0:
135,259,49651,1,8,0:0:0:0:
0,331,49770,6,0,P|45:378|61:301,1,170,10|8,0:0|0:0,0:0:0:0:
242,356,50127,2,0,P|197:355|171:385,1,85,10|2,0:0|3:0,0:0:0:0:
66,220,50365,5,10,0:0:0:0:
135,259,50484,1,8,3:0:0:0:
207,237,50603,1,4,3:0:0:0:
221,226,50722,1,2,3:0:0:0:
188,171,50841,6,0,L|208:241,1,68,6|0,1:2|0:0,0:0:0:0:
229,318,51079,1,0,1:0:0:0:
232,329,51198,1,2,0:0:0:0:
374,276,51317,2,0,L|304:296,1,68,8|0,0:0|0:0,0:0:0:0:
479,371,51556,2,0,P|444:362|426:334,1,68,2|8,1:2|0:0,0:0:0:0:
512,133,51794,6,0,P|487:190|417:202,1,136,2|0,0:0|1:0,0:0:0:0:
311,242,52151,1,2,0:0:0:0:
321,241,52270,2,0,P|356:250|374:278,1,68,8|0,0:0|0:0,0:0:0:0:
227,100,52508,6,0,B|278:115|278:115|295:139|295:139|345:155,1,136,6|0,1:2|0:0,0:0:0:0:
446,40,52865,1,8,0:0:0:0:
447,50,52984,2,0,P|438:85|410:103,1,68,2|0,1:2|0:0,0:0:0:0:
234,199,53222,6,0,L|164:179,1,68,10|0,0:0|0:0,0:0:0:0:
49,294,53460,1,2,1:2:0:0:
48,283,53579,1,8,0:0:0:0:
50,273,53698,2,0,P|69:242|101:234,1,68,0|0,0:0|0:0,0:0:0:0:
57,40,53937,2,0,P|53:88|8:119,1,102,2|0,1:2|0:0,0:0:0:0:
0,131,54175,2,0,L|70:111,1,68,10|0,0:0|0:0,0:0:0:0:
299,109,54413,5,8,0:0:0:0:
231,66,54532,1,8,0:0:0:0:
325,27,54651,6,0,L|305:97,1,68,6|0,1:2|0:0,0:0:0:0:
281,172,54889,1,0,1:0:0:0:
278,183,55008,1,2,0:0:0:0:
423,225,55127,2,0,L|353:205,1,68,8|0,0:0|0:0,0:0:0:0:
264,320,55365,2,0,P|273:285|301:267,1,68,2|8,1:2|0:0,0:0:0:0:
391,377,55603,6,0,B|351:381|333:348|333:348|313:313|272:317,1,136,2|0,0:0|1:0,0:0:0:0:
125,336,55960,1,2,0:0:0:0:
135,335,56079,2,0,P|170:344|188:372,1,68,8|0,0:0|0:0,0:0:0:0:
5,273,56317,6,0,P|74:272|111:218,1,136,6|0,1:2|0:0,0:0:0:0:
55,125,56675,1,8,0:0:0:0:
52,135,56794,2,0,L|32:205,1,68,2|0,1:2|0:0,0:0:0:0:
56,48,57032,2,0,L|36:118,1,68,10|0,0:0|0:0,0:0:0:0:
110,221,57270,1,0,1:0:0:0:
113,232,57389,1,2,0:0:0:0:
208,194,57508,5,8,0:0:0:0:
200,188,57627,1,8,0:0:0:0:
191,183,57746,2,0,P|154:183|130:206,1,68,2|0,1:2|0:0,0:0:0:0:
292,343,57984,2,0,L|274:278,1,68,10|0,0:0|0:0,0:0:0:0:
216,102,58222,2,0,L|198:168,1,68,0|0,1:0|0:0,0:0:0:0:
355,252,58460,6,0,L|425:232,1,68,6|0,1:2|0:0,0:0:0:0:
500,208,58698,1,0,1:0:0:0:
511,205,58817,1,2,0:0:0:0:
507,349,58936,2,0,L|487:279,1,68,8|0,0:0|0:0,0:0:0:0:
475,92,59175,2,0,P|466:127|438:145,1,68,2|8,1:2|0:0,0:0:0:0:
280,17,59413,6,0,B|331:32|331:32|348:56|348:56|398:72,1,136,2|0,0:0|1:0,0:0:0:0:
274,106,59770,1,2,0:0:0:0:
264,105,59889,2,0,P|229:114|211:142,1,68,8|0,0:0|0:0,0:0:0:0:
17,83,60127,2,0,L|82:101,1,68,2|0,1:2|0:0,0:0:0:0:
202,226,60365,6,0,B|165:214|144:248|144:248|124:278|87:267,1,127.5,14|0,0:0|0:0,0:0:0:0:
20,254,60603,2,0,P|-8:249|20:253,1,85,2|0,1:2|0:0,0:0:0:0:
213,370,60841,6,0,P|210:315|242:223,1,152.999995330811,14|0,0:0|0:0,0:0:0:0:
280,159,61079,2,0,B|277:129|302:115|302:115|302:145|280:159,1,101.999996887207,2|0,1:2|0:0,0:0:0:0:
11,30,61317,6,0,P|26:101|129:110,1,178.499994552612,14|0,0:0|0:0,0:0:0:0:
129,110,61556,2,0,P|154:70|134:0,1,118.999996368408,0|0,1:0|0:0,0:0:0:0:
31,235,61794,5,10,0:0:0:0:
26,254,61912,1,8,0:0:0:0:
21,273,62032,1,0,1:0:0:0:
17,293,62270,6,0,P|33:302|48:303,1,34,12|0,0:0|0:0,0:0:0:0:
121,334,62508,6,0,P|138:329|163:302,1,50.9999984436036,8|0,1:2|0:0,0:0:0:0:
343,189,62746,6,0,P|323:202|280:200,1,68,8|0,1:2|0:0,0:0:0:0:
197,210,62984,6,0,P|173:205|138:156,1,85,8|0,1:2|0:0,0:0:0:0:
50,73,63222,6,0,B|27:89|-1:82|-1:82|27:92|38:120,1,101.999996887207,8|0,1:2|0:0,0:0:0:0:
233,63,63460,6,0,B|228:30|252:6|252:6|225:28|195:24,1,118.999996368408,8|0,1:2|0:0,0:0:0:0:
133,226,63698,6,0,B|169:239|176:273|176:273|170:238|196:209,1,136,8|0,1:2|0:0,0:0:0:0:
48,63,63937,6,0,B|11:86|-31:74|-31:74|11:89|22:136,1,152.999995330811,8|0,1:2|0:0,0:0:0:0:
454,109,64175,6,0,B|428:90|402:96|380:112|368:126|366:151|366:151|363:179|347:202|321:215|298:214|278:202|269:195,1,237.999992736817,6|0,1:2|0:0,0:0:0:0:
149,69,64532,6,0,P|182:17|240:119,1,237.999992736817,6|0,1:2|0:0,0:0:0:0:
133,226,64889,5,2,1:2:0:0:
497,31,66079,6,0,B|433:49|433:49|409:84|409:84|354:99,1,165.749992412568,6|0,1:2|0:0,0:0:0:0:
282,121,66317,6,0,P|278:71|320:31,1,110.499994941712,8|0,0:0|0:0,0:0:0:0:
368,230,66556,2,0,L|463:256,1,93.5000028533936,2|0,1:2|0:0,0:0:0:0:
371,352,66794,5,8,0:0:0:0:
291,253,66913,2,0,B|254:226|254:226|373:260,1,165.749992412568,2|0,1:2|0:0,0:0:0:0:
437,283,67151,1,0,1:0:0:0:
185,285,67270,2,0,L|90:311,1,93.5000028533936,10|0,0:0|0:0,0:0:0:0:
283,131,67508,6,0,P|283:72|247:39,1,110.499994941712,2|0,1:2|1:0,0:0:0:0:
32,188,67746,2,0,P|105:193|149:137,1,140.25000428009,8|0,0:0|0:0,0:0:0:0:
78,37,67984,6,0,B|56:61|56:61|72:122,1,93.5000028533936,2|0,1:2|0:0,0:0:0:0:
185,285,68222,2,0,L|277:260,1,93.5000028533936,8|0,0:0|0:0,0:0:0:0:
476,273,68460,6,0,B|418:259|398:316|398:316|380:367|322:356,1,191.250007295609,6|0,1:2|0:0,0:0:0:0:
253,356,68698,1,8,0:0:0:0:
264,82,68817,6,0,P|338:135|369:216,1,178.499994552612,6|0,1:2|0:0,0:0:0:0:
379,289,69056,1,0,1:0:0:0:
416,89,69175,6,0,P|449:55|495:52,1,93.5000028533936,8|0,0:0|0:0,0:0:0:0:
275,260,69413,2,0,L|183:236,1,93.5000028533936,2|0,1:2|1:0,0:0:0:0:
41,83,69651,6,0,B|30:68|13:61|13:61|46:58|80:82|97:109|95:148,1,165.749992412568,10|0,0:0|0:0,0:0:0:0:
77,230,69889,6,0,P|59:265|6:282,1,93.5000028533936,6|0,1:2|0:0,0:0:0:0:
264,82,70127,5,8,0:0:0:0:
191,107,70246,1,0,0:0:0:0:
319,239,70365,6,0,B|349:209|349:209|325:131,1,110.499994941712,2|0,1:2|0:0,0:0:0:0:
199,375,70603,5,8,0:0:0:0:
113,345,70722,2,0,P|175:285|266:311,1,187.000005706787,2|0,1:2|1:0,0:0:0:0:
467,375,71079,5,10,0:0:0:0:
394,350,71198,1,0,0:0:0:0:
452,202,71317,6,0,B|474:226|474:226|458:286,1,93.5000028533936,2|0,1:2|1:0,0:0:0:0:
362,117,71556,2,0,B|420:98|420:98|444:63|444:63|509:43,1,165.749992412568,8|0,0:0|0:0,0:0:0:0:
356,138,71794,6,0,B|315:146|305:185|319:215|319:215|332:246|315:284|278:291,1,191.250007295609,6|0,1:2|0:0,0:0:0:0:
205,288,72032,5,8,0:0:0:0:
348,223,72151,1,8,0:0:0:0:
176,188,72270,5,10,0:0:0:0:
362,226,72389,1,8,0:0:0:0:
195,298,72508,5,8,0:0:0:0:
356,138,72627,2,0,P|421:155|470:319,1,255.000009727478,6|0,1:2|1:0,0:0:0:0:
456,147,72984,5,10,0:0:0:0:
378,330,73103,1,8,0:0:0:0:
212,208,73222,6,0,P|179:181|264:161,1,191.250007295609,6|0,1:2|0:0,0:0:0:0:
195,298,73460,2,0,B|204:326|183:342|183:342|176:316|195:298,1,93.5000028533936,4|0,1:2|0:0,0:0:0:0:
254,105,73698,5,10,0:0:0:0:
99,182,73817,1,8,0:0:0:0:
339,152,73937,5,8,0:0:0:0:
165,84,74056,1,8,0:0:0:0:
368,40,74175,6,0,B|401:18|401:18|487:55|487:55|512:78|502:110,1,191.250007295609,6|0,1:2|0:0,0:0:0:0:
491,180,74413,1,8,0:0:0:0:
391,330,74532,6,0,B|363:299|363:299|380:233,1,110.499994941712,2|0,1:2|0:0,0:0:0:0:
339,152,74770,1,0,1:0:0:0:
195,298,74889,6,0,L|100:324,1,93.5000028533936,10|0,0:0|0:0,0:0:0:0:
246,129,75127,2,0,P|246:70|212:42,1,93.5000028533936,2|0,1:2|1:0,0:0:0:0:
0,77,75365,6,0,B|67:101|67:101|81:127|81:127|141:149,1,165.749992412568,8|0,0:0|0:0,0:0:0:0:
195,298,75603,6,0,B|172:271|172:271|186:213,1,93.5000028533936,2|0,1:2|0:0,0:0:0:0:
369,167,75841,2,0,L|461:142,1,93.5000028533936,8|0,0:0|0:0,0:0:0:0:
314,28,76079,6,0,B|267:2|244:35|223:46|223:46|225:70|209:104|248:130,1,191.250007295609,6|0,1:2|0:0,0:0:0:0:
268,203,76317,1,8,0:0:0:0:
351,363,76437,6,0,B|395:357|395:357|264:321,1,178.499994552612,6|0,1:2|0:0,0:0:0:0:
195,298,76675,1,0,1:0:0:0:
2,363,76794,6,0,P|44:367|84:332,1,93.5000028533936,8|0,0:0|0:0,0:0:0:0:
85,111,77032,2,0,L|110:203,1,93.5000028533936,2|0,1:2|1:0,0:0:0:0:
371,254,77270,6,0,P|443:251|482:172,1,165.749992412568,10|0,0:0|0:0,0:0:0:0:
443,101,77508,6,0,L|468:9,1,93.5000028533936,6|0,1:2|0:0,0:0:0:0:
296,238,77746,2,0,P|333:273|378:269,1,93.5000028533936,8|0,0:0|0:0,0:0:0:0:
342,13,77984,6,0,B|313:26|299:54|311:84|311:84|323:115|312:140|283:154,1,165.749992412568,2|0,1:2|0:0,0:0:0:0:
219,183,78222,1,8,0:0:0:0:
111,46,78341,6,0,B|106:23|79:15|79:15|157:38|157:38|193:53|196:88,1,187.000005706787,2|0,1:2|1:0,0:0:0:0:
143,257,78698,2,0,L|118:349,1,93.5000028533936,10|0,0:0|0:0,0:0:0:0:
296,238,78937,6,0,P|335:203|393:209,1,110.499994941712,2|0,1:2|1:0,0:0:0:0:
106,352,79175,2,0,L|14:377,1,93.5000028533936,8|0,0:0|0:0,0:0:0:0:
194,79,79413,5,6,1:2:0:0:
169,169,79532,1,8,0:0:0:0:
110,104,79651,5,8,3:0:0:0:
254,145,79770,1,4,3:0:0:0:
5,218,79889,5,10,0:0:0:0:
147,253,80008,1,0,1:0:0:0:
109,94,80127,1,8,0:0:0:0:
45,372,80246,6,0,B|26:354|-9:364|-9:364|133:326,1,203.999993774414,6|0,1:2|1:0,0:0:0:0:
298,300,80603,5,8,0:0:0:0:
147,253,80722,1,8,0:0:0:0:
234,231,80841,1,6,1:2:0:0:
181,378,80960,5,8,0:0:0:0:
239,221,81079,1,10,0:0:0:0:
139,245,81198,1,8,0:0:0:0:
435,262,81317,6,0,B|458:272|480:272|497:259|503:238|494:214|469:190|449:187|425:188|412:192|399:198|387:210,1,191.250007295609,6|0,1:2|0:0,0:0:0:0:
354,278,81556,2,0,B|348:306|322:311|322:311|328:284|354:278,1,93.5000028533936,8|0,0:0|0:0,0:0:0:0:
307,28,81794,6,0,B|365:49|365:49|377:69|377:69|433:90,1,140.25000428009,2|0,1:2|0:0,0:0:0:0:
496,114,82032,1,8,0:0:0:0:
259,105,82151,6,0,B|237:87|202:95|179:109|173:143|173:143|168:177|148:196|116:211|91:194,1,220.999989883423,2|0,1:2|1:0,0:0:0:0:
0,30,82508,6,0,P|52:29|95:89,1,127.500004863739,10|0,0:0|0:0,0:0:0:0:
57,283,82746,2,0,L|32:375,1,93.5000028533936,0|0,1:0|1:0,0:0:0:0:
226,239,82984,6,0,B|310:215|310:215|333:210|358:220|370:241,1,152.999995330811,10|0,0:0|0:0,0:0:0:0:
463,262,83222,6,0,B|435:300|456:352|456:352|410:318|369:333,1,187.000005706787,2|8,1:2|0:0,0:0:0:0:
461,78,83579,5,0,0:0:0:0:
512,146,83698,2,0,B|481:174|481:174|415:157,1,110.499994941712,2|0,1:2|0:0,0:0:0:0:
235,187,83937,5,8,0:0:0:0:
238,50,84056,2,0,P|295:10|325:101,1,187.000005706787,2|0,1:2|1:0,0:0:0:0:
217,265,84413,5,8,0:0:0:0:
292,240,84532,1,0,0:0:0:0:
125,215,84651,6,0,L|25:187,1,101.999996887207,2|0,1:2|1:0,0:0:0:0:
277,354,84889,2,0,L|388:325,1,110.499994941712,10|0,0:0|0:0,0:0:0:0:
512,87,85127,6,0,B|538:134|505:157|494:178|494:178|470:176|436:192|410:153,1,191.250007295609,6|0,1:2|0:0,0:0:0:0:
426,71,85365,2,0,B|399:59|399:33|399:33|425:44|426:71,1,93.5000028533936,8|0,0:0|0:0,0:0:0:0:
259,189,85603,6,0,P|211:233|190:310,1,140.25000428009,2|0,1:2|0:0,0:0:0:0:
192,376,85841,1,8,0:0:0:0:
36,252,85960,6,0,P|107:213|189:308,1,220.999989883423,2|0,1:2|1:0,0:0:0:0:
74,122,86317,6,0,B|36:90|36:90|54:7,1,127.500004863739,10|0,0:0|0:0,0:0:0:0:
349,164,86556,2,0,L|253:189,1,93.5000028533936,0|0,1:0|1:0,0:0:0:0:
83,384,86794,2,0,L|108:288,1,93.5000028533936,10|0,0:0|0:0,0:0:0:0:
387,48,87032,6,0,B|318:67|318:67|303:89|303:89|231:108,1,165.749992412568,6|0,1:2|0:0,0:0:0:0:
174,154,87270,2,0,P|130:126|129:82,1,93.5000028533936,8|0,0:0|0:0,0:0:0:0:
494,364,87508,6,0,P|434:309|323:287,1,191.250007295609,6|0,1:2|0:0,0:0:0:0:
257,302,87746,1,8,0:0:0:0:
5,142,87865,6,0,P|37:235|204:227,1,289.000005512238,6|0,1:2|1:0,0:0:0:0:
261,71,88222,5,8,0:0:0:0:
240,149,88341,1,0,0:0:0:0:
178,93,88460,5,10,0:0:0:0:
323,131,88579,1,8,0:0:0:0:
105,142,88698,5,10,0:0:0:0:
272,67,88817,1,8,0:0:0:0:
117,303,88937,6,0,P|30:272|61:185,1,191.250007295609,6|0,1:2|0:0,0:0:0:0:
101,130,89175,2,0,P|107:80|75:46,1,93.5000028533936,8|0,0:0|0:0,0:0:0:0:
323,131,89413,6,0,B|265:152|265:152|253:172|253:172|197:193,1,140.25000428009,2|0,1:2|0:0,0:0:0:0:
134,217,89651,1,8,0:0:0:0:
332,225,89770,6,0,B|356:210|389:224|410:241|410:275|410:275|410:310|427:332|456:352|484:339,1,220.999989883423,2|0,1:2|1:0,0:0:0:0:
512,162,90127,6,0,P|441:172|417:229,1,127.500004863739,10|0,0:0|0:0,0:0:0:0:
238,352,90365,2,0,P|295:342|316:310,1,93.5000028533936,0|0,1:0|1:0,0:0:0:0:
230,45,90603,6,0,B|201:15|201:15|224:126,1,152.999995330811,10|0,0:0|0:0,0:0:0:0:
254,227,90841,6,0,B|228:189|185:179|158:193|141:225|147:247|163:264|190:271|203:263,1,187.000005706787,6|8,1:2|0:0,0:0:0:0:
26,90,91198,5,0,0:0:0:0:
92,36,91317,2,0,B|120:67|120:67|103:133,1,110.499994941712,2|0,1:2|0:0,0:0:0:0:
82,367,91556,5,8,0:0:0:0:
0,255,91675,2,0,B|39:235|70:259|91:276|91:310|91:310|91:345|113:365|141:390|181:372,1,255.000009727478,6|0,1:2|1:0,0:0:0:0:
316,271,92032,5,8,3:0:0:0:
241,285,92151,1,8,3:0:0:0:
384,384,92270,5,4,3:0:0:0:
394,333,92389,1,4,3:0:0:0:
335,158,92508,5,2,3:0:0:0:
329,185,92627,1,2,3:0:0:0:
465,134,92746,6,0,P|514:83|390:69,1,280.500008560181,6|0,1:2|1:0,0:0:0:0:
202,119,93222,6,0,P|267:108|329:151,1,140.25000428009,10|0,0:0|0:0,0:0:0:0:
335,158,93460,1,0,1:0:0:0:
415,374,93579,6,0,P|384:296|291:297,1,187.000005706787,10|0,0:0|0:0,0:0:0:0:
26,333,93937,6,0,P|10:291|30:242,1,93.5000028533936,2|0,1:2|0:0,0:0:0:0:
189,340,94175,2,0,P|157:377|101:377,1,93.5000028533936,8|0,0:0|0:0,0:0:0:0:
155,219,94413,5,10,0:0:0:0:
160,209,94532,1,8,0:0:0:0:
348,368,94651,6,0,P|362:344|353:368,1,85,4|0,1:2|0:0,0:0:0:0:
433,277,94889,6,0,P|420:246|428:277,1,101.999996887207,8|0,1:2|0:0,0:0:0:0:
293,195,95127,6,0,P|316:154|298:195,1,152.999995330811,8|0,1:2|0:0,0:0:0:0:
470,98,95365,6,0,P|446:51|465:98,1,170,8|0,1:2|0:0,0:0:0:0:
293,195,95603,5,6,1:2:0:0:
493,369,96079,5,6,1:2:0:0:
470,98,96556,5,6,1:2:0:0:
256,192,96615,12,0,98460,0:0:0:0:
397,39,103698,5,8,3:0:0:0:
334,80,103937,5,4,3:0:0:0:
326,88,104175,6,0,L|346:158,1,68,6|0,1:2|0:0,0:0:0:0:
367,235,104413,1,0,0:0:0:0:
370,246,104532,1,0,0:0:0:0:
512,193,104651,2,0,L|442:213,1,68,10|0,0:0|0:0,0:0:0:0:
201,285,104889,5,0,0:0:0:0:
171,209,105008,2,0,P|241:212|283:264,1,136,2|0,0:0|0:0,0:0:0:0:
134,137,105365,2,0,P|101:160|92:186,1,68,2|0,0:0|0:0,0:0:0:0:
59,348,105603,5,8,0:0:0:0:
102,290,105722,1,0,0:0:0:0:
102,362,105841,1,2,0:0:0:0:
59,304,105960,1,0,0:0:0:0:
127,326,106079,1,2,1:2:0:0:
421,327,106317,5,0,0:0:0:0:
424,316,106436,1,0,0:0:0:0:
275,363,106555,2,0,L|345:343,1,68,10|0,0:0|0:0,0:0:0:0:
432,175,106794,5,0,0:0:0:0:
473,247,106913,2,0,P|503:226|513:194,1,68,2|0,0:0|1:0,0:0:0:0:
387,102,107151,5,0,0:0:0:0:
346,174,107270,2,0,P|316:153|306:121,1,68,2|0,0:0|0:0,0:0:0:0:
148,34,107508,5,8,0:0:0:0:
106,93,107627,1,0,0:0:0:0:
174,71,107746,1,2,0:0:0:0:
106,48,107865,1,0,0:0:0:0:
147,106,107984,1,2,1:2:0:0:
52,346,108222,5,0,0:0:0:0:
55,357,108341,1,0,0:0:0:0:
10,198,108460,2,0,L|30:268,1,68,10|0,0:0|0:0,0:0:0:0:
167,373,108698,5,0,0:0:0:0:
244,333,108817,2,0,P|163:331|140:287,1,136,2|0,0:0|0:0,0:0:0:0:
254,248,109175,2,0,P|268:283|260:314,1,68,2|0,0:0|0:0,0:0:0:0:
106,48,109413,5,8,0:0:0:0:
164,91,109532,1,0,0:0:0:0:
92,91,109651,1,2,0:0:0:0:
150,48,109770,1,0,0:0:0:0:
128,116,109889,5,6,1:2:0:0:
237,46,110008,1,8,0:0:0:0:
207,120,110127,5,2,3:0:0:0:
210,131,110246,1,4,3:0:0:0:
240,198,110365,5,10,0:0:0:0:
131,128,110484,1,0,1:0:0:0:
242,36,110603,5,8,0:0:0:0:
350,111,110722,2,0,B|368:114|387:109|398:94|402:80|402:80|409:63|423:47|444:41|462:46,1,136,10|8,0:0|0:0,0:0:0:0:
405,188,111079,2,0,L|385:258,1,68,10|2,0:0|3:0,0:0:0:0:
295,362,111317,5,8,0:0:0:0:
439,323,111437,1,8,3:0:0:0:
365,335,111556,5,4,3:0:0:0:
368,346,111675,1,2,3:0:0:0:
323,167,111794,6,0,L|306:107,1,59.4999981842042,6|0,1:2|0:0,0:0:0:0:
284,31,112032,1,2,0:0:0:0:
281,20,112151,1,0,0:0:0:0:
227,89,112270,2,0,L|170:106,1,59.4999981842042,10|0,0:0|0:0,0:0:0:0:
15,53,112508,5,0,0:0:0:0:
92,20,112627,2,0,B|113:45|92:76|92:76|73:108|92:131,1,118.999996368408,2|0,0:0|0:0,0:0:0:0:
10,238,112984,2,0,P|32:212|59:205,1,59.4999981842042,2|0,0:0|0:0,0:0:0:0:
152,344,113222,2,0,P|143:320|124:303,1,50.9999984436036,10|0,0:0|0:0,0:0:0:0:
118,290,113460,2,0,P|97:280|76:283,1,42.5,0|0,0:0|0:0,0:0:0:0:
304,179,113698,6,0,P|250:206|239:263,1,118.999996368408,2|0,1:2|0:0,0:0:0:0:
455,365,114175,6,0,L|438:305,1,59.4999981842042,10|0,0:0|0:0,0:0:0:0:
410,199,114413,1,0,0:0:0:0:
477,245,114532,2,0,P|422:282|372:271,1,118.999996368408,10|0,0:0|0:0,0:0:0:0:
304,179,114889,6,0,L|287:119,1,59.4999981842042,2|0,0:0|0:0,0:0:0:0:
245,266,115127,2,0,L|176:286,1,68,10|0,0:0|0:0,0:0:0:0:
321,183,115365,2,0,L|300:106,1,76.4999976654053,0|0,0:0|0:0,0:0:0:0:
110,237,115603,6,0,B|78:229|59:261|59:261|39:292|10:285,1,118.999996368408,2|0,1:2|0:0,0:0:0:0:
23,21,116079,6,0,P|35:54|57:67,1,59.4999981842042,10|0,0:0|0:0,0:0:0:0:
160,115,116317,1,0,0:0:0:0:
123,38,116436,2,0,P|89:76|68:142,1,118.999996368408,10|0,0:0|0:0,0:0:0:0:
165,237,116794,2,0,P|153:204|131:191,1,59.4999981842042,2|0,0:0|0:0,0:0:0:0:
17,322,117032,2,0,P|26:298|45:281,1,50.9999984436036,10|0,0:0|0:0,0:0:0:0:
51,268,117270,2,0,P|72:258|93:261,1,42.5,0|0,0:0|0:0,0:0:0:0:
238,378,117508,6,0,P|207:327|149:320,1,118.999996368408,2|0,1:2|0:0,0:0:0:0:
337,228,117984,6,0,L|397:211,1,59.4999981842042,10|0,0:0|0:0,0:0:0:0:
510,181,118222,1,0,0:0:0:0:
457,246,118341,2,0,P|424:197|436:140,1,118.999996368408,2|0,0:0|0:0,0:0:0:0:
411,56,118698,2,0,P|433:30|460:23,1,59.4999981842042,2|0,0:0|0:0,0:0:0:0:
345,139,118937,2,0,P|336:115|317:98,1,50.9999984436036,10|0,0:0|0:0,0:0:0:0:
311,85,119175,2,0,P|290:75|269:78,1,42.5,0|0,0:0|0:0,0:0:0:0:
0,24,119413,6,0,P|27:33|45:56,1,59.4999981842042,6|0,1:2|0:0,0:0:0:0:
84,130,119651,1,2,0:0:0:0:
87,141,119770,1,0,0:0:0:0:
200,60,119889,2,0,P|166:63|144:81,1,59.4999981842042,10|0,0:0|0:0,0:0:0:0:
54,262,120127,5,0,0:0:0:0:
90,153,120246,2,0,B|79:183|110:205|110:205|139:228|129:256,1,118.999996368408,10|0,0:0|0:0,0:0:0:0:
97,336,120603,2,0,L|37:353,1,59.4999981842042,2|0,0:0|0:0,0:0:0:0:
217,251,120841,2,0,L|231:305,1,50.9999984436036,10|0,0:0|0:0,0:0:0:0:
227,312,121079,2,0,L|239:356,1,42.5,0|0,0:0|0:0,0:0:0:0:
413,320,121317,6,0,P|346:311|321:266,1,118.999996368408,2|0,1:2|0:0,0:0:0:0:
377,49,121794,6,0,P|404:58|422:81,1,59.4999981842042,10|0,0:0|0:0,0:0:0:0:
458,197,122032,1,0,0:0:0:0:
492,115,122151,2,0,P|441:117|379:149,1,118.999996368408,2|0,0:0|0:0,0:0:0:0:
272,298,122508,6,0,P|292:276|321:270,1,59.4999981842042,2|0,0:0|0:0,0:0:0:0:
201,230,122746,2,0,P|176:203|141:199,1,68,10|0,0:0|0:0,0:0:0:0:
273,317,122984,2,0,P|306:286|341:283,1,76.4999976654053,0|8,0:0|0:0,0:0:0:0:
316,76,123222,6,0,L|286:195,1,118.999996368408,2|0,1:2|0:0,0:0:0:0:
118,326,123698,6,0,P|90:316|72:293,1,59.4999981842042,10|0,0:0|0:0,0:0:0:0:
33,180,123937,1,0,0:0:0:0:
2,259,124056,2,0,P|49:218|106:224,1,118.999996368408,2|0,0:0|0:0,0:0:0:0:
200,261,124413,2,0,L|260:244,1,59.4999981842042,2|0,0:0|0:0,0:0:0:0:
358,353,124651,2,0,L|304:339,1,50.9999984436036,10|0,0:0|0:0,0:0:0:0:
297,343,124889,2,0,L|253:331,1,42.5,0|0,0:0|0:0,0:0:0:0:
381,165,125127,6,0,P|387:229|353:269,1,118.999996368408,2|0,1:2|0:0,0:0:0:0:
512,28,125603,6,0,P|453:32|420:79,1,114.749996498108,10|0,0:0|0:0,0:0:0:0:
416,89,125841,1,0,0:0:0:0:
252,161,125960,6,0,P|322:128|385:171,1,152.999995330811,2|0,0:0|0:0,0:0:0:0:
512,289,126317,6,0,L|422:265,1,93.5000028533936,2|0,0:0|0:0,0:0:0:0:
146,375,126556,6,0,P|79:329|221:328,1,386.749982295991,10|0,0:0|0:0,0:0:0:0:
149,297,127032,5,4,1:2:0:0:
8,24,127270,6,0,P|42:44|52:71,1,68,2|0,0:0|0:0,0:0:0:0:
0,143,127508,2,0,P|28:109|106:86,1,127.5,10|0,0:0|0:0,0:0:0:0:
121,87,127746,1,0,0:0:0:0:
275,83,127865,6,0,P|256:24|197:48,1,136,2|0,1:2|0:0,0:0:0:0:
314,167,128222,2,0,L|397:144,1,85,2|0,1:2|0:0,0:0:0:0:
256,239,128460,2,0,P|253:284|278:314,1,85,10|0,0:0|0:0,0:0:0:0:
58,172,128698,6,0,B|160:199,1,102,0|0,0:0|0:0,0:0:0:0:
169,201,128937,6,0,P|203:177|212:136,1,85,2|0,1:2|0:0,0:0:0:0:
107,20,129175,2,0,P|73:44|68:80,1,68
0,314,129413,6,0,P|38:273|110:282,1,127.5,10|0,0:0|0:0,0:0:0:0:
116,286,129651,1,0,0:0:0:0:
291,332,129770,6,0,P|218:360|213:290,1,170,2|0,1:2|0:0,0:0:0:0:
365,269,130127,2,0,L|435:250,1,68,2|0,1:2|0:0,0:0:0:0:
498,121,130365,2,0,L|479:191,1,68,10|0,0:0|0:0,0:0:0:0:
295,90,130603,6,0,P|337:52|382:60,1,102,2|0,0:0|0:0,0:0:0:0:
387,64,130841,2,0,P|403:102|394:132,1,68,0|0,1:0|0:0,0:0:0:0:
213,60,131079,2,0,L|126:37,1,85,2|0,0:0|0:0,0:0:0:0:
5,160,131317,6,0,P|46:119|111:130,1,127.5,10|0,0:0|0:0,0:0:0:0:
121,137,131556,1,0,0:0:0:0:
76,259,131675,6,0,P|27:247|0:170,1,136,2|0,1:2|0:0,0:0:0:0:
162,261,132032,2,0,P|187:299|183:338,1,85,2|0,1:2|0:0,0:0:0:0:
285,210,132270,2,0,L|368:187,1,85,10|0,0:0|0:0,0:0:0:0:
256,25,132508,6,0,P|225:75|217:122,1,102,0|0,0:0|0:0,0:0:0:0:
210,146,132746,6,0,P|200:102|166:78,1,85,2|0,1:2|0:0,0:0:0:0:
23,57,132984,2,0,L|100:36,1,68
314,111,133222,6,0,L|415:84,1,102,10|0,0:0|0:0,0:0:0:0:
427,82,133460,1,0,0:0:0:0:
239,240,133579,6,0,P|184:166|110:186,1,170,2|8,1:2|0:0,0:0:0:0:
197,300,133937,2,0,P|229:275|236:248,1,68,2|0,1:2|0:0,0:0:0:0:
66,20,134175,2,0,L|89:103,1,85,12|0,0:0|0:0,0:0:0:0:
117,179,134413,1,8,0:0:0:0:
120,190,134532,1,8,0:0:0:0:
0,297,134651,6,0,B|24:284|54:295|64:321|64:321|75:347|104:361|130:350,1,152.999995330811,4|0,1:2|0:0,0:0:0:0:
199,334,134889,2,0,P|227:331|200:336,1,85,2|0,0:0|0:0,0:0:0:0:
175,131,135127,2,0,P|140:179|131:251,1,127.5,10|0,0:0|0:0,0:0:0:0:
132,258,135365,1,0,0:0:0:0:
20,144,135484,6,0,P|54:75|102:93,1,136,2|0,1:2|0:0,0:0:0:0:
269,160,135841,2,0,P|313:151|335:116,1,85,2|0,1:2|0:0,0:0:0:0:
117,11,136079,2,0,L|98:82,1,68,10|0,0:0|0:0,0:0:0:0:
0,290,136317,6,0,L|125:259,1,127.5
182,302,136556,6,0,P|141:287|128:266,1,68,2|0,1:2|0:0,0:0:0:0:
174,129,136794,2,0,L|191:63,1,68,0|0,0:0|0:0,0:0:0:0:
391,54,137032,6,0,P|332:40|288:93,1,127.5,10|0,0:0|0:0,0:0:0:0:
286,98,137270,1,0,0:0:0:0:
453,210,137389,6,0,P|427:151|361:145,1,136,2|0,1:2|0:0,0:0:0:0:
286,229,137746,6,0,L|270:286,1,59.4999981842042,2|0,1:2|0:0,0:0:0:0:
158,354,137984,2,0,L|211:338,1,50.9999984436036,10|0,0:0|0:0,0:0:0:0:
285,368,138222,2,0,L|328:355,1,42.5,0|0,0:0|0:0,0:0:0:0:
269,286,138460,5,2,0:0:0:0:
258,144,140365,6,0,B|262:132|275:124|275:124|281:142|278:150,1,50.9999984436036,4|0,1:2|0:0,0:0:0:0:
210,217,140603,6,0,B|196:221|175:211|175:211|191:194|208:193,1,68,8|0,1:2|0:0,0:0:0:0:
300,216,140841,6,0,B|315:234|313:256|313:256|289:252|276:234,1,85,8|0,1:2|0:0,0:0:0:0:
192,148,141079,6,0,B|170:133|172:102|172:102|204:106|214:128,1,101.999996887207,8|0,1:2|0:0,0:0:0:0:
251,279,141317,6,0,B|246:310|212:318|212:318|194:289|210:260,1,118.999996368408,8|0,1:2|0:0,0:0:0:0:
328,154,141556,6,0,B|364:139|388:171|388:171|372:205|332:201,1,136,8|0,1:2|0:0,0:0:0:0:
174,235,141794,6,0,B|136:249|101:221|101:221|126:183|166:182,1,152.999995330811,8|0,1:2|0:0,0:0:0:0:
337,240,142032,6,0,B|374:263|362:317|362:317|307:311|295:271,1,170,8|8,0:0|0:0,0:0:0:0:
212,12,142270,5,6,1:2:0:0:
190,104,142389,2,0,L|285:78,1,93.5000028533936,0|0,0:0|0:0,0:0:0:0:
28,153,142627,5,2,1:2:0:0:
95,84,142746,2,0,L|119:174,1,93.5000028533936,8|0,0:0|0:0,0:0:0:0:
58,354,142984,5,2,1:2:0:0:
0,282,143103,2,0,B|35:261|69:284|78:315|78:315|90:347|128:364|155:348,1,187.000005706787,0|0,1:0|1:0,0:0:0:0:
282,384,143460,5,2,1:2:0:0:
207,303,143579,1,0,0:0:0:0:
308,305,143698,5,0,1:0:0:0:
218,297,143817,1,0,1:0:0:0:
273,228,143937,5,10,0:0:0:0:
227,291,144056,1,0,1:0:0:0:
133,125,144175,5,2,1:2:0:0:
91,198,144294,2,0,P|57:172|51:127,1,85,0|0,0:0|0:0,0:0:0:0:
265,24,144532,5,2,1:2:0:0:
307,97,144651,2,0,P|341:71|347:26,1,85,8|0,0:0|0:0,0:0:0:0:
172,226,144889,5,2,1:2:0:0:
91,198,145008,2,0,P|153:141|232:166,1,170,0|0,1:0|1:0,0:0:0:0:
448,254,145365,5,2,1:2:0:0:
294,212,145484,1,0,0:0:0:0:
381,223,145603,5,0,1:0:0:0:
367,227,145722,1,0,1:0:0:0:
445,176,145841,5,10,0:0:0:0:
318,286,145960,1,0,1:0:0:0:
478,347,146079,5,6,1:2:0:0:
268,372,146198,5,0,0:0:0:0:
312,278,146317,1,0,0:0:0:0:
414,287,146437,1,2,1:2:0:0:
259,368,146556,5,8,0:0:0:0:
307,271,146676,1,0,0:0:0:0:
257,188,146795,1,2,1:2:0:0:
151,296,146913,6,0,B|95:312|95:312|80:338|80:338|25:353,1,140.25000428009,0|0,1:0|0:0,0:0:0:0:
17,356,147151,1,0,1:0:0:0:
4,200,147270,5,2,1:2:0:0:
66,291,147389,1,0,0:0:0:0:
86,192,147508,5,0,1:0:0:0:
74,281,147627,1,0,1:0:0:0:
153,243,147747,5,10,0:0:0:0:
82,274,147866,1,0,1:0:0:0:
301,352,147984,5,2,1:2:0:0:
267,202,148103,2,0,P|181:260|160:381,1,220.999989883423,12|2,0:0|1:2,0:0:0:0:
169,163,148460,5,8,0:0:0:0:
196,315,148579,1,0,1:0:0:0:
167,153,148698,1,10,0:0:0:0:
363,230,148817,6,0,B|403:238|428:206|427:173|427:173|428:139|459:111|490:118,1,187.000005706787,4|0,1:2|1:0,0:0:0:0:
482,293,149175,5,14,0:0:0:0:
452,194,149294,1,0,0:0:0:0:
334,308,149413,5,0,1:0:0:0:
328,326,149532,1,0,1:0:0:0:
272,226,149651,5,2,1:2:0:0:
278,208,149770,1,0,1:0:0:0:
162,299,149889,6,0,B|98:317|98:317|74:352|74:352|19:367,1,165.749992412568,6|0,1:2|0:0,0:0:0:0:
7,370,150127,1,0,0:0:0:0:
92,202,150246,6,0,B|75:184|83:157|83:157|102:177|93:201,1,93.5000028533936,2|8,0:0|0:0,0:0:0:0:
182,310,150484,2,0,P|237:294|256:245,1,110.499994941712,2|0,0:0|0:0,0:0:0:0:
262,30,150722,6,0,B|222:35|222:35|180:118|180:118|176:152|204:170,1,187.000005706787,2|0,0:0|0:0,0:0:0:0:
357,122,151079,2,0,L|452:96,1,93.5000028533936,2|0,0:0|0:0,0:0:0:0:
473,353,151317,5,10,0:0:0:0:
460,331,151396,5,2,0:0:0:0:
441,313,151475,5,2,0:0:0:0:
418,303,151555,5,2,0:0:0:0:
394,302,151634,5,2,0:0:0:0:
370,307,151713,5,2,0:0:0:0:
310,349,151794,6,0,P|353:303|364:210,1,152.999995330811,2|0,1:2|0:0,0:0:0:0:
363,200,152032,1,0,0:0:0:0:
512,337,152151,6,0,P|466:337|435:308,1,85,2|8,0:0|0:0,0:0:0:0:
442,156,152389,2,0,L|469:56,1,101.999996887207,2|0,0:0|0:0,0:0:0:0:
228,28,152627,6,0,B|261:19|289:41|298:70|298:70|306:96|328:115|362:106,1,170,2|8,0:0|0:0,0:0:0:0:
237,254,152984,5,2,0:0:0:0:
281,101,153103,1,0,0:0:0:0:
266,174,153222,5,8,0:0:0:0:
270,188,153341,1,0,0:0:0:0:
315,252,153460,5,2,0:0:0:0:
207,125,153579,1,8,0:0:0:0:
18,227,153698,6,0,P|58:190|116:262,1,165.749992412568,6|0,1:2|0:0,0:0:0:0:
118,270,153937,1,0,0:0:0:0:
117,117,154056,2,0,B|136:101|132:73|132:73|111:90|116:115,1,93.5000028533936,2|8,0:0|0:0,0:0:0:0:
19,372,154294,5,2,0:0:0:0:
48,299,154413,1,0,0:0:0:0:
190,372,154532,2,0,P|243:366|273:321,1,110.499994941712,2|0,0:0|1:0,0:0:0:0:
395,190,154770,5,0,0:0:0:0:
414,278,154889,2,0,L|319:252,1,93.5000028533936,2|0,0:0|0:0,0:0:0:0:
283,100,155127,2,0,L|259:12,1,85,8|0,0:0|0:0,0:0:0:0:
181,212,155365,5,2,0:0:0:0:
177,226,155484,1,0,0:0:0:0:
208,299,155603,5,2,1:2:0:0:
98,215,155722,1,0,0:0:0:0:
227,161,155841,1,0,0:0:0:0:
78,300,155960,6,0,P|33:287|13:241,1,93.5000028533936,2|8,0:0|0:0,0:0:0:0:
148,152,156198,5,2,0:0:0:0:
177,226,156317,1,0,0:0:0:0:
175,26,156437,6,0,P|219:38|239:84,1,93.5000028533936,10|0,0:0|1:0,0:0:0:0:
227,161,156675,5,8,0:0:0:0:
374,118,156794,2,0,L|469:92,1,93.5000028533936,2|0,0:0|0:0,0:0:0:0:
277,339,157032,5,8,0:0:0:0:
342,241,157151,1,8,0:0:0:0:
347,358,157270,1,10,0:0:0:0:
274,267,157389,1,8,0:0:0:0:
388,297,157508,1,6,1:2:0:0:
0,180,157984,6,0,L|60:163,1,59.4999981842042,10|0,0:0|0:0,0:0:0:0:
215,119,158222,1,0,0:0:0:0:
137,17,158341,2,0,B|158:34|158:62|142:86|142:86|124:110|124:139|146:158,1,152.999995330811,2|0,0:0|0:0,0:0:0:0:
75,272,158698,6,0,P|94:245|122:235,1,59.4999981842042,2|0,0:0|0:0,0:0:0:0:
197,314,158937,2,0,P|200:285|187:259,1,59.4999981842042,8|0,0:0|0:0,0:0:0:0:
85,345,159175,2,0,P|109:362|139:364,1,59.4999981842042,2|0,0:0|0:0,0:0:0:0:
284,290,159413,6,0,B|344:272|344:272|360:255|360:255|428:236,1,152.999995330811,2|0,1:2|0:0,0:0:0:0:
512,35,159889,6,0,P|481:50|469:77,1,59.4999981842042,10|0,0:0|0:0,0:0:0:0:
443,154,160127,1,0,0:0:0:0:
373,32,160246,2,0,P|433:32|462:80,1,118.999996368408,2|0,0:0|0:0,0:0:0:0:
462,309,160603,5,0,0:0:0:0:
469,308,160722,1,0,0:0:0:0:
477,307,160841,2,0,B|527:299|527:299|400:265,1,178.499994552612,10|0,0:0|0:0,0:0:0:0:
338,229,161317,6,0,L|455:260,1,118.999996368408,2|0,1:2|0:0,0:0:0:0:
218,27,161794,6,0,P|241:48|248:79,1,59.4999981842042,10|0,0:0|0:0,0:0:0:0:
318,112,162032,1,0,0:0:0:0:
311,109,162151,2,0,B|281:96|256:121|256:121|229:146|201:135,1,118.999996368408,2|0,0:0|0:0,0:0:0:0:
130,110,162508,2,0,P|105:49|54:46,2,118.999996368408,2|8|2,0:0|0:0|0:0,0:0:0:0:
47,246,163222,6,0,P|19:239|0:217,1,59.4999981842042,2|0,1:2|0:0,0:0:0:0:
86,315,163460,2,0,P|60:329|31:328,1,59.4999981842042,0|0,0:0|0:0,0:0:0:0:
135,377,163698,2,0,P|158:356|165:325,1,59.4999981842042,10|0,0:0|0:0,0:0:0:0:
140,232,163937,5,0,0:0:0:0:
147,236,164056,2,0,P|212:262|263:264,1,118.999996368408,2|0,0:0|0:0,0:0:0:0:
363,309,164413,5,0,0:0:0:0:
356,312,164532,1,0,0:0:0:0:
349,315,164651,2,0,P|326:336|319:367,1,59.4999981842042,10|0,0:0|0:0,0:0:0:0:
486,331,164889,2,0,P|454:329|428:346,1,59.4999981842042,2|0,0:0|0:0,0:0:0:0:
404,124,165127,6,0,P|478:147|491:216,1,152.999995330811,6|0,1:2|0:0,0:0:0:0:
281,129,165603,6,0,L|221:112,1,59.4999981842042,10|0,0:0|0:0,0:0:0:0:
116,87,165841,1,0,0:0:0:0:
35,65,165960,2,0,P|97:73|139:-3,1,152.999995330811,2|0,0:0|0:0,0:0:0:0:
162,161,166317,6,0,P|175:193|170:220,1,59.4999981842042,2|0,0:0|0:0,0:0:0:0:
49,166,166556,2,0,P|80:179|96:202,1,59.4999981842042,8|0,0:0|0:0,0:0:0:0:
244,238,166794,2,0,P|230:269|207:285,1,59.4999981842042,2|0,0:0|0:0,0:0:0:0:
0,374,167032,6,0,B|60:356|60:356|73:334|73:334|136:315,1,152.999995330811,2|0,1:2|0:0,0:0:0:0:
395,214,167508,6,0,P|372:235|365:266,1,59.4999981842042,10|0,0:0|0:0,0:0:0:0:
352,357,167746,1,0,0:0:0:0:
455,327,167865,2,0,P|422:280|362:278,1,118.999996368408,2|0,0:0|0:0,0:0:0:0:
278,236,168222,5,0,0:0:0:0:
271,239,168341,1,0,0:0:0:0:
264,242,168460,2,0,P|241:263|233:286,1,50.9999984436036,10|0,0:0|0:0,0:0:0:0:
160,272,168698,2,0,P|157:297|164:314,1,42.5,2|0,0:0|0:0,0:0:0:0:
206,376,168937,5,6,1:2:0:0:
294,131,170841,6,0,B|245:86|260:21|260:21|231:82|166:89,1,237.999992736817,6|0,1:2|0:0,0:0:0:0:
1,84,171198,6,0,B|27:65|53:71|75:87|87:101|89:126|89:126|92:154|108:177|134:190|157:189|177:177|186:170,1,237.999992736817,6|0,1:2|0:0,0:0:0:0:
260,21,171556,5,2,1:2:0:0:
295,67,172746,5,6,1:2:0:0:
338,235,172865,1,8,0:0:0:0:
327,143,172984,5,0,1:0:0:0:
321,156,173103,1,0,1:0:0:0:
419,245,173222,5,10,0:0:0:0:
312,146,173341,1,0,1:0:0:0:
483,188,173460,5,8,0:0:0:0:
249,210,173579,2,0,P|155:247|61:374,1,255.000009727478,6|0,1:2|1:0,0:0:0:0:
30,132,173937,6,0,P|78:137|103:178,1,93.5000028533936,10|0,0:0|1:0,0:0:0:0:
232,384,174175,2,0,B|210:360|210:360|226:299,1,93.5000028533936,10|0,0:0|1:0,0:0:0:0:
346,68,174413,2,0,P|319:104|274:108,1,93.5000028533936,8|0,0:0|1:0,0:0:0:0:
33,27,174651,5,10,0:0:0:0:
76,24,174730,5,8,0:0:0:0:
107,56,174810,5,8,0:0:0:0:
117,94,174889,37,4,3:0:0:0:
119,109,174968,5,8,3:0:0:0:
121,123,175048,5,2,3:0:0:0:
109,148,175127,5,2,3:0:0:0:
107,163,175186,1,2,3:0:0:0:
105,180,175246,1,2,3:0:0:0:
103,198,175305,1,2,3:0:0:0:
113,231,175365,6,0,L|106:279,1,42.5,8|0,0:0|0:0,0:0:0:0:
50,343,175484,6,0,B|31:353|-1:348|-16:312|-7:288|2:269|42:261|66:257|94:279|111:301,1,204,6|0,1:2|0:0,0:0:0:0:
122,362,175722,1,0,1:0:0:0:
301,362,175841,6,0,P|349:342|363:303,1,93.5000028533936,8|0,0:0|0:0,0:0:0:0:
368,115,176079,5,2,1:2:0:0:
471,165,176198,1,8,0:0:0:0:
357,117,176317,5,10,0:0:0:0:
512,79,176437,1,8,0:0:0:0:
271,259,176556,6,0,B|250:183|250:183|256:166|256:166|235:89,1,165.749992412568,6|0,1:2|0:0,0:0:0:0:
221,26,176794,1,8,0:0:0:0:
277,82,176913,1,0,0:0:0:0:
98,154,177032,6,0,P|22:134|55:64,1,165.749992412568,2|0,1:2|0:0,0:0:0:0:
118,80,177270,1,8,0:0:0:0:
5,318,177389,6,0,B|16:274|16:274|104:250|104:250|138:250|152:273,1,187.000005706787,2|0,1:2|1:0,0:0:0:0:
341,379,177746,5,10,0:0:0:0:
268,354,177865,1,0,0:0:0:0:
326,206,177984,6,0,B|348:230|348:230|332:290,1,93.5000028533936,2|0,1:2|1:0,0:0:0:0:
204,113,178222,6,0,P|185:72|239:106,1,165.749992412568,8|0,0:0|0:0,0:0:0:0:
234,197,178460,6,0,B|196:178|164:203|158:236|158:236|149:268|113:288|79:272,1,191.250007295609,6|0,1:2|0:0,0:0:0:0:
14,251,178698,5,8,0:0:0:0:
169,297,178817,1,8,0:0:0:0:
86,158,178937,5,10,0:0:0:0:
180,300,179056,1,8,0:0:0:0:
46,364,179175,5,8,0:0:0:0:
233,215,179294,2,0,P|330:224|415:351,1,255.000009727478,6|0,1:2|1:0,0:0:0:0:
180,300,179651,5,10,0:0:0:0:
379,209,179770,1,8,0:0:0:0:
140,37,179889,6,0,P|97:43|160:104,1,191.250007295609,6|0,1:2|0:0,0:0:0:0:
225,50,180127,2,0,B|253:59|269:38|269:38|243:31|225:50,1,93.5000028533936,4|0,1:2|0:0,0:0:0:0:
31,300,180365,5,10,0:0:0:0:
108,145,180484,1,8,0:0:0:0:
124,235,180603,5,8,0:0:0:0:
47,80,180722,1,8,0:0:0:0:
0,381,180841,6,0,P|37:317|143:341,1,191.250007295609,6|0,1:2|0:0,0:0:0:0:
210,358,181079,1,8,0:0:0:0:
316,181,181198,6,0,P|223:192|209:258,1,165.749992412568,2|0,1:2|0:0,0:0:0:0:
154,309,181437,1,0,1:0:0:0:
370,364,181556,6,0,P|410:328|413:289,1,93.5000028533936,10|0,0:0|0:0,0:0:0:0:
340,90,181794,2,0,L|314:185,1,93.5000028533936,0|0,1:0|1:0,0:0:0:0:
413,290,182032,6,0,B|460:284|486:318|486:318|463:283|484:237,1,165.749992412568,10|0,0:0|0:0,0:0:0:0:
435,70,182270,6,0,L|409:165,1,93.5000028533936,2|0,1:2|0:0,0:0:0:0:
188,112,182508,2,0,P|163:67|180:25,1,93.5000028533936,8|0,0:0|0:0,0:0:0:0:
221,285,182746,6,0,B|163:271|143:328|143:328|125:379|67:368,1,191.250007295609,6|0,1:2|0:0,0:0:0:0:
0,353,182984,1,8,0:0:0:0:
88,131,183103,6,0,B|111:211|111:211|105:228|105:228|126:305,1,178.499994552612,6|0,1:2|0:0,0:0:0:0:
145,374,183341,1,0,1:0:0:0:
328,216,183460,6,0,P|304:170|265:163,1,93.5000028533936,8|0,0:0|0:0,0:0:0:0:
104,276,183698,2,0,L|129:366,1,93.5000028533936,2|0,1:2|1:0,0:0:0:0:
12,112,183937,6,0,P|59:58|148:82,1,165.749992412568,10|0,0:0|0:0,0:0:0:0:
208,129,184175,6,0,B|230:153|230:153|214:213,1,93.5000028533936,6|0,1:2|0:0,0:0:0:0:
332,384,184413,2,0,B|310:360|310:360|326:300,1,93.5000028533936,8|0,0:0|0:0,0:0:0:0:
377,98,184651,6,0,P|432:76|472:165,1,165.749992412568,2|0,1:2|0:0,0:0:0:0:
449,223,184889,1,8,0:0:0:0:
208,129,185008,6,0,B|203:106|176:98|176:98|254:121|254:121|290:136|293:171,1,187.000005706787,2|0,1:2|1:0,0:0:0:0:
74,255,185365,6,0,P|28:286|21:330,1,93.5000028533936,10|0,0:0|0:0,0:0:0:0:
252,258,185603,2,0,L|359:229,1,110.499994941712,0|0,1:0|1:0,0:0:0:0:
151,18,185841,2,0,P|105:49|98:93,1,93.5000028533936,10|0,0:0|0:0,0:0:0:0:
176,315,186079,5,6,1:2:0:0:
274,170,186198,1,8,0:0:0:0:
252,258,186317,5,4,3:0:0:0:
260,271,186437,1,0,1:0:0:0:
186,198,186556,5,8,0:0:0:0:
363,252,186675,1,0,1:0:0:0:
172,195,186794,5,8,0:0:0:0:
368,90,186913,2,0,B|406:75|437:108|439:141|439:141|442:174|476:205|515:188,1,203.999993774414,4|0,1:2|1:0,0:0:0:0:
278,88,187270,5,10,0:0:0:0:
412,174,187389,1,8,0:0:0:0:
324,168,187508,1,0,1:0:0:0:
318,9,187627,5,8,0:0:0:0:
316,179,187746,1,10,0:0:0:0:
466,102,187865,1,8,0:0:0:0:
230,158,187984,6,0,B|143:134|143:134|126:140|126:140|40:116,1,191.250007295609,6|0,1:2|0:0,0:0:0:0:
0,59,188222,6,0,B|0:37|8:16|32:3|61:5|93:26|80:57|76:77|71:95|61:110|49:119|32:123,1,191.250007295609,8|0,0:0|0:0,0:0:0:0:
26,240,188460,2,0,B|8:296|8:296|-1:258,1,93.5000028533936,2|0,1:2|0:0,0:0:0:0:
173,61,188698,5,8,0:0:0:0:
143,298,188817,2,0,B|153:266|153:266|208:252|208:252|211:243|211:243|217:250|217:250|267:236|267:236|298:264,1,191.250007295609,2|0,1:2|0:0,0:0:0:0:
343,307,189056,1,0,1:0:0:0:
179,120,189175,6,0,P|170:93|182:120,1,93.5000028533936,10|0,0:0|0:0,0:0:0:0:
376,199,189413,2,0,B|457:177|457:177|423:215,1,127.500004863739,0|0,1:0|1:0,0:0:0:0:
327,4,189651,6,0,B|310:65|310:65|316:82|316:82|300:138,1,140.25000428009,10|0,0:0|0:0,0:0:0:0:
274,222,189889,6,0,P|266:263|277:222,1,127.500004863739,2|0,1:2|0:0,0:0:0:0:
20,153,190127,2,0,L|112:178,1,93.5000028533936,8|0,0:0|0:0,0:0:0:0:
448,272,190365,6,0,B|422:256|393:263|367:281|366:314|366:314|364:350|347:368|318:380|284:365,1,216.750004134178,6|0,1:2|0:0,0:0:0:0:
223,338,190603,1,8,0:0:0:0:
411,124,190722,6,0,P|404:44|336:106,1,204,6|0,1:2|0:0,0:0:0:0:
350,169,190960,1,0,1:0:0:0:
239,42,191079,6,0,B|210:45|198:22|198:22|228:18|240:39,1,93.5000028533936,8|0,0:0|0:0,0:0:0:0:
59,190,191317,2,0,L|161:165,1,93.5000028533936,2|0,1:2|1:0,0:0:0:0:
373,348,191556,6,0,B|375:350|390:340|408:330|415:316|419:296|436:267|409:240|381:233|355:241|343:260|338:281,1,191.250007295609,10|0,0:0|0:0,0:0:0:0:
509,372,191794,6,0,B|452:358|452:358|435:364|435:364|373:348,1,140.25000428009,6|0,1:2|0:0,0:0:0:0:
266,324,192032,2,0,P|220:335|199:375,1,93.5000028533936,8|0,0:0|0:0,0:0:0:0:
311,175,192270,6,0,B|347:49|347:49|332:87|295:85,1,191.250007295609,2|0,1:2|0:0,0:0:0:0:
242,134,192508,1,8,0:0:0:0:
26,82,192627,6,0,P|36:14|111:64,1,187.000005706787,2|0,1:2|1:0,0:0:0:0:
28,260,192984,2,0,B|13:250|-10:257|-10:257|9:214|61:221,1,127.500004863739,10|0,0:0|0:0,0:0:0:0:
252,241,193222,2,0,L|344:216,1,93.5000028533936,2|0,1:2|1:0,0:0:0:0:
270,0,193460,6,0,B|253:61|253:61|259:78|259:78|243:134,1,140.25000428009,10|0,0:0|0:0,0:0:0:0:
238,243,193698,6,0,B|212:227|183:234|157:252|156:285|156:285|154:321|129:338|100:345|77:328,1,216.750004134178,6|0,1:2|0:0,0:0:0:0:
15,296,193937,5,8,0:0:0:0:
152,230,194056,1,8,0:0:0:0:
0,176,194175,5,10,0:0:0:0:
156,243,194294,1,8,0:0:0:0:
61,69,194413,5,8,0:0:0:0:
162,255,194532,2,0,P|264:243|341:85,1,289.000005512238,6|0,1:2|1:0,0:0:0:0:
328,14,194889,5,10,0:0:0:0:
269,203,195008,1,8,0:0:0:0:
480,85,195127,6,0,B|507:89|529:75|542:51|540:22|510:-11|488:3|468:7|449:6|431:19|418:37|409:55,1,216.750004134178,6|0,1:2|0:0,0:0:0:0:
430,231,195365,2,0,B|460:239|472:267|472:267|462:240|484:210,1,110.499994941712,4|0,1:2|0:0,0:0:0:0:
221,80,195603,5,10,0:0:0:0:
378,128,195722,1,8,0:0:0:0:
138,139,195841,5,8,0:0:0:0:
317,47,195960,1,8,0:0:0:0:
221,269,196079,6,0,B|145:247|145:247|141:237|141:237|135:244|135:244|69:227|69:227|25:267,1,216.750004134178,6|0,1:2|0:0,0:0:0:0:
0,190,196317,1,8,0:0:0:0:
190,27,196437,6,0,B|166:114|166:114|172:131|172:131|148:217,1,191.250007295609,2|0,1:2|0:0,0:0:0:0:
127,283,196675,1,0,1:0:0:0:
37,53,196794,6,0,P|3:23|34:55,1,136,10|0,0:0|0:0,0:0:0:0:
172,171,197032,2,0,L|197:79,1,93.5000028533936,2|0,1:2|1:0,0:0:0:0:
0,280,197270,6,0,B|37:262|68:288|75:320|75:320|82:353|118:374|153:357,1,191.250007295609,8|0,0:0|0:0,0:0:0:0:
272,329,197508,6,0,B|372:300|372:300|347:309|343:332,1,140.25000428009,2|0,1:2|0:0,0:0:0:0:
192,283,197746,2,0,B|167:291|149:269|149:269|176:261|193:282,1,93.5000028533936,8|0,0:0|0:0,0:0:0:0:
512,311,197984,6,0,P|532:238|445:279,1,216.750004134178,6|0,1:2|0:0,0:0:0:0:
447,350,198222,1,8,0:0:0:0:
263,168,198341,6,0,P|259:93|338:139,1,204,6|0,1:2|0:0,0:0:0:0:
329,216,198579,1,0,1:0:0:0:
456,48,198698,6,0,P|465:22|458:50,1,93.5000028533936,8|0,0:0|0:0,0:0:0:0:
242,269,198937,6,0,B|162:251|162:251|125:277,1,127.500004863739,2|0,1:2|1:0,0:0:0:0:
109,51,199175,6,0,B|122:-2|180:8|180:8|193:66|146:80,1,178.499994552612,10|0,0:0|0:0,0:0:0:0:
0,107,199413,6,0,B|41:99|60:135|60:135|78:169|117:161,1,140.25000428009,6|0,1:2|0:0,0:0:0:0:
249,136,199651,2,0,P|278:127|247:133,1,93.5000028533936,8|0,0:0|0:0,0:0:0:0:
153,379,199889,6,0,B|175:299|175:299|165:273|165:273|188:191,1,191.250007295609,2|0,1:2|0:0,0:0:0:0:
117,161,200127,1,8,0:0:0:0:
363,272,200246,6,0,B|483:235|483:235|447:247|438:277,1,187.000005706787,2|0,1:2|1:0,0:0:0:0:
261,377,200603,6,0,B|292:347|292:347|266:261,1,127.500004863739,10|0,0:0|0:0,0:0:0:0:
399,94,200841,2,0,B|371:127|371:127|388:182,1,93.5000028533936,2|0,1:2|1:0,0:0:0:0:
485,379,201079,6,0,B|398:355|398:355|381:361|381:361|295:337,1,191.250007295609,8|0,0:0|0:0,0:0:0:0:
187,327,201317,5,6,1:2:0:0:
363,272,201437,1,8,0:0:0:0:
253,261,201556,5,4,3:0:0:0:
301,338,201675,1,2,3:0:0:0:
325,127,201794,5,10,0:0:0:0:
247,271,201913,1,2,3:0:0:0:
237,84,202032,5,8,0:0:0:0:
365,284,202151,2,0,P|384:174|443:56,1,237.999992736817,6|0,1:2|1:0,0:0:0:0:
499,279,202508,5,8,0:0:0:0:
338,207,202627,1,8,0:0:0:0:
436,178,202746,1,6,1:2:0:0:
317,127,202865,5,8,0:0:0:0:
448,176,202984,1,10,0:0:0:0:
262,265,203103,1,8,0:0:0:0:
511,283,203222,6,0,B|487:266|456:273|432:292|423:322|423:322|416:350|396:370|363:380|335:361,1,216.750004134178,6|0,1:2|0:0,0:0:0:0:
205,348,203460,2,0,B|177:339|161:360|161:360|187:367|205:348,1,93.5000028533936,8|0,0:0|0:0,0:0:0:0:
307,72,203698,6,0,B|325:131|325:131|321:151|321:151|339:213,1,140.25000428009,2|0,1:2|0:0,0:0:0:0:
360,276,203937,1,8,0:0:0:0:
134,123,204056,6,0,P|105:72|209:98,1,255.000009727478,2|0,1:2|1:0,0:0:0:0:
90,293,204413,6,0,B|74:325|30:328|30:328|2:295|20:263,1,144.500002756119,10|0,0:0|0:0,0:0:0:0:
245,225,204651,2,0,L|343:205,1,93.5000028533936,0|0,1:0|1:0,0:0:0:0:
134,123,204889,6,0,B|14:148|14:148|69:162,1,178.499994552612,10|0,0:0|0:0,0:0:0:0:
226,296,205127,6,0,B|236:319|260:330|291:324|313:303|307:276|298:248|281:236|267:227|245:225,1,187.000005706787,2|8,1:2|0:0,0:0:0:0:
52,59,205484,5,0,0:0:0:0:
127,12,205603,2,0,B|158:42|158:42|132:128,1,127.500004863739,2|0,1:2|0:0,0:0:0:0:
73,370,205841,5,8,0:0:0:0:
1,272,205960,2,0,B|23:264|49:271|70:292|73:314|73:314|77:336|96:356|116:366|144:359,1,187.000005706787,2|0,1:2|1:0,0:0:0:0:
386,368,206317,5,8,0:0:0:0:
322,320,206437,1,0,0:0:0:0:
421,149,206556,6,0,P|470:186|467:251,1,118.999996368408,2|0,1:2|1:0,0:0:0:0:
232,249,206794,2,0,B|159:271|159:271|200:238,1,127.500004863739,10|0,0:0|0:0,0:0:0:0:
424,38,207032,6,0,B|399:129|399:129|377:150|377:150|351:242,1,216.750004134178,6|0,1:2|0:0,0:0:0:0:
245,338,207270,2,0,B|189:354|189:354|226:357,1,93.5000028533936,8|0,0:0|0:0,0:0:0:0:
512,356,207508,6,0,B|471:364|452:328|452:328|434:294|395:302,1,140.25000428009,2|0,1:2|0:0,0:0:0:0:
322,320,207746,1,8,0:0:0:0:
376,64,207865,6,0,P|381:5|448:87,1,255.000009727478,2|0,1:2|1:0,0:0:0:0:
384,164,208222,6,0,B|402:207|364:230|364:230|345:191|383:164,1,144.500002756119,10|0,0:0|0:0,0:0:0:0:
512,356,208460,2,0,L|415:328,1,93.5000028533936,0|0,1:0|1:0,0:0:0:0:
159,249,208698,2,0,B|245:223|245:223|210:257,1,127.500004863739,10|0,0:0|0:0,0:0:0:0:
512,27,208937,6,0,P|502:104|449:125,1,140.25000428009,6|0,1:2|0:0,0:0:0:0:
362,92,209175,2,0,P|344:45|361:1,1,93.5000028533936,8|0,0:0|0:0,0:0:0:0:
24,48,209413,6,0,P|126:21|218:77,1,216.750004134178,6|0,1:2|0:0,0:0:0:0:
260,136,209651,1,8,0:0:0:0:
383,373,209770,6,0,P|344:307|470:348,1,322.99999137497,6|0,1:2|1:0,0:0:0:0:
37,370,210127,5,8,0:0:0:0:
118,342,210246,1,0,0:0:0:0:
19,223,210365,5,10,0:0:0:0:
181,278,210484,1,8,0:0:0:0:
10,232,210603,5,10,0:0:0:0:
187,155,210722,1,8,0:0:0:0:
0,45,210841,6,0,B|24:28|55:35|79:54|88:84|88:84|95:112|115:132|148:142|176:123,1,216.750004134178,6|0,1:2|0:0,0:0:0:0:
303,80,211079,2,0,B|331:89|347:68|347:68|321:61|303:80,1,93.5000028533936,8|0,0:0|0:0,0:0:0:0:
164,202,211317,6,0,B|137:226|137:226|172:117,1,140.25000428009,2|0,1:2|0:0,0:0:0:0:
157,53,211556,1,8,0:0:0:0:
321,262,211675,6,0,P|387:314|379:199,1,255.000009727478,2|0,1:2|1:0,0:0:0:0:
221,289,212032,6,0,B|193:376|193:376|204:344|236:340,1,144.500002756119,10|0,0:0|0:0,0:0:0:0:
390,201,212270,2,0,L|480:172,1,93.5000028533936,0|0,1:0|1:0,0:0:0:0:
226,41,212508,6,0,P|157:44|86:122,1,178.499994552612,10|0,0:0|0:0,0:0:0:0:
1,110,212746,6,0,B|32:101|65:122|73:156|73:156|83:189|120:210|152:199,1,187.000005706787,6|8,1:2|0:0,0:0:0:0:
427,70,213103,5,0,0:0:0:0:
352,23,213222,2,0,B|321:53|321:53|347:139,1,127.500004863739,2|0,1:2|0:0,0:0:0:0:
403,366,213460,5,8,0:0:0:0:
484,253,213579,2,0,B|454:238|418:244|396:270|392:306|392:306|387:338|370:364|334:375|302:355,1,237.999992736817,6|0,1:2|0:0,0:0:0:0:
160,278,213937,5,8,3:0:0:0:
249,295,214056,1,8,3:0:0:0:
16,367,214175,5,4,3:0:0:0:
2,294,214294,1,4,3:0:0:0:
124,152,214413,5,2,3:0:0:0:
137,200,214532,1,2,3:0:0:0:
68,249,214651,6,0,P|181:241|270:368,1,280.500008560181,6|0,1:2|1:0,0:0:0:0:
484,287,215127,6,0,P|449:341|376:346,1,140.25000428009,10|0,0:0|0:0,0:0:0:0:
366,342,215365,1,0,1:0:0:0:
164,324,215484,6,0,P|244:300|276:201,1,187.000005706787,10|0,0:0|0:0,0:0:0:0:
15,59,215841,6,0,P|-7:103|2:148,1,93.5000028533936,2|0,1:2|0:0,0:0:0:0:
181,43,216079,2,0,P|143:12|98:11,1,93.5000028533936,8|0,0:0|0:0,0:0:0:0:
135,163,216317,5,10,0:0:0:0:
141,172,216436,1,8,0:0:0:0:
358,44,216556,6,0,P|367:18|363:43,1,85,4|0,1:2|0:0,0:0:0:0:
446,131,216794,6,0,P|438:99|441:130,1,101.999996887207,8|0,1:2|0:0,0:0:0:0:
319,237,217032,6,0,P|337:197|324:236,1,152.999995330811,8|0,1:2|0:0,0:0:0:0:
474,342,217270,6,0,P|456:296|469:341,1,170,8|0,1:2|0:0,0:0:0:0:
293,384,217508,5,6,1:2:0:0:
57,225,217984,5,6,1:2:0:0:
271,28,218460,6,0,B|299:76|258:113|258:113|217:149|248:199,1,178.499994552612,6|0,1:2|0:0,0:0:0:0:
295,254,218698,5,2,0:0:0:0:
292,264,218817,1,0,1:0:0:0:
405,206,218936,2,0,L|324:183,1,85,10|0,0:0|0:0,0:0:0:0:
149,353,219175,5,0,1:0:0:0:
68,325,219294,2,0,P|104:280|209:295,1,170,2|0,1:2|1:0,0:0:0:0:
401,378,219651,2,0,P|359:355|350:317,1,85,2|0,1:2|0:0,0:0:0:0:
473,72,219889,5,0,1:0:0:0:
468,188,220008,1,0,1:0:0:0:
402,91,220127,1,10,0:0:0:0:
512,131,220246,1,0,1:0:0:0:
400,163,220365,2,0,L|319:186,1,85,2|0,1:2|0:0,0:0:0:0:
160,199,220603,5,2,1:2:0:0:
160,210,220722,1,0,1:0:0:0:
239,73,220841,2,0,P|193:95|180:129,1,85,10|0,0:0|0:0,0:0:0:0:
159,220,221079,5,0,1:0:0:0:
239,355,221198,2,0,P|241:304|219:276,1,85,2|0,1:2|0:0,0:0:0:0:
159,232,221436,5,0,1:0:0:0:
0,232,221555,2,0,P|42:261|78:255,1,85,2|0,1:2|0:0,0:0:0:0:
424,171,221794,5,0,1:0:0:0:
424,288,221913,1,0,1:0:0:0:
493,193,222032,1,10,0:0:0:0:
382,229,222151,1,0,1:0:0:0:
498,271,222270,2,0,P|457:207|373:243,1,165.749992412568,6|0,1:2|0:0,0:0:0:0:
317,280,222508,5,0,0:0:0:0:
307,277,222627,1,0,1:0:0:0:
400,369,222746,2,0,L|423:288,1,85,10|0,0:0|0:0,0:0:0:0:
275,107,222984,5,0,1:0:0:0:
176,31,223103,2,0,P|172:91|269:108,1,170,2|0,1:2|1:0,0:0:0:0:
433,39,223460,2,0,P|388:51|368:87,1,85,2|0,1:2|0:0,0:0:0:0:
19,219,223698,5,0,1:0:0:0:
131,185,223817,1,0,1:0:0:0:
58,278,223936,1,10,0:0:0:0:
62,162,224055,1,0,1:0:0:0:
127,257,224174,1,2,1:2:0:0:
15,369,224294,6,0,P|62:309|221:319,1,237.999992736817,12|0,0:0|1:0,0:0:0:0:
451,381,224651,5,8,0:0:0:0:
321,344,224770,1,0,1:0:0:0:
461,384,224889,1,8,0:0:0:0:
452,145,225008,6,0,B|420:255|420:255|428:225|414:196,1,170,2|0,1:2|1:0,0:0:0:0:
277,101,225365,2,0,L|254:20,1,85,10|0,0:0|0:0,0:0:0:0:
0,175,225603,5,0,1:0:0:0:
73,161,225722,1,0,1:0:0:0:
168,250,225841,5,10,0:0:0:0:
120,237,225960,1,0,1:0:0:0:
0,279,226079,6,0,B|54:270|74:321|74:321|93:372|151:361,1,178.499994552612,6|0,1:2|0:0,0:0:0:0:
244,319,226317,5,2,0:0:0:0:
254,322,226436,1,0,1:0:0:0:
196,209,226555,2,0,L|173:290,1,85,10|0,0:0|0:0,0:0:0:0:
363,374,226794,5,0,1:0:0:0:
396,238,226913,2,0,P|451:219|490:306,1,170,2|0,1:2|1:0,0:0:0:0:
312,194,227270,2,0,L|289:113,1,85,2|0,1:2|0:0,0:0:0:0:
39,343,227508,5,0,1:0:0:0:
44,227,227627,1,0,1:0:0:0:
110,324,227746,1,10,0:0:0:0:
0,284,227865,1,0,1:0:0:0:
112,252,227984,2,0,L|193:229,1,85,2|0,1:2|0:0,0:0:0:0:
414,156,228222,5,2,1:2:0:0:
414,167,228341,1,0,1:0:0:0:
493,30,228460,2,0,P|447:52|434:86,1,85,10|0,0:0|0:0,0:0:0:0:
413,177,228698,5,0,1:0:0:0:
493,312,228817,2,0,P|495:261|473:233,1,85,2|0,1:2|0:0,0:0:0:0:
413,189,229055,5,0,1:0:0:0:
254,189,229174,2,0,P|296:218|332:212,1,85,2|0,1:2|0:0,0:0:0:0:
75,27,229413,5,0,1:0:0:0:
75,144,229532,1,0,1:0:0:0:
6,49,229651,1,10,0:0:0:0:
117,85,229770,1,0,1:0:0:0:
2,124,229890,2,0,P|100:152|113:208,1,165.749992412568,6|0,1:2|0:0,0:0:0:0:
126,300,230128,5,2,0:0:0:0:
129,310,230247,1,0,1:0:0:0:
24,362,230366,2,0,L|47:280,1,85,10|0,0:0|0:0,0:0:0:0:
96,103,230604,5,0,1:0:0:0:
0,210,230723,2,0,B|71:189|71:189|91:195|91:195|163:174,1,170,2|0,1:2|0:0,0:0:0:0:
118,20,231080,2,0,L|96:101,1,85,2|0,1:2|0:0,0:0:0:0:
360,326,231317,5,0,1:0:0:0:
423,227,231436,1,0,1:0:0:0:
429,345,231555,1,10,0:0:0:0:
356,254,231674,1,0,1:0:0:0:
468,283,231793,1,2,1:2:0:0:
288,198,231913,6,0,B|212:155|166:196|148:226|157:257|177:278|198:281|225:273|239:251,1,237.999992736817,12|0,0:0|1:0,0:0:0:0:
472,55,232270,5,10,0:0:0:0:
435,185,232389,1,0,1:0:0:0:
475,45,232508,1,8,0:0:0:0:
382,260,232627,6,0,B|352:303|389:334|389:334|444:324|437:271,1,170,2|0,1:2|1:0,0:0:0:0:
462,86,232984,2,0,B|482:69|474:45|474:45|454:61|462:86,1,85,10|0,0:0|0:0,0:0:0:0:
288,198,233222,5,2,1:2:0:0:
160,134,233341,1,0,1:0:0:0:
192,230,233460,5,2,1:2:0:0:
256,102,233579,1,8,0:0:0:0:
