osu file format v14

[General]
AudioFilename: audio.mp3
AudioLeadIn: 0
PreviewTime: 65306
Countdown: 0
SampleSet: Soft
StackLeniency: 0.4
Mode: 0
LetterboxInBreaks: 0
WidescreenStoryboard: 1

[Editor]
Bookmarks: 50841,74175,81317,111794,127032,149889,157508,168817,172746,203222,218460
DistanceSpacing: 0.4
BeatDivisor: 4
GridSize: 32
TimelineZoom: 5.200003

[Metadata]
Title:Reason For Existence
TitleUnicode:生きるよすが
Artist:Tsukuyomi
ArtistUnicode:月詠み
Creator:Nevertary
Version:My Angel Jeremy's Extra
Source:
Tags:Ikiru Yosuga 1st Story ユエ Yue ユリイ・カノン YurryCanon japanese rock j-rock jrock my angel jeremy my_angel_jeremy
BeatmapID:3692029
BeatmapSetID:1756246

[Difficulty]
HPDrainRate:5
CircleSize:4.4
OverallDifficulty:8.3
ApproachRate:9.3
SliderMultiplier:1.69
SliderTickRate:1

[Events]
//Background and Video events
Video,-100,"bgv.mp4"
0,0,"BG.jpg",0,0
//Break Periods
2,96756,103144
//Storyboard Layer 0 (Background)
//Storyboard Layer 1 (Fail)
//Storyboard Layer 2 (Pass)
//Storyboard Layer 3 (Foreground)
//Storyboard Layer 4 (Overlay)
//Storyboard Sound Samples

[TimingPoints]
1318,238.095238095238,4,2,2,60,1,0
1318,-133.333333333333,4,2,2,60,0,0
15603,-100,4,2,2,60,0,0
19889,-200,4,2,2,50,0,0
20365,-90.9090909090909,4,2,1,75,0,0
35603,-166.666666666667,4,2,2,55,0,0
43222,-125,4,2,2,60,0,0
50841,-100,4,2,2,65,0,0
62270,-125,4,2,2,50,0,0
62746,-100,4,2,2,60,0,0
63222,-83.3333333333333,4,2,2,70,0,0
63698,-71.4285714285714,4,2,2,75,0,0
64175,-133.333333333333,4,2,2,60,0,0
66079,-66.6666666666667,4,2,1,80,0,0
66556,-76.9230769230769,4,2,1,80,0,0
73222,-66.6666666666667,4,2,1,80,0,0
73460,-100,4,2,1,80,0,0
74175,-66.6666666666667,4,2,1,80,0,0
74889,-76.9230769230769,4,2,1,80,0,0
87508,-57.1428571428571,4,2,1,80,0,0
88460,-76.9230769230769,4,2,1,80,0,0
92746,-90.9090909090909,4,2,1,80,0,0
94651,-133.333333333333,4,2,1,60,0,0
95127,-100,4,2,1,70,0,0
95603,-80,4,2,1,80,0,0
96079,-117.647058823529,4,2,1,80,0,0
96556,-80,4,2,2,70,0,0
104175,-133.333333333333,4,2,2,70,0,0
111794,-125,4,2,2,65,0,0
127032,-100,4,2,2,70,0,0
141317,-83.3333333333333,4,2,2,75,0,0
142270,-83.3333333333333,4,2,1,75,0,0
151794,-90.9090909090909,4,2,1,75,0,0
154532,-83.3333333333333,4,2,1,75,0,0
157508,-125,4,2,2,60,0,0
170841,-83.3333333333333,4,2,2,60,0,0
171198,-125,4,2,2,70,0,0
172746,-76.9230769230769,4,2,1,80,0,0
174886,-90.9090909090909,4,2,1,80,0,0
175127,-111.111111111111,4,2,1,80,0,0
175484,-71.4285714285714,4,2,1,80,0,0
176556,-76.9230769230769,4,2,1,80,0,0
179889,-66.6666666666667,4,2,1,80,0,0
181556,-76.9230769230769,4,2,1,80,0,0
187984,-66.6666666666667,4,2,1,80,0,0
209413,-50,4,2,1,80,0,0
210841,-66.6666666666667,4,2,1,80,0,0
214175,-76.9230769230769,4,2,1,80,0,0
214651,-83.3333333333333,4,2,1,80,0,0
216556,-125,4,2,1,80,0,0
216794,-111.111111111111,4,2,1,80,0,0
217032,-100,4,2,1,80,0,0
217270,-90.9090909090909,4,2,1,80,0,0
217508,-83.3333333333333,4,2,1,80,0,0
217984,-125,4,2,1,80,0,0
218460,-83.3333333333333,4,2,1,75,0,0

[Colours]
Combo1 : 113,168,213
Combo2 : 22,75,107
Combo3 : 132,147,204
Combo4 : 211,118,86

[HitObjects]
47,69,8937,6,0,P|97:49|172:36,1,126.750004835129,2|0,1:2|0:0,0:0:0:0:
259,135,9413,2,0,P|291:171|282:220,1,95.0625036263467,2|0,1:2|0:0,0:0:0:0:
271,227,9651,1,0,0:0:0:0:
152,289,9770,6,0,B|230:273|200:334|294:323,1,126.750004835129,2|0,0:0|0:0,0:0:0:0:
329,277,10127,2,0,P|363:270|396:302,1,63.3750024175645,2|0,0:0|0:0,0:0:0:0:
439,345,10365,2,0,P|473:352|506:320,1,63.3750024175645,2|0,1:2|0:0,0:0:0:0:
512,213,10603,1,0,0:0:0:0:
512,213,10841,6,0,L|499:138,1,63.3750024175645,2|0,1:2|0:0,0:0:0:0:
435,221,11079,2,0,L|423:148,1,63.3750024175645,0|0,0:0|0:0,0:0:0:0:
395,57,11317,2,0,P|345:44|283:33,1,95.0625036263467,2|0,1:2|0:0,0:0:0:0:
281,44,11556,1,0,0:0:0:0:
226,107,11675,6,0,B|124:121|173:33|58:41,1,190.125007252693,2|0,0:0|0:0,0:0:0:0:
59,40,12270,2,0,P|36:78|44:108,1,63.3750024175645,2|0,1:2|0:0,0:0:0:0:
0,165,12508,2,0,P|21:203|51:211,1,63.3750024175645,0|0,0:0|0:0,0:0:0:0:
115,261,12746,5,2,1:2:0:0:
0,165,12984,1,0,0:0:0:0:
150,70,13222,2,0,P|198:72|232:120,1,95.0625036263467,2|0,1:2|0:0,0:0:0:0:
237,132,13460,1,0,0:0:0:0:
175,200,13579,2,0,P|147:285|135:347,1,126.750004835129,2|0,0:0|0:0,0:0:0:0:
201,375,13937,6,0,P|232:373|249:347,1,63.3750024175645,2|0,0:0|0:0,0:0:0:0:
393,277,14175,2,0,P|375:251|344:249,1,63.3750024175645,2|0,1:2|0:0,0:0:0:0:
318,372,14413,2,0,P|331:344|317:316,1,63.3750024175645,0|0,0:0|0:0,0:0:0:0:
334,177,14651,1,2,0:0:0:0:
334,177,15603,5,4,1:2:0:0:
316,158,15722,1,0,0:0:0:0:
292,149,15841,1,8,0:0:0:0:
266,147,15960,1,0,0:0:0:0:
247,164,16079,1,8,0:0:0:0:
195,219,16198,1,8,0:0:0:0:
120,203,16317,1,8,0:0:0:0:
108,127,16437,1,8,0:0:0:0:
171,84,16556,5,4,1:2:0:0:
171,84,18460,5,8,0:0:0:0:
108,127,18579,1,8,0:0:0:0:
179,158,18817,5,8,0:0:0:0:
101,52,18937,1,8,0:0:0:0:
236,116,19175,5,8,0:0:0:0:
39,97,19294,1,8,0:0:0:0:
233,33,19532,5,8,0:0:0:0:
158,2,19651,1,8,0:0:0:0:
101,52,19770,1,0,1:0:0:0:
179,158,19889,6,0,P|156:224|138:294,1,126.75,0|0,1:0|0:0,0:0:0:0:
122,308,20365,6,0,B|245:290|178:381|326:364,1,185.900005673218,6|2,1:2|0:0,0:0:0:0:
441,199,20722,1,0,1:0:0:0:
375,156,20841,2,0,P|354:206|331:271,1,92.950002836609,10|0,0:0|0:0,0:0:0:0:
389,377,21079,1,0,1:0:0:0:
459,334,21198,2,0,P|384:286|267:268,1,185.900005673218,2|0,1:2|1:0,0:0:0:0:
202,170,21556,2,0,B|196:156|166:143|166:143|190:176|214:214,1,92.950002836609,2|0,1:2|0:0,0:0:0:0:
178,308,21794,5,0,1:0:0:0:
194,296,21913,1,0,1:0:0:0:
137,226,22032,1,10,0:0:0:0:
59,261,22151,1,0,1:0:0:0:
27,347,22270,6,0,P|43:265|72:95,1,185.900005673218,2|2,1:2|1:2,0:0:0:0:
207,78,22627,1,0,1:0:0:0:
175,11,22746,2,0,P|122:58|144:103,1,92.950002836609,10|0,0:0|0:0,0:0:0:0:
248,245,22984,1,0,1:0:0:0:
327,217,23103,2,0,B|216:222|258:135|92:166,1,185.900005673218,2|0,1:2|1:0,0:0:0:0:
46,83,23460,2,0,B|36:57|36:57|10:54|10:54|21:78|21:78|44:84,1,92.950002836609,2|0,1:2|0:0,0:0:0:0:
158,161,23698,5,0,1:0:0:0:
172,171,23817,1,0,1:0:0:0:
220,240,23937,1,10,0:0:0:0:
189,317,24056,1,0,1:0:0:0:
102,301,24175,6,0,P|167:282|323:276,1,185.900005673218,6|2,1:2|0:0,0:0:0:0:
437,211,24532,1,0,1:0:0:0:
384,137,24651,2,0,P|328:161|332:235,1,92.950002836609,10|0,0:0|0:0,0:0:0:0:
480,332,24889,1,0,1:0:0:0:
408,384,25008,2,0,B|374:266|374:266|404:239|405:180,1,185.900005673218,2|0,1:2|1:0,0:0:0:0:
441,78,25365,2,0,B|430:51|459:31|459:31|468:65|440:85,1,92.950002836609,2|0,1:2|0:0,0:0:0:0:
317,187,25603,5,0,1:0:0:0:
302,201,25722,1,0,1:0:0:0:
222,226,25841,1,10,0:0:0:0:
160,169,25960,1,0,1:0:0:0:
203,76,26079,1,2,1:2:0:0:
52,150,26198,6,0,P|36:74|127:23,1,185.900005673218,12|0,0:0|1:0,0:0:0:0:
203,76,26556,1,10,0:0:0:0:
160,169,26675,1,0,1:0:0:0:
122,100,26794,1,8,0:0:0:0:
247,154,26913,6,0,B|315:173|315:173|329:198|329:198|414:228,1,185.900005673218,2|0,1:2|1:0,0:0:0:0:
512,79,27270,2,0,P|460:101|479:173,1,92.950002836609,10|0,0:0|0:0,0:0:0:0:
510,231,27508,1,0,1:0:0:0:
495,275,27627,1,0,1:0:0:0:
464,310,27746,1,2,1:2:0:0:
418,318,27865,1,0,1:0:0:0:
349,260,27984,6,0,B|216:245|216:245|196:278|138:283,1,185.900005673218,6|2,1:2|0:0,0:0:0:0:
41,149,28341,1,0,1:0:0:0:
111,107,28460,2,0,P|144:151|146:193,1,92.950002836609,10|0,0:0|0:0,0:0:0:0:
93,371,28698,1,0,1:0:0:0:
23,322,28817,2,0,P|41:232|105:264,1,185.900005673218,2|0,1:2|1:0,0:0:0:0:
221,347,29175,2,0,B|235:353|248:383|248:383|215:359|177:335,1,92.950002836609,2|0,1:2|0:0,0:0:0:0:
205,257,29413,5,0,1:0:0:0:
216,239,29532,1,0,1:0:0:0:
293,208,29651,1,10,0:0:0:0:
364,267,29770,1,0,1:0:0:0:
317,336,29889,6,0,P|334:252|362:84,1,185.900005673218,2|2,1:2|1:2,0:0:0:0:
512,106,30246,1,0,1:0:0:0:
486,28,30365,2,0,P|433:75|435:120,1,92.950002836609,10|0,0:0|0:0,0:0:0:0:
364,267,30603,1,0,1:0:0:0:
293,208,30722,2,0,B|429:177|429:177|390:173|374:150,1,185.900005673218,2|0,1:2|1:0,0:0:0:0:
304,51,31079,2,0,B|294:25|294:25|268:22|268:22|279:46|279:46|302:52,1,92.950002836609,2|0,1:2|0:0,0:0:0:0:
372,146,31317,5,0,1:0:0:0:
362,160,31436,1,0,1:0:0:0:
293,208,31556,1,10,0:0:0:0:
216,177,31675,1,0,1:0:0:0:
196,88,31794,6,0,B|202:193|91:129|118:300,1,185.900005673218,6|2,1:2|0:0,0:0:0:0:
195,377,32151,1,0,1:0:0:0:
251,318,32270,2,0,P|227:262|153:266,1,92.950002836609,10|0,0:0|0:0,0:0:0:0:
97,381,32508,1,0,1:0:0:0:
16,360,32627,2,0,B|146:313|146:313|111:333|105:379,1,185.900005673218,2|0,1:2|1:0,0:0:0:0:
251,318,32984,2,0,B|278:307|298:336|298:336|264:345|244:317,1,92.950002836609,2|0,1:2|0:0,0:0:0:0:
190,209,33222,5,0,1:0:0:0:
176,194,33341,1,0,1:0:0:0:
151,114,33460,1,10,0:0:0:0:
208,52,33579,1,0,1:0:0:0:
312,71,33698,1,2,1:2:0:0:
300,187,33817,6,0,B|262:213|262:213|439:174,1,185.900005673218,12|0,0:0|1:0,0:0:0:0:
460,121,34175,1,10,0:0:0:0:
398,182,34294,1,0,1:0:0:0:
382,99,34413,1,8,0:0:0:0:
475,202,34532,6,0,P|423:314|399:393,1,185.900005673218,2|0,1:2|1:0,0:0:0:0:
258,280,34889,2,0,P|310:301|296:374,1,92.950002836609,10|0,0:0|0:0,0:0:0:0:
238,381,35127,5,0,1:0:0:0:
173,384,35246,1,0,1:0:0:0:
99,344,35365,1,2,1:2:0:0:
89,251,35484,1,8,0:0:0:0:
181,183,35603,6,0,B|173:117|211:132|204:71,1,101.399996905518,4|2,1:2|0:0,0:0:0:0:
179,70,35960,1,2,0:0:0:0:
172,60,36079,1,2,1:2:0:0:
55,11,36317,1,0,0:0:0:0:
44,20,36437,2,0,L|29:99,1,50.6999984527588,2|0,0:0|1:0,0:0:0:0:
88,185,36794,1,2,0:0:0:0:
179,70,37032,6,0,P|235:68|271:117,2,101.399996905518,2|0|2,1:2|0:0|1:2,0:0:0:0:
179,70,37984,6,0,P|155:137|141:192,1,101.399996905518,2|0,1:2|0:0,0:0:0:0:
172,194,38341,2,0,P|189:236|196:273,1,50.6999984527588,2|0,0:0|1:0,0:0:0:0:
128,357,38698,1,2,0:0:0:0:
262,281,38937,6,0,P|290:277|307:315,1,50.6999984527588,2|0,1:2|0:0,0:0:0:0:
292,248,39175,2,0,P|309:270|285:303,1,50.6999984527588,0|0,0:0|0:0,0:0:0:0:
408,343,39413,6,0,B|435:217|344:265|352:133,1,202.799993811035,2|0,1:2|1:0,0:0:0:0:
361,126,40008,1,2,0:0:0:0:
372,113,40127,1,2,0:0:0:0:
386,105,40246,2,0,L|449:113,1,50.6999984527588,2|0,0:0|1:0,0:0:0:0:
268,148,40603,6,0,L|244:11,2,101.399996905518,2|2|0,0:0|1:2|0:0,0:0:0:0:
292,248,41317,1,2,1:2:0:0:
292,248,41794,6,0,P|240:221|174:236,1,101.399996905518,2|0,1:2|0:0,0:0:0:0:
136,272,42151,2,0,P|103:283|62:259,1,50.6999984527588,2|0,0:0|1:0,0:0:0:0:
32,176,42508,2,0,P|20:127|6:55,1,101.399996905518,2|2,0:0|1:2,0:0:0:0:
80,4,42984,1,2,0:0:0:0:
178,104,43222,5,4,1:2:0:0:
333,31,43460,1,2,0:0:0:0:
313,26,43579,1,2,0:0:0:0:
292,23,43698,1,2,1:2:0:0:
361,149,43937,1,2,0:0:0:0:
379,141,44056,2,0,B|396:229|325:187|328:291,1,135.2,2|0,0:0|0:0,0:0:0:0:
328,292,44413,2,0,P|293:324|251:286,1,67.6,2|0,0:0|0:0,0:0:0:0:
133,210,44651,1,10,0:0:0:0:
224,250,44889,1,2,0:0:0:0:
98,342,45127,6,0,B|85:252|85:252|104:226|104:226|89:133,1,202.8,2|0,1:2|0:0,0:0:0:0:
71,139,45603,1,2,1:2:0:0:
177,17,45841,1,2,0:0:0:0:
186,34,45960,2,0,B|261:26|229:94|359:80,1,135.2,2|0,0:0|0:0,0:0:0:0:
328,78,46317,2,0,P|305:129|294:190,1,67.6,2|0,0:0|0:0,0:0:0:0:
391,281,46556,1,10,0:0:0:0:
451,173,46794,1,2,0:0:0:0:
480,337,47032,6,0,P|344:306|274:300,1,202.8,2|0,1:2|0:0,0:0:0:0:
261,306,47508,1,2,1:2:0:0:
245,318,47627,1,2,0:0:0:0:
229,330,47746,1,2,0:0:0:0:
210,338,47865,2,0,B|231:248|157:288|168:164,1,135.2,2|0,0:0|0:0,0:0:0:0:
153,202,48222,2,0,P|101:193|59:237,1,67.6,2|0,0:0|0:0,0:0:0:0:
0,97,48460,1,10,0:0:0:0:
88,197,48698,1,2,0:0:0:0:
182,58,48937,5,6,1:2:0:0:
212,42,49056,1,8,0:0:0:0:
245,47,49175,1,4,3:0:0:0:
266,72,49294,1,2,3:0:0:0:
233,145,49413,6,0,P|218:163|224:132,1,67.6,10|0,0:0|0:0,0:0:0:0:
366,58,49651,1,8,0:0:0:0:
376,73,49770,2,0,P|355:141|338:226,1,135.2,10|8,0:0|0:0,0:0:0:0:
320,237,50127,2,0,P|333:284|341:325,1,67.6,10|2,0:0|3:0,0:0:0:0:
217,368,50365,1,10,0:0:0:0:
164,379,50484,1,8,3:0:0:0:
119,347,50603,1,4,3:0:0:0:
135,295,50722,1,2,3:0:0:0:
187,252,50841,6,0,P|201:212|215:153,1,84.5,6|0,1:2|0:0,0:0:0:0:
115,52,51079,1,0,1:0:0:0:
103,62,51198,1,2,0:0:0:0:
91,73,51317,2,0,P|77:113|63:172,1,84.5,8|0,0:0|0:0,0:0:0:0:
40,239,51556,6,0,P|93:244|120:210,1,84.5,2|8,1:2|0:0,0:0:0:0:
182,92,51794,2,0,B|282:73|237:155|339:147,1,169,2|0,0:0|1:0,0:0:0:0:
435,2,52151,1,2,0:0:0:0:
422,0,52270,2,0,P|392:33|386:90,1,84.5,8|0,0:0|0:0,0:0:0:0:
479,63,52508,6,0,P|448:169|434:258,1,169,6|0,1:2|0:0,0:0:0:0:
394,302,52865,1,8,0:0:0:0:
380,309,52984,2,0,P|335:308|330:237,1,84.5,2|0,1:2|0:0,0:0:0:0:
331,147,53222,1,10,0:0:0:0:
193,270,53460,5,2,1:2:0:0:
209,266,53579,1,8,0:0:0:0:
225,263,53698,1,0,0:0:0:0:
213,166,53937,1,2,1:2:0:0:
120,239,54175,2,0,P|106:275|91:322,1,84.5,10|0,0:0|0:0,0:0:0:0:
18,161,54413,1,8,0:0:0:0:
28,174,54532,1,8,0:0:0:0:
39,185,54651,6,0,P|83:168|119:161,1,84.5,6|0,1:2|0:0,0:0:0:0:
224,61,54889,1,0,1:0:0:0:
230,46,55008,1,2,0:0:0:0:
229,30,55127,2,0,P|184:13|149:6,1,84.5,8|0,0:0|0:0,0:0:0:0:
0,35,55365,1,2,1:2:0:0:
14,44,55484,1,8,0:0:0:0:
26,55,55603,6,0,P|99:82|92:175,1,169,2|0,0:0|1:0,0:0:0:0:
33,316,55960,1,2,0:0:0:0:
21,304,56079,2,0,P|17:254|68:236,1,84.5,8|0,0:0|0:0,0:0:0:0:
160,236,56317,6,0,P|56:203|-29:172,1,169,6|0,1:2|0:0,0:0:0:0:
20,66,56675,1,8,0:0:0:0:
24,82,56794,1,2,1:2:0:0:
207,12,57032,6,0,P|167:33|168:90,1,84.5,10|0,0:0|0:0,0:0:0:0:
254,192,57270,1,0,1:0:0:0:
266,180,57389,1,2,0:0:0:0:
277,167,57508,1,8,0:0:0:0:
199,133,57627,1,8,0:0:0:0:
153,208,57746,2,0,L|134:318,1,84.5,2|0,1:2|0:0,0:0:0:0:
295,309,57984,2,0,B|220:338|220:338|213:352|213:352|118:385,1,169,10|0,0:0|1:0,0:0:0:0:
409,376,58460,6,0,P|429:282|456:194,1,169,6|0,1:2|1:0,0:0:0:0:
492,73,58817,1,2,0:0:0:0:
500,81,58937,2,0,P|493:125|452:122,1,84.5,8|0,0:0|0:0,0:0:0:0:
314,49,59175,2,0,P|355:33|389:70,1,84.5,2|8,1:2|0:0,0:0:0:0:
387,218,59413,6,0,P|369:168|359:122,1,84.5,2|0,0:0|0:0,0:0:0:0:
238,35,59651,1,0,1:0:0:0:
224,45,59770,1,2,0:0:0:0:
210,55,59889,2,0,L|175:163,1,84.5,8|0,0:0|0:0,0:0:0:0:
243,301,60127,1,2,1:2:0:0:
90,191,60365,6,0,P|133:227|181:225,1,84.5,14|0,0:0|0:0,0:0:0:0:
311,113,60603,1,2,1:2:0:0:
174,341,60841,6,0,P|226:321|248:279,1,84.5,14|0,0:0|0:0,0:0:0:0:
210,55,61079,1,2,1:2:0:0:
329,368,61317,6,0,B|340:280|340:280|332:258|332:258|347:173,1,169,14|0,0:0|1:0,0:0:0:0:
421,93,61675,1,0,0:0:0:0:
406,103,61794,2,0,P|407:143|464:170,1,84.5,10|8,0:0|0:0,0:0:0:0:
503,48,62032,1,0,1:0:0:0:
341,201,62270,6,0,P|307:211|294:263,1,67.6,12|0,0:0|0:0,0:0:0:0:
171,276,62508,2,0,P|205:286|218:338,1,67.6,8|0,1:2|0:0,0:0:0:0:
376,290,62746,6,0,P|332:276|260:267,1,84.5,8|0,1:2|0:0,0:0:0:0:
141,362,62984,2,0,P|185:348|257:339,1,84.5,8|0,1:2|0:0,0:0:0:0:
433,213,63222,6,0,B|458:195|456:167|456:167|424:182|422:205,1,101.399996905518,8|0,1:2|0:0,0:0:0:0:
86,302,63460,2,0,B|61:284|63:256|63:256|95:271|97:294,1,101.399996905518,8|0,1:2|0:0,0:0:0:0:
425,87,63698,6,0,P|358:130|338:192,1,118.299996389771,8|0,1:2|0:0,0:0:0:0:
89,182,63937,2,0,P|156:225|176:287,1,118.299996389771,8|0,1:2|0:0,0:0:0:0:
271,62,64175,6,0,L|256:143,2,63.3750024175645,6|0|0,1:2|0:0|0:0,0:0:0:0:
353,225,64532,2,0,L|338:144,2,63.3750024175645,6|0|0,1:2|0:0|0:0,0:0:0:0:
248,241,64889,5,2,1:2:0:0:
104,93,66079,6,0,P|185:64|204:162,1,190.125007252693,6|0,1:2|0:0,0:0:0:0:
292,155,66317,2,0,P|227:174|223:245,1,126.750004835129,8|0,0:0|0:0,0:0:0:0:
325,352,66556,2,0,P|311:288|290:228,1,109.849994971466,2|0,1:2|0:0,0:0:0:0:
78,195,66794,1,8,0:0:0:0:
40,305,66913,6,0,B|25:277|25:277|139:260|139:260|149:310|208:315,1,219.699989942933,2|0,1:2|1:0,0:0:0:0:
292,155,67270,2,0,B|303:127|303:127|241:180,1,109.849994971466,10|0,0:0|0:0,0:0:0:0:
403,368,67508,2,0,P|393:313|332:283,1,109.849994971466,2|0,1:2|1:0,0:0:0:0:
209,327,67746,2,0,P|234:354|225:331,1,109.849994971466,8|0,0:0|0:0,0:0:0:0:
406,205,67984,6,0,P|383:124|357:31,1,164.774992457199,2|0,1:2|0:0,0:0:0:0:
357,34,68222,2,0,P|418:26|447:82,1,109.849994971466,8|0,0:0|0:0,0:0:0:0:
279,248,68460,6,0,B|256:271|256:271|324:226,1,109.849994971466,6|0,1:2|0:0,0:0:0:0:
134,42,68698,1,8,0:0:0:0:
301,94,68817,6,0,B|222:104|222:104|203:126|203:126|67:148,1,219.699989942933,6|0,1:2|1:0,0:0:0:0:
148,277,69175,1,8,0:0:0:0:
155,293,69294,1,0,1:0:0:0:
55,249,69413,2,0,P|9:212|10:142,1,109.849994971466,2|0,1:2|1:0,0:0:0:0:
134,42,69651,2,0,P|108:103|84:172,1,109.849994971466,10|0,0:0|0:0,0:0:0:0:
195,297,69889,6,0,B|238:363|238:363|322:317,1,164.774992457199,6|0,1:2|0:0,0:0:0:0:
335,312,70127,1,8,0:0:0:0:
335,312,70246,1,0,0:0:0:0:
457,266,70365,2,0,P|432:310|399:402,1,109.849994971466,2|0,1:2|0:0,0:0:0:0:
438,126,70603,1,8,0:0:0:0:
345,149,70722,6,0,B|335:142|317:139|317:139|422:111|374:196|474:170|474:170|456:166|442:155,1,219.699989942933,2|0,1:2|1:0,0:0:0:0:
487,7,71079,2,0,P|423:19|411:74,1,109.849994971466,10|0,0:0|0:0,0:0:0:0:
301,213,71317,2,0,B|303:246|303:246|278:266|278:266|279:234|279:234|298:213,1,109.849994971466,2|0,1:2|1:0,0:0:0:0:
232,64,71556,2,0,B|226:27|192:20|192:20|195:54|233:65,1,109.849994971466,8|0,0:0|0:0,0:0:0:0:
138,327,71794,6,0,B|175:201|68:241|88:110,1,219.699989942933,6|8,1:2|0:0,0:0:0:0:
114,19,72151,1,8,0:0:0:0:
26,4,72270,5,10,0:0:0:0:
0,108,72389,1,8,0:0:0:0:
26,4,72508,1,8,0:0:0:0:
171,165,72627,6,0,P|271:124|391:98,1,219.699989942933,6|0,1:2|1:0,0:0:0:0:
494,82,72984,1,10,0:0:0:0:
429,195,73103,1,8,0:0:0:0:
379,99,73222,6,0,B|329:56|329:56|362:221,1,190.125007252693,6|0,1:2|0:0,0:0:0:0:
384,258,73460,2,0,B|391:287|414:295|390:322|390:322|353:302|380:285|383:257,1,126.75,4|0,1:2|0:0,0:0:0:0:
307,232,73698,5,10,0:0:0:0:
307,232,73817,1,8,0:0:0:0:
429,195,73937,1,8,0:0:0:0:
429,195,74056,1,8,0:0:0:0:
296,307,74175,6,0,B|235:284|156:282|156:282|185:308|189:344,1,190.125007252693,6|0,1:2|0:0,0:0:0:0:
84,352,74413,1,8,0:0:0:0:
84,352,74532,1,2,1:2:0:0:
11,246,74651,6,0,P|107:223|93:115,1,190.125007252693,0|0,0:0|0:0,0:0:0:0:
43,175,74889,2,0,B|45:144|45:144|22:125|22:125|16:157|16:157|44:179,1,109.849994971466,10|0,0:0|0:0,0:0:0:0:
184,321,75127,2,0,B|198:351|198:351|138:286,1,109.849994971466,2|0,1:2|1:0,0:0:0:0:
272,99,75365,2,0,P|226:102|218:190,1,109.849994971466,8|0,0:0|0:0,0:0:0:0:
309,291,75604,6,0,P|294:226|273:170,1,109.849994971466,2|0,1:2|0:0,0:0:0:0:
426,47,75841,2,0,B|445:26|446:1|446:1|420:22|386:44,1,109.849994971466,8|0,0:0|0:0,0:0:0:0:
381,222,76080,6,0,P|326:194|240:187,1,109.849994971466,6|0,1:2|0:0,0:0:0:0:
20,109,76317,1,8,0:0:0:0:
134,12,76437,6,0,B|35:50|35:50|75:170,1,219.699989942933,6|0,1:2|1:0,0:0:0:0:
133,327,76794,1,8,0:0:0:0:
124,338,76913,1,0,1:0:0:0:
196,280,77032,2,0,P|150:252|71:256,1,109.849994971466,2|0,1:2|1:0,0:0:0:0:
268,370,77270,2,0,P|273:321|283:257,1,109.849994971466,10|0,0:0|0:0,0:0:0:0:
295,58,77509,6,0,B|254:67|254:67|394:88,1,164.774992457199,6|0,1:2|0:0,0:0:0:0:
423,159,77747,2,0,P|376:190|371:249,1,109.849994971466,8|0,0:0|0:0,0:0:0:0:
476,361,77985,2,0,B|449:239|449:239|500:286,1,164.774992457199,2|0,1:2|0:0,0:0:0:0:
507,257,78223,1,8,0:0:0:0:
387,330,78341,6,0,P|329:319|297:231,1,109.849994971466,2|0,1:2|0:0,0:0:0:0:
173,105,78579,1,0,1:0:0:0:
253,134,78698,2,0,B|272:236|192:190|208:305,1,164.774992457199,10|0,0:0|0:0,0:0:0:0:
148,334,78937,2,0,B|64:365|64:365|11:260,1,164.774992457199,2|0,1:2|0:0,0:0:0:0:
49,224,79175,2,0,B|39:192|39:192|61:171|61:171|69:200|69:200|46:221,1,109.849994971466,8|0,0:0|0:0,0:0:0:0:
221,282,79413,5,6,1:2:0:0:
137,238,79532,1,8,0:0:0:0:
221,282,79651,2,0,B|315:266|277:344|385:333,1,164.774992457199,8|0,3:0|0:0,0:0:0:0:
395,336,79889,1,10,0:0:0:0:
469,300,80008,1,0,1:0:0:0:
506,196,80127,1,8,0:0:0:0:
440,96,80246,6,0,B|421:67|421:67|407:127|407:127|411:138|411:138|390:208|390:208|353:150,1,219.699989942933,6|0,1:2|1:0,0:0:0:0:
277,69,80603,1,8,0:0:0:0:
277,69,80722,1,8,0:0:0:0:
223,128,80841,5,6,1:2:0:0:
349,63,80960,1,8,0:0:0:0:
242,6,81079,1,10,0:0:0:0:
277,69,81198,1,8,0:0:0:0:
119,74,81317,6,0,P|191:90|350:162,1,219.699989942933,6|8,1:2|0:0,0:0:0:0:
324,146,81794,2,0,P|286:203|283:288,1,109.849994971466,2|0,1:2|0:0,0:0:0:0:
437,375,82032,1,8,0:0:0:0:
502,291,82151,2,0,B|430:285|430:285|419:289|419:289|359:285|359:285|344:336|295:346,1,219.699989942933,2|0,1:2|1:0,0:0:0:0:
183,219,82508,6,0,P|233:209|284:257,1,109.849994971466,10|0,0:0|0:0,0:0:0:0:
189,354,82746,2,0,B|155:351|155:351|238:312,1,109.849994971466,0|0,1:0|1:0,0:0:0:0:
337,191,82984,2,0,P|370:229|354:297,1,109.849994971466,10|0,0:0|0:0,0:0:0:0:
74,319,83222,6,0,B|66:330|56:346|56:346|47:306|68:260|76:271|98:233|86:188|86:188|79:213|51:237,1,219.699989942933,2|8,1:2|0:0,0:0:0:0:
76,208,83698,2,0,P|66:150|108:123,1,109.849994971466,2|0,1:2|0:0,0:0:0:0:
299,0,83937,1,8,0:0:0:0:
220,45,84056,2,0,B|159:33|159:33|120:102|120:102|3:76,1,219.699989942933,2|0,1:2|1:0,0:0:0:0:
76,0,84413,1,8,0:0:0:0:
76,0,84532,1,0,0:0:0:0:
202,122,84651,6,0,P|228:186|240:255,1,109.849994971466,2|0,1:2|1:0,0:0:0:0:
74,325,84889,2,0,B|66:351|66:351|37:368|37:368|44:333|44:333|76:325,1,109.849994971466,10|0,0:0|0:0,0:0:0:0:
236,225,85127,6,0,B|373:193|373:193|398:234|458:248,1,219.699989942933,6|8,1:2|0:0,0:0:0:0:
434,240,85603,2,0,P|482:275|466:341,1,109.849994971466,2|0,1:2|0:0,0:0:0:0:
512,101,85841,1,8,0:0:0:0:
446,161,85960,2,0,P|377:271|338:366,1,219.699989942933,2|0,1:2|1:0,0:0:0:0:
167,259,86317,6,0,P|210:248|244:303,1,109.849994971466,10|0,0:0|0:0,0:0:0:0:
40,373,86556,2,0,P|30:308|10:240,1,109.849994971466,0|0,1:0|1:0,0:0:0:0:
92,158,86794,2,0,B|77:124|111:101|111:101|122:138|89:165,1,109.849994971466,10|0,0:0|0:0,0:0:0:0:
244,295,87032,6,0,B|290:264|290:264|102:306,1,219.699989942933,6|8,1:2|0:0,0:0:0:0:
129,299,87508,6,0,B|97:242|117:193|117:193|120:186|120:186|122:182|122:182|162:149|136:76,1,221.812502115369,6|0,1:2|0:0,0:0:0:0:
129,56,87746,1,8,0:0:0:0:
312,155,87865,6,0,B|294:115|294:115|389:120|389:120|403:133|403:133|506:136|506:136|486:82,1,295.750002820492,6|0,1:2|1:0,0:0:0:0:
486,84,88222,1,8,0:0:0:0:
486,84,88341,1,0,0:0:0:0:
379,50,88460,5,10,0:0:0:0:
424,179,88579,1,8,0:0:0:0:
371,38,88698,1,10,0:0:0:0:
312,155,88817,1,8,0:0:0:0:
246,20,88937,6,0,B|131:11|189:126|10:111,1,219.699989942933,6|8,1:2|0:0,0:0:0:0:
57,111,89414,2,0,P|107:165|121:251,1,109.849994971466,2|0,1:2|0:0,0:0:0:0:
139,379,89652,1,8,0:0:0:0:
33,340,89771,2,0,B|6:314|6:314|64:302|64:302|77:304|77:304|128:295|128:295|140:339|204:351,1,219.699989942933,2|0,1:2|1:0,0:0:0:0:
311,215,90127,6,0,P|255:206|210:253,1,109.849994971466,10|0,0:0|0:0,0:0:0:0:
298,348,90365,2,0,B|313:336|329:305|329:305|300:311|292:351,1,109.849994971466,0|0,1:0|1:0,0:0:0:0:
154,196,90603,2,0,P|118:239|136:302,1,109.849994971466,10|0,0:0|0:0,0:0:0:0:
408,257,90842,6,0,B|416:268|426:284|426:284|396:126|396:126|418:154|431:175,1,219.699989942933,6|8,1:2|0:0,0:0:0:0:
411,147,91318,2,0,P|473:154|493:210,1,109.849994971466,2|0,1:2|0:0,0:0:0:0:
295,298,91557,1,8,0:0:0:0:
359,348,91676,2,0,B|298:360|298:360|259:291|259:291|142:317,1,219.699989942933,6|0,1:2|0:0,0:0:0:0:
78,217,92033,1,8,3:0:0:0:
78,217,92152,1,8,3:0:0:0:
105,140,92271,6,0,P|157:169|151:237,1,109.849994971466,4|0,3:0|0:0,0:0:0:0:
82,315,92509,2,0,B|74:341|74:341|45:358|45:358|52:323|52:323|84:315,1,109.849994971466,2|0,3:0|0:0,0:0:0:0:
234,212,92747,6,0,B|363:188|363:188|374:229|406:254,1,185.900005673218,6|0,1:2|0:0,0:0:0:0:
502,228,93103,1,0,1:0:0:0:
445,174,93222,2,0,P|390:276|359:362,1,185.900005673218,10|0,0:0|1:0,0:0:0:0:
183,268,93579,6,0,P|160:204|250:138,1,185.900005673218,10|0,0:0|0:0,0:0:0:0:
400,33,93937,2,0,P|378:60|379:24,1,92.950002836609,2|0,1:2|0:0,0:0:0:0:
122,0,94175,1,8,0:0:0:0:
206,57,94413,1,10,0:0:0:0:
206,57,94532,1,8,0:0:0:0:
206,57,94651,6,0,P|199:94|182:144,1,63.3750024175645,4|0,1:2|0:0,0:0:0:0:
346,123,94889,2,0,P|352:160|369:210,1,63.3750024175645,8|0,1:2|0:0,0:0:0:0:
158,233,95127,6,0,P|146:290|123:351,1,84.5,8|0,1:2|0:0,0:0:0:0:
393,285,95365,2,0,P|405:342|428:403,1,84.5,8|0,1:2|0:0,0:0:0:0:
158,233,95603,6,0,B|145:212|118:203|118:203|220:186|181:261|313:259|313:259|261:251|231:201,1,316.875,6|0,1:2|0:0,0:0:0:0:
408,179,96079,2,0,B|411:169|423:163|423:163|394:130|310:112|310:112|330:156|313:191,1,215.47500410986,6|0,1:2|0:0,0:0:0:0:
242,154,96556,1,6,1:2:0:0:
252,194,103698,5,8,3:0:0:0:
252,194,104175,6,0,B|179:185|216:258|128:247,1,126.750004835129,6|0,1:2|0:0,0:0:0:0:
97,152,104532,1,2,0:0:0:0:
82,158,104651,2,0,P|54:216|31:318,1,126.750004835129,10|0,0:0|0:0,0:0:0:0:
54,349,105008,1,2,0:0:0:0:
208,384,105246,1,2,0:0:0:0:
200,363,105365,1,2,0:0:0:0:
163,229,105603,5,10,0:0:0:0:
193,206,105722,1,2,0:0:0:0:
230,202,105841,1,2,0:0:0:0:
255,230,105960,1,2,0:0:0:0:
259,267,106079,6,0,B|345:254|302:320|413:313,1,126.750004835129,0|0,1:2|0:0,0:0:0:0:
477,145,106437,1,2,0:0:0:0:
469,131,106556,2,0,P|450:181|426:267,1,126.750004835129,8|0,0:0|0:0,0:0:0:0:
467,324,106913,1,0,0:0:0:0:
317,179,107151,1,2,0:0:0:0:
308,196,107270,1,2,0:0:0:0:
287,352,107508,5,10,0:0:0:0:
252,367,107627,1,2,0:0:0:0:
217,350,107746,1,2,0:0:0:0:
208,312,107865,1,2,0:0:0:0:
230,281,107984,6,0,P|153:252|85:241,1,126.750004835129,0|0,1:2|0:0,0:0:0:0:
33,125,108341,1,2,0:0:0:0:
48,133,108460,2,0,B|63:214|2:182|23:292,1,126.750004835129,8|0,0:0|0:0,0:0:0:0:
71,321,108817,2,0,P|142:316|166:371,1,126.750004835129
259,239,109175,1,2,0:0:0:0:
322,358,109413,5,10,0:0:0:0:
358,369,109532,1,2,0:0:0:0:
392,352,109651,1,2,0:0:0:0:
404,316,109770,1,2,0:0:0:0:
384,283,109889,5,6,1:2:0:0:
332,236,110008,1,8,0:0:0:0:
341,166,110127,1,2,3:0:0:0:
407,146,110246,1,4,3:0:0:0:
459,191,110365,6,0,L|540:180,1,63.3750024175645,10|0,0:0|1:0,0:0:0:0:
476,52,110603,1,8,0:0:0:0:
469,64,110722,2,0,L|389:75,1,63.3750024175645,10|0,0:0|0:0,0:0:0:0:
314,8,110960,2,0,P|289:43|289:84,2,63.3750024175645,8|10|2,0:0|0:0|3:0,0:0:0:0:
406,72,111317,5,8,0:0:0:0:
400,122,111437,1,8,3:0:0:0:
369,162,111556,1,4,3:0:0:0:
322,181,111675,1,2,3:0:0:0:
272,167,111794,5,6,1:2:0:0:
145,61,112032,1,2,0:0:0:0:
134,78,112151,1,2,0:0:0:0:
124,96,112270,2,0,P|106:143|99:184,1,67.6,8|0,0:0|0:0,0:0:0:0:
24,253,112508,1,2,0:0:0:0:
39,256,112627,6,0,B|135:238|88:309|209:301,1,135.2
189,336,112984,2,0,P|234:323|240:293,1,67.6
281,151,113222,1,10,0:0:0:0:
367,249,113460,1,2,0:0:0:0:
447,199,113698,6,0,P|411:275|378:380,1,135.2,0|0,1:2|0:0,0:0:0:0:
225,182,114175,2,0,P|268:197|281:239,1,67.6,8|0,0:0|0:0,0:0:0:0:
168,272,114413,1,2,0:0:0:0:
158,260,114532,2,0,B|141:182|208:212|199:98,1,135.2,8|0,0:0|0:0,0:0:0:0:
182,114,114889,2,0,P|144:106|95:103,1,67.6
0,6,115127,1,10,0:0:0:0:
39,177,115365,1,2,0:0:0:0:
144,45,115603,6,0,B|231:33|231:33|252:48|252:48|357:34,1,202.8,0|0,1:2|0:0,0:0:0:0:
386,35,116079,2,0,P|370:75|348:145,1,67.6,8|0,0:0|0:0,0:0:0:0:
432,153,116317,1,2,0:0:0:0:
440,168,116437,2,0,B|452:246|389:218|404:317,1,135.2,8|0,0:0|0:0,0:0:0:0:
383,318,116794,2,0,P|342:344|301:335,1,67.6
218,191,117032,1,10,0:0:0:0:
329,263,117270,1,2,0:0:0:0:
153,232,117508,6,0,P|226:228|217:301,1,135.2,0|0,1:2|0:0,0:0:0:0:
17,372,117984,2,0,P|22:332|32:289,1,67.6,8|0,0:0|0:0,0:0:0:0:
76,231,118222,1,2,0:0:0:0:
65,223,118341,2,0,B|51:161|51:161|58:148|58:148|44:74,1,135.2
65,75,118698,2,0,P|107:58|143:83,1,67.6
223,169,118937,1,10,0:0:0:0:
293,11,119175,1,2,0:0:0:0:
381,157,119413,5,6,1:2:0:0:
446,43,119651,1,2,0:0:0:0:
457,60,119770,1,2,0:0:0:0:
467,78,119889,2,0,P|485:125|492:166,1,67.6,8|0,0:0|0:0,0:0:0:0:
441,239,120127,1,2,0:0:0:0:
427,246,120246,6,0,B|379:260|379:260|368:276|368:276|294:298,1,135.2,8|0,0:0|0:0,0:0:0:0:
270,313,120603,2,0,P|247:284|253:232,1,67.6
268,105,120841,1,10,0:0:0:0:
104,154,121079,1,2,0:0:0:0:
60,0,121317,6,0,P|24:76|-9:181,1,135.2,0|0,1:2|0:0,0:0:0:0:
105,228,121794,2,0,P|148:226|165:193,1,67.6,8|0,0:0|0:0,0:0:0:0:
210,78,122032,1,2,0:0:0:0:
214,93,122151,2,0,B|197:171|264:141|255:255,1,135.2
254,263,122508,2,0,P|226:303|183:309,1,67.6,2|0,0:0|0:0,0:0:0:0:
9,260,122746,1,10,0:0:0:0:
89,384,122984,1,2,0:0:0:0:
126,233,123222,6,0,B|138:146|138:146|123:125|123:125|137:20,1,202.8,0|0,1:2|0:0,0:0:0:0:
160,32,123698,2,0,P|207:26|244:88,1,67.6,8|0,0:0|0:0,0:0:0:0:
304,94,123936,1,2,0:0:0:0:
314,108,124056,2,0,B|302:186|365:158|350:257,1,135.2
358,265,124413,2,0,P|392:293|429:257,1,67.6
501,175,124651,1,10,0:0:0:0:
512,325,124889,1,2,0:0:0:0:
329,201,125127,6,0,P|257:176|175:166,1,135.2,0|0,1:2|0:0,0:0:0:0:
38,356,125603,2,0,P|43:316|53:273,1,67.6,10|0,0:0|0:0,0:0:0:0:
111,215,125841,1,2,0:0:0:0:
120,225,125960,2,0,B|134:287|134:287|127:300|127:300|141:374,1,135.2
162,374,126317,2,0,P|203:365|213:317,1,67.6,2|0,0:0|0:0,0:0:0:0:
275,235,126556,5,10,0:0:0:0:
284,252,126675,1,2,0:0:0:0:
294,269,126794,1,2,0:0:0:0:
301,287,126913,1,2,0:0:0:0:
310,304,127032,1,4,1:2:0:0:
422,169,127270,6,0,P|466:210|432:268,1,84.5,2|0,0:0|0:0,0:0:0:0:
378,90,127508,2,0,P|331:124|344:202,1,84.5,10|0,0:0|0:0,0:0:0:0:
461,89,127746,1,0,0:0:0:0:
469,74,127865,2,0,P|367:49|268:35,1,169,2|0,1:2|0:0,0:0:0:0:
221,117,128222,2,0,P|219:170|264:192,1,84.5,2|0,1:2|0:0,0:0:0:0:
378,90,128460,1,10,0:0:0:0:
202,1,128698,1,0,0:0:0:0:
106,190,128937,6,0,P|55:179|-25:172,1,84.5,2|0,1:2|0:0,0:0:0:0:
27,105,129175,2,0,P|69:109|130:124,1,84.5,0|0,0:0|0:0,0:0:0:0:
213,287,129413,2,0,P|168:254|168:220,1,84.5,10|0,0:0|0:0,0:0:0:0:
206,48,129651,1,0,0:0:0:0:
195,58,129770,2,0,B|178:150|251:107|237:212,1,169,2|0,1:2|0:0,0:0:0:0:
286,268,130127,2,0,P|290:320|250:356,1,84.5,2|0,1:2|0:0,0:0:0:0:
165,227,130365,1,10,0:0:0:0:
340,161,130603,1,2,0:0:0:0:
397,339,130841,1,0,1:0:0:0:
461,198,131079,6,0,P|412:212|406:260,1,84.5,2|0,0:0|0:0,0:0:0:0:
280,118,131317,2,0,P|329:132|335:180,1,84.5,10|0,0:0|0:0,0:0:0:0:
286,331,131556,1,0,0:0:0:0:
294,322,131675,2,0,P|180:296|83:286,1,169,2|0,1:2|0:0,0:0:0:0:
81,230,132032,2,0,P|41:286|67:333,1,84.5,2|0,1:2|0:0,0:0:0:0:
226,190,132270,1,10,0:0:0:0:
36,123,132508,1,0,0:0:0:0:
183,10,132746,6,0,P|166:64|154:125,1,84.5,2|0,1:2|0:0,0:0:0:0:
226,190,132984,2,0,P|249:108|276:48,1,84.5,0|0,0:0|0:0,0:0:0:0:
445,13,133222,2,0,P|429:53|362:63,1,84.5,10|0,0:0|0:0,0:0:0:0:
347,217,133460,1,0,0:0:0:0:
360,222,133579,6,0,P|340:148|269:-6,1,169,2|8,1:2|0:0,0:0:0:0:
244,2,133937,2,0,P|207:47|223:97,1,84.5,2|0,1:2|0:0,0:0:0:0:
368,0,134175,1,12,0:0:0:0:
262,159,134413,1,8,0:0:0:0:
277,152,134532,1,8,0:0:0:0:
292,145,134651,1,4,1:2:0:0:
508,272,134889,6,0,P|467:316|409:282,1,84.5,2|0,0:0|0:0,0:0:0:0:
454,208,135127,2,0,P|406:233|420:320,1,84.5,10|0,0:0|0:0,0:0:0:0:
289,349,135365,1,0,0:0:0:0:
279,363,135484,2,0,P|177:337|83:303,1,169,2|0,1:2|0:0,0:0:0:0:
73,252,135841,2,0,P|31:284|43:333,1,84.5,2|0,1:2|0:0,0:0:0:0:
223,160,136079,1,10,0:0:0:0:
1,96,136317,1,0,0:0:0:0:
138,188,136556,6,0,P|146:146|150:104,1,84.5,2|0,1:2|0:0,0:0:0:0:
65,169,136794,2,0,P|76:118|83:38,1,84.5,0|0,0:0|0:0,0:0:0:0:
271,5,137032,2,0,P|267:56|229:72,1,84.5,10|0,0:0|0:0,0:0:0:0:
265,218,137270,1,0,0:0:0:0:
274,230,137389,2,0,B|349:251|349:251|364:270|364:270|462:298,1,169,2|0,1:2|0:0,0:0:0:0:
460,352,137746,2,0,P|498:316|489:263,1,84.5,2|0,1:2|0:0,0:0:0:0:
441,129,137984,1,10,0:0:0:0:
330,164,138222,1,0,0:0:0:0:
287,248,138460,5,2,0:0:0:0:
257,189,140365,5,4,1:2:0:0:
189,128,140603,6,0,B|149:105|149:105|203:177,1,84.5,8|0,1:2|0:0,0:0:0:0:
238,272,140841,2,0,B|238:318|238:318|273:235,1,84.5,8|0,1:2|0:0,0:0:0:0:
345,159,141079,2,0,B|384:135|384:135|295:146,1,84.5,8|0,1:2|0:0,0:0:0:0:
146,225,141317,6,0,B|108:232|104:255|104:255|132:258|146:227,1,101.399996905518,8|0,1:2|0:0,0:0:0:0:
270,80,141556,2,0,B|282:43|265:28|265:28|248:51|268:79,1,101.399996905518,8|0,1:2|0:0,0:0:0:0:
341,259,141794,2,0,B|366:288|387:280|387:280|376:254|342:258,1,101.399996905518,8|0,1:2|0:0,0:0:0:0:
263,190,142032,1,8,0:0:0:0:
263,190,142151,1,8,0:0:0:0:
263,190,142270,5,6,1:2:0:0:
243,268,142389,1,0,0:0:0:0:
228,347,142508,1,0,0:0:0:0:
37,220,142627,5,2,1:2:0:0:
50,274,142746,1,8,0:0:0:0:
61,329,142865,1,0,0:0:0:0:
167,206,142984,5,2,1:2:0:0:
137,201,143103,1,0,1:0:0:0:
23,91,143341,5,0,1:0:0:0:
28,110,143460,1,2,1:2:0:0:
46,118,143579,1,0,0:0:0:0:
65,111,143698,5,0,1:0:0:0:
107,83,143817,1,0,1:0:0:0:
164,103,143937,1,10,0:0:0:0:
187,169,144056,1,0,1:0:0:0:
145,226,144175,1,2,1:2:0:0:
193,284,144294,6,0,P|305:240|442:218,1,202.799993811035,0|2,0:0|1:2,0:0:0:0:
503,95,144651,2,0,P|440:85|412:156,1,101.399996905518,8|0,0:0|0:0,0:0:0:0:
342,350,144889,1,2,1:2:0:0:
415,303,145008,2,0,B|469:173|469:173|442:204|416:201,1,202.799993811035,0|0,1:0|1:0,0:0:0:0:
281,90,145365,5,2,1:2:0:0:
348,135,145484,1,0,0:0:0:0:
315,209,145603,1,0,1:0:0:0:
304,226,145722,1,0,1:0:0:0:
304,246,145841,1,10,0:0:0:0:
311,264,145960,1,0,1:0:0:0:
322,278,146079,5,6,1:2:0:0:
244,298,146198,1,0,0:0:0:0:
165,313,146317,1,0,0:0:0:0:
78,206,146436,5,2,1:2:0:0:
132,219,146555,1,8,0:0:0:0:
187,230,146674,1,0,0:0:0:0:
247,140,146793,5,0,0:0:0:0:
221,150,146912,1,0,1:0:0:0:
448,26,147150,5,0,1:0:0:0:
467,31,147269,1,2,1:2:0:0:
475,49,147388,1,0,0:0:0:0:
477,69,147507,5,0,1:0:0:0:
457,115,147626,1,0,1:0:0:0:
401,141,147746,1,10,0:0:0:0:
339,88,147865,1,0,1:0:0:0:
253,107,147984,1,2,1:2:0:0:
184,174,148103,6,0,B|165:302|255:241|243:375,1,202.799993811035,12|2,0:0|1:2,0:0:0:0:
323,267,148460,2,0,P|286:211|217:234,1,101.399996905518,8|0,0:0|1:0,0:0:0:0:
89,384,148698,1,10,0:0:0:0:
160,333,148817,2,0,P|276:299|415:284,1,202.799993811035,4|0,1:2|1:0,0:0:0:0:
496,275,149174,5,14,0:0:0:0:
427,325,149294,1,0,0:0:0:0:
338,218,149413,2,0,P|379:205|421:250,1,101.399996905518,0|0,1:0|1:0,0:0:0:0:
275,358,149651,2,0,P|260:298|240:229,1,101.399996905518,2|0,1:2|1:0,0:0:0:0:
190,33,149889,6,0,P|146:91|59:54,1,152.099995358276,6|0,1:2|0:0,0:0:0:0:
72,65,150127,2,0,L|47:177,1,101.399996905518,0|2,0:0|0:0,0:0:0:0:
91,342,150365,1,8,0:0:0:0:
18,300,150484,6,0,P|86:260|191:225,1,152.099995358276,2|0,0:0|0:0,0:0:0:0:
185,229,150722,2,0,B|196:151|196:151|180:127|180:127|191:20,1,202.799993811035,2|0,0:0|0:0,0:0:0:0:
278,0,151079,1,2,0:0:0:0:
350,54,151198,1,0,0:0:0:0:
294,135,151317,6,0,P|282:179|277:213,7,50.6999984527588,8|0|0|0|2|0|0|0,0:0|0:0|0:0|0:0|0:0|0:0|0:0|0:0,0:0:0:0:
350,54,151794,6,0,P|394:112|481:75,1,139.425004254913,2|0,1:2|0:0,0:0:0:0:
476,103,152032,2,0,L|451:215,1,92.950002836609,0|2,0:0|0:0,0:0:0:0:
496,357,152270,1,8,0:0:0:0:
432,295,152389,6,0,B|359:274|388:353|301:327,1,139.425004254913,2|0,0:0|0:0,0:0:0:0:
272,327,152627,2,0,B|245:206|245:206|285:202|313:160,1,185.900005673218,2|8,0:0|0:0,0:0:0:0:
350,54,152984,1,2,0:0:0:0:
253,7,153103,1,0,0:0:0:0:
184,97,153222,6,0,B|57:83|122:165|-11:150,1,185.900005673218,8|2,0:0|0:0,0:0:0:0:
29,77,153579,1,8,0:0:0:0:
149,170,153698,5,6,1:2:0:0:
143,187,153817,1,0,0:0:0:0:
139,205,153937,1,0,0:0:0:0:
45,240,154056,5,2,0:0:0:0:
64,270,154175,1,8,0:0:0:0:
82,302,154295,1,2,0:0:0:0:
51,376,154413,5,0,0:0:0:0:
161,322,154532,2,0,P|260:365|380:347,1,202.799993811035,2|0,0:0|0:0,0:0:0:0:
420,322,154889,1,2,0:0:0:0:
396,80,155127,6,0,B|419:220|327:148|353:308,1,202.799993811035,8|2,0:0|0:0,0:0:0:0:
434,232,155484,1,0,0:0:0:0:
311,124,155603,5,2,1:2:0:0:
255,147,155722,1,0,0:0:0:0:
238,88,155841,1,0,0:0:0:0:
296,73,155960,1,2,0:0:0:0:
402,36,156079,5,8,0:0:0:0:
410,9,156198,1,2,0:0:0:0:
382,17,156317,1,0,0:0:0:0:
463,86,156437,6,0,P|446:130|427:209,1,101.399996905518,10|0,0:0|1:0,0:0:0:0:
383,367,156675,1,8,0:0:0:0:
494,305,156794,2,0,P|396:275|304:262,1,152.099995358276,2|0,0:0|0:0,0:0:0:0:
324,271,157032,1,8,0:0:0:0:
307,276,157151,1,8,0:0:0:0:
241,324,157270,1,10,0:0:0:0:
170,284,157389,1,8,0:0:0:0:
189,189,157508,6,0,B|72:177|137:276|-16:261,1,202.8,6|0,1:2|0:0,0:0:0:0:
22,165,157984,2,0,P|19:109|105:90,1,135.2,10|0,0:0|0:0,0:0:0:0:
151,9,158341,2,0,P|200:59|293:37,1,135.2,2|0,0:0|0:0,0:0:0:0:
389,4,158698,2,0,P|351:38|351:74,1,67.6,2|0,0:0|0:0,0:0:0:0:
448,178,158937,1,8,0:0:0:0:
310,122,159175,1,2,0:0:0:0:
504,90,159413,6,0,P|470:230|458:332,1,202.8,2|0,1:2|0:0,0:0:0:0:
469,367,159889,2,0,P|387:342|397:272,1,135.2,10|0,0:0|0:0,0:0:0:0:
315,247,160246,2,0,P|252:276|179:284,1,135.2,2|0,0:0|0:0,0:0:0:0:
113,259,160603,1,0,0:0:0:0:
103,276,160722,1,0,0:0:0:0:
86,287,160841,2,0,B|113:165|22:226|43:68,1,202.8,10|0,0:0|0:0,0:0:0:0:
152,61,161317,6,0,P|226:111|295:87,1,135.2,2|0,1:2|0:0,0:0:0:0:
267,104,161794,2,0,P|341:54|410:78,1,135.2,10|0,0:0|0:0,0:0:0:0:
460,141,162151,2,0,P|440:212|431:320,1,135.2,2|0,0:0|0:0,0:0:0:0:
402,364,162508,2,0,P|343:314|357:232,2,135.2,2|8|2,0:0|0:0|0:0,0:0:0:0:
442,202,163222,6,0,P|455:131|482:39,1,135.2,2|0,1:2|0:0,0:0:0:0:
312,0,163698,2,0,P|325:71|352:163,1,135.2,10|0,0:0|0:0,0:0:0:0:
348,163,164056,2,0,B|238:157|290:262|140:250,1,202.8,2|0,0:0|0:0,0:0:0:0:
133,236,164532,1,0,0:0:0:0:
115,226,164651,1,10,0:0:0:0:
0,290,164889,1,2,0:0:0:0:
1,86,165127,6,0,B|93:109|93:109|107:129|107:129|202:150,1,202.8,6|0,1:2|0:0,0:0:0:0:
272,206,165603,2,0,P|266:149|340:126,1,135.2,10|0,0:0|0:0,0:0:0:0:
354,35,165960,2,0,P|403:85|496:63,1,135.2,2|0,0:0|0:0,0:0:0:0:
507,9,166317,2,0,P|468:42|469:79,1,67.6,2|0,0:0|0:0,0:0:0:0:
512,228,166556,1,8,0:0:0:0:
393,158,166794,1,2,0:0:0:0:
452,324,167032,6,0,P|312:290|210:278,1,202.8,2|0,1:2|0:0,0:0:0:0:
249,211,167508,2,0,P|167:236|177:306,1,135.2,10|0,0:0|0:0,0:0:0:0:
63,338,167865,2,0,P|80:256|91:166,1,135.2,2|0,0:0|0:0,0:0:0:0:
95,122,168222,1,0,0:0:0:0:
86,103,168341,1,0,0:0:0:0:
78,84,168460,1,10,0:0:0:0:
225,29,168698,1,2,0:0:0:0:
137,12,168937,5,6,1:2:0:0:
59,57,170841,6,0,P|165:73|194:154,1,202.799993811035,6|0,1:2|0:0,0:0:0:0:
419,170,171198,6,0,P|337:180|315:242,1,135.2,6|0,1:2|0:0,0:0:0:0:
257,310,171556,5,2,1:2:0:0:
257,310,172746,5,6,1:2:0:0:
162,276,172865,2,0,B|138:136|233:194|191:38,1,219.699989942933,8|0,0:0|1:0,0:0:0:0:
53,0,173222,6,0,P|60:59|123:82,1,109.849994971466,10|0,0:0|1:0,0:0:0:0:
235,2,173460,1,8,0:0:0:0:
99,82,173579,2,0,P|238:38|366:38,1,219.699989942933,6|0,1:2|1:0,0:0:0:0:
488,90,173937,5,10,0:0:0:0:
373,72,174056,1,0,1:0:0:0:
345,163,174175,5,10,0:0:0:0:
424,147,174294,1,0,1:0:0:0:
419,230,174413,5,8,0:0:0:0:
396,222,174532,1,0,1:0:0:0:
324,278,174651,6,0,L|306:366,2,73.2333299809775,10|8|8,0:0|0:0|0:0,0:0:0:0:
247,225,174889,6,0,L|229:137,2,61.9666685577393,4|8|2,3:0|3:0|3:0,0:0:0:0:
178,281,175127,6,0,L|160:369,2,50.6999984527588,2|0|0,3:0|0:0|0:0,0:0:0:0:
168,266,175365,1,8,0:0:0:0:
78,248,175484,6,0,B|250:219|250:219|174:200,1,236.599992779541,6|0,1:2|1:0,0:0:0:0:
115,63,175841,2,0,P|53:97|40:155,1,118.299996389771,8|0,0:0|0:0,0:0:0:0:
257,73,176079,5,2,1:2:0:0:
257,73,176198,5,8,0:0:0:0:
257,73,176317,5,10,0:0:0:0:
257,73,176437,5,8,0:0:0:0:
364,143,176556,6,0,B|388:255|303:203|330:337,1,164.774992457199,6|0,1:2|0:0,0:0:0:0:
326,322,176794,1,8,0:0:0:0:
326,322,176913,1,0,0:0:0:0:
464,358,177032,2,0,P|456:303|386:304,1,109.849994971466,2|0,1:2|0:0,0:0:0:0:
160,229,177270,1,8,0:0:0:0:
216,325,177389,6,0,B|209:335|206:353|206:353|178:248|263:296|237:196|237:196|233:214|222:228,1,219.699989942933,2|0,1:2|1:0,0:0:0:0:
79,101,177746,2,0,P|143:113|155:168,1,109.849994971466,10|0,0:0|0:0,0:0:0:0:
77,304,177984,2,0,P|50:283|95:287,1,109.849994971466,2|0,1:2|1:0,0:0:0:0:
227,123,178223,2,0,B|256:107|256:107|259:72|259:72|231:86|231:86|226:124,1,109.849994971466,8|0,0:0|0:0,0:0:0:0:
260,263,178460,6,0,B|354:281|354:281|369:302|369:302|472:328,1,219.699989942933,6|8,1:2|0:0,0:0:0:0:
511,211,178818,1,8,0:0:0:0:
444,133,178937,5,10,0:0:0:0:
412,223,179056,1,8,0:0:0:0:
444,133,179175,1,8,0:0:0:0:
358,72,179294,6,0,B|220:67|297:145|138:139,1,219.699989942933,6|0,1:2|1:0,0:0:0:0:
24,180,179651,1,10,0:0:0:0:
157,139,179770,1,8,0:0:0:0:
84,58,179889,6,0,B|48:7|48:7|88:155,1,190.125007252693,6|0,1:2|0:0,0:0:0:0:
103,208,180127,2,0,B|128:237|128:237|121:269|121:269|98:248|98:248|101:207,1,126.750004835129,4|0,1:2|0:0,0:0:0:0:
59,353,180365,5,10,0:0:0:0:
59,353,180484,1,8,0:0:0:0:
0,265,180604,1,8,0:0:0:0:
0,265,180723,1,8,0:0:0:0:
177,321,180842,6,0,B|317:296|317:296|329:330|386:362,1,190.125007252693,6|0,1:2|0:0,0:0:0:0:
379,339,181080,1,8,0:0:0:0:
260,384,181198,6,0,P|276:260|304:132,1,253.500009670258,2|0,1:2|1:0,0:0:0:0:
403,47,181556,2,0,B|434:49|434:49|453:26|453:26|421:20|421:20|399:48,1,109.849994971466,10|0,0:0|0:0,0:0:0:0:
182,149,181794,2,0,P|163:123|209:132,1,109.849994971466,0|0,1:0|1:0,0:0:0:0:
447,272,182032,2,0,P|401:269|393:181,1,109.849994971466,10|0,0:0|0:0,0:0:0:0:
231,28,182271,6,0,P|216:93|195:149,1,109.849994971466,2|0,1:2|0:0,0:0:0:0:
92,276,182509,2,0,B|84:295|60:315|60:315|88:307|111:278,1,109.849994971466,8|0,0:0|0:0,0:0:0:0:
274,197,182747,2,0,P|196:159|88:157,1,164.774992457199,6|0,1:2|0:0,0:0:0:0:
48,185,182984,1,8,0:0:0:0:
38,14,183104,6,0,B|25:101|25:101|44:124|44:124|29:237,1,219.699989942933,6|0,1:2|0:0,0:0:0:0:
155,360,183461,1,8,0:0:0:0:
145,376,183580,1,0,1:0:0:0:
228,322,183699,2,0,P|191:281|114:297,1,109.849994971466,2|0,1:2|1:0,0:0:0:0:
312,384,183937,2,0,P|320:329|337:236,1,109.849994971466,10|0,0:0|0:0,0:0:0:0:
288,67,184176,6,0,P|342:40|381:142,1,164.774992457199,6|0,1:2|0:0,0:0:0:0:
464,136,184414,2,0,P|407:144|402:203,1,109.849994971466,8|0,0:0|0:0,0:0:0:0:
497,317,184652,2,0,B|377:344|377:344|359:315|314:304,1,164.774992457199,2|0,1:2|0:0,0:0:0:0:
332,304,184890,1,8,0:0:0:0:
248,192,185008,6,0,P|230:160|255:188,1,109.849994971466,2|0,1:2|0:0,0:0:0:0:
135,296,185246,1,0,1:0:0:0:
209,328,185365,2,0,B|107:309|153:389|38:373,1,164.774992457199,10|0,0:0|0:0,0:0:0:0:
55,298,185604,2,0,B|24:214|24:214|129:161,1,164.774992457199,0|0,1:0|0:0,0:0:0:0:
156,142,185842,2,0,B|165:109|165:109|194:104|194:104|185:132|185:132|155:137,1,109.849994971466,10|0,0:0|0:0,0:0:0:0:
0,8,186079,5,6,1:2:0:0:
65,60,186198,1,8,0:0:0:0:
150,32,186317,1,4,3:0:0:0:
150,32,186437,1,0,1:0:0:0:
284,115,186556,5,8,0:0:0:0:
326,2,186675,1,0,1:0:0:0:
246,44,186794,1,8,0:0:0:0:
443,86,186913,6,0,P|414:192|380:349,1,219.699989942933,4|0,1:2|1:0,0:0:0:0:
474,347,187270,1,10,0:0:0:0:
389,299,187389,1,8,0:0:0:0:
467,263,187508,5,0,1:0:0:0:
393,381,187627,1,8,0:0:0:0:
314,266,187746,1,10,0:0:0:0:
389,299,187865,1,8,0:0:0:0:
263,367,187984,6,0,B|152:371|214:281|68:296,1,190.125007252693,6|0,1:2|0:0,0:0:0:0:
41,243,188222,2,0,B|38:205|38:205|13:191|13:191|11:222|11:222|49:245,1,126.750004835129,8|0,0:0|0:0,0:0:0:0:
118,381,188460,2,0,P|145:298|162:182,1,190.125007252693,2|0,1:2|0:0,0:0:0:0:
95,150,188698,1,8,0:0:0:0:
46,13,188817,6,0,B|3:52|3:52|157:35|157:35|124:76,1,253.500009670258,2|0,1:2|1:0,0:0:0:0:
341,136,189175,2,0,B|354:117|354:117|313:112|292:158|307:161|293:222|224:222,1,190.125007252693,10|0,0:0|0:0,0:0:0:0:
156,240,189413,2,0,P|119:266|167:258,1,126.750004835129,0|0,1:0|1:0,0:0:0:0:
253,72,189651,2,0,B|260:36|233:17|233:17|216:51|251:74,1,126.750004835129,10|0,0:0|0:0,0:0:0:0:
366,236,189889,6,0,B|351:119|437:179|426:49,1,190.125007252693,2|0,1:2|0:0,0:0:0:0:
355,35,190127,2,0,B|323:5|323:5|415:46,1,126.750004835129,8|0,0:0|0:0,0:0:0:0:
470,192,190365,2,0,B|453:268|453:268|456:282|456:282|436:392,1,190.125007252693,6|0,1:2|0:0,0:0:0:0:
482,379,190603,1,8,0:0:0:0:
291,271,190722,6,0,B|260:248|260:248|334:233|334:233|347:235|347:235|398:226|398:226|410:270|470:281,1,253.500009670258,6|0,1:2|1:0,0:0:0:0:
478,169,191079,1,8,0:0:0:0:
473,181,191198,1,0,1:0:0:0:
422,56,191317,2,0,B|275:106|275:106|312:117|334:152,1,190.125007252693,2|0,1:2|0:0,0:0:0:0:
256,178,191556,2,0,B|221:195|221:195|213:229|213:229|246:213|246:213|255:178,1,126.750004835129,10|0,0:0|0:0,0:0:0:0:
5,46,191794,6,0,P|64:21|84:141,1,190.125007252693,6|0,1:2|0:0,0:0:0:0:
70,185,192032,2,0,B|36:202|33:239|33:239|68:224|69:184,1,126.750004835129,8|0,0:0|0:0,0:0:0:0:
238,3,192270,2,0,P|196:98|164:216,1,190.125007252693,2|0,1:2|0:0,0:0:0:0:
176,208,192508,1,8,0:0:0:0:
228,327,192627,6,0,B|223:308|205:297|205:297|247:267|300:306|293:315|344:355|379:330|379:330|360:331|327:304,1,253.500009670258,2|0,1:2|1:0,0:0:0:0:
441,182,192984,2,0,B|430:120|430:120|400:289,1,190.125007252693,10|0,0:0|0:0,0:0:0:0:
460,306,193222,2,0,B|494:323|494:323|502:357|502:357|469:341|469:341|460:306,1,126.750004835129,0|0,1:0|1:0,0:0:0:0:
403,142,193460,2,0,B|265:172|265:172|315:175|343:226,1,190.125007252693,10|0,0:0|0:0,0:0:0:0:
265,248,193698,6,0,B|228:80|334:175|307:-36,1,253.500009670258,6|8,1:2|0:0,0:0:0:0:
155,70,194056,1,8,0:0:0:0:
237,37,194175,1,10,0:0:0:0:
237,37,194294,1,8,0:0:0:0:
87,20,194413,1,8,0:0:0:0:
151,146,194532,1,6,1:2:0:0:
151,146,194770,5,0,1:0:0:0:
125,221,194889,1,10,0:0:0:0:
102,296,195008,1,8,0:0:0:0:
171,368,195127,6,0,P|257:337|379:303,1,190.125007252693,6|0,1:2|0:0,0:0:0:0:
372,234,195365,2,0,P|429:264|425:334,1,126.750004835129,4|0,1:2|0:0,0:0:0:0:
383,148,195603,5,10,0:0:0:0:
383,148,195722,1,8,0:0:0:0:
275,251,195841,1,8,0:0:0:0:
275,251,195960,1,8,0:0:0:0:
481,146,196079,6,0,B|349:158|418:74|271:95,1,190.125007252693,6|0,1:2|0:0,0:0:0:0:
233,115,196317,1,8,0:0:0:0:
368,30,196437,6,0,B|317:100|289:174|289:174|327:186|348:215|364:269,1,253.500009670258,2|0,1:2|1:0,0:0:0:0:
232,349,196794,2,0,B|248:336|266:323|266:323|142:305|142:305|156:321|171:356,1,190.125007252693,10|0,0:0|0:0,0:0:0:0:
82,343,197032,2,0,B|40:343|22:370|22:370|57:376|80:344,1,126.750004835129,2|0,1:2|1:0,0:0:0:0:
167,201,197270,2,0,P|110:203|91:280,1,126.750004835129,8|0,0:0|0:0,0:0:0:0:
233,238,197508,6,0,P|252:159|272:20,1,190.125007252693,2|0,1:2|0:0,0:0:0:0:
230,39,197746,2,0,B|203:18|203:18|296:49,1,126.750004835129,8|0,0:0|0:0,0:0:0:0:
322,183,197984,2,0,P|232:129|118:87,1,190.125007252693,6|0,1:2|0:0,0:0:0:0:
71,104,198222,1,8,0:0:0:0:
56,287,198341,6,0,B|5:260|5:260|95:245|95:245|109:256|109:256|242:229,1,253.500009670258,6|0,1:2|1:0,0:0:0:0:
390,265,198698,1,8,0:0:0:0:
386,275,198817,1,0,1:0:0:0:
402,197,198937,2,0,P|343:200|321:314,1,190.125007252693,2|0,1:2|0:0,0:0:0:0:
379,360,199175,2,0,B|406:385|436:377|436:377|416:350|378:356,1,126.750004835129,10|0,0:0|0:0,0:0:0:0:
194,234,199413,6,0,B|173:125|257:171|240:34,1,190.125007252693,6|0,1:2|0:0,0:0:0:0:
171,71,199651,2,0,B|174:32|174:32|149:7|149:7|146:44|146:44|171:70,1,126.750004835129,8|0,0:0|0:0,0:0:0:0:
284,199,199889,2,0,P|219:165|90:125,1,190.125007252693,2|0,1:2|0:0,0:0:0:0:
33,138,200127,1,8,0:0:0:0:
75,323,200246,6,0,B|51:336|41:359|41:359|31:303|61:272|68:278|101:237|89:199|89:199|75:222|43:227,1,253.500009670258,2|0,1:2|1:0,0:0:0:0:
144,360,200603,2,0,B|224:346|224:346|239:356|239:356|358:337,1,190.125007252693,10|0,0:0|0:0,0:0:0:0:
370,280,200841,2,0,B|374:243|403:228|403:228|404:266|370:287,1,126.750004835129,2|0,1:2|1:0,0:0:0:0:
509,343,201079,2,0,P|438:363|450:256,1,190.125007252693,8|0,0:0|0:0,0:0:0:0:
486,224,201317,5,6,1:2:0:0:
472,148,201437,1,8,0:0:0:0:
458,73,201556,1,4,3:0:0:0:
458,73,201675,1,0,1:0:0:0:
279,54,201794,5,10,0:0:0:0:
340,137,201913,1,2,3:0:0:0:
380,15,202032,1,8,0:0:0:0:
408,186,202151,6,0,P|242:140|149:125,1,253.500009670258,6|0,1:2|1:0,0:0:0:0:
79,76,202508,1,8,0:0:0:0:
79,76,202627,1,8,0:0:0:0:
151,34,202746,5,6,1:2:0:0:
72,159,202865,1,8,0:0:0:0:
5,19,202984,1,10,0:0:0:0:
79,76,203103,1,8,0:0:0:0:
0,173,203222,6,0,P|84:191|271:276,1,253.500009670258,6|8,1:2|0:0,0:0:0:0:
238,256,203699,2,0,P|198:200|230:148,1,126.750004835129,2|0,1:2|0:0,0:0:0:0:
442,87,203937,1,8,0:0:0:0:
361,31,204056,6,0,B|316:121|293:192|293:192|334:218|334:262,1,253.500009670258,2|0,1:2|1:0,0:0:0:0:
471,374,204413,2,0,B|376:367|432:262|307:252,1,190.125007252693,10|0,0:0|0:0,0:0:0:0:
288,315,204651,2,0,B|253:332|253:332|245:366|245:366|278:350|278:350|287:315,1,126.750004835129,0|0,1:0|1:0,0:0:0:0:
357,127,204889,2,0,P|293:144|273:211,1,126.750004835129,10|0,0:0|0:0,0:0:0:0:
87,335,205127,6,0,B|123:367|123:367|108:279|108:279|114:261|114:261|93:161|93:161,1,253.500009670258,2|8,1:2|0:0,0:0:0:0:
94,165,205603,2,0,P|109:102|161:76,1,126.750004835129,2|0,1:2|0:0,0:0:0:0:
357,127,205842,1,8,0:0:0:0:
285,61,205960,6,0,B|262:16|262:16|244:183|244:183|283:122,1,253.500009670258,2|0,1:2|1:0,0:0:0:0:
341,247,206318,1,8,0:0:0:0:
341,247,206437,1,0,0:0:0:0:
472,175,206556,2,0,B|452:251|452:251|456:264|456:264|434:371,1,190.125007252693,2|0,1:2|0:0,0:0:0:0:
355,374,206794,2,0,B|328:366|328:366|311:337|311:337|346:344|346:344|355:375,1,126.750004835129,10|0,0:0|0:0,0:0:0:0:
472,175,207032,6,0,B|278:155|278:155|259:184|212:201,1,253.500009670258,6|8,1:2|0:0,0:0:0:0:
233,192,207508,2,0,P|225:246|158:269,1,126.750004835129,2|0,1:2|0:0,0:0:0:0:
11,143,207746,1,8,0:0:0:0:
132,95,207865,6,0,P|94:206|54:375,1,253.500009670258,2|0,1:2|1:0,0:0:0:0:
0,230,208222,2,0,P|43:219|72:287,1,126.750004835129,10|0,0:0|0:0,0:0:0:0:
209,380,208460,2,0,B|235:255|142:315|169:191,1,190.125007252693,0|0,1:0|0:0,0:0:0:0:
222,145,208699,2,0,B|212:118|230:108|241:88|241:88|235:112|247:133|219:152,1,126.750004835129,10|0,0:0|0:0,0:0:0:0:
390,228,208937,6,0,B|447:266|447:266|213:214,1,253.500009670258,6|8,1:2|0:0,0:0:0:0:
266,226,209413,2,0,B|234:169|254:120|254:120|257:113|257:113|259:109|259:109|299:76|283:27|283:27|274:54|247:76,1,253.5,6|0,1:2|0:0,0:0:0:0:
207,9,209651,1,8,0:0:0:0:
87,105,209770,6,0,P|198:63|434:24,1,338,6|0,1:2|1:0,0:0:0:0:
512,139,210127,1,8,0:0:0:0:
512,139,210246,1,0,0:0:0:0:
410,106,210365,5,10,0:0:0:0:
451,248,210484,1,8,0:0:0:0:
402,94,210603,1,10,0:0:0:0:
336,220,210722,1,8,0:0:0:0:
285,93,210842,6,0,B|153:82|216:209|44:194,1,253.500009670258,6|8,1:2|0:0,0:0:0:0:
67,195,211317,2,0,P|133:199|146:286,1,126.750004835129,2|0,1:2|0:0,0:0:0:0:
336,220,211557,1,8,0:0:0:0:
312,325,211676,6,0,B|283:370|283:370|271:312|271:312|273:299|273:299|264:248|264:248|308:236|320:172,1,253.500009670258,2|0,1:2|1:0,0:0:0:0:
308,29,212032,2,0,B|250:30|212:117|212:117|240:177,1,190.125007252693,10|0,0:0|0:0,0:0:0:0:
188,221,212270,2,0,B|157:238|150:273|150:273|185:265|190:221,1,126.750004835129,0|0,1:0|1:0,0:0:0:0:
39,81,212508,2,0,P|53:134|134:117,1,126.750004835129,10|0,0:0|0:0,0:0:0:0:
352,113,212747,6,0,B|376:77|376:77|402:252|402:252|360:209,1,253.500009670258,6|8,1:2|0:0,0:0:0:0:
378,227,213223,2,0,P|307:239|303:324,1,126.750004835129,2|0,1:2|0:0,0:0:0:0:
175,89,213460,1,8,0:0:0:0:
111,165,213579,6,0,P|204:129|134:228,1,253.500009670258,6|0,1:2|0:0,0:0:0:0:
77,287,213938,1,8,3:0:0:0:
77,287,214057,1,8,3:0:0:0:
172,371,214176,2,0,P|259:344|368:345,1,164.774992457199,4|0,3:0|0:0,0:0:0:0:
406,334,214414,2,0,B|419:310|419:310|451:300|451:300|437:332|437:332|404:333,1,109.849994971466,2|0,3:0|0:0,0:0:0:0:
394,160,214651,6,0,B|423:281|311:220|335:371,1,202.799993811035,6|0,1:2|0:0,0:0:0:0:
331,340,215127,2,0,P|281:337|249:276,1,101.399996905518,10|0,0:0|0:0,0:0:0:0:
324,131,215365,1,0,1:0:0:0:
278,197,215484,6,0,B|171:165|113:165|113:165|136:194|135:221,1,202.799993811035,10|0,0:0|0:0,0:0:0:0:
50,232,215841,2,0,B|26:255|31:285|31:285|55:266|50:235,1,101.399996905518,2|0,1:2|0:0,0:0:0:0:
142,73,216079,2,0,B|121:51|121:51|127:22|127:22|150:46|150:46|142:70,1,101.399996905518,8|0,0:0|0:0,0:0:0:0:
280,203,216317,1,10,0:0:0:0:
280,203,216437,1,8,0:0:0:0:
280,203,216556,6,0,P|268:250|265:287,1,67.6,4|0,1:2|0:0,0:0:0:0:
114,296,216794,6,0,P|126:340|129:380,1,76.0499976791383,8|0,1:2|0:0,0:0:0:0:
397,186,217032,6,0,P|367:215|347:262,1,84.5,8|0,1:2|0:0,0:0:0:0:
0,290,217270,6,0,P|30:319|50:366,1,92.950002836609,8|0,1:2|0:0,0:0:0:0:
230,346,217508,6,0,B|172:154|340:222|268:21,1,304.199990716553,6|0,1:2|0:0,0:0:0:0:
123,49,217984,6,0,P|127:130|200:76,1,202.8,6|0,1:2|0:0,0:0:0:0:
278,154,218460,6,0,B|369:162|369:162|387:181|387:181|488:197,1,202.799993811035,6|2,1:2|0:0,0:0:0:0:
512,74,218817,1,0,1:0:0:0:
461,19,218936,2,0,P|435:68|416:132,1,101.399996905518,10|0,0:0|0:0,0:0:0:0:
470,342,219174,1,0,1:0:0:0:
512,268,219293,2,0,B|391:243|435:340|304:321,1,202.799993811035,2|0,1:2|1:0,0:0:0:0:
206,221,219651,2,0,B|200:207|170:194|170:194|194:227|218:265,1,101.399996905518,2|0,1:2|0:0,0:0:0:0:
221,360,219889,6,0,P|241:318|280:267,1,101.399996905518,0|0,1:0|1:0,0:0:0:0:
282,99,220127,1,10,0:0:0:0:
267,120,220246,1,0,1:0:0:0:
368,111,220365,6,0,B|262:124|315:218|179:226,1,202.799993811035,2|2,1:2|1:2,0:0:0:0:
21,314,220722,1,0,1:0:0:0:
95,363,220841,2,0,P|148:316|126:271,1,101.399996905518,10|0,0:0|0:0,0:0:0:0:
41,144,221079,1,0,1:0:0:0:
0,214,221198,2,0,P|85:170|239:146,1,202.799993811035,2|0,1:2|1:0,0:0:0:0:
318,108,221556,6,0,B|344:98|344:98|347:72|347:72|323:83|323:83|317:106,1,101.399996905518,2|0,1:2|0:0,0:0:0:0:
284,245,221794,2,0,B|279:272|279:272|300:288|300:288|303:261|303:261|286:245,1,101.399996905518,0|0,1:0|1:0,0:0:0:0:
188,146,222032,2,0,B|166:128|166:128|142:138|142:138|163:154|163:154|186:147,1,101.399996905518,10|0,0:0|1:0,0:0:0:0:
455,52,222270,6,0,P|417:168|392:286,1,202.799993811035,6|0,1:2|0:0,0:0:0:0:
388,369,222627,1,0,1:0:0:0:
486,252,222746,2,0,B|420:267|420:267|397:293|397:293|279:328,1,202.799993811035,10|0,0:0|1:0,0:0:0:0:
73,289,223103,6,0,P|180:283|163:381,1,202.799993811035,2|0,1:2|1:0,0:0:0:0:
310,185,223460,2,0,P|263:212|295:308,1,101.399996905518,2|0,1:2|0:0,0:0:0:0:
176,180,223698,1,0,1:0:0:0:
128,141,223817,1,0,1:0:0:0:
138,80,223937,1,10,0:0:0:0:
200,46,224056,1,0,1:0:0:0:
267,90,224175,1,2,1:2:0:0:
351,9,224294,6,0,B|334:115|449:57|434:195,1,202.799993811035,12|0,0:0|1:0,0:0:0:0:
372,246,224651,1,8,0:0:0:0:
435,175,224770,1,0,1:0:0:0:
372,246,224889,1,8,0:0:0:0:
480,307,225008,6,0,P|335:276|228:273,1,202.799993811035,2|0,1:2|1:0,0:0:0:0:
149,368,225365,2,0,P|206:357|189:299,1,101.399996905518,10|0,0:0|0:0,0:0:0:0:
126,166,225603,1,0,1:0:0:0:
115,174,225722,1,0,1:0:0:0:
213,241,225841,2,0,B|240:211|240:211|123:278,1,152.099995358276,10|0,0:0|0:0,0:0:0:0:
114,307,226079,6,0,B|141:182|40:242|78:72,1,202.799993811035,6|2,1:2|0:0,0:0:0:0:
256,7,226437,1,0,1:0:0:0:
184,44,226556,2,0,P|165:98|147:164,1,101.399996905518,10|0,0:0|0:0,0:0:0:0:
261,285,226794,1,0,1:0:0:0:
279,202,226913,2,0,B|167:209|226:296|79:312,1,202.799993811035,2|0,1:2|1:0,0:0:0:0:
49,214,227270,2,0,B|54:185|26:165|26:165|20:200|49:214,1,101.399996905518,2|0,1:2|0:0,0:0:0:0:
113,306,227508,5,0,1:0:0:0:
101,294,227627,1,0,1:0:0:0:
180,240,227746,1,10,0:0:0:0:
261,285,227865,1,0,1:0:0:0:
233,370,227984,6,0,B|344:333|382:319|382:319|394:351|435:374,1,202.799993811035,2|2,1:2|1:2,0:0:0:0:
490,218,228341,1,0,1:0:0:0:
465,292,228460,2,0,B|470:182|385:228|389:104,1,202.799993811035,10|0,0:0|1:0,0:0:0:0:
241,31,228817,2,0,P|287:19|332:74,1,101.399996905518,2|0,1:2|0:0,0:0:0:0:
400,173,229056,1,0,1:0:0:0:
329,224,229175,2,0,P|295:190|320:123,1,101.399996905518,2|0,1:2|0:0,0:0:0:0:
490,30,229413,5,0,1:0:0:0:
476,25,229532,1,0,1:0:0:0:
389,73,229651,1,10,0:0:0:0:
400,173,229770,1,0,1:0:0:0:
489,254,229889,6,0,B|366:236|433:327|285:310,1,202.799993811035,6|2,1:2|0:0,0:0:0:0:
174,195,230246,1,0,1:0:0:0:
231,255,230365,2,0,P|210:305|187:370,1,101.399996905518,10|0,0:0|0:0,0:0:0:0:
279,99,230603,1,0,1:0:0:0:
343,171,230722,2,0,P|261:132|149:112,1,202.799993811035,2|0,1:2|0:0,0:0:0:0:
47,193,231080,2,0,B|11:220|11:220|35:187|59:149,1,101.399996905518,2|0,1:2|0:0,0:0:0:0:
151,112,231318,5,0,1:0:0:0:
142,122,231437,1,0,1:0:0:0:
75,72,231556,1,10,0:0:0:0:
129,0,231675,1,0,1:0:0:0:
205,48,231794,1,2,1:2:0:0:
307,6,231913,6,0,B|391:21|391:21|404:40|404:40|523:68,1,202.799993811035,12|0,0:0|1:0,0:0:0:0:
491,225,232270,1,10,0:0:0:0:
402,169,232389,1,0,1:0:0:0:
490,135,232508,1,8,0:0:0:0:
414,249,232627,6,0,B|303:248|347:351|202:339,1,202.799993811035,2|0,1:2|1:0,0:0:0:0:
114,231,232984,2,0,B|88:218|88:218|85:192|85:192|110:201|110:201|117:230,1,101.399996905518,10|0,0:0|0:0,0:0:0:0:
83,383,233222,5,2,1:2:0:0:
48,361,233341,1,0,1:0:0:0:
63,323,233460,1,2,1:2:0:0:
149,333,233579,5,8,0:0:0:0:
