osu file format v14

[General]
AudioFilename: audio.mp3
AudioLeadIn: 0
PreviewTime: 65306
Countdown: 0
SampleSet: Soft
StackLeniency: 0.3
Mode: 0
LetterboxInBreaks: 0
WidescreenStoryboard: 1

[Editor]
DistanceSpacing: 1.1
BeatDivisor: 4
GridSize: 32
TimelineZoom: 8

[Metadata]
Title:Reason For Existence
TitleUnicode:生きるよすが
Artist:Tsukuyomi
ArtistUnicode:月詠み
Creator:Nevertary
Version:Hard
Source:
Tags:Ikiru Yosuga 1st Story ユエ Yue ユリイ・カノン YurryCanon japanese rock j-rock jrock my angel jeremy my_angel_jeremy
BeatmapID:3611707
BeatmapSetID:1756246

[Difficulty]
HPDrainRate:4
CircleSize:4
OverallDifficulty:6
ApproachRate:8
SliderMultiplier:1.2
SliderTickRate:1

[Events]
//Background and Video events
Video,-100,"bgv.mp4"
0,0,"BG.jpg",0,0
//Break Periods
2,98660,102948
//Storyboard Layer 0 (Background)
//Storyboard Layer 1 (Fail)
//Storyboard Layer 2 (Pass)
//Storyboard Layer 3 (Foreground)
//Storyboard Layer 4 (Overlay)
//Storyboard Sound Samples

[TimingPoints]
1318,238.095238095238,4,2,2,60,1,0
1318,-166.666666666667,4,2,2,60,0,0
19889,-200,4,2,2,60,0,0
20246,-200,4,2,2,5,0,0
20365,-111.111111111111,4,2,1,75,0,0
35603,-199.999999999999,4,2,2,55,0,0
43222,-166.666666666666,4,2,2,60,0,0
50841,-142.857142857142,4,2,2,65,0,0
60365,-124.999999999999,4,2,2,70,0,0
60841,-111.111111111111,4,2,2,75,0,0
61317,-100,4,2,2,80,0,0
61794,-142.857142857143,4,2,2,80,0,0
62270,-142.857142857143,4,2,2,70,0,0
62508,-142.857142857143,4,2,2,50,0,0
62746,-142.857142857143,4,2,2,55,0,0
62984,-142.857142857143,4,2,2,60,0,0
63222,-142.857142857143,4,2,2,65,0,0
63460,-142.857142857143,4,2,2,70,0,0
63698,-142.857142857143,4,2,2,75,0,0
63937,-142.857142857143,4,2,2,80,0,0
66079,-100,4,2,1,80,0,1
92746,-111.111111111111,4,2,1,80,0,1
96556,-111.111111111111,4,2,2,70,0,0
98460,-166.666666666666,4,2,2,20,0,0
103698,-166.666666666666,4,2,2,60,0,0
104175,-142.857142857143,4,2,2,70,0,0
111794,-166.666666666667,4,2,2,65,0,0
127032,-142.857142857143,4,2,2,70,0,0
138460,-142.857142857143,4,2,2,60,0,0
140365,-142.857142857143,4,2,2,70,0,0
140603,-142.857142857143,4,2,2,50,0,0
140841,-142.857142857143,4,2,2,55,0,0
141079,-142.857142857143,4,2,2,60,0,0
141317,-142.857142857143,4,2,2,65,0,0
141556,-142.857142857143,4,2,2,70,0,0
141794,-142.857142857143,4,2,2,75,0,0
142032,-142.857142857143,4,2,2,80,0,0
142270,-111.111111111111,4,2,1,75,0,0
157508,-166.666666666667,4,2,2,60,0,0
168937,-250.000000000001,4,2,2,50,0,0
169651,-250.000000000001,4,2,2,5,0,0
169770,-200.000000000001,4,2,2,50,0,0
170603,-200.000000000001,4,2,2,5,0,0
170841,-100,4,2,2,70,0,0
176556,-100,4,2,1,80,0,1
187508,-100,4,2,1,80,0,0
187984,-90.9090909090909,4,2,1,80,0,1
214651,-100,4,2,1,80,0,1
218460,-111.111111111111,4,2,1,75,0,0

[Colours]
Combo1 : 113,168,213
Combo2 : 22,75,107
Combo3 : 132,147,204
Combo4 : 211,118,86

[HitObjects]
8,52,8937,6,0,L|81:34,1,71.9999978027344,2|0,1:2|0:0,0:0:0:0:
147,71,9413,2,0,L|220:53,1,71.9999978027344,2|0,1:2|0:0,0:0:0:0:
253,68,9770,2,0,P|273:118|254:169,1,107.999996704102,2|0,0:0|0:0,0:0:0:0:
207,230,10365,1,2,1:2:0:0:
238,302,10603,1,0,0:0:0:0:
316,308,10841,6,0,P|351:318|375:344,1,71.9999978027344,2|0,1:2|0:0,0:0:0:0:
450,365,11317,2,0,B|467:289|467:289|495:271,2,107.999996704102,2|2|0,1:2|0:0|0:0,0:0:0:0:
374,343,12270,2,0,P|349:317|315:307,1,71.9999978027344,2|0,1:2|0:0,0:0:0:0:
238,302,12746,6,0,L|165:284,1,71.9999978027344,2|0,1:2|0:0,0:0:0:0:
126,217,13222,2,0,L|53:199,1,71.9999978027344,2|0,1:2|0:0,0:0:0:0:
26,172,13579,2,0,P|6:122|25:71,1,107.999996704102,2|0,0:0|0:0,0:0:0:0:
95,40,14175,2,0,P|140:57|156:75,2,71.9999978027344,2|0|2,1:2|0:0|0:0,0:0:0:0:
95,40,15603,5,4,1:2:0:0:
127,112,15841,1,8,0:0:0:0:
66,163,16079,2,0,L|57:201,1,35.9999989013672,8|8,0:0|0:0,0:0:0:0:
69,235,16317,2,0,L|60:273,1,35.9999989013672,8|8,0:0|0:0,0:0:0:0:
52,309,16556,6,0,P|88:300|147:333,1,107.999996704102,4|0,1:2|0:0,0:0:0:0:
179,355,17032,2,0,L|197:282,1,71.9999978027344,0|0,1:0|0:0,0:0:0:0:
206,246,17389,1,0,0:0:0:0:
274,206,17627,2,0,L|256:136,1,71.9999978027344,0|0,0:0|0:0,0:0:0:0:
247,97,17984,2,0,L|238:59,2,35.9999989013672,0|0|0,1:0|0:0|0:0,0:0:0:0:
336,102,18460,5,8,0:0:0:0:
336,102,18579,1,8,0:0:0:0:
411,153,18817,1,8,0:0:0:0:
411,153,18936,1,8,0:0:0:0:
360,229,19175,5,8,0:0:0:0:
360,229,19294,1,8,0:0:0:0:
435,280,19532,1,8,0:0:0:0:
435,280,19651,1,8,0:0:0:0:
351,316,19889,6,0,B|343:338|354:360|354:360|335:343|312:343,1,90,0|0,1:0|0:0,0:0:0:0:
271,335,20365,6,0,B|242:326|222:348|222:348|200:371|171:362,1,107.999996704102,6|2,1:2|0:0,0:0:0:0:
87,374,20841,2,0,P|32:348|24:303,1,107.999996704102,10|0,0:0|1:0,0:0:0:0:
31,265,21198,1,2,1:2:0:0:
81,194,21437,1,0,1:0:0:0:
81,194,21556,1,2,1:2:0:0:
165,210,21794,2,0,P|195:217|218:212,1,53.9999983520508,0|0,1:0|1:0,0:0:0:0:
256,194,22032,2,0,P|277:171|284:149,1,53.9999983520508,10|0,0:0|1:0,0:0:0:0:
295,107,22270,1,2,1:2:0:0:
379,77,22508,6,0,L|435:65,1,53.9999983520508,2|0,1:2|1:0,0:0:0:0:
474,74,22746,2,0,P|504:112|491:169,1,107.999996704102,10|0,0:0|1:0,0:0:0:0:
469,203,23103,2,0,B|465:232|485:256|485:256|460:236|433:242,1,107.999996704102,2|0,1:2|1:0,0:0:0:0:
395,248,23460,1,2,1:2:0:0:
337,312,23698,2,0,L|349:368,2,53.9999983520508,0|0|10,1:0|1:0|0:0,0:0:0:0:
309,284,24056,5,0,1:0:0:0:
309,284,24175,2,0,B|297:239|297:239|302:221|302:221|291:178,1,107.999996704102,6|2,1:2|0:0,0:0:0:0:
268,96,24651,2,0,P|239:47|191:35,1,107.999996704102,10|0,0:0|1:0,0:0:0:0:
149,37,25008,1,2,1:2:0:0:
71,69,25246,1,0,1:0:0:0:
71,69,25365,1,2,1:2:0:0:
95,151,25603,2,0,P|104:178|102:202,1,53.9999983520508,0|0,1:0|1:0,0:0:0:0:
89,243,25841,2,0,P|68:266|47:275,1,53.9999983520508,10|0,0:0|1:0,0:0:0:0:
20,308,26079,5,2,1:2:0:0:
20,308,26198,2,0,B|49:299|69:321|69:321|91:344|120:335,1,107.999996704102,12|0,0:0|0:0,0:0:0:0:
160,328,26556,1,10,0:0:0:0:
245,362,26794,1,8,0:0:0:0:
245,362,26913,2,0,B|274:371|294:349|294:349|316:326|345:335,1,107.999996704102,2|0,1:2|1:0,0:0:0:0:
385,342,27271,1,10,0:0:0:0:
474,326,27508,2,0,L|486:382,2,53.9999983520508,0|0|2,1:0|1:0|1:2,0:0:0:0:
473,286,27865,5,0,1:0:0:0:
473,286,27984,2,0,B|494:255|494:255|477:183,1,107.999996704102,6|2,1:2|0:0,0:0:0:0:
468,101,28460,2,0,B|464:73|484:49|484:49|459:69|432:63,1,107.999996704102,10|0,0:0|1:0,0:0:0:0:
393,62,28817,1,2,1:2:0:0:
321,102,29056,1,0,1:0:0:0:
321,102,29175,1,2,1:2:0:0:
305,185,29413,2,0,L|293:241,1,53.9999983520508,0|0,1:0|1:0,0:0:0:0:
262,271,29651,2,0,L|250:327,1,53.9999983520508,10|0,0:0|1:0,0:0:0:0:
228,362,29889,6,0,P|185:335|128:334,1,107.999996704102,2|2,1:2|1:2,0:0:0:0:
56,289,30365,2,0,B|44:244|44:244|49:226|49:226|38:183,1,107.999996704102,10|0,0:0|1:0,0:0:0:0:
30,142,30722,2,0,B|34:114|14:90|14:90|39:110|66:104,1,107.999996704102,2|0,1:2|1:0,0:0:0:0:
104,94,31079,1,2,1:2:0:0:
183,64,31317,2,0,P|173:39|153:21,2,53.9999983520508,0|0|10,1:0|1:0|0:0,0:0:0:0:
197,109,31675,5,0,1:0:0:0:
197,109,31794,2,0,B|226:100|246:122|246:122|268:145|297:136,1,107.999996704102,6|2,1:2|0:0,0:0:0:0:
367,89,32270,2,0,B|414:60|414:60|466:78,1,107.999996704102,10|0,0:0|1:0,0:0:0:0:
503,96,32627,1,2,1:2:0:0:
498,185,32865,1,0,1:0:0:0:
498,185,32984,1,2,1:2:0:0:
446,252,33222,2,0,L|390:264,1,53.9999983520508,0|0,1:0|1:0,0:0:0:0:
353,248,33460,2,0,L|297:260,1,53.9999983520508,10|0,0:0|1:0,0:0:0:0:
259,263,33698,5,2,1:2:0:0:
259,263,33817,2,0,B|242:188|242:188|249:172|272:176,1,107.999996704102,12|0,0:0|0:0,0:0:0:0:
311,175,34175,1,10,0:0:0:0:
381,124,34413,1,8,0:0:0:0:
381,124,34532,2,0,B|398:49|398:49|391:33|368:37,1,107.999996704102,2|0,1:2|1:0,0:0:0:0:
329,36,34890,1,10,0:0:0:0:
254,78,35127,2,0,P|230:95|207:101,1,53.9999983520508,0|0,1:0|1:0,0:0:0:0:
164,101,35365,2,0,P|135:88|119:71,1,53.9999983520508,2|8,1:2|0:0,0:0:0:0:
97,37,35603,5,4,1:2:0:0:
33,82,35841,2,0,L|27:112,1,30,2|0,0:0|0:0,0:0:0:0:
40,148,36079,2,0,L|28:207,1,60,2|0,1:2|0:0,0:0:0:0:
21,245,36437,2,0,P|30:275|78:305,1,90,2|2,0:0|0:0,0:0:0:0:
155,315,37032,2,0,L|167:374,2,60,2|0|2,1:2|0:0|1:2,0:0:0:0:
150,159,37984,6,0,B|89:171|89:171|67:153,2,90,2|2|2,1:2|0:0|0:0,0:0:0:0:
226,141,38937,2,0,P|248:119|257:91,1,60,2|0,1:2|0:0,0:0:0:0:
278,17,39413,1,2,1:2:0:0:
428,57,39889,6,0,L|434:27,2,30,0|0|0,0:0|0:0|0:0,0:0:0:0:
437,94,40246,2,0,L|417:183,1,90,2|2,0:0|0:0,0:0:0:0:
457,248,40841,2,0,P|485:259|506:281,2,60,2|0|2,1:2|0:0|1:2,0:0:0:0:
347,359,41794,6,0,L|288:347,1,60,2|0,1:2|0:0,0:0:0:0:
257,323,42151,2,0,P|244:278|254:237,1,90,2|2,0:0|0:0,0:0:0:0:
277,162,42746,2,0,P|284:131|279:104,1,60,2|0,1:2|0:0,0:0:0:0:
253,32,43222,5,4,1:2:0:0:
188,78,43460,2,0,L|150:69,1,35.9999989013672,2|0,0:0|0:0,0:0:0:0:
118,88,43698,2,0,L|45:70,1,71.9999978027344,2|0,1:2|0:0,0:0:0:0:
14,91,44056,2,0,P|0:128|18:192,1,107.999996704102,2|2,0:0|0:0,0:0:0:0:
65,255,44651,2,0,L|47:328,2,71.9999978027344,10|0|2,0:0|0:0|1:2,0:0:0:0:
199,171,45603,6,0,L|217:244,1,71.9999978027344,2|0,1:2|0:0,0:0:0:0:
228,278,45960,2,0,P|260:252|324:255,1,107.999996704102,2|2,0:0|0:0,0:0:0:0:
400,277,46556,2,0,P|436:266|459:239,1,71.9999978027344,10|0,0:0|0:0,0:0:0:0:
501,174,47032,1,2,1:2:0:0:
398,53,47508,6,0,L|407:15,2,35.9999989013672,2|0|0,1:2|0:0|0:0,0:0:0:0:
411,90,47865,2,0,L|386:196,1,107.999996704102,2|2,0:0|0:0,0:0:0:0:
366,271,48460,2,0,P|330:282|307:309,1,71.9999978027344,10|0,0:0|0:0,0:0:0:0:
242,352,48937,6,0,L|204:343,1,35.9999989013672,6|8,1:2|0:0,0:0:0:0:
169,357,49175,2,0,L|131:348,1,35.9999989013672,4|2,3:0|3:0,0:0:0:0:
95,340,49413,1,10,0:0:0:0:
45,284,49651,1,8,0:0:0:0:
45,284,49770,2,0,P|27:228|45:182,1,107.999996704102,10|10,0:0|0:0,0:0:0:0:
106,137,50365,2,0,L|144:128,1,35.9999989013672,10|8,0:0|3:0,0:0:0:0:
180,120,50603,1,4,3:0:0:0:
244,72,50841,6,0,L|328:50,1,83.9999974365235,6|0,1:2|1:0,0:0:0:0:
369,43,51198,1,2,0:0:0:0:
369,43,51317,1,8,0:0:0:0:
445,76,51556,2,0,P|462:59|471:43,2,41.9999987182618,2|8|0,1:2|0:0|0:0,0:0:0:0:
404,147,52032,2,0,P|394:189|410:228,1,83.9999974365235,2|8,1:2|0:0,0:0:0:0:
409,309,52508,6,0,B|376:294|351:320|351:320|323:348|291:334,1,125.999996154785,6|8,1:2|0:0,0:0:0:0:
254,321,52984,1,2,1:2:0:0:
196,259,53222,2,0,B|176:234|176:234|190:180,1,83.9999974365235,10|2,0:0|1:2,0:0:0:0:
201,143,53579,1,8,0:0:0:0:
201,143,53698,1,0,0:0:0:0:
161,68,53937,2,0,P|122:45|81:48,1,83.9999974365235,2|10,1:2|0:0,0:0:0:0:
16,95,54413,2,0,L|27:137,1,41.9999987182618,8|8,0:0|0:0,0:0:0:0:
11,174,54651,6,0,L|33:258,1,83.9999974365235,6|0,1:2|1:0,0:0:0:0:
47,299,55008,1,2,0:0:0:0:
47,299,55127,1,8,0:0:0:0:
124,330,55365,2,0,P|141:346|150:362,2,41.9999987182618,2|8|0,1:2|0:0|0:0,0:0:0:0:
167,258,55841,2,0,P|197:229|239:223,1,83.9999974365235,2|8,1:2|0:0,0:0:0:0:
315,253,56317,6,0,B|351:281|351:281|431:259,1,125.999996154785,6|8,1:2|0:0,0:0:0:0:
469,247,56794,1,2,1:2:0:0:
498,168,57032,2,0,P|506:124|491:87,1,83.9999974365235,10|0,0:0|1:0,0:0:0:0:
470,58,57389,1,2,0:0:0:0:
470,58,57508,2,0,L|481:16,2,41.9999987182618,8|8|2,0:0|0:0|1:2,0:0:0:0:
401,105,57984,2,0,L|317:83,1,83.9999974365235,10|0,0:0|1:0,0:0:0:0:
255,137,58460,6,0,P|242:178|256:218,1,83.9999974365235,6|0,1:2|1:0,0:0:0:0:
276,251,58817,1,2,0:0:0:0:
276,251,58937,1,8,0:0:0:0:
238,325,59175,2,0,L|249:367,2,41.9999987182618,2|8|0,1:2|0:0|0:0,0:0:0:0:
161,291,59651,2,0,P|119:279|79:292,1,83.9999974365235,2|8,1:2|0:0,0:0:0:0:
17,236,60127,1,2,1:2:0:0:
39,154,60365,6,0,B|55:89|55:89|83:80,1,96,14|2,0:0|1:2,0:0:0:0:
160,125,60841,6,0,B|179:55|179:55|215:45,1,107.999996704102,14|2,0:0|1:2,0:0:0:0:
285,96,61317,6,0,B|305:25|305:25|350:12,1,120,14|0,0:0|1:0,0:0:0:0:
436,64,61794,6,0,L|478:53,2,41.9999987182618,10|8|0,0:0|0:0|1:0,0:0:0:0:
371,117,62270,5,12,0:0:0:0:
417,176,62508,1,8,1:2:0:0:
372,236,62746,1,8,1:2:0:0:
418,295,62984,1,8,1:2:0:0:
372,365,63222,5,8,1:2:0:0:
299,322,63460,1,8,1:2:0:0:
227,365,63698,1,8,1:2:0:0:
154,322,63936,1,8,1:2:0:0:
82,365,64175,6,0,P|36:343|23:273,2,125.999996154785,6|6|2,1:2|1:2|1:2,0:0:0:0:
106,38,66079,6,0,B|160:25|160:25|178:30|178:30|225:18,1,120,6|8,1:2|0:0,0:0:0:0:
300,74,66556,2,0,L|359:59,1,60,2|0,1:2|0:0,0:0:0:0:
408,51,66794,1,8,0:0:0:0:
408,51,66913,2,0,P|466:73|483:124,1,120,2|0,1:2|1:0,0:0:0:0:
477,172,67270,1,10,0:0:0:0:
413,244,67508,2,0,P|395:271|391:299,1,60,2|0,1:2|1:0,0:0:0:0:
396,345,67746,1,8,0:0:0:0:
301,326,67984,6,0,B|268:312|244:336|244:336|220:357|190:344,1,120,2|8,1:2|0:0,0:0:0:0:
94,347,68460,2,0,L|79:288,1,60,6|0,1:2|0:0,0:0:0:0:
93,246,68698,1,8,0:0:0:0:
93,246,68817,2,0,L|64:126,1,120,6|0,1:2|1:0,0:0:0:0:
54,82,69175,1,8,0:0:0:0:
149,73,69413,2,0,P|180:66|203:49,1,60,2|0,1:2|1:0,0:0:0:0:
233,14,69651,1,10,0:0:0:0:
304,78,69889,6,0,B|337:106|337:106|416:85,1,120,6|8,1:2|0:0,0:0:0:0:
461,77,70246,1,0,0:0:0:0:
461,77,70365,1,2,1:2:0:0:
502,169,70603,1,8,0:0:0:0:
502,169,70722,2,0,B|483:241|483:241|454:253|438:235,1,120,2|0,1:2|1:0,0:0:0:0:
395,225,71079,2,0,P|363:226|336:243,1,60,10|0,0:0|0:0,0:0:0:0:
307,275,71317,1,2,1:2:0:0:
250,196,71556,1,8,0:0:0:0:
306,118,71794,5,6,1:2:0:0:
233,55,72032,2,0,L|174:40,1,60,8|8,0:0|0:0,0:0:0:0:
134,66,72270,2,0,L|75:51,1,60,10|8,0:0|0:0,0:0:0:0:
30,67,72508,1,8,0:0:0:0:
30,67,72627,2,0,P|13:132|43:171,1,120,6|0,1:2|1:0,0:0:0:0:
71,208,72984,2,0,P|76:239|65:269,1,60,10|8,0:0|0:0,0:0:0:0:
46,308,73222,1,6,1:2:0:0:
134,345,73460,1,4,1:2:0:0:
207,282,73698,6,0,P|234:268|269:271,3,60,10|8|8|8,0:0|0:0|0:0|0:0,0:0:0:0:
306,289,74175,2,0,B|354:326|354:326|416:311,1,120,6|8,1:2|0:0,0:0:0:0:
453,288,74532,2,0,B|490:240|490:240|475:178,1,120,2|0,1:2|1:0,0:0:0:0:
461,136,74889,1,10,0:0:0:0:
365,140,75127,2,0,P|333:133|310:116,1,60,2|0,1:2|1:0,0:0:0:0:
281,81,75365,1,8,0:0:0:0:
187,57,75603,6,0,B|133:44|133:44|115:49|115:49|68:38,1,120,2|8,1:2|0:0,0:0:0:0:
72,134,76079,2,0,L|57:193,1,60,6|0,1:2|0:0,0:0:0:0:
46,241,76317,1,8,0:0:0:0:
46,241,76437,2,0,B|46:280|24:299|24:299|49:283|79:289,1,120,6|0,1:2|1:0,0:0:0:0:
123,301,76794,1,8,0:0:0:0:
205,251,77032,2,0,P|213:219|207:191,1,60,2|0,1:2|1:0,0:0:0:0:
189,150,77270,1,10,0:0:0:0:
237,67,77508,6,0,B|270:53|294:77|294:77|318:98|348:85,1,120,6|8,1:2|0:0,0:0:0:0:
434,43,77984,2,0,L|449:102,1,60,2|0,1:2|0:0,0:0:0:0:
433,149,78222,1,8,0:0:0:0:
433,149,78341,2,0,L|462:269,1,120,2|0,1:2|1:0,0:0:0:0:
472,313,78699,1,10,0:0:0:0:
376,306,78937,2,0,P|344:312|321:329,1,60,2|0,1:2|1:0,0:0:0:0:
292,365,79175,1,8,0:0:0:0:
215,306,79413,6,0,L|156:291,1,60,6|8,1:2|0:0,0:0:0:0:
116,317,79651,2,0,L|57:302,1,60,8|4,3:0|3:0,0:0:0:0:
11,290,79889,1,10,0:0:0:0:
6,198,80127,1,8,0:0:0:0:
6,198,80246,2,0,B|24:125|24:125|53:113|69:131,1,120,6|0,1:2|1:0,0:0:0:0:
108,151,80603,1,8,0:0:0:0:
163,72,80841,2,0,P|185:52|218:44,1,60,6|8,1:2|0:0,0:0:0:0:
261,50,81079,2,0,P|286:65|303:95,1,60,10|8,0:0|0:0,0:0:0:0:
328,130,81317,6,0,B|361:158|361:158|440:137,1,120,6|8,1:2|0:0,0:0:0:0:
485,220,81794,2,0,P|473:284|425:309,1,120,2|8,1:2|0:0,0:0:0:0:
381,317,82151,2,0,B|351:342|351:371|351:371|347:342|323:323,1,120,2|0,1:2|1:0,0:0:0:0:
283,299,82508,1,10,0:0:0:0:
230,218,82746,2,0,P|216:188|217:156,1,60,0|0,1:0|1:0,0:0:0:0:
225,114,82984,1,10,0:0:0:0:
174,32,83222,6,0,B|120:45|120:45|102:40|102:40|55:51,1,120,2|8,1:2|0:0,0:0:0:0:
33,143,83698,2,0,L|18:202,1,60,2|0,1:2|0:0,0:0:0:0:
13,252,83937,1,8,0:0:0:0:
13,252,84056,2,0,P|25:316|73:341,1,120,2|0,1:2|1:0,0:0:0:0:
116,348,84413,1,8,0:0:0:0:
186,283,84651,2,0,L|201:224,1,60,2|0,1:2|1:0,0:0:0:0:
182,180,84889,2,0,L|197:121,1,60,10|0,0:0|0:0,0:0:0:0:
233,90,85127,6,0,B|266:76|290:100|290:100|314:121|344:108,1,120,6|8,1:2|0:0,0:0:0:0:
439,113,85603,2,0,P|473:152|462:217,1,120,2|8,1:2|0:0,0:0:0:0:
450,261,85960,2,0,B|432:334|432:334|403:346|387:328,1,120,2|0,1:2|1:0,0:0:0:0:
349,306,86317,1,10,0:0:0:0:
257,275,86556,2,0,P|225:267|197:273,1,60,0|0,1:0|1:0,0:0:0:0:
156,291,86794,1,10,0:0:0:0:
64,260,87032,6,0,B|36:227|36:227|57:148,1,120,6|8,1:2|0:0,0:0:0:0:
81,60,87508,2,0,L|140:45,1,60,6|0,1:2|0:0,0:0:0:0:
189,40,87746,1,8,0:0:0:0:
189,40,87865,2,0,B|222:26|246:50|246:50|270:71|300:58,1,120,6|0,1:2|1:0,0:0:0:0:
344,40,88222,1,8,0:0:0:0:
435,68,88460,2,0,P|460:84|476:113,1,60,10|8,0:0|0:0,0:0:0:0:
473,157,88698,2,0,P|463:185|439:208,1,60,10|8,0:0|0:0,0:0:0:0:
415,246,88937,6,0,B|397:278|411:304|411:304|394:279|358:272,1,120,6|8,1:2|0:0,0:0:0:0:
288,213,89413,2,0,B|275:159|275:159|280:141|280:141|269:94,1,120,2|8,1:2|0:0,0:0:0:0:
252,51,89770,2,0,P|220:20|146:19,1,120,2|0,1:2|1:0,0:0:0:0:
104,39,90127,1,10,0:0:0:0:
37,108,90365,2,0,L|22:167,1,60,0|0,1:0|1:0,0:0:0:0:
11,213,90603,1,10,0:0:0:0:
38,304,90841,6,0,B|71:332|71:332|150:311,1,120,6|8,1:2|0:0,0:0:0:0:
230,268,91317,2,0,P|262:287|274:308,1,60,2|0,1:2|0:0,0:0:0:0:
291,355,91556,1,8,0:0:0:0:
291,355,91675,2,0,P|332:315|393:317,1,120,6|0,1:2|0:0,0:0:0:0:
429,344,92032,1,8,3:0:0:0:
457,252,92270,2,0,L|472:193,1,60,4|4,3:0|3:0,0:0:0:0:
453,149,92508,2,0,L|468:90,1,60,2|2,3:0|3:0,0:0:0:0:
448,48,92746,6,0,P|399:26|344:42,1,107.999996704102,6|0,1:2|0:0,0:0:0:0:
278,89,93222,2,0,P|229:111|174:95,1,107.999996704102,10|0,0:0|1:0,0:0:0:0:
142,73,93579,2,0,B|130:120|130:120|135:138|135:138|124:182,1,107.999996704102,10|0,0:0|0:0,0:0:0:0:
117,220,93937,1,2,1:2:0:0:
48,273,94175,1,8,0:0:0:0:
96,344,94413,6,0,L|153:330,1,53.9999983520508,10|8,0:0|0:0,0:0:0:0:
190,322,94651,1,4,1:2:0:0:
269,356,94889,1,8,1:2:0:0:
325,290,95127,1,8,1:2:0:0:
282,214,95365,1,8,1:2:0:0:
197,233,95603,5,6,1:2:0:0:
328,121,96079,1,6,1:2:0:0:
325,290,96556,1,6,1:2:0:0:
256,192,96675,12,0,98460,0:0:0:0:
55,42,103698,5,8,3:0:0:0:
91,107,103937,1,4,3:0:0:0:
71,179,104175,6,0,L|49:263,1,83.9999974365235,6|0,1:2|0:0,0:0:0:0:
41,304,104532,1,0,0:0:0:0:
41,304,104651,1,10,0:0:0:0:
114,353,104889,1,0,0:0:0:0:
114,353,105008,2,0,P|156:364|194:353,1,83.9999974365235,2|0,0:0|0:0,0:0:0:0:
231,334,105365,1,2,0:0:0:0:
209,252,105603,2,0,L|220:210,1,41.9999987182618,8|0,0:0|0:0,0:0:0:0:
205,173,105841,2,0,L|216:131,1,41.9999987182618,2|0,0:0|0:0,0:0:0:0:
237,96,106079,6,0,P|279:85|317:96,1,83.9999974365235,2|0,1:2|0:0,0:0:0:0:
353,117,106437,1,0,0:0:0:0:
353,117,106556,1,10,0:0:0:0:
425,72,106794,1,0,0:0:0:0:
425,72,106913,2,0,L|447:156,1,83.9999974365235,2|0,0:0|0:0,0:0:0:0:
458,193,107270,1,2,0:0:0:0:
437,274,107508,2,0,L|448:316,2,41.9999987182618,8|0|2,0:0|0:0|0:0,0:0:0:0:
397,260,107865,5,0,0:0:0:0:
397,260,107984,2,0,P|355:249|317:260,1,83.9999974365235,2|0,1:2|0:0,0:0:0:0:
284,286,108341,1,0,0:0:0:0:
284,286,108460,1,10,0:0:0:0:
222,342,108698,1,0,0:0:0:0:
222,342,108817,2,0,L|138:320,1,83.9999974365235,2|0,0:0|0:0,0:0:0:0:
101,309,109174,1,0,0:0:0:0:
36,254,109413,2,0,P|33:235|38:209,1,41.9999987182618,8|0,0:0|0:0,0:0:0:0:
43,171,109651,2,0,P|46:152|41:126,1,41.9999987182618,2|0,0:0|0:0,0:0:0:0:
40,87,109889,6,0,L|-2:76,2,41.9999987182618,6|8|2,1:2|0:0|3:0,0:0:0:0:
110,40,110365,1,10,0:0:0:0:
185,87,110603,1,8,0:0:0:0:
185,87,110722,2,0,L|269:65,1,83.9999974365235,10|8,0:0|0:0,0:0:0:0:
306,55,111079,1,10,0:0:0:0:
380,92,111317,2,0,L|422:81,1,41.9999987182618,8|8,0:0|3:0,0:0:0:0:
461,72,111556,1,4,3:0:0:0:
512,137,111794,5,6,1:2:0:0:
494,214,112032,2,0,L|485:252,1,35.9999989013672,2|0,0:0|0:0,0:0:0:0:
454,273,112270,2,0,L|436:346,1,71.9999978027344,10|0,0:0|0:0,0:0:0:0:
399,355,112627,1,2,0:0:0:0:
399,355,112746,2,0,P|362:364|328:353,1,71.9999978027344,0|2,1:0|0:0,0:0:0:0:
259,320,113222,2,0,L|186:338,2,71.9999978027344,10|0|2,0:0|0:0|1:2,0:0:0:0:
338,151,114175,5,10,0:0:0:0:
311,78,114413,1,0,0:0:0:0:
311,78,114532,1,10,0:0:0:0:
311,78,114651,2,0,L|238:60,1,71.9999978027344,0|2,1:0|0:0,0:0:0:0:
166,41,115127,1,10,0:0:0:0:
106,95,115365,1,0,0:0:0:0:
33,61,115603,1,2,1:2:0:0:
66,214,116079,6,0,P|75:251|64:285,1,71.9999978027344,10|0,0:0|0:0,0:0:0:0:
54,323,116437,1,10,0:0:0:0:
54,323,116556,2,0,L|127:305,1,71.9999978027344,0|2,1:0|0:0,0:0:0:0:
201,288,117032,2,0,L|219:361,2,71.9999978027344,10|0|2,0:0|0:0|1:2,0:0:0:0:
364,143,117984,5,10,0:0:0:0:
432,205,118222,1,0,0:0:0:0:
432,205,118341,1,2,0:0:0:0:
432,205,118460,2,0,L|450:132,1,71.9999978027344,0|2,1:0|0:0,0:0:0:0:
470,58,118937,2,0,L|397:40,1,71.9999978027344,10|0,0:0|0:0,0:0:0:0:
324,18,119413,1,6,1:2:0:0:
251,50,119651,6,0,P|248:70|251:86,1,35.9999989013672,2|0,0:0|0:0,0:0:0:0:
261,123,119889,2,0,P|270:160|259:194,1,71.9999978027344,10|0,0:0|0:0,0:0:0:0:
243,227,120246,1,10,0:0:0:0:
243,227,120365,2,0,P|234:264|245:298,1,71.9999978027344,0|2,1:0|0:0,0:0:0:0:
300,350,120841,2,0,P|337:341|371:352,2,71.9999978027344,10|0|2,0:0|0:0|1:2,0:0:0:0:
117,358,121794,5,10,0:0:0:0:
97,280,122032,1,0,0:0:0:0:
97,280,122151,1,2,0:0:0:0:
97,280,122270,2,0,L|79:207,1,71.9999978027344,0|2,1:0|0:0,0:0:0:0:
58,133,122746,1,10,0:0:0:0:
112,75,122984,6,0,P|132:72|148:75,1,35.9999989013672,0|8,0:0|0:0,0:0:0:0:
185,85,123222,2,0,P|222:94|256:83,1,71.9999978027344,2|0,1:2|0:0,0:0:0:0:
327,56,123698,2,0,P|364:47|398:58,1,71.9999978027344,10|0,0:0|0:0,0:0:0:0:
428,87,124056,1,2,0:0:0:0:
428,87,124175,2,0,P|437:124|426:158,1,71.9999978027344,0|2,1:0|0:0,0:0:0:0:
459,228,124651,2,0,P|493:244|512:274,2,71.9999978027344,10|0|2,0:0|0:0|1:2,0:0:0:0:
402,378,125603,6,0,L|329:360,1,71.9999978027344,10|0,0:0|0:0,0:0:0:0:
295,352,125960,1,2,0:0:0:0:
295,352,126079,1,0,1:0:0:0:
224,307,126317,1,2,0:0:0:0:
157,354,126556,2,0,L|84:336,1,71.9999978027344,10|0,0:0|0:0,0:0:0:0:
16,374,127032,6,0,P|6:330|19:295,1,83.9999974365235,4|2,1:2|0:0,0:0:0:0:
51,220,127508,2,0,P|61:176|48:141,1,83.9999974365235,10|0,0:0|0:0,0:0:0:0:
27,99,127865,2,0,L|111:77,1,83.9999974365235,2|0,1:2|0:0,0:0:0:0:
151,69,128222,1,2,1:2:0:0:
229,96,128460,2,0,P|247:137|241:174,1,83.9999974365235,10|0,0:0|0:0,0:0:0:0:
189,240,128937,5,2,1:2:0:0:
196,323,129175,1,0,0:0:0:0:
271,360,129413,2,0,L|355:338,1,83.9999974365235,10|0,0:0|0:0,0:0:0:0:
378,305,129770,2,0,L|462:283,1,83.9999974365235,2|0,1:2|0:0,0:0:0:0:
499,272,130127,1,2,1:2:0:0:
462,196,130365,2,0,P|452:152|465:117,1,83.9999974365235,10|2,0:0|0:0,0:0:0:0:
445,35,130841,6,0,L|361:13,1,83.9999974365235,0|2,1:0|0:0,0:0:0:0:
284,40,131317,2,0,L|200:18,1,83.9999974365235,10|0,0:0|0:0,0:0:0:0:
166,40,131675,2,0,P|156:84|169:119,1,83.9999974365235,2|0,1:2|0:0,0:0:0:0:
197,149,132032,1,2,1:2:0:0:
236,223,132270,2,0,P|246:267|233:302,1,83.9999974365235,10|0,0:0|0:0,0:0:0:0:
177,365,132746,5,2,1:2:0:0:
101,327,132984,1,0,0:0:0:0:
25,362,133222,2,0,P|15:318|28:283,1,83.9999974365235,10|0,0:0|0:0,0:0:0:0:
41,242,133579,2,0,P|51:198|38:163,1,83.9999974365235,2|8,1:2|0:0,0:0:0:0:
18,124,133937,1,2,1:2:0:0:
63,53,134175,1,12,0:0:0:0:
144,71,134413,2,0,P|170:75|188:71,1,41.9999987182618,8|8,0:0|0:0,0:0:0:0:
228,86,134651,6,0,P|238:130|225:165,1,83.9999974365235,4|2,1:2|0:0,0:0:0:0:
192,241,135127,2,0,P|182:285|195:320,1,83.9999974365235,10|0,0:0|0:0,0:0:0:0:
226,348,135484,2,0,L|310:326,1,83.9999974365235,2|0,1:2|0:0,0:0:0:0:
385,300,135841,1,2,1:2:0:0:
460,332,136079,2,0,P|470:288|457:253,1,83.9999974365235,10|0,0:0|0:0,0:0:0:0:
428,176,136556,5,2,1:2:0:0:
456,96,136794,1,0,0:0:0:0:
377,74,137032,2,0,L|293:52,1,83.9999974365235,10|0,0:0|0:0,0:0:0:0:
257,68,137389,2,0,P|247:112|260:147,1,83.9999974365235,2|0,1:2|0:0,0:0:0:0:
287,179,137746,1,2,1:2:0:0:
233,242,137984,2,0,L|149:220,2,83.9999974365235,10|0|2,0:0|0:0|0:0,0:0:0:0:
233,229,140365,5,4,1:2:0:0:
205,298,140603,1,8,1:2:0:0:
145,342,140841,1,8,1:2:0:0:
72,333,141079,1,8,1:2:0:0:
15,270,141317,5,8,1:2:0:0:
58,197,141555,1,8,1:2:0:0:
15,125,141793,1,8,1:2:0:0:
58,52,142032,2,0,L|100:41,1,41.9999987182618,8|8,0:0|0:0,0:0:0:0:
142,60,142270,5,6,1:2:0:0:
142,60,142389,2,0,B|171:51|191:73|191:73|213:96|242:87,1,107.999996704102,0|2,0:0|1:2,0:0:0:0:
272,115,142746,2,0,B|293:146|293:146|276:218,1,107.999996704102,8|2,0:0|1:2,0:0:0:0:
268,257,143103,1,0,1:0:0:0:
292,344,143341,1,0,1:0:0:0:
292,344,143460,2,0,L|348:332,1,53.9999983520508,2|0,1:2|0:0,0:0:0:0:
383,351,143698,2,0,L|439:339,1,53.9999983520508,0|0,1:0|1:0,0:0:0:0:
478,332,143937,1,10,0:0:0:0:
477,245,144175,5,2,1:2:0:0:
477,245,144294,2,0,B|494:170|494:170|487:154|464:158,1,107.999996704102,0|2,0:0|1:2,0:0:0:0:
425,153,144651,2,0,B|397:161|383:189|383:189|391:158|374:136,1,107.999996704102,8|2,0:0|1:2,0:0:0:0:
361,100,145008,1,0,1:0:0:0:
299,47,145246,1,0,1:0:0:0:
299,47,145365,2,0,P|275:26|253:20,1,53.9999983520508,2|0,1:2|0:0,0:0:0:0:
212,18,145603,2,0,P|182:28|166:44,1,53.9999983520508,0|0,1:0|1:0,0:0:0:0:
142,80,145841,1,10,0:0:0:0:
66,121,146079,6,0,L|54:177,1,53.9999983520508,6|0,1:2|0:0,0:0:0:0:
73,212,146317,2,0,L|61:268,1,53.9999983520508,0|2,0:0|1:2,0:0:0:0:
54,307,146556,1,8,0:0:0:0:
123,367,146794,1,2,1:2:0:0:
123,367,146913,2,0,B|168:355|168:355|186:360|186:360|229:349,1,107.999996704102,0|0,1:0|1:0,0:0:0:0:
269,342,147270,2,0,L|325:330,1,53.9999983520508,2|0,1:2|0:0,0:0:0:0:
360,349,147508,2,0,L|416:337,1,53.9999983520508,0|0,1:0|1:0,0:0:0:0:
455,330,147747,1,10,0:0:0:0:
488,253,147984,5,2,1:2:0:0:
488,253,148103,2,0,P|501:198|481:151,1,107.999996704102,12|2,0:0|1:2,0:0:0:0:
453,120,148460,1,8,0:0:0:0:
382,78,148698,1,10,0:0:0:0:
382,78,148817,2,0,P|327:64|280:84,1,107.999996704102,4|0,1:2|1:0,0:0:0:0:
257,119,149175,2,0,P|252:151|260:176,1,53.9999983520508,14|0,0:0|0:0,0:0:0:0:
278,209,149413,1,0,1:0:0:0:
323,282,149651,1,2,1:2:0:0:
256,337,149889,6,0,B|227:328|207:350|207:350|185:373|156:364,1,107.999996704102,6|0,1:2|0:0,0:0:0:0:
115,359,150246,1,2,0:0:0:0:
38,318,150484,1,2,0:0:0:0:
57,233,150722,2,0,B|73:157|73:157|51:136,1,107.999996704102,2|0,0:0|0:0,0:0:0:0:
16,110,151079,1,2,0:0:0:0:
72,45,151317,2,0,P|98:31|174:29,1,107.999996704102,8|2,0:0|0:0,0:0:0:0:
254,62,151794,6,0,B|279:69|293:97|293:97|285:66|302:44,1,107.999996704102,2|0,1:2|0:0,0:0:0:0:
329,14,152151,1,2,0:0:0:0:
400,62,152389,1,2,0:0:0:0:
478,26,152627,2,0,B|495:101|495:101|488:117|465:113,1,107.999996704102,2|8,0:0|0:0,0:0:0:0:
446,150,152984,2,0,P|441:181|449:205,1,53.9999983520508,2|0,0:0|0:0,0:0:0:0:
468,239,153222,1,8,0:0:0:0:
427,315,153460,2,0,P|396:310|372:318,1,53.9999983520508,2|8,0:0|0:0,0:0:0:0:
337,338,153698,6,0,B|292:326|292:326|274:331|274:331|231:320,1,107.999996704102,6|0,1:2|0:0,0:0:0:0:
189,312,154056,1,2,0:0:0:0:
114,355,154294,2,0,L|102:302,1,53.9999983520508,2|0,0:0|0:0,0:0:0:0:
67,276,154532,2,0,L|45:169,1,107.999996704102,2|0,0:0|0:0,0:0:0:0:
37,127,154889,1,2,0:0:0:0:
57,43,155127,1,8,0:0:0:0:
142,30,155365,1,2,0:0:0:0:
191,101,155603,6,0,L|179:153,2,53.9999983520508,2|0|0,1:2|0:0|0:0,0:0:0:0:
229,81,155960,2,0,B|258:72|278:94|278:94|300:117|329:108,1,107.999996704102,2|2,0:0|0:0,0:0:0:0:
374,94,156317,1,0,0:0:0:0:
374,94,156437,2,0,P|430:75|474:95,1,107.999996704102,10|8,0:0|0:0,0:0:0:0:
504,122,156794,1,2,0:0:0:0:
485,206,157032,2,0,L|473:258,1,53.9999983520508,8|8,0:0|0:0,0:0:0:0:
439,285,157270,2,0,L|427:337,1,53.9999983520508,10|8,0:0|0:0,0:0:0:0:
394,366,157508,6,0,P|361:350|324:345,1,71.9999978027344,6|0,1:2|0:0,0:0:0:0:
252,316,157984,2,0,P|226:286|222:255,1,71.9999978027344,10|0,0:0|0:0,0:0:0:0:
231,216,158341,1,2,0:0:0:0:
231,216,158460,2,0,P|257:186|261:155,1,71.9999978027344,0|2,1:0|0:0,0:0:0:0:
248,76,158937,1,8,0:0:0:0:
176,41,159175,1,2,0:0:0:0:
99,60,159413,6,0,L|81:130,1,71.9999978027344,2|0,1:2|0:0,0:0:0:0:
54,204,159889,1,10,0:0:0:0:
39,287,160127,1,0,0:0:0:0:
39,287,160246,1,2,0:0:0:0:
39,287,160365,2,0,P|69:313|100:317,1,71.9999978027344,0|0,1:0|0:0,0:0:0:0:
157,371,160841,2,0,P|196:368|221:349,1,71.9999978027344,10|0,0:0|0:0,0:0:0:0:
269,285,161317,6,0,L|339:267,1,71.9999978027344,2|0,1:2|0:0,0:0:0:0:
371,197,161794,2,0,L|441:179,1,71.9999978027344,8|0,0:0|0:0,0:0:0:0:
487,194,162151,1,0,0:0:0:0:
487,194,162270,2,0,P|495:231|485:266,2,71.9999978027344,0|0|8,1:0|0:0|0:0,0:0:0:0:
487,114,162984,1,0,0:0:0:0:
435,52,163222,6,0,L|365:34,1,71.9999978027344,0|0,1:0|0:0,0:0:0:0:
292,60,163698,1,8,0:0:0:0:
291,146,163937,1,0,0:0:0:0:
291,146,164056,1,0,0:0:0:0:
291,146,164175,2,0,P|299:183|289:218,1,71.9999978027344,0|0,1:0|0:0,0:0:0:0:
253,285,164651,1,10,0:0:0:0:
193,337,164889,1,2,0:0:0:0:
114,326,165127,6,0,L|44:308,1,71.9999978027344,6|0,1:2|0:0,0:0:0:0:
29,230,165603,2,0,P|21:193|31:158,1,71.9999978027344,10|0,0:0|0:0,0:0:0:0:
51,128,165960,1,2,0:0:0:0:
51,128,166079,2,0,P|59:91|49:56,1,71.9999978027344,0|2,1:0|0:0,0:0:0:0:
120,18,166556,1,8,0:0:0:0:
187,59,166794,1,2,0:0:0:0:
264,41,167032,6,0,L|334:23,1,71.9999978027344,2|0,1:2|0:0,0:0:0:0:
411,35,167508,1,10,0:0:0:0:
485,83,167746,1,0,0:0:0:0:
485,83,167865,1,2,0:0:0:0:
485,83,167984,2,0,P|493:120|483:155,1,71.9999978027344,0|0,1:0|0:0,0:0:0:0:
452,224,168460,1,10,0:0:0:0:
500,286,168698,1,2,0:0:0:0:
425,314,168937,6,0,B|383:306|363:343|363:343|343:375|300:366,1,144,6|0,1:2|0:0,0:0:0:0:
290,365,169770,6,0,B|247:354|215:328|209:290|214:268|236:249|260:241|284:261|291:277|293:287,1,210,2|0,0:0|0:0,0:0:0:0:
375,331,170841,6,0,B|499:300|499:300|468:307|457:337,2,180,6|6|2,1:2|1:2|1:2,0:0:0:0:
56,147,172746,6,0,P|74:174|78:202,1,60,6|8,1:2|0:0,0:0:0:0:
73,248,172984,1,0,0:0:0:0:
65,343,173222,2,0,L|124:328,1,60,10|0,0:0|1:0,0:0:0:0:
167,342,173460,1,8,0:0:0:0:
167,342,173579,2,0,L|287:313,1,120,6|0,1:2|1:0,0:0:0:0:
331,303,173937,1,10,0:0:0:0:
418,342,174175,1,10,0:0:0:0:
484,273,174413,1,8,0:0:0:0:
433,197,174651,6,0,L|441:156,2,40,8|8|8,0:0|0:0|0:0,0:0:0:0:
389,205,174889,6,0,L|397:164,2,40,4|4|4,3:0|3:0|3:0,0:0:0:0:
345,215,175127,5,2,3:0:0:0:
285,284,175365,1,8,0:0:0:0:
285,284,175484,2,0,P|224:306|172:285,1,120,6|0,1:2|1:0,0:0:0:0:
133,265,175841,1,8,0:0:0:0:
56,209,176079,2,0,L|71:150,1,60,2|8,1:2|0:0,0:0:0:0:
112,127,176317,2,0,L|127:68,1,60,10|8,0:0|0:0,0:0:0:0:
142,23,176556,6,0,B|175:9|199:33|199:33|223:54|253:41,1,120,6|8,1:2|0:0,0:0:0:0:
302,31,176913,1,0,0:0:0:0:
302,31,177032,1,2,1:2:0:0:
400,46,177270,1,8,0:0:0:0:
400,46,177389,2,0,B|455:70|455:70|472:131,1,120,2|0,1:2|1:0,0:0:0:0:
462,174,177746,2,0,L|477:233,1,60,10|0,0:0|0:0,0:0:0:0:
489,278,177984,1,2,1:2:0:0:
442,362,178222,1,8,0:0:0:0:
346,349,178460,5,6,1:2:0:0:
320,256,178698,2,0,L|305:197,1,60,8|8,0:0|0:0,0:0:0:0:
313,150,178936,2,0,L|298:91,1,60,10|8,0:0|0:0,0:0:0:0:
283,45,179175,1,8,0:0:0:0:
283,45,179294,2,0,P|228:16|170:34,1,120,6|0,1:2|1:0,0:0:0:0:
134,56,179651,2,0,P|103:72|73:70,1,60,10|8,0:0|0:0,0:0:0:0:
31,67,179889,1,6,1:2:0:0:
0,157,180127,1,4,1:2:0:0:
73,218,180365,6,0,L|88:277,3,60,10|8|8|8,0:0|0:0|0:0|0:0,0:0:0:0:
103,321,180841,2,0,B|175:303|175:303|199:323|191:346,1,120,6|8,1:2|0:0,0:0:0:0:
232,367,181198,2,0,B|304:348|304:348|316:319|298:303,1,120,2|0,1:2|1:0,0:0:0:0:
272,265,181556,1,10,0:0:0:0:
238,174,181794,2,0,P|230:142|236:114,1,60,0|0,1:0|1:0,0:0:0:0:
254,72,182032,1,10,0:0:0:0:
347,94,182270,6,0,B|401:81|401:81|419:86|419:86|466:74,1,120,2|8,1:2|0:0,0:0:0:0:
482,168,182746,2,0,L|467:227,1,60,6|0,1:2|0:0,0:0:0:0:
450,271,182984,1,8,0:0:0:0:
450,271,183103,2,0,B|432:303|446:329|446:329|429:304|393:297,1,120,6|0,1:2|1:0,0:0:0:0:
349,290,183460,1,8,0:0:0:0:
276,352,183698,2,0,L|217:337,1,60,2|0,1:2|1:0,0:0:0:0:
171,324,183937,1,10,0:0:0:0:
80,356,184175,6,0,B|52:323|52:323|73:244,1,120,6|8,1:2|0:0,0:0:0:0:
21,167,184651,2,0,L|36:108,1,60,2|0,1:2|0:0,0:0:0:0:
67,73,184889,1,8,0:0:0:0:
67,73,185008,2,0,B|100:59|124:83|124:83|148:104|178:91,1,120,2|0,1:2|1:0,0:0:0:0:
222,73,185365,1,10,0:0:0:0:
266,158,185603,2,0,P|274:190|268:218,1,60,0|0,1:0|1:0,0:0:0:0:
250,260,185841,1,10,0:0:0:0:
294,344,186079,6,0,L|353:329,1,60,6|8,1:2|0:0,0:0:0:0:
400,337,186317,2,0,L|459:322,1,60,4|0,3:0|1:0,0:0:0:0:
505,311,186556,1,8,0:0:0:0:
482,222,186794,1,8,0:0:0:0:
482,222,186913,2,0,B|463:150|463:150|434:138|418:156,1,120,4|0,1:2|1:0,0:0:0:0:
381,182,187270,1,10,0:0:0:0:
325,103,187508,2,0,P|305:79|274:67,1,60,0|8,1:0|0:0,0:0:0:0:
231,69,187746,2,0,P|203:79|182:107,1,60,10|8,0:0|0:0,0:0:0:0:
147,139,187984,6,0,B|112:184|49:195|34:160|55:146|68:155,1,132.00000402832,6|8,1:2|0:0,0:0:0:0:
92,255,188460,2,0,P|90:291|71:321,1,66.0000020141602,2|0,1:2|0:0,0:0:0:0:
49,363,188698,1,8,0:0:0:0:
49,363,188817,2,0,P|112:336|177:347,1,132.00000402832,2|0,1:2|1:0,0:0:0:0:
221,366,189175,1,10,0:0:0:0:
294,290,189413,2,0,P|317:265|350:257,1,66.0000020141602,0|0,1:0|1:0,0:0:0:0:
400,258,189651,1,10,0:0:0:0:
499,293,189889,6,0,B|522:261|499:228|499:228|478:195|499:167,1,132.00000402832,2|8,1:2|0:0,0:0:0:0:
412,107,190365,2,0,P|385:86|374:54,1,66.0000020141602,6|0,1:2|0:0,0:0:0:0:
365,9,190603,1,8,0:0:0:0:
365,9,190722,2,0,B|350:65|350:65|355:83|355:83|340:141,1,132.00000402832,6|0,1:2|1:0,0:0:0:0:
331,188,191079,1,8,0:0:0:0:
260,266,191317,2,0,L|243:198,1,66.0000020141602,2|0,1:2|1:0,0:0:0:0:
232,150,191556,1,10,0:0:0:0:
244,45,191794,6,0,B|205:36|195:1|195:1|200:38|175:59,1,132.00000402832,6|8,1:2|0:0,0:0:0:0:
136,155,192270,2,0,P|100:139|85:113,1,66.0000020141602,2|0,1:2|0:0,0:0:0:0:
66,73,192508,1,8,0:0:0:0:
66,73,192627,2,0,B|87:162|87:162|77:185|50:177,1,132.00000402832,2|0,1:2|1:0,0:0:0:0:
2,169,192984,1,10,0:0:0:0:
50,262,193222,2,0,L|33:330,1,66.0000020141602,0|0,1:0|1:0,0:0:0:0:
18,377,193461,1,10,0:0:0:0:
121,359,193698,5,6,1:2:0:0:
181,271,193937,2,0,P|202:242|235:229,1,66.0000020141602,8|8,0:0|0:0,0:0:0:0:
281,229,194175,2,0,P|310:243|328:270,1,66.0000020141602,10|8,0:0|0:0,0:0:0:0:
366,314,194413,1,8,0:0:0:0:
366,314,194532,2,0,B|430:301|430:301|449:239,1,132.00000402832,6|0,1:2|1:0,0:0:0:0:
463,187,194889,2,0,L|480:119,1,66.0000020141602,10|8,0:0|0:0,0:0:0:0:
496,73,195127,1,6,1:2:0:0:
405,18,195365,1,4,1:2:0:0:
329,92,195603,6,0,P|320:130|331:160,3,66.0000020141602,10|8|8|8,0:0|0:0|0:0|0:0,0:0:0:0:
353,200,196079,2,0,B|317:183|289:212|289:212|260:239|229:224,1,132.00000402832,6|8,1:2|0:0,0:0:0:0:
193,188,196437,2,0,B|223:223|223:223|199:309,1,132.00000402832,2|0,1:2|1:0,0:0:0:0:
187,357,196794,1,10,0:0:0:0:
114,280,197032,2,0,P|88:259|56:255,1,66.0000020141602,2|0,1:2|1:0,0:0:0:0:
4,263,197270,1,8,0:0:0:0:
30,160,197508,6,0,B|47:126|29:94|29:94|52:123|84:121,1,132.00000402832,2|8,1:2|0:0,0:0:0:0:
189,122,197984,2,0,P|222:110|244:85,1,66.0000020141602,6|0,1:2|0:0,0:0:0:0:
271,45,198222,1,8,0:0:0:0:
271,45,198341,2,0,B|291:134|291:134|310:150|330:131,1,132.00000402832,6|0,1:2|1:0,0:0:0:0:
374,108,198698,1,8,0:0:0:0:
476,82,198937,2,0,L|459:150,1,66.0000020141602,2|0,1:2|1:0,0:0:0:0:
443,196,199175,1,10,0:0:0:0:
448,301,199413,6,0,B|413:256|350:245|335:280|356:294|369:285,1,132.00000402832,6|8,1:2|0:0,0:0:0:0:
281,222,199889,2,0,P|252:203|217:200,1,66.0000020141602,2|0,1:2|0:0,0:0:0:0:
173,213,200127,1,8,0:0:0:0:
173,213,200246,2,0,B|158:157|158:157|163:139|163:139|148:81,1,132.00000402832,2|0,1:2|1:0,0:0:0:0:
139,38,200603,1,10,0:0:0:0:
35,16,200841,2,0,L|52:84,1,66.0000020141602,2|0,1:2|1:0,0:0:0:0:
63,130,201079,1,8,0:0:0:0:
9,220,201317,6,0,P|11:255|32:284,1,66.0000020141602,6|8,1:2|0:0,0:0:0:0:
71,309,201555,2,0,P|103:312|132:299,1,66.0000020141602,4|2,3:0|3:0,0:0:0:0:
175,267,201794,1,10,0:0:0:0:
256,341,202032,1,8,0:0:0:0:
256,341,202151,2,0,B|310:304|310:304|367:335,1,132.00000402832,6|0,1:2|1:0,0:0:0:0:
415,361,202508,1,8,0:0:0:0:
444,259,202746,2,0,L|461:191,1,66.0000020141602,6|8,1:2|0:0,0:0:0:0:
434,148,202984,2,0,L|451:80,1,66.0000020141602,10|8,0:0|0:0,0:0:0:0:
483,43,203222,6,0,B|449:74|449:74|362:53,1,132.00000402832,6|8,1:2|0:0,0:0:0:0:
266,17,203698,2,0,B|287:106|287:106|277:129|250:120,1,132.00000402832,2|8,1:2|0:0,0:0:0:0:
202,107,204056,2,0,B|166:90|138:119|138:119|109:146|78:131,1,132.00000402832,2|0,1:2|1:0,0:0:0:0:
34,108,204413,1,10,0:0:0:0:
53,211,204651,2,0,P|51:249|34:277,1,66.0000020141602,0|0,1:0|1:0,0:0:0:0:
5,314,204889,1,10,0:0:0:0:
109,330,205127,6,0,B|165:315|165:315|183:320|183:320|241:305,1,132.00000402832,2|8,1:2|0:0,0:0:0:0:
340,323,205603,2,0,L|323:255,1,66.0000020141602,2|0,1:2|0:0,0:0:0:0:
336,210,205841,1,8,0:0:0:0:
336,210,205960,2,0,B|356:299|356:299|375:315|395:296,1,132.00000402832,2|0,1:2|1:0,0:0:0:0:
435,267,206317,1,8,0:0:0:0:
491,177,206556,2,0,P|489:138|472:111,1,66.0000020141602,2|0,1:2|1:0,0:0:0:0:
429,90,206794,2,0,P|390:91|363:109,1,66.0000020141602,10|0,0:0|0:0,0:0:0:0:
314,107,207032,6,0,B|257:114|205:77|219:41|243:46|246:62,1,132.00000402832,6|8,1:2|0:0,0:0:0:0:
189,148,207508,2,0,B|171:181|189:213|189:213|166:184|134:186,1,132.00000402832,2|8,1:2|0:0,0:0:0:0:
89,159,207865,2,0,P|41:165|10:239,1,132.00000402832,2|0,1:2|1:0,0:0:0:0:
45,274,208222,1,10,0:0:0:0:
20,375,208460,2,0,L|88:358,1,66.0000020141602,0|0,1:0|1:0,0:0:0:0:
136,348,208698,1,10,0:0:0:0:
239,372,208937,6,0,B|270:338|270:338|249:251,1,132.00000402832,6|8,1:2|0:0,0:0:0:0:
315,172,209413,2,0,L|332:240,1,66.0000020141602,6|0,1:2|0:0,0:0:0:0:
349,290,209651,1,8,0:0:0:0:
349,290,209770,2,0,P|407:250|463:264,1,132.00000402832,6|0,1:2|1:0,0:0:0:0:
498,302,210127,1,8,0:0:0:0:
508,196,210365,2,0,P|506:157|489:130,1,66.0000020141602,10|8,0:0|0:0,0:0:0:0:
449,104,210603,2,0,P|411:96|380:107,1,66.0000020141602,10|8,0:0|0:0,0:0:0:0:
339,129,210841,6,0,B|324:73|324:73|329:55|329:55|314:-3,1,132.00000402832,6|8,1:2|0:0,0:0:0:0:
229,63,211317,2,0,B|193:79|165:50|165:50|136:23|105:38,1,132.00000402832,2|8,1:2|0:0,0:0:0:0:
60,60,211675,2,0,B|49:95|16:109|16:109|52:99|76:121,1,132.00000402832,2|0,1:2|1:0,0:0:0:0:
112,159,212032,1,10,0:0:0:0:
143,259,212270,2,0,P|175:244|195:219,1,66.0000020141602,0|0,1:0|1:0,0:0:0:0:
216,174,212508,1,10,0:0:0:0:
278,259,212746,6,0,B|298:347|298:347|294:324|305:307,1,132.00000402832,6|8,1:2|0:0,0:0:0:0:
371,225,213222,2,0,L|388:157,1,66.0000020141602,2|0,1:2|0:0,0:0:0:0:
435,137,213460,1,8,0:0:0:0:
435,137,213579,2,0,B|465:171|465:171|443:257,1,132.00000402832,6|0,1:2|0:0,0:0:0:0:
429,305,213937,1,8,3:0:0:0:
337,358,214175,2,0,L|269:341,1,66.0000020141602,4|4,3:0|3:0,0:0:0:0:
225,364,214413,2,0,L|157:347,1,66.0000020141602,2|2,3:0|3:0,0:0:0:0:
115,371,214651,6,0,P|41:341|29:307,1,120,6|0,1:2|0:0,0:0:0:0:
74,223,215127,2,0,L|45:103,1,120,10|0,0:0|1:0,0:0:0:0:
67,63,215484,2,0,B|85:136|85:136|114:148|130:130,1,120,10|0,0:0|0:0,0:0:0:0:
167,107,215841,1,2,1:2:0:0:
187,200,216079,1,8,0:0:0:0:
270,152,216317,6,0,L|284:216,1,60,10|8,0:0|0:0,0:0:0:0:
294,257,216556,1,4,1:2:0:0:
314,342,216794,1,8,1:2:0:0:
400,348,217032,1,8,1:2:0:0:
435,270,217270,1,8,1:2:0:0:
369,211,217508,5,6,1:2:0:0:
213,323,217984,1,6,1:2:0:0:
81,210,218460,6,0,P|63:161|85:110,1,107.999996704102,6|2,1:2|0:0,0:0:0:0:
161,74,218937,2,0,L|268:49,1,107.999996704102,10|0,0:0|1:0,0:0:0:0:
309,40,219294,1,2,1:2:0:0:
385,89,219532,1,0,1:0:0:0:
385,89,219651,1,2,1:2:0:0:
417,169,219889,2,0,L|429:225,1,53.9999983520508,0|0,1:0|1:0,0:0:0:0:
440,265,220127,1,10,0:0:0:0:
373,320,220365,6,0,B|344:311|324:333|324:333|302:356|273:347,1,107.999996704102,2|2,1:2|1:2,0:0:0:0:
212,288,220841,2,0,B|132:271|132:271|111:293,1,107.999996704102,10|0,0:0|1:0,0:0:0:0:
72,301,221198,2,0,P|29:275|20:220,1,107.999996704102,2|0,1:2|1:0,0:0:0:0:
32,179,221556,1,2,1:2:0:0:
53,95,221794,2,0,L|109:83,1,53.9999983520508,0|0,1:0|1:0,0:0:0:0:
146,98,222032,2,0,L|202:86,1,53.9999983520508,10|0,0:0|1:0,0:0:0:0:
239,101,222270,6,0,B|256:176|256:176|249:192|226:188,1,107.999996704102,6|0,1:2|0:0,0:0:0:0:
216,273,222746,2,0,B|220:302|200:326|200:326|225:306|252:312,1,107.999996704102,10|0,0:0|1:0,0:0:0:0:
292,308,223103,1,2,1:2:0:0:
377,334,223341,1,0,1:0:0:0:
377,334,223460,1,2,1:2:0:0:
442,277,223698,2,0,L|454:221,1,53.9999983520508,0|0,1:0|1:0,0:0:0:0:
463,183,223936,1,10,0:0:0:0:
460,98,224175,5,2,1:2:0:0:
460,98,224294,2,0,B|415:86|415:86|397:91|397:91|354:80,1,107.999996704102,12|0,0:0|1:0,0:0:0:0:
313,70,224651,1,8,0:0:0:0:
244,117,224889,1,8,0:0:0:0:
244,117,225008,2,0,B|199:105|199:105|181:110|181:110|138:99,1,107.999996704102,2|0,1:2|1:0,0:0:0:0:
97,89,225365,1,10,0:0:0:0:
27,139,225603,2,0,P|20:169|25:192,1,53.9999983520508,0|0,1:0|1:0,0:0:0:0:
39,232,225841,2,0,P|45:262|40:285,1,53.9999983520508,10|0,0:0|1:0,0:0:0:0:
30,326,226079,6,0,B|48:293|48:293|120:277,1,107.999996704102,6|2,1:2|0:0,0:0:0:0:
197,310,226556,2,0,P|252:294|273:247,1,107.999996704102,10|0,0:0|1:0,0:0:0:0:
278,206,226913,1,2,1:2:0:0:
257,123,227151,1,0,1:0:0:0:
257,123,227270,1,2,1:2:0:0:
319,60,227508,2,0,L|375:48,1,53.9999983520508,0|0,1:0|1:0,0:0:0:0:
411,43,227746,1,10,0:0:0:0:
473,101,227984,6,0,B|489:180|489:180|467:201,1,107.999996704102,2|2,1:2|1:2,0:0:0:0:
460,285,228460,2,0,B|456:314|476:338|476:338|451:318|424:324,1,107.999996704102,10|0,0:0|1:0,0:0:0:0:
386,314,228817,2,0,B|311:297|311:297|295:304|299:327,1,107.999996704102,2|0,1:2|1:0,0:0:0:0:
301,366,229175,1,2,1:2:0:0:
216,347,229413,2,0,L|160:335,1,53.9999983520508,0|0,1:0|1:0,0:0:0:0:
123,350,229651,2,0,L|67:338,1,53.9999983520508,10|0,0:0|1:0,0:0:0:0:
32,318,229889,6,0,P|1:273|11:222,1,107.999996704102,6|2,1:2|0:0,0:0:0:0:
59,152,230365,2,0,L|166:127,1,107.999996704102,10|0,0:0|1:0,0:0:0:0:
209,119,230722,1,2,1:2:0:0:
291,156,230960,1,0,1:0:0:0:
291,156,231079,1,2,1:2:0:0:
368,112,231317,2,0,L|380:168,1,53.9999983520508,0|0,1:0|1:0,0:0:0:0:
365,205,231555,2,0,L|377:261,1,53.9999983520508,10|0,0:0|1:0,0:0:0:0:
389,302,231794,5,2,1:2:0:0:
389,302,231913,2,0,B|381:330|399:356|399:356|376:333|349:337,1,107.999996704102,12|0,0:0|1:0,0:0:0:0:
310,335,232270,1,10,0:0:0:0:
225,338,232508,1,8,0:0:0:0:
225,338,232627,2,0,B|195:336|173:357|173:357|191:331|183:304,1,107.999996704102,2|0,1:2|1:0,0:0:0:0:
169,269,232984,1,10,0:0:0:0:
89,242,233222,2,0,P|55:262|47:275,1,53.9999983520508,2|0,1:2|0:0,0:0:0:0:
27,315,233460,1,2,1:2:0:0:
27,315,233579,1,8,0:0:0:0:
