osu file format v14

[General]
AudioFilename: audio.mp3
AudioLeadIn: 0
PreviewTime: 55920
Countdown: 0
SampleSet: Soft
StackLeniency: 0.4
Mode: 0
LetterboxInBreaks: 0
WidescreenStoryboard: 1

[Editor]
DistanceSpacing: 1.1
BeatDivisor: 4
GridSize: 16
TimelineZoom: 1.7

[Metadata]
Title:Moonlight at midday
TitleUnicode:真昼の月明かり
Artist:Tsukuyomi
ArtistUnicode:月詠み
Creator:Seros
Version:climb's Hard
Source:
Tags:climbx3145 namki shiratamamywife Setu Petal Matha 4th Song japanese j-pop jpop pop ユリイ・カノン epoch とうかさ mikoto 欠けた心象、世のよすが Mahiru no tsukiakari Getsumei Hana
BeatmapID:3219759
BeatmapSetID:1537310

[Difficulty]
HPDrainRate:4.5
CircleSize:3.7
OverallDifficulty:5
ApproachRate:7.8
SliderMultiplier:1.6
SliderTickRate:1

[Events]
//Background and Video events
0,0,"BG.jpg",0,0
Video,0,"Video.mp4"
//Break Periods
2,142584,148462
//Storyboard Layer 0 (Background)
//Storyboard Layer 1 (Fail)
//Storyboard Layer 2 (Pass)
//Storyboard Layer 3 (Foreground)
//Storyboard Layer 4 (Overlay)
//Storyboard Sound Samples

[TimingPoints]
99,428.571428571429,4,2,1,60,1,0
1813,-111.111111111111,4,2,1,60,0,0
8670,-100,4,2,1,60,0,0
12098,-90.9090909090909,4,2,1,60,0,0
13813,-100,4,2,1,30,0,0
14884,-100,4,2,1,50,0,0
15098,-83.3333333333333,4,2,1,60,0,0
15527,-90.9090909090909,4,2,1,70,0,0
29241,-111.111111111111,4,2,1,70,0,0
29455,-111.111111111111,4,2,1,45,0,0
42098,-111.111111111111,4,2,1,55,0,0
42955,-100,4,2,1,60,0,0
53241,-90.9090909090909,4,2,1,60,0,0
54955,-90.9090909090909,4,2,1,70,0,0
55598,-90.9090909090909,4,2,1,70,0,0
56027,-111.111111111111,4,2,1,40,0,0
56670,-83.3333333333333,4,2,2,80,0,1
56777,-83.3333333333333,4,2,1,80,0,1
63527,-83.3333333333333,4,2,2,80,0,1
63634,-83.3333333333333,4,2,1,80,0,1
68670,-76.9230769230769,4,2,1,80,0,1
69527,-83.3333333333333,4,2,1,80,0,0
70384,-83.3333333333333,4,2,2,80,0,1
70491,-83.3333333333333,4,2,1,80,0,1
77241,-83.3333333333333,4,2,2,80,0,1
77348,-83.3333333333333,4,2,1,80,0,1
80670,-83.3333333333333,4,2,2,80,0,1
80777,-83.3333333333333,4,2,1,80,0,1
82384,-83.3333333333333,4,2,1,70,0,0
83670,-83.3333333333333,4,2,1,70,0,0
84098,-90.9090909090909,4,2,1,70,0,0
96848,-90.9090909090909,4,2,1,70,0,0
97813,-111.111111111111,4,2,1,70,0,0
98027,-111.111111111111,4,2,1,55,0,0
108098,-100,4,2,1,70,0,0
111527,-90.9090909090909,4,2,10,70,0,1
111741,-90.9090909090909,4,2,11,70,0,1
111848,-90.9090909090909,4,2,1,70,0,1
111955,-90.9090909090909,4,2,12,70,0,1
112063,-90.9090909090909,4,2,13,70,0,1
112170,-90.9090909090909,4,2,14,70,0,1
112277,-90.9090909090909,4,2,15,70,0,1
112384,-90.9090909090909,4,2,16,70,0,1
112598,-90.9090909090909,4,2,1,70,0,1
112813,-90.9090909090909,4,2,17,70,0,1
112920,-90.9090909090909,4,2,18,70,0,1
113027,-90.9090909090909,4,2,19,70,0,1
113134,-90.9090909090909,4,2,21,70,0,1
113241,-90.9090909090909,4,2,12,70,0,1
113455,-90.9090909090909,4,2,20,70,0,1
113563,-90.9090909090909,4,2,12,70,0,1
113670,-90.9090909090909,4,2,22,70,0,1
113884,-90.9090909090909,4,2,1,70,0,1
114098,-90.9090909090909,4,2,15,70,0,1
114205,-90.9090909090909,4,2,1,70,0,1
114527,-90.9090909090909,4,2,18,70,0,1
114848,-90.9090909090909,4,2,1,70,0,1
114955,-90.9090909090909,4,2,23,70,0,1
115063,-90.9090909090909,4,2,1,70,0,1
115170,-90.9090909090909,4,2,24,70,0,1
115277,-90.9090909090909,4,2,1,70,0,1
115384,-90.9090909090909,4,2,25,70,0,1
115491,-90.9090909090909,4,2,26,70,0,1
115598,-90.9090909090909,4,2,20,70,0,1
115705,-90.9090909090909,4,2,21,70,0,1
115813,-90.9090909090909,4,2,16,70,0,1
116027,-90.9090909090909,4,2,27,70,0,1
116134,-90.9090909090909,4,2,1,70,0,1
116241,-90.9090909090909,4,2,15,70,0,1
116348,-90.9090909090909,4,2,16,70,0,1
116455,-90.9090909090909,4,2,14,70,0,1
116563,-90.9090909090909,4,2,28,70,0,1
116670,-90.9090909090909,4,2,26,70,0,1
116777,-90.9090909090909,4,2,13,70,0,1
116884,-90.9090909090909,4,2,14,70,0,1
116991,-90.9090909090909,4,2,15,70,0,1
117098,-90.9090909090909,4,2,13,70,0,1
117205,-90.9090909090909,4,2,12,70,0,1
117313,-90.9090909090909,4,2,29,70,0,1
117420,-90.9090909090909,4,2,30,70,0,1
117527,-83.3333333333333,4,2,12,70,0,1
117634,-83.3333333333333,4,2,15,70,0,1
117741,-83.3333333333333,4,2,31,70,0,1
117848,-83.3333333333333,4,2,32,70,0,1
117955,-83.3333333333333,4,2,17,70,0,1
118063,-83.3333333333333,4,2,18,70,0,1
118170,-83.3333333333333,4,2,19,70,0,1
118384,-90.9090909090909,4,2,33,70,0,1
118491,-90.9090909090909,4,2,1,70,0,1
118598,-90.9090909090909,4,2,14,70,0,1
118705,-90.9090909090909,4,2,16,70,0,1
118813,-90.9090909090909,4,2,15,70,0,1
118920,-90.9090909090909,4,2,1,70,0,1
119027,-90.9090909090909,4,2,31,70,0,1
119134,-90.9090909090909,4,2,1,70,0,1
119241,-90.9090909090909,4,2,17,70,0,1
119348,-90.9090909090909,4,2,1,70,0,1
119455,-90.9090909090909,4,2,27,70,0,1
119563,-90.9090909090909,4,2,17,70,0,1
119670,-90.9090909090909,4,2,18,70,0,1
119884,-90.9090909090909,4,2,29,70,0,1
119991,-90.9090909090909,4,2,1,70,0,1
120098,-90.9090909090909,4,2,22,70,0,1
120205,-90.9090909090909,4,2,1,70,0,1
120313,-90.9090909090909,4,2,29,70,0,1
120420,-90.9090909090909,4,2,1,70,0,1
120527,-90.9090909090909,4,2,18,70,0,1
120634,-90.9090909090909,4,2,1,70,0,1
120741,-90.9090909090909,4,2,31,70,0,1
120848,-90.9090909090909,4,2,1,70,0,1
120955,-90.9090909090909,4,2,12,70,0,1
121063,-90.9090909090909,4,2,1,70,0,1
121170,-90.9090909090909,4,2,34,70,0,1
121277,-90.9090909090909,4,2,1,70,0,1
121384,-90.9090909090909,4,2,18,70,0,1
121491,-90.9090909090909,4,2,1,70,0,1
121598,-90.9090909090909,4,2,31,70,0,1
121813,-90.9090909090909,4,2,32,70,0,1
122027,-90.9090909090909,4,2,34,70,0,1
122134,-90.9090909090909,4,2,32,70,0,1
122241,-90.9090909090909,4,2,30,70,0,1
122348,-90.9090909090909,4,2,1,70,0,1
122455,-90.9090909090909,4,2,27,70,0,1
122563,-90.9090909090909,4,2,30,70,0,1
122670,-90.9090909090909,4,2,18,70,0,1
122777,-90.9090909090909,4,2,1,70,0,1
122884,-90.9090909090909,4,2,29,70,0,1
122991,-90.9090909090909,4,2,18,70,0,1
123098,-90.9090909090909,4,2,16,70,0,1
123205,-90.9090909090909,4,2,1,70,0,1
123313,-90.9090909090909,4,2,14,70,0,1
123420,-90.9090909090909,4,2,16,70,0,1
123527,-90.9090909090909,4,2,15,70,0,1
123634,-90.9090909090909,4,2,12,70,0,1
123741,-90.9090909090909,4,2,14,70,0,1
123848,-90.9090909090909,4,2,13,70,0,1
123955,-90.9090909090909,4,2,18,70,0,1
124063,-90.9090909090909,4,2,12,70,0,1
124170,-90.9090909090909,4,2,14,70,0,1
124277,-90.9090909090909,4,2,13,70,0,1
124384,-90.9090909090909,4,2,30,70,0,1
124491,-90.9090909090909,4,2,12,70,0,1
124598,-90.9090909090909,4,2,14,70,0,1
124705,-90.9090909090909,4,2,13,70,0,1
124813,-90.9090909090909,4,2,17,70,0,1
124920,-90.9090909090909,4,2,12,70,0,1
125027,-90.9090909090909,4,2,20,70,0,1
125134,-90.9090909090909,4,2,12,70,0,1
125241,-125,4,2,35,55,0,0
125670,-125,4,2,1,35,0,0
126955,-125,4,2,1,35,0,0
128670,-142.857142857143,4,2,1,35,0,0
132098,-125,4,2,1,35,0,0
132955,-125,4,2,1,35,0,0
133813,-125,4,2,1,35,0,0
135527,-142.857142857143,4,2,1,35,0,0
138955,-166.666666666667,4,2,1,20,0,0
142384,-125,4,2,1,35,0,0
145705,-125,4,2,1,5,0,0
145813,-125,4,2,1,35,0,0
148813,-111.111111111111,4,2,1,45,0,0
149241,-111.111111111111,4,2,1,45,0,0
149670,-111.111111111111,4,2,1,45,0,0
150098,-111.111111111111,4,2,1,45,0,0
150527,-111.111111111111,4,2,1,45,0,0
150955,-111.111111111111,4,2,1,35,0,0
151813,-111.111111111111,4,2,1,45,0,0
152670,-100,4,2,1,55,0,0
153527,-90.9090909090909,4,2,1,65,0,0
154384,-90.9090909090909,4,2,1,70,0,0
155455,-90.9090909090909,4,2,1,60,0,0
155670,-90.9090909090909,4,2,1,70,0,0
156099,-83.3333333333333,4,2,2,80,0,1
156205,-83.3333333333333,4,2,1,80,0,1
162955,-83.3333333333333,4,2,2,80,0,1
163063,-83.3333333333333,4,2,1,80,0,1
166384,-83.3333333333333,4,2,2,80,0,1
166491,-83.3333333333333,4,2,1,80,0,1
168099,-90.9090909090909,4,2,1,80,0,0
169813,-100,4,2,1,70,0,0
171098,-100,4,2,1,70,0,0
171527,-83.3333333333333,4,2,2,85,0,1
171634,-83.3333333333333,4,2,1,85,0,1
178384,-83.3333333333333,4,2,2,85,0,1
178491,-83.3333333333333,4,2,1,85,0,1
181813,-83.3333333333333,4,2,2,85,0,1
181920,-83.3333333333333,4,2,1,85,0,1
183527,-76.9230769230769,4,2,1,85,0,1
184384,-83.3333333333333,4,2,1,85,0,0
185241,-83.3333333333333,4,2,2,85,0,1
185348,-83.3333333333333,4,2,1,85,0,1
192098,-83.3333333333333,4,2,2,85,0,1
192205,-83.3333333333333,4,2,1,85,0,1
195527,-83.3333333333333,4,2,2,85,0,1
195634,-83.3333333333333,4,2,1,85,0,1
197241,-76.9230769230769,4,2,1,85,0,1
198955,-76.9230769230769,4,2,2,85,0,1
199063,-76.9230769230769,4,2,1,85,0,1
200670,-83.3333333333333,4,2,1,75,0,0
201955,-83.3333333333333,4,2,1,75,0,0
202384,-90.9090909090909,4,2,1,75,0,0
215991,-90.9090909090909,4,2,1,75,0,0

[Colours]
Combo1 : 167,216,198
Combo2 : 253,187,147
Combo3 : 149,149,230
Combo4 : 237,164,181

[HitObjects]
110,184,1813,6,0,P|180:172|235:128,1,143.999995605469,2|2,3:2|3:2,0:0:0:0:
359,6,2670,2,0,P|394:13|429:20,1,71.9999978027344,2|0,3:2|0:0,0:0:0:0:
436,106,3099,2,0,P|400:113|365:120,1,71.9999978027344,2|2,3:2|0:0,0:0:0:0:
296,64,3527,6,0,P|268:43|233:36,2,71.9999978027344,2|2|2,3:2|0:0|3:2,0:0:0:0:
282,150,4170,2,0,P|304:217|360:261,1,143.999995605469,2|2,0:0|0:0,0:0:0:0:
422,319,4813,2,0,P|374:343|321:337,1,107.999996704102,2|0,3:2|0:0,0:0:0:0:
287,364,5241,6,0,P|217:366|208:303,1,143.999995605469,2|2,3:2|3:2,0:0:0:0:
204,133,6099,2,0,P|211:97|218:62,2,71.9999978027344,2|2|0,3:2|0:0|3:0,0:0:0:0:
102,274,6956,6,0,P|66:281|31:288,1,71.9999978027344,2|2,3:2|0:0,0:0:0:0:
49,373,7384,2,0,P|84:365|119:358,1,71.9999978027344,2|2,3:2|0:0,0:0:0:0:
202,381,7813,2,0,P|230:359|242:325,1,71.9999978027344,2|0,3:2|0:0,0:0:0:0:
206,247,8241,1,2,3:2:0:0:
259,178,8456,1,0,0:0:0:0:
197,103,8670,6,0,P|255:89|308:61,1,120,6|0,3:2|0:0,0:0:0:0:
339,24,9099,1,2,3:2:0:0:
431,50,9313,1,2,0:0:0:0:
402,141,9527,2,0,B|384:227|457:224|426:303,1,160,2|2,3:2|3:2,0:0:0:0:
364,363,10170,1,2,0:0:0:0:
364,363,10384,6,0,P|326:350|287:338,1,80,2|2,3:2|0:0,0:0:0:0:
193,357,10813,1,2,3:2:0:0:
127,286,11027,2,0,P|123:246|146:214,2,80,2|0|2,0:0|3:0|0:0,0:0:0:0:
97,377,11670,2,0,P|49:345|30:283,1,120,6|0,3:2|0:0,0:0:0:0:
10,243,12099,6,0,P|28:203|42:161,1,88.000002685547,6|2,3:2|0:0,0:0:0:0:
130,120,12527,2,0,P|111:80|97:38,1,88.000002685547,2|2,3:2|3:2,0:0:0:0:
186,0,12956,1,2,3:2:0:0:
240,80,13170,1,2,3:2:0:0:
320,27,13384,1,2,3:2:0:0:
374,107,13599,1,2,3:2:0:0:
374,107,14884,6,0,L|377:72,2,20,4|4|4,3:0|3:0|3:0,0:0:0:0:
369,159,15099,2,0,P|313:152|331:235,1,143.999995605469,14|0,0:0|0:0,0:0:0:0:
304,273,15527,6,0,P|260:275|220:257,1,88.000002685547,6|2,3:2|0:3,0:0:0:0:
159,182,15956,1,10,0:0:0:0:
166,171,16063,2,0,P|152:129|137:87,1,88.000002685547,2|2,0:0|0:0,0:0:0:0:
119,43,16384,2,0,P|76:46|47:77,1,88.000002685547,0|2,3:0|0:3,0:0:0:0:
10,167,16813,2,0,P|24:208|38:250,1,88.000002685547,10|2,0:0|0:3,0:0:0:0:
23,346,17241,6,0,P|60:367|104:370,1,88.000002685547,2|2,3:2|0:3,0:0:0:0:
170,299,17670,1,10,0:0:0:0:
181,292,17777,2,0,P|223:297|253:328,1,88.000002685547,2|2,0:0|0:0,0:0:0:0:
272,372,18099,1,0,3:0:0:0:
368,383,18313,1,10,0:0:0:0:
421,302,18527,2,0,P|392:242|379:178,1,132.00000402832,10|0,0:0|0:0,0:0:0:0:
350,139,18956,6,0,P|368:99|371:55,1,88.000002685547,2|2,3:2|0:3,0:0:0:0:
289,3,19384,1,10,0:0:0:0:
281,14,19491,2,0,P|241:32|197:35,1,88.000002685547,2|2,0:0|0:0,0:0:0:0:
150,26,19813,2,0,P|164:67|178:109,1,88.000002685547,0|2,3:0|0:3,0:0:0:0:
238,229,20241,2,0,P|252:187|267:146,1,88.000002685547,14|2,0:0|0:3,0:0:0:0:
355,105,20670,5,6,3:2:0:0:
444,163,20884,1,10,0:0:0:0:
444,163,20991,1,10,0:0:0:0:
444,163,21099,2,0,P|464:154|485:149,2,44.0000013427735,10|0|6,0:0|3:0|3:0,0:0:0:0:
426,208,21420,2,0,P|465:259|467:324,1,132.00000402832,14|6,0:0|3:0,0:0:0:0:
436,362,21849,1,4,3:0:0:0:
436,362,21956,1,14,0:0:0:0:
346,362,22170,1,2,0:3:0:0:
346,362,22277,1,8,0:0:0:0:
346,362,22384,6,0,P|302:354|259:344,1,88.000002685547,6|2,3:2|0:3,0:0:0:0:
183,284,22813,1,10,0:0:0:0:
196,281,22920,2,0,P|229:254|236:212,1,88.000002685547,2|2,0:0|0:0,0:0:0:0:
196,182,23241,2,0,P|202:138|220:98,1,88.000002685547,0|2,3:0|0:3,0:0:0:0:
281,23,23670,2,0,P|322:37|364:49,1,88.000002685547,10|2,0:0|0:3,0:0:0:0:
439,111,24099,6,0,P|442:153|412:183,1,88.000002685547,2|2,3:2|0:3,0:0:0:0:
331,237,24527,1,10,0:0:0:0:
323,226,24634,2,0,P|283:208|239:205,1,88.000002685547,2|2,0:0|0:0,0:0:0:0:
194,222,24956,1,0,3:0:0:0:
147,136,25170,1,10,0:0:0:0:
65,187,25384,2,0,P|96:244|102:309,1,132.00000402832,10|0,0:0|0:0,0:0:0:0:
87,355,25813,6,0,P|121:380|164:378,1,88.000002685547,2|2,3:2|0:3,0:0:0:0:
249,331,26241,1,10,0:0:0:0:
260,323,26349,2,0,P|302:335|343:351,1,88.000002685547,2|2,0:0|0:0,0:0:0:0:
392,352,26670,2,0,P|409:313|392:274,1,88.000002685547,0|2,3:0|0:3,0:0:0:0:
315,215,27099,2,0,P|326:172|337:130,1,88.000002685547,14|2,0:0|0:3,0:0:0:0:
400,55,27527,5,6,3:2:0:0:
324,13,27741,1,10,0:0:0:0:
324,13,27849,1,4,3:0:0:0:
324,13,27956,2,0,P|286:32|262:68,1,88.000002685547,10|6,0:0|3:0,0:0:0:0:
241,114,28277,2,0,P|181:93|133:134,1,132.00000402832,14|4,0:0|3:0,0:0:0:0:
136,185,28706,1,4,3:0:0:0:
136,185,28813,2,0,L|143:228,3,44.0000013427735,10|8|10|8,0:0|0:0|0:0|0:0,0:0:0:0:
133,270,29241,6,0,P|75:228|6:236,2,143.999995605469,6|2|2,3:2|3:2|3:2,0:0:0:0:
190,342,30313,1,0,0:0:0:0:
190,342,30527,2,0,P|224:332|259:323,1,71.9999978027344,10|2,0:0|0:3,0:0:0:0:
319,261,30956,6,0,P|353:270|388:279,1,71.9999978027344,2|2,3:2|0:3,0:0:0:0:
455,334,31384,1,2,3:2:0:0:
505,263,31599,2,0,P|518:230|512:195,1,71.9999978027344,2|0,0:3|3:0,0:0:0:0:
448,140,32027,1,2,0:3:0:0:
448,140,32134,1,8,0:0:0:0:
448,140,32241,2,0,P|413:149|378:158,1,71.9999978027344,10|2,0:0|0:3,0:0:0:0:
317,219,32670,6,0,P|248:227|202:148,1,143.999995605469,2|0,3:2|3:0,0:0:0:0:
159,105,33313,1,2,0:3:0:0:
159,105,33527,2,0,P|99:145|32:171,1,143.999995605469,2|10,3:2|0:0,0:0:0:0:
38,344,34384,6,0,P|73:348|106:362,1,71.9999978027344,2|2,3:2|0:3,0:0:0:0:
191,380,34813,1,2,3:2:0:0:
256,323,35027,2,0,P|259:288|237:261,1,71.9999978027344,2|0,0:3|3:0,0:0:0:0:
178,204,35456,1,2,0:3:0:0:
178,204,35563,1,8,0:0:0:0:
178,204,35670,2,0,P|186:169|195:134,1,71.9999978027344,10|10,0:0|0:0,0:0:0:0:
157,56,36099,6,0,P|87:40|28:-1,2,143.999995605469,0|0|2,3:0|3:0|3:2,0:0:0:0:
236,17,37170,1,0,0:0:0:0:
236,17,37384,2,0,P|267:33|302:43,1,71.9999978027344,10|2,0:0|0:3,0:0:0:0:
385,69,37813,6,0,P|372:102|361:137,1,71.9999978027344,2|2,3:2|0:3,0:0:0:0:
410,208,38241,1,2,3:2:0:0:
369,283,38456,2,0,P|292:254|214:229,1,143.999995605469,2|2,0:3|0:3,0:0:0:0:
193,238,38991,1,8,0:0:0:0:
193,238,39099,2,0,P|175:207|179:171,1,71.9999978027344,10|2,0:0|0:3,0:0:0:0:
249,120,39527,6,0,P|282:132|317:143,1,71.9999978027344,2|2,3:2|0:3,0:0:0:0:
349,63,39956,2,0,P|314:52|280:39,1,71.9999978027344,2|2,3:2|0:3,0:0:0:0:
198,13,40384,2,0,B|214:69|131:88|188:176,1,143.999995605469,2|14,3:2|0:0,0:0:0:0:
212,237,41027,1,4,3:0:0:0:
212,237,41134,1,12,3:0:0:0:
212,237,41241,6,0,B|181:253|181:253|111:231,2,107.999996704102,6|6|6,3:0|3:0|3:0,0:0:0:0:
284,189,42099,1,14,3:2:0:0:
284,189,42527,2,0,P|327:215|318:265,1,107.999996704102,2|0,0:3|0:0,0:0:0:0:
281,296,42956,6,0,P|246:315|219:345,1,80,6|2,3:2|0:0,0:0:0:0:
187,381,43277,1,2,0:0:0:0:
187,381,43384,1,10,0:0:0:0:
108,347,43599,1,2,0:0:0:0:
108,347,43706,1,2,0:0:0:0:
108,347,43813,2,0,P|100:288|65:240,1,120,2|2,3:2|0:0,0:0:0:0:
30,206,44241,2,0,P|49:171|58:132,1,80,10|2,0:0|0:0,0:0:0:0:
150,104,44670,6,0,P|170:138|199:165,1,80,2|2,3:2|0:0,0:0:0:0:
239,200,44991,1,2,0:0:0:0:
239,200,45099,2,0,P|219:234|210:273,1,80,10|2,0:0|0:0,0:0:0:0:
285,333,45527,2,0,P|332:272|410:274,1,160,2|10,3:2|0:0,0:0:0:0:
492,323,46170,1,2,0:3:0:0:
510,228,46384,6,0,P|505:188|477:160,1,80,2|2,3:2|0:0,0:0:0:0:
402,100,46813,2,0,P|397:80|390:61,2,40,10|2|2,0:0|0:0|0:0,0:0:0:0:
333,167,47241,1,2,3:2:0:0:
268,111,47456,1,2,0:0:0:0:
268,111,47563,1,2,0:0:0:0:
268,111,47670,2,0,P|229:121|190:130,1,80,10|2,0:0|0:0,0:0:0:0:
78,199,48099,6,0,P|117:208|155:219,1,80,2|2,3:2|0:0,0:0:0:0:
249,240,48527,1,10,0:0:0:0:
314,309,48741,1,10,0:0:0:0:
379,239,48956,2,0,L|385:199,2,40,2|8|2,3:2|0:0|0:3,0:0:0:0:
445,308,49384,2,0,L|451:347,2,40,2|8|2,3:2|0:0|0:3,0:0:0:0:
489,221,49813,6,0,P|506:186|505:146,1,80,6|2,3:2|0:3,0:0:0:0:
484,109,50134,1,2,0:0:0:0:
484,109,50241,1,10,0:0:0:0:
395,115,50456,1,2,0:3:0:0:
395,115,50563,1,2,0:0:0:0:
395,115,50670,2,0,P|339:95|300:50,1,120,2|2,3:2|0:0,0:0:0:0:
252,41,51099,2,0,P|233:75|201:99,1,80,10|2,0:0|0:3,0:0:0:0:
214,194,51527,6,0,P|253:193|290:209,1,80,2|2,3:2|0:3,0:0:0:0:
311,258,51849,1,2,0:0:0:0:
311,258,51956,2,0,P|286:289|274:327,1,80,10|2,0:0|0:3,0:0:0:0:
245,365,52277,1,8,0:0:0:0:
245,365,52384,2,0,P|205:362|172:340,1,80,2|2,3:2|0:3,0:0:0:0:
103,273,52813,2,0,P|85:278|62:282,2,40,10|8|2,0:0|0:0|0:3,0:0:0:0:
168,201,53241,6,0,P|153:159|138:117,1,88.000002685547,6|6,3:2|3:0,0:0:0:0:
192,37,53670,1,10,0:0:0:0:
108,12,53884,1,2,0:3:0:0:
108,12,53991,1,4,3:2:0:0:
108,12,54099,2,0,P|87:19|66:26,2,44.0000013427735,2|4|6,0:0|3:0|3:0,0:0:0:0:
192,37,54527,2,0,P|212:44|233:51,1,44.0000013427735,10|8,0:0|0:0,0:0:0:0:
272,79,54741,2,0,P|292:71|313:64,1,44.0000013427735,8|8,0:0|0:0,0:0:0:0:
357,43,54956,5,6,3:2:0:0:
448,11,55170,1,2,3:0:0:0:
432,106,55384,1,10,3:2:0:0:
416,201,55599,1,14,0:0:0:0:
416,201,56027,2,0,P|456:202|487:189,2,71.9999978027344,2|2|2,0:0|0:0|0:0,0:0:0:0:
324,169,56670,6,0,B|300:151|300:151|329:278,1,143.999995605469,14|0,3:2|0:0,0:0:0:0:
336,308,57099,1,10,0:0:0:0:
271,379,57313,1,2,0:3:0:0:
206,307,57527,2,0,B|173:282|135:301|135:301|106:340|60:327,1,143.999995605469,2|0,3:2|0:0,0:0:0:0:
36,304,57956,2,0,P|34:257|64:221,1,95.9999970703126,10|2,0:0|0:3,0:0:0:0:
150,179,58384,5,2,3:2:0:0:
240,211,58599,1,2,0:3:0:0:
323,162,58813,1,10,0:0:0:0:
258,106,59027,1,10,3:0:0:0:
258,106,59134,1,8,0:0:0:0:
258,106,59241,2,0,P|278:63|293:18,1,95.9999970703126,4|2,3:0|0:3,0:0:0:0:
388,2,59670,2,0,P|449:31|449:99,1,143.999995605469,10|0,0:0|0:0,0:0:0:0:
416,134,60099,6,0,P|436:177|456:221,1,95.9999970703126,2|0,3:2|0:0,0:0:0:0:
483,267,60420,1,2,0:0:0:0:
483,267,60527,1,10,0:0:0:0:
489,362,60741,1,2,0:3:0:0:
394,380,60956,1,2,3:2:0:0:
318,319,61170,2,0,P|340:277|337:230,1,95.9999970703126,2|8,0:3|0:0,0:0:0:0:
255,180,61599,1,2,0:3:0:0:
296,93,61813,6,0,P|250:80|226:40,1,95.9999970703126,2|2,3:2|0:3,0:0:0:0:
132,61,62241,2,0,P|143:106|121:147,1,95.9999970703126,10|2,0:0|0:3,0:0:0:0:
78,169,62563,1,8,0:0:0:0:
78,169,62670,2,0,P|85:191|91:214,1,47.9999985351563,2|10,3:2|0:0,0:0:0:0:
108,260,62884,1,2,0:3:0:0:
203,254,63099,2,0,P|226:247|249:241,1,47.9999985351563,10|8,0:0|0:0,0:0:0:0:
286,210,63313,2,0,P|309:216|332:222,1,47.9999985351563,8|8,0:0|0:0,0:0:0:0:
372,249,63527,6,0,P|431:214|426:146,1,143.999995605469,6|0,3:2|0:0,0:0:0:0:
399,107,63956,1,10,0:0:0:0:
394,10,64170,1,2,0:3:0:0:
298,1,64384,2,0,B|288:41|288:41|253:77|181:76,1,143.999995605469,2|0,3:2|0:0,0:0:0:0:
151,98,64813,2,0,P|128:139|139:185,1,95.9999970703126,10|2,0:0|0:3,0:0:0:0:
232,210,65241,5,2,3:2:0:0:
322,179,65456,1,2,0:3:0:0:
403,230,65670,1,10,0:0:0:0:
365,322,65884,1,10,3:0:0:0:
365,322,65991,1,8,0:0:0:0:
365,322,66099,2,0,P|318:328|275:308,1,95.9999970703126,4|2,3:0|0:3,0:0:0:0:
180,327,66527,2,0,P|160:257|129:192,1,143.999995605469,10|0,0:0|0:0,0:0:0:0:
151,149,66956,6,0,P|220:151|216:86,1,143.999995605469,6|0,3:2|0:0,0:0:0:0:
190,53,67384,1,10,0:0:0:0:
107,4,67599,1,2,0:3:0:0:
54,84,67813,1,2,3:2:0:0:
136,132,68027,1,2,0:3:0:0:
51,177,68241,2,0,P|22:214|19:262,1,95.9999970703126,10|2,0:0|0:3,0:0:0:0:
87,341,68670,6,0,L|138:331,1,51.999997619629,14|0,0:0|0:0,0:0:0:0:
177,297,68884,2,0,L|228:306,1,51.999997619629,10|0,0:0|0:0,0:0:0:0:
272,333,69099,2,0,L|323:323,1,51.999997619629,2|0,3:2|0:0,0:0:0:0:
357,284,69313,2,0,P|349:233|311:200,1,103.999995239258,14|6,0:0|3:2,0:0:0:0:
267,200,69634,1,8,0:0:0:0:
267,200,69741,1,10,0:0:0:0:
171,189,69956,2,0,P|169:165|180:144,1,47.9999985351563,10|8,0:0|0:0,0:0:0:0:
218,113,70170,2,0,P|219:89|208:68,1,47.9999985351563,10|8,0:0|0:0,0:0:0:0:
186,25,70384,6,0,B|205:55|244:48|244:48|331:32,1,143.999995605469,14|0,3:2|0:0,0:0:0:0:
367,26,70813,1,10,0:0:0:0:
445,81,71027,1,2,0:3:0:0:
378,150,71241,2,0,P|378:219|435:258,1,143.999995605469,2|0,3:2|0:0,0:0:0:0:
478,279,71670,2,0,P|470:326|445:366,1,95.9999970703126,10|2,0:0|0:3,0:0:0:0:
349,377,72099,5,2,3:2:0:0:
285,305,72313,1,2,0:3:0:0:
213,369,72527,1,10,0:0:0:0:
158,303,72741,1,10,3:0:0:0:
158,303,72849,1,8,0:0:0:0:
158,303,72956,2,0,P|192:254|197:198,1,95.9999970703126,4|2,3:0|0:3,0:0:0:0:
254,140,73384,2,0,P|197:99|183:31,1,143.999995605469,10|0,0:0|0:0,0:0:0:0:
141,4,73813,6,0,P|95:13|65:49,1,95.9999970703126,2|0,3:2|0:0,0:0:0:0:
60,100,74134,1,2,0:0:0:0:
60,100,74241,1,10,0:0:0:0:
129,166,74456,1,2,0:3:0:0:
74,244,74670,1,2,3:2:0:0:
140,313,74884,2,0,P|184:295|229:278,1,95.9999970703126,2|8,0:3|0:0,0:0:0:0:
324,291,75313,1,2,0:3:0:0:
382,214,75527,6,0,P|376:167|341:136,1,95.9999970703126,2|2,3:2|0:3,0:0:0:0:
246,153,75956,2,0,P|199:149|159:123,1,95.9999970703126,10|2,0:0|0:3,0:0:0:0:
136,85,76277,1,8,0:0:0:0:
136,85,76384,2,0,P|128:62|116:41,1,47.9999985351563,0|8,3:0|0:0,0:0:0:0:
69,30,76599,1,2,0:3:0:0:
42,123,76813,2,0,L|51:170,1,47.9999985351563,10|8,0:0|0:0,0:0:0:0:
84,205,77027,2,0,L|74:252,1,47.9999985351563,10|8,0:0|0:0,0:0:0:0:
56,296,77241,6,0,P|116:270|143:330,1,143.999995605469,6|0,3:2|0:0,0:0:0:0:
145,377,77670,1,10,0:0:0:0:
233,340,77884,1,2,0:3:0:0:
328,344,78099,2,0,B|343:278|265:273|282:194,1,143.999995605469,2|0,3:2|0:0,0:0:0:0:
264,167,78527,2,0,P|230:181|172:202,1,95.9999970703126,10|2,0:0|0:3,0:0:0:0:
92,250,78956,5,2,3:2:0:0:
18,188,79170,1,2,0:3:0:0:
38,93,79384,1,10,0:0:0:0:
139,117,79599,1,10,3:0:0:0:
139,117,79706,1,8,0:0:0:0:
139,117,79813,2,0,P|185:109|212:71,1,95.9999970703126,4|2,3:0|0:3,0:0:0:0:
297,26,80241,2,0,B|329:52|329:52|428:24,1,143.999995605469,10|2,0:0|0:0,0:0:0:0:
475,15,80670,6,0,P|496:87|434:138,1,143.999995605469,6|0,3:2|0:0,0:0:0:0:
405,133,81099,1,10,0:0:0:0:
311,152,81313,1,2,0:3:0:0:
333,245,81527,1,2,3:2:0:0:
427,227,81741,1,2,0:3:0:0:
498,291,81956,2,0,L|487:337,1,47.9999985351563,10|8,0:0|0:0,0:0:0:0:
469,382,82170,1,2,0:3:0:0:
375,361,82384,5,10,0:0:0:0:
281,343,82599,1,10,0:0:0:0:
163,191,83027,5,10,0:0:0:0:
145,285,83241,1,10,0:0:0:0:
223,357,83456,5,4,3:0:0:0:
223,357,83563,1,4,3:0:0:0:
223,357,83670,2,0,B|224:381|224:381|256:319|322:324,1,143.999995605469,14|0,0:0|0:0,0:0:0:0:
346,282,84099,6,0,P|328:242|330:198,1,88.000002685547,6|2,3:2|0:3,0:0:0:0:
370,110,84527,1,10,0:0:0:0:
381,103,84634,2,0,P|423:117|465:132,1,88.000002685547,2|2,0:0|0:0,0:0:0:0:
494,94,84956,2,0,P|495:51|467:18,1,88.000002685547,0|2,3:0|0:3,0:0:0:0:
370,0,85384,2,0,P|329:11|296:41,1,88.000002685547,10|2,0:0|0:3,0:0:0:0:
194,107,85813,6,0,P|237:109|273:135,1,88.000002685547,2|2,3:2|0:3,0:0:0:0:
293,229,86241,1,10,0:0:0:0:
286,240,86349,2,0,P|300:282|315:324,1,88.000002685547,2|2,0:0|0:0,0:0:0:0:
302,369,86670,1,0,3:0:0:0:
207,345,86884,1,10,0:0:0:0:
111,360,87099,2,0,P|110:290|69:236,1,132.00000402832,10|0,0:0|0:0,0:0:0:0:
44,204,87527,6,0,P|68:168|67:125,1,88.000002685547,2|2,3:2|0:3,0:0:0:0:
53,29,87956,1,10,0:0:0:0:
66,25,88063,2,0,P|108:36|143:62,1,88.000002685547,2|2,0:0|0:0,0:0:0:0:
187,83,88384,2,0,P|200:41|215:0,1,88.000002685547,0|2,3:0|0:3,0:0:0:0:
311,0,88813,2,0,P|336:34|331:77,1,88.000002685547,14|2,0:0|0:3,0:0:0:0:
375,163,89241,5,6,3:2:0:0:
301,222,89456,1,10,0:0:0:0:
301,222,89563,1,10,0:0:0:0:
301,222,89670,2,0,P|280:212|259:207,2,44.0000013427735,10|0|6,0:0|3:0|3:0,0:0:0:0:
322,265,89991,2,0,P|358:315|418:299,1,132.00000402832,14|6,0:0|3:0,0:0:0:0:
450,263,90420,1,4,3:0:0:0:
450,263,90527,1,14,0:0:0:0:
509,188,90741,1,10,0:0:0:0:
509,188,90849,1,8,0:0:0:0:
509,188,90956,6,0,P|489:148|472:108,1,88.000002685547,6|2,3:2|0:3,0:0:0:0:
388,58,91384,1,10,0:0:0:0:
385,71,91491,2,0,P|358:104|316:111,1,88.000002685547,2|2,0:0|0:0,0:0:0:0:
267,119,91813,2,0,P|284:159|290:202,1,88.000002685547,0|2,3:0|0:3,0:0:0:0:
229,278,92241,2,0,P|194:251|153:235,1,88.000002685547,10|2,0:0|0:3,0:0:0:0:
59,210,92670,6,0,P|56:168|86:138,1,88.000002685547,2|2,3:2|0:3,0:0:0:0:
135,53,93099,1,10,0:0:0:0:
143,64,93206,2,0,P|183:82|227:85,1,88.000002685547,2|2,0:0|0:0,0:0:0:0:
266,58,93527,1,0,3:0:0:0:
354,97,93741,1,10,0:0:0:0:
290,169,93956,2,0,P|321:226|327:291,1,132.00000402832,10|0,0:0|0:0,0:0:0:0:
301,333,94384,6,0,P|257:330|222:355,1,88.000002685547,2|2,3:2|0:3,0:0:0:0:
127,372,94813,1,10,0:0:0:0:
116,380,94920,2,0,P|74:368|33:352,1,88.000002685547,2|2,0:0|0:0,0:0:0:0:
11,307,95241,2,0,P|12:264|44:236,1,88.000002685547,0|2,3:0|0:3,0:0:0:0:
128,186,95670,2,0,P|126:143|94:115,1,88.000002685547,14|2,0:0|0:3,0:0:0:0:
12,63,96099,5,6,3:2:0:0:
96,11,96313,1,10,0:0:0:0:
96,11,96420,1,10,0:0:0:0:
96,11,96527,2,0,P|139:21|192:31,1,88.000002685547,10|4,0:0|3:0,0:0:0:0:
229,16,96849,2,0,P|269:64|248:123,1,132.00000402832,6|4,3:2|3:0,0:0:0:0:
224,167,97277,1,0,3:0:0:0:
224,167,97384,2,0,L|231:210,3,44.0000013427735,10|8|10|8,0:0|0:0|0:0|0:0,0:0:0:0:
257,239,97813,6,0,P|322:218|402:198,2,143.999995605469,6|8|2,3:2|0:0|3:2,0:0:0:0:
244,327,98884,1,0,0:0:0:0:
244,327,99099,2,0,P|278:335|313:346,1,71.9999978027344,10|2,0:0|0:0,0:0:0:0:
391,383,99527,6,0,P|415:357|420:321,1,71.9999978027344,2|2,3:2|0:0,0:0:0:0:
487,268,99956,1,10,0:0:0:0:
444,192,100170,2,0,P|376:217|308:240,1,143.999995605469,2|2,0:0|0:3,0:0:0:0:
226,211,100813,2,0,P|220:176|238:145,1,71.9999978027344,10|2,0:0|0:0,0:0:0:0:
298,83,101241,5,2,3:2:0:0:
229,30,101456,2,0,P|194:40|159:49,1,71.9999978027344,2|8,0:0|0:0,0:0:0:0:
76,24,101884,1,2,0:0:0:0:
22,91,102099,2,0,P|52:155|46:226,1,143.999995605469,2|10,3:2|0:0,0:0:0:0:
10,304,102741,1,2,0:0:0:0:
74,361,102956,6,0,P|108:350|143:341,1,71.9999978027344,2|2,3:2|0:0,0:0:0:0:
225,369,103384,1,10,0:0:0:0:
288,310,103599,2,0,P|289:274|268:246,1,71.9999978027344,2|0,0:0|3:0,0:0:0:0:
193,202,104027,1,2,0:3:0:0:
250,137,104241,2,0,P|239:102|230:67,1,71.9999978027344,10|2,0:0|0:3,0:0:0:0:
167,6,104670,6,0,P|98:19|47:69,2,143.999995605469,2|8|2,3:2|0:0|3:2,0:0:0:0:
230,67,105741,1,0,0:0:0:0:
182,138,105956,2,0,P|192:172|201:207,1,71.9999978027344,10|2,0:0|0:0,0:0:0:0:
230,289,106384,6,0,P|264:278|299:269,1,71.9999978027344,2|2,3:2|0:0,0:0:0:0:
377,307,106813,1,10,0:0:0:0:
435,243,107027,2,0,P|424:208|415:173,1,71.9999978027344,2|0,0:0|3:0,0:0:0:0:
448,93,107456,1,2,0:3:0:0:
383,35,107670,2,0,P|354:56|319:63,1,71.9999978027344,10|2,0:0|0:3,0:0:0:0:
225,83,108099,6,0,P|250:158|293:226,1,160,6|10,3:2|0:0,0:0:0:0:
361,293,108741,1,2,0:3:0:0:
302,369,108956,2,0,P|225:349|148:329,1,160,2|14,3:2|0:0,0:0:0:0:
74,285,109599,1,10,0:0:0:0:
74,285,109706,1,8,0:0:0:0:
74,285,109813,6,0,P|55:292|36:297,2,40,12|8|2,0:0|0:0|0:3,0:0:0:0:
144,220,110241,2,0,P|162:227|181:232,2,40,12|8|2,0:0|0:0|0:3,0:0:0:0:
67,162,110670,2,0,P|85:126|94:87,1,80,14|8,0:0|0:0,0:0:0:0:
73,50,110991,1,8,0:0:0:0:
73,50,111099,2,0,P|112:48|147:29,1,80,14|4,0:0|3:0,0:0:0:0:
195,15,111420,1,4,3:0:0:0:
195,15,111527,6,0,P|241:27|275:49,2,88.000002685547,14|2|10,3:2|0:0|0:0,0:0:0:0:
193,120,112170,1,2,0:0:0:0:
193,120,112277,1,2,0:0:0:0:
193,120,112384,2,0,P|246:159|274:218,1,132.00000402832,2|0,3:2|0:0,0:0:0:0:
246,258,112813,2,0,P|237:278|236:299,3,44.0000013427735,10|2|2|2,0:0|0:0|0:0|0:0,0:0:0:0:
259,342,113241,6,0,P|296:318|339:315,1,88.000002685547,2|2,3:2|0:0,0:0:0:0:
386,341,113563,1,2,0:0:0:0:
386,341,113670,2,0,P|411:306|414:262,1,88.000002685547,10|2,0:0|0:3,0:0:0:0:
443,224,113991,1,2,0:3:0:0:
443,224,114099,2,0,P|385:195|367:133,1,132.00000402832,2|0,3:2|0:0,0:0:0:0:
341,92,114527,2,0,P|397:116|434:67,1,132.00000402832,10|0,0:0|0:0,0:0:0:0:
452,22,114956,6,0,P|472:60|509:82,2,88.000002685547,2|2|10,3:2|0:0|0:0,0:0:0:0:
364,8,115599,1,2,0:0:0:0:
364,8,115706,1,2,0:0:0:0:
364,8,115813,2,0,P|321:6|285:29,1,88.000002685547,2|2,3:2|0:0,0:0:0:0:
252,120,116241,1,10,0:0:0:0:
231,116,116349,1,2,0:0:0:0:
209,112,116456,1,2,0:0:0:0:
186,108,116563,1,2,0:0:0:0:
165,104,116670,6,0,L|121:96,3,44.0000013427735,2|2|2|2,3:2|0:0|0:0|0:0,0:0:0:0:
85,64,117099,2,0,L|41:71,3,44.0000013427735,10|2|2|2,0:0|0:0|0:0|0:0,0:0:0:0:
9,113,117527,2,0,P|22:132|32:154,3,47.9999985351563,10|10|2|2,0:0|0:0|0:0|0:0,0:0:0:0:
68,193,117956,2,0,P|54:212|44:234,1,47.9999985351563,10|10,0:0|0:0,0:0:0:0:
47,287,118170,1,2,0:0:0:0:
119,349,118384,6,0,P|148:318|191:312,1,88.000002685547,6|2,3:2|0:0,0:0:0:0:
239,334,118706,1,2,0:0:0:0:
239,334,118813,1,10,0:0:0:0:
283,248,119027,1,2,0:0:0:0:
364,300,119241,2,0,P|406:309|449:318,1,88.000002685547,2|2,3:2|0:0,0:0:0:0:
492,293,119563,1,2,0:0:0:0:
492,293,119670,2,0,P|499:250|479:212,1,88.000002685547,10|2,0:0|0:0,0:0:0:0:
407,146,120099,5,2,3:2:0:0:
323,195,120313,1,2,0:0:0:0:
259,122,120527,1,10,0:0:0:0:
188,188,120741,2,0,P|208:226|218:269,1,88.000002685547,2|2,0:0|3:2,0:0:0:0:
200,316,121063,1,2,0:3:0:0:
200,316,121170,1,2,0:0:0:0:
116,364,121384,1,10,0:0:0:0:
34,311,121599,1,2,0:0:0:0:
94,234,121813,6,0,P|96:192|67:161,1,88.000002685547,2|2,3:2|0:0,0:0:0:0:
23,156,122134,1,2,0:0:0:0:
23,156,122241,1,10,0:0:0:0:
24,67,122456,1,2,0:0:0:0:
24,67,122563,1,2,0:0:0:0:
24,67,122670,2,0,P|65:53|107:38,1,88.000002685547,2|2,3:2|0:0,0:0:0:0:
145,8,122991,1,2,0:0:0:0:
145,8,123099,1,10,0:0:0:0:
246,41,123313,1,10,0:0:0:0:
246,41,123420,1,10,0:0:0:0:
246,41,123527,6,0,P|235:60|230:81,3,44.0000013427735,10|10|10|10,0:0|0:0|0:0|0:0,0:0:0:0:
207,123,123956,2,0,P|233:157|245:199,1,88.000002685547,10|2,0:0|0:0,0:0:0:0:
279,241,124277,1,10,0:0:0:0:
279,241,124384,2,0,P|268:260|263:281,3,44.0000013427735,2|10|10|10,3:2|0:0|0:0|0:0,0:0:0:0:
230,317,124813,2,0,P|240:336|245:357,3,44.0000013427735,10|10|10|10,0:0|0:0|0:0|0:0,0:0:0:0:
283,381,125241,6,0,P|344:374|380:322,1,128,6|0,3:2|3:0,0:0:0:0:
467,293,125884,1,2,0:3:0:0:
467,293,126099,2,0,P|405:286|369:234,1,128,2|0,3:2|3:0,0:0:0:0:
301,185,126741,1,2,0:3:0:0:
301,185,126956,2,0,P|317:123|334:61,3,128,2|2|2|2,3:2|3:2|3:2|3:2,0:0:0:0:
265,13,128456,1,2,0:3:0:0:
265,13,128670,6,0,P|210:25|155:34,1,111.999996582031,2|2,3:2|3:2,0:0:0:0:
323,41,129527,2,0,P|267:33|212:23,1,111.999996582031,2|2,3:2|3:2,0:0:0:0:
367,89,130384,2,0,P|317:63|269:34,1,111.999996582031,2|2,3:2|3:2,0:0:0:0:
188,31,131027,1,2,0:3:0:0:
188,31,131241,2,0,B|197:77|197:77|204:100|204:100|211:140,1,111.999996582031,2|2,3:2|3:2,0:0:0:0:
211,140,132099,6,0,P|157:109|99:132,1,128,2|0,3:2|3:0,0:0:0:0:
95,224,132741,1,2,0:3:0:0:
95,224,132956,2,0,P|148:254|206:231,1,128,2|0,3:2|3:0,0:0:0:0:
289,191,133599,1,2,0:3:0:0:
289,191,133813,2,0,P|351:175|413:159,3,128,2|2|2|2,3:2|3:2|3:2|3:2,0:0:0:0:
489,110,135313,1,2,0:3:0:0:
489,110,135527,6,0,P|463:60|457:5,1,111.999996582031,2|2,3:2|3:2,0:0:0:0:
458,173,136384,2,0,P|450:117|464:63,1,111.999996582031,2|2,3:2|3:2,0:0:0:0:
406,221,137241,2,0,P|418:166|449:120,1,111.999996582031,2|2,3:2|3:2,0:0:0:0:
421,46,137884,1,2,0:3:0:0:
421,46,138099,2,0,B|375:55|375:55|352:62|352:62|312:69,1,111.999996582031,2|2,3:2|3:2,0:0:0:0:
161,102,138956,6,0,L|175:164,3,47.9999985351563,2|0|0|0,0:3|0:0|0:0|0:0,0:0:0:0:
120,206,139813,2,0,L|109:252,3,47.9999985351563,2|0|0|0,0:3|0:0|0:0|0:0,0:0:0:0:
172,297,140670,2,0,L|182:343,3,47.9999985351563,2|0|0|0,0:3|0:0|0:0|0:0,0:0:0:0:
115,381,141527,1,2,0:3:0:0:
256,51,142384,5,2,0:0:0:0:
256,51,149241,6,0,L|185:38,1,71.9999978027344,2|2,0:0|0:0,0:0:0:0:
170,123,149670,2,0,L|240:135,1,71.9999978027344,2|2,0:0|0:0,0:0:0:0:
326,148,150099,2,0,L|338:218,1,71.9999978027344,2|2,0:0|0:0,0:0:0:0:
424,205,150527,2,0,L|411:134,1,71.9999978027344,2|2,0:0|0:0,0:0:0:0:
448,58,150956,5,2,0:0:0:0:
448,58,151170,1,2,0:0:0:0:
377,8,151384,1,2,3:2:0:0:
310,60,151599,1,2,0:0:0:0:
310,60,151706,1,0,0:0:0:0:
310,60,151813,2,0,L|274:53,7,35.9999989013672,8|8|8|8|6|4|4|4,0:3|0:3|0:3|0:3|0:3|0:3|0:3|0:3,0:0:0:0:
236,24,152670,6,0,L|197:35,3,40,10|8|8|8,0:0|0:0|0:0|0:0,0:0:0:0:
160,65,153099,2,0,L|121:53,3,40,8|8|8|8,0:0|0:0|0:0|0:0,0:0:0:0:
83,90,153527,6,0,P|90:110|98:131,1,44.0000013427735,8|8,0:0|0:0,0:0:0:0:
135,169,153741,2,0,P|126:189|119:210,1,44.0000013427735,10|8,0:0|0:0,0:0:0:0:
106,261,153956,2,0,P|126:268|147:276,1,44.0000013427735,10|8,0:0|3:0,0:0:0:0:
192,304,154170,2,0,P|212:295|233:288,1,44.0000013427735,6|4,3:0|3:0,0:0:0:0:
283,271,154384,5,14,0:0:0:0:
379,313,154599,1,14,0:0:0:0:
475,355,154813,1,14,0:0:0:0:
464,250,155027,1,14,0:0:0:0:
464,250,155456,1,6,3:0:0:0:
392,183,155670,2,0,L|401:139,1,44.0000013427735,10|8,0:0|0:0,0:0:0:0:
435,106,155884,2,0,L|426:62,1,44.0000013427735,10|8,0:0|0:0,0:0:0:0:
388,32,156099,6,0,B|355:57|317:38|317:38|288:-1|242:12,1,143.999995605469,14|0,3:2|0:0,0:0:0:0:
212,21,156527,1,10,0:0:0:0:
248,110,156741,1,2,0:3:0:0:
178,175,156956,2,0,B|130:171|106:125|106:125|79:111|48:118,1,143.999995605469,2|0,3:2|0:0,0:0:0:0:
17,146,157384,2,0,P|15:193|45:229,1,95.9999970703126,10|2,0:0|0:3,0:0:0:0:
72,320,157813,5,2,3:2:0:0:
160,282,158027,1,2,0:3:0:0:
196,371,158241,1,10,0:0:0:0:
281,324,158456,1,10,3:0:0:0:
281,324,158563,1,8,0:0:0:0:
281,324,158670,2,0,P|249:288|244:241,1,95.9999970703126,4|2,3:0|0:3,0:0:0:0:
234,145,159099,2,0,P|222:212|156:229,1,143.999995605469,10|0,0:0|0:0,0:0:0:0:
113,207,159527,6,0,P|99:161|66:127,1,95.9999970703126,2|0,3:2|0:0,0:0:0:0:
1,55,159956,1,10,0:0:0:0:
82,4,160170,1,2,0:3:0:0:
174,29,160384,1,2,3:2:0:0:
251,87,160599,2,0,P|297:76|342:60,1,95.9999970703126,2|8,0:3|0:0,0:0:0:0:
424,8,161027,1,2,0:3:0:0:
447,101,161241,6,0,P|439:147|403:176,1,95.9999970703126,2|2,3:2|0:3,0:0:0:0:
307,199,161670,2,0,P|313:245|349:275,1,95.9999970703126,14|2,0:0|0:3,0:0:0:0:
378,319,161991,1,8,0:0:0:0:
378,319,162099,2,0,P|355:327|332:333,1,47.9999985351563,10|8,0:0|0:0,0:0:0:0:
287,352,162313,1,2,0:3:0:0:
218,287,162527,2,0,P|195:294|172:300,1,47.9999985351563,10|8,0:0|0:0,0:0:0:0:
135,331,162741,2,0,P|112:325|89:319,1,47.9999985351563,8|8,0:0|0:0,0:0:0:0:
40,323,162956,6,0,B|17:297|17:297|8:233|79:199,1,143.999995605469,6|0,3:2|0:0,0:0:0:0:
101,175,163384,1,10,0:0:0:0:
193,201,163599,1,2,0:3:0:0:
232,113,163813,2,0,B|293:116|316:86|316:86|343:65|377:65,1,143.999995605469,2|0,3:2|0:0,0:0:0:0:
410,76,164241,2,0,P|382:113|383:161,1,95.9999970703126,10|2,0:0|0:3,0:0:0:0:
462,220,164670,5,2,3:2:0:0:
447,314,164884,1,2,0:3:0:0:
355,284,165099,1,10,0:0:0:0:
278,337,165313,1,10,3:0:0:0:
278,337,165420,1,8,0:0:0:0:
278,337,165527,2,0,P|243:304|196:295,1,95.9999970703126,4|2,3:0|0:3,0:0:0:0:
110,338,165956,2,0,P|46:335|54:272,1,143.999995605469,10|0,0:0|0:0,0:0:0:0:
89,238,166384,6,0,B|116:170|46:157|73:88,1,143.999995605469,6|0,3:2|0:0,0:0:0:0:
93,59,166813,1,10,0:0:0:0:
176,12,167027,1,2,0:3:0:0:
238,85,167241,2,0,P|306:62|375:40,1,143.999995605469,2|0,3:2|0:0,0:0:0:0:
410,8,167670,1,14,0:0:0:0:
502,32,167884,1,2,0:3:0:0:
463,120,168099,5,2,3:2:0:0:
494,211,168313,1,8,0:0:0:0:
354,344,168741,1,8,0:0:0:0:
263,313,168956,1,10,0:0:0:0:
260,216,169170,2,0,L|231:212,2,29.3333342285157,0|0|0,3:0|3:0|3:0,0:0:0:0:
307,225,169384,1,14,0:0:0:0:
256,192,169813,12,4,171098,3:2:0:0:
307,225,171527,6,0,B|306:239|286:244|286:244|213:206|241:123,1,143.999995605469,14|0,3:2|0:0,0:0:0:0:
255,109,171956,1,10,0:0:0:0:
198,30,172170,1,2,0:3:0:0:
106,59,172384,2,0,B|75:126|37:83|16:178,1,143.999995605469,2|0,3:2|0:0,0:0:0:0:
37,211,172813,2,0,P|83:208|119:238,1,95.9999970703126,10|2,0:0|0:3,0:0:0:0:
152,348,173241,5,2,3:2:0:0:
233,299,173456,1,2,0:3:0:0:
314,350,173670,1,10,0:0:0:0:
380,281,173884,1,2,0:3:0:0:
380,281,173991,1,8,0:0:0:0:
380,281,174099,2,0,P|348:238|345:193,1,95.9999970703126,4|2,3:0|0:3,0:0:0:0:
395,114,174527,2,0,B|376:84|337:91|337:91|255:126,1,143.999995605469,10|0,0:0|0:0,0:0:0:0:
226,148,174956,6,0,P|174:141|136:113,1,95.9999970703126,2|0,3:2|0:0,0:0:0:0:
93,32,175384,1,10,0:0:0:0:
11,83,175599,1,2,0:3:0:0:
58,166,175813,1,2,3:2:0:0:
33,259,176027,2,0,P|79:266|107:303,1,95.9999970703126,2|10,0:3|0:0,0:0:0:0:
180,366,176456,1,2,0:3:0:0:
246,271,176670,6,0,P|292:274|325:308,1,95.9999970703126,2|2,3:2|0:3,0:0:0:0:
384,384,177099,2,0,P|418:350|420:304,1,95.9999970703126,14|8,0:0|0:0,0:0:0:0:
423,260,177420,1,8,0:0:0:0:
423,260,177527,2,0,P|430:238|436:215,1,47.9999985351563,2|8,3:2|0:0,0:0:0:0:
447,167,177741,1,2,0:3:0:0:
375,102,177956,2,0,P|352:109|329:115,1,47.9999985351563,10|8,0:0|0:0,0:0:0:0:
292,146,178170,2,0,P|269:140|246:134,1,47.9999985351563,10|8,0:0|0:0,0:0:0:0:
205,107,178384,6,0,B|185:93|185:93|215:211,1,143.999995605469,6|0,3:2|0:0,0:0:0:0:
227,256,178813,1,10,0:0:0:0:
313,297,179027,1,2,0:3:0:0:
235,353,179241,2,0,B|219:358|177:355|151:332|161:305|105:304,1,143.999995605469,2|0,3:2|0:0,0:0:0:0:
57,308,179670,2,0,P|46:262|69:221,1,95.9999970703126,10|2,0:0|0:3,0:0:0:0:
190,194,180099,5,2,3:2:0:0:
158,103,180313,1,2,0:3:0:0:
202,17,180527,1,10,0:0:0:0:
299,57,180741,1,2,0:3:0:0:
299,57,180849,1,8,0:0:0:0:
299,57,180956,2,0,P|344:41|389:24,1,95.9999970703126,4|2,3:0|0:3,0:0:0:0:
482,49,181384,2,0,P|491:122|433:141,1,143.999995605469,10|0,0:0|0:0,0:0:0:0:
396,169,181813,6,0,P|432:166|472:283,1,143.999995605469,6|0,3:2|0:0,0:0:0:0:
488,292,182241,1,10,0:0:0:0:
432,370,182456,1,2,0:3:0:0:
356,310,182670,1,2,3:2:0:0:
280,250,182884,1,2,0:3:0:0:
267,344,183099,1,10,0:0:0:0:
190,285,183313,1,2,0:3:0:0:
57,265,183527,6,0,L|67:214,1,51.999997619629,6|0,3:2|0:0,0:0:0:0:
101,175,183741,2,0,L|92:124,1,51.999997619629,10|0,0:0|0:0,0:0:0:0:
65,80,183956,2,0,L|75:29,1,51.999997619629,10|0,0:0|0:0,0:0:0:0:
121,4,184170,2,0,P|172:12|205:50,1,103.999995239258,6|8,3:2|0:0,0:0:0:0:
224,99,184491,1,8,0:0:0:0:
224,99,184599,1,2,0:3:0:0:
235,193,184813,2,0,P|259:195|280:184,1,47.9999985351563,10|8,0:0|3:0,0:0:0:0:
327,173,185027,2,0,P|351:172|372:183,1,47.9999985351563,4|4,3:0|3:0,0:0:0:0:
413,205,185241,6,0,P|477:155|480:215,1,143.999995605469,14|0,3:2|0:0,0:0:0:0:
504,227,185670,1,10,0:0:0:0:
465,315,185884,1,2,0:3:0:0:
369,303,186099,2,0,B|349:311|333:326|333:326|269:330|219:264,1,143.999995605469,2|0,3:2|0:0,0:0:0:0:
210,253,186527,2,0,P|235:212|243:165,1,95.9999970703126,10|2,0:0|0:3,0:0:0:0:
243,49,186956,5,2,3:2:0:0:
154,12,187170,1,2,0:3:0:0:
84,79,187384,1,10,0:0:0:0:
137,170,187599,1,2,0:3:0:0:
137,170,187706,1,8,0:0:0:0:
137,170,187813,2,0,P|90:181|53:210,1,95.9999970703126,4|2,3:0|0:3,0:0:0:0:
48,306,188241,2,0,P|116:319|158:376,1,143.999995605469,10|0,0:0|0:0,0:0:0:0:
205,383,188670,6,0,P|251:374|281:338,1,95.9999970703126,2|0,3:2|0:0,0:0:0:0:
242,249,189099,1,10,0:0:0:0:
316,188,189313,1,2,0:3:0:0:
251,117,189527,1,2,3:2:0:0:
303,36,189741,2,0,P|347:54|392:71,1,95.9999970703126,2|10,0:3|0:0,0:0:0:0:
488,67,190170,1,2,0:3:0:0:
509,180,190384,6,0,P|503:227|468:258,1,95.9999970703126,2|2,3:2|0:3,0:0:0:0:
401,326,190813,2,0,P|368:292|321:291,1,95.9999970703126,14|8,0:0|0:0,0:0:0:0:
278,305,191134,1,8,0:0:0:0:
278,305,191241,2,0,P|270:282|258:261,1,47.9999985351563,10|8,0:0|0:0,0:0:0:0:
218,235,191456,1,2,0:3:0:0:
244,142,191670,2,0,L|291:151,1,47.9999985351563,10|8,0:0|0:0,0:0:0:0:
326,184,191884,2,0,L|373:174,1,47.9999985351563,10|8,0:0|0:0,0:0:0:0:
420,171,192099,6,0,B|424:145|439:124|439:124|438:58|381:44,1,143.999995605469,6|0,3:2|0:0,0:0:0:0:
350,66,192527,1,10,0:0:0:0:
275,5,192741,1,2,0:3:0:0:
218,82,192956,2,0,B|207:121|150:123|99:49,1,143.999995605469,2|0,3:2|0:0,0:0:0:0:
64,31,193384,2,0,P|47:76|29:120,1,95.9999970703126,10|2,0:0|0:3,0:0:0:0:
3,243,193813,5,2,3:2:0:0:
96,224,194027,1,2,0:3:0:0:
119,317,194241,1,10,0:0:0:0:
207,376,194456,1,2,0:3:0:0:
207,376,194563,1,8,0:0:0:0:
207,376,194670,2,0,P|253:368|280:330,1,95.9999970703126,0|2,3:0|0:3,0:0:0:0:
238,242,195099,2,0,B|213:209|232:171|232:171|271:142|258:96,1,143.999995605469,10|0,0:0|0:0,0:0:0:0:
252,64,195527,6,0,B|283:62|310:81|310:81|367:83|396:25,1,143.999995605469,6|0,3:2|0:0,0:0:0:0:
414,12,195956,1,10,0:0:0:0:
505,40,196170,1,2,0:3:0:0:
478,132,196384,1,2,3:2:0:0:
451,224,196599,1,2,0:3:0:0:
384,153,196813,1,10,0:0:0:0:
317,82,197027,1,2,0:3:0:0:
215,134,197241,6,0,L|164:120,1,51.999997619629,6|0,3:2|0:0,0:0:0:0:
127,84,197456,2,0,P|82:101|26:112,1,103.999995239258,2|10,0:3|0:0,0:0:0:0:
8,214,197884,2,0,P|29:228|48:245,1,51.999997619629,10|8,0:0|0:0,0:0:0:0:
93,273,198099,2,0,P|111:255|133:241,2,51.999997619629,8|8|2,3:2|0:0|0:3,0:0:0:0:
7,332,198527,2,0,P|54:354|98:380,1,103.999995239258,10|8,0:0|0:0,0:0:0:0:
154,378,198849,1,8,0:0:0:0:
154,378,198956,6,0,P|228:364|252:294,1,155.999992858887,6|0,3:2|0:0,0:0:0:0:
245,243,199384,1,10,0:0:0:0:
346,267,199599,1,2,0:3:0:0:
447,291,199813,1,2,3:2:0:0:
417,191,200027,1,2,0:3:0:0:
491,126,200241,2,0,L|502:75,1,51.999997619629,10|8,0:0|0:0,0:0:0:0:
466,37,200456,2,0,P|443:49|417:53,1,51.999997619629,2|8,0:3|0:0,0:0:0:0:
370,42,200670,5,10,0:0:0:0:
334,130,200884,1,10,0:0:0:0:
176,240,201313,5,10,0:0:0:0:
140,152,201527,1,10,0:0:0:0:
207,84,201741,5,4,3:0:0:0:
207,84,201849,1,4,3:0:0:0:
207,84,201956,2,0,P|237:51|279:128,1,143.999995605469,14|0,0:0|0:0,0:0:0:0:
320,146,202384,6,0,P|302:186|304:230,1,88.000002685547,6|2,3:2|0:3,0:0:0:0:
324,323,202813,1,10,0:0:0:0:
313,316,202920,2,0,P|271:330|229:345,1,88.000002685547,2|2,0:0|0:0,0:0:0:0:
187,367,203241,2,0,P|145:352|103:338,1,88.000002685547,0|2,3:0|0:3,0:0:0:0:
39,265,203670,2,0,P|68:232|80:190,1,88.000002685547,10|2,0:0|0:3,0:0:0:0:
153,128,204099,6,0,P|127:92|125:49,1,88.000002685547,2|2,3:2|0:3,0:0:0:0:
209,0,204527,1,10,0:0:0:0:
212,12,204634,2,0,P|253:28|294:43,1,88.000002685547,2|2,0:0|0:0,0:0:0:0:
341,35,204956,1,0,3:0:0:0:
340,132,205170,1,10,0:0:0:0:
436,139,205384,2,0,B|441:212|389:196|392:260,1,132.00000402832,10|0,0:0|0:0,0:0:0:0:
386,306,205813,6,0,P|342:307|306:283,1,88.000002685547,2|2,3:2|0:3,0:0:0:0:
213,255,206241,1,10,0:0:0:0:
217,242,206349,2,0,P|206:200|180:165,1,88.000002685547,2|2,0:0|0:0,0:0:0:0:
138,138,206670,2,0,P|96:153|54:166,1,88.000002685547,0|2,3:0|0:3,0:0:0:0:
1,247,207099,2,0,P|28:285|79:286,1,88.000002685547,12|0,0:0|0:0,0:0:0:0:
152,335,207527,5,6,3:2:0:0:
238,286,207741,1,8,0:0:0:0:
238,286,207849,1,8,0:0:0:0:
238,286,207956,2,0,P|246:264|253:244,2,44.0000013427735,8|8|8,0:0|0:0|0:0,0:0:0:0:
266,325,208277,2,0,P|329:307|393:290,1,132.00000402832,6|4,3:2|3:0,0:0:0:0:
444,283,208706,1,4,3:0:0:0:
444,283,208813,1,14,0:0:0:0:
510,213,209027,1,8,0:0:0:0:
510,213,209134,1,8,0:0:0:0:
510,213,209241,6,0,P|505:165|469:144,1,88.000002685547,6|2,3:2|0:3,0:0:0:0:
382,175,209670,1,10,0:0:0:0:
371,182,209777,2,0,P|329:168|287:153,1,88.000002685547,2|2,0:0|0:0,0:0:0:0:
243,171,210099,2,0,P|237:127|219:87,1,88.000002685547,0|2,3:0|0:3,0:0:0:0:
136,37,210527,2,0,P|119:76|81:95,1,88.000002685547,10|2,0:0|0:3,0:0:0:0:
15,166,210956,6,0,P|12:208|42:238,1,88.000002685547,2|2,3:2|0:3,0:0:0:0:
137,259,211384,1,10,0:0:0:0:
126,267,211491,2,0,P|108:307|105:351,1,88.000002685547,2|2,0:0|0:0,0:0:0:0:
142,380,211813,1,0,3:0:0:0:
224,328,212027,1,10,0:0:0:0:
310,370,212241,2,0,P|374:338|432:333,1,132.00000402832,10|0,0:0|0:0,0:0:0:0:
479,348,212670,6,0,P|503:312|500:269,1,88.000002685547,2|2,3:2|0:3,0:0:0:0:
452,185,213099,1,10,0:0:0:0:
449,198,213206,2,0,P|409:215|367:229,1,88.000002685547,2|2,0:0|0:0,0:0:0:0:
326,257,213527,2,0,P|283:256|254:223,1,88.000002685547,0|2,3:0|0:3,0:0:0:0:
188,153,213956,2,0,P|205:113|219:71,1,88.000002685547,14|0,0:0|0:0,0:0:0:0:
296,11,214384,5,6,3:2:0:0:
381,75,214599,1,10,0:0:0:0:
381,75,214706,1,10,0:0:0:0:
381,75,214813,2,0,P|418:52|461:50,1,88.000002685547,10|4,0:0|3:0,0:0:0:0:
500,80,215134,2,0,B|483:124|483:124|484:161|484:161|467:206,1,132.00000402832,6|4,3:2|3:0,0:0:0:0:
433,240,215563,1,4,3:0:0:0:
433,240,215670,2,0,L|448:281,1,44.0000013427735,10|8,0:0|0:0,0:0:0:0:
473,322,215884,2,0,L|457:363,1,44.0000013427735,10|8,0:0|0:0,0:0:0:0:
