osu file format v14

[General]
AudioFilename: audio.mp3
AudioLeadIn: 0
PreviewTime: 55920
Countdown: 0
SampleSet: Soft
StackLeniency: 0.5
Mode: 0
LetterboxInBreaks: 0
WidescreenStoryboard: 1

[Editor]
Bookmarks: 29241,56670,82384,111527,125241,138955,156098,202384,216098
DistanceSpacing: 1.1
BeatDivisor: 4
GridSize: 4
TimelineZoom: 2.799999

[Metadata]
Title:Moonlight at midday
TitleUnicode:真昼の月明かり
Artist:Tsukuyomi
ArtistUnicode:月詠み
Creator:Seros
Version:Setu's Insane
Source:
Tags:climbx3145 namki shiratamamywife Setu Petal Matha 4th Song japanese j-pop jpop pop ユリイ・カノン epoch とうかさ mikoto 欠けた心象、世のよすが Mahiru no tsukiakari Getsumei Hana
BeatmapID:3185210
BeatmapSetID:1537310

[Difficulty]
HPDrainRate:6
CircleSize:4
OverallDifficulty:8
ApproachRate:9
SliderMultiplier:1.6
SliderTickRate:1

[Events]
//Background and Video events
0,0,"BG.jpg",0,0
Video,0,"Video.mp4"
//Break Periods
2,142384,148641
//Storyboard Layer 0 (Background)
//Storyboard Layer 1 (Fail)
//Storyboard Layer 2 (Pass)
//Storyboard Layer 3 (Foreground)
//Storyboard Layer 4 (Overlay)
//Storyboard Sound Samples

[TimingPoints]
99,428.571428571429,4,2,1,60,1,0
12527,-95.2380952380952,4,2,1,60,0,0
12955,-90.9090909090909,4,2,1,60,0,0
13384,-86.9565217391304,4,2,1,60,0,0
13813,-100,4,2,1,30,0,0
14884,-100,4,2,1,50,0,0
15098,-133.333333333333,4,2,1,60,0,0
15527,-83.3333333333333,4,2,1,70,0,0
16223,-83.3333333333333,4,2,1,5,0,0
16277,-83.3333333333333,4,2,1,70,0,0
17188,-83.3333333333333,4,2,1,5,0,0
17241,-80,4,2,1,70,0,0
17777,-83.3333333333333,4,2,1,70,0,0
17938,-83.3333333333333,4,2,1,5,0,0
17991,-83.3333333333333,4,2,1,70,0,0
19652,-83.3333333333333,4,2,1,5,0,0
19705,-83.3333333333333,4,2,1,70,0,0
20402,-83.3333333333333,4,2,1,5,0,0
20455,-83.3333333333333,4,2,1,70,0,0
22116,-83.3333333333333,4,2,1,5,0,0
22170,-83.3333333333333,4,2,1,70,0,0
23080,-83.3333333333333,4,2,1,5,0,0
23134,-83.3333333333333,4,2,1,70,0,0
24045,-83.3333333333333,4,2,1,5,0,0
24098,-83.3333333333333,4,2,1,70,0,0
24795,-83.3333333333333,4,2,1,5,0,0
24848,-83.3333333333333,4,2,1,70,0,0
26509,-83.3333333333333,4,2,1,5,0,0
26563,-83.3333333333333,4,2,1,70,0,0
27259,-83.3333333333333,4,2,1,5,0,0
27313,-83.3333333333333,4,2,1,70,0,0
29455,-90.9090909090909,4,2,1,45,0,0
41241,-125,4,2,1,45,0,0
41563,-111.111111111111,4,2,1,45,0,0
41884,-90.9090909090909,4,2,1,45,0,0
42045,-90.9090909090909,4,2,1,5,0,0
42098,-83.3333333333333,4,2,1,55,0,0
42527,-125,4,2,1,55,0,0
42955,-90.9090909090909,4,2,1,60,0,0
44616,-90.9090909090909,4,2,1,5,0,0
44670,-90.9090909090909,4,2,1,60,0,0
45473,-90.9090909090909,4,2,1,5,0,0
45527,-90.9090909090909,4,2,1,60,0,0
48045,-90.9090909090909,4,2,1,5,0,0
48098,-90.9090909090909,4,2,1,60,0,0
49759,-90.9090909090909,4,2,1,5,0,0
49813,-90.9090909090909,4,2,1,60,0,0
50938,-90.9090909090909,4,2,1,5,0,0
50991,-90.9090909090909,4,2,1,60,0,0
51473,-90.9090909090909,4,2,1,5,0,0
51527,-90.9090909090909,4,2,1,60,0,0
53670,-83.3333333333333,4,2,1,60,0,0
54098,-76.9230769230769,4,2,1,60,0,0
54955,-76.9230769230769,4,2,1,70,0,0
54956,-68.9655172413793,4,2,1,70,0,0
55116,-68.9655172413793,4,2,1,5,0,0
55170,-64.5161290322581,4,2,1,70,0,0
55384,-55.5555555555556,4,2,1,70,0,0
56027,-76.9230769230769,4,2,1,40,0,0
56670,-66.6666666666667,4,2,2,80,0,1
56777,-66.6666666666667,4,2,1,80,0,1
58598,-71.4285714285714,4,2,1,80,0,1
58813,-76.9230769230769,4,2,1,80,0,1
60098,-66.6666666666667,4,2,1,80,0,1
63473,-66.6666666666667,4,2,1,5,0,1
63527,-58.8235294117647,4,2,2,80,0,1
63634,-58.8235294117647,4,2,1,80,0,1
65455,-66.6666666666667,4,2,1,80,0,1
65670,-76.9230769230769,4,2,1,80,0,1
66955,-66.6666666666667,4,2,1,80,0,1
68830,-66.6666666666667,4,2,1,5,0,1
68884,-66.6666666666667,4,2,1,80,0,1
69045,-66.6666666666667,4,2,1,5,0,1
69098,-66.6666666666667,4,2,1,80,0,1
69259,-66.6666666666667,4,2,1,5,0,1
69313,-66.6666666666667,4,2,1,80,0,1
69473,-66.6666666666667,4,2,1,5,0,1
69527,-66.6666666666667,4,2,1,80,0,1
70384,-60.6060606060606,4,2,2,80,0,1
70491,-60.6060606060606,4,2,1,80,0,1
77241,-60.6060606060606,4,2,2,80,0,1
77348,-60.6060606060606,4,2,1,80,0,1
80670,-60.6060606060606,4,2,2,80,0,1
80777,-60.6060606060606,4,2,1,80,0,1
82384,-60.6060606060606,4,2,1,70,0,0
83670,-66.6666666666667,4,2,1,70,0,0
84795,-66.6666666666667,4,2,1,5,0,0
84848,-66.6666666666667,4,2,1,70,0,0
85759,-66.6666666666667,4,2,1,5,0,0
85813,-66.6666666666667,4,2,1,70,0,0
86509,-66.6666666666667,4,2,1,5,0,0
86563,-66.6666666666667,4,2,1,70,0,0
88223,-66.6666666666667,4,2,1,5,0,0
88277,-66.6666666666667,4,2,1,70,0,0
88973,-66.6666666666667,4,2,1,5,0,0
89027,-66.6666666666667,4,2,1,70,0,0
90688,-66.6666666666667,4,2,1,5,0,0
90741,-66.6666666666667,4,2,1,70,0,0
91652,-66.6666666666667,4,2,1,5,0,0
91705,-66.6666666666667,4,2,1,70,0,0
92616,-66.6666666666667,4,2,1,5,0,0
92670,-66.6666666666667,4,2,1,70,0,0
93366,-66.6666666666667,4,2,1,5,0,0
93420,-66.6666666666667,4,2,1,70,0,0
95080,-66.6666666666667,4,2,1,5,0,0
95134,-66.6666666666667,4,2,1,70,0,0
95830,-66.6666666666667,4,2,1,5,0,0
95884,-66.6666666666667,4,2,1,70,0,0
98027,-83.3333333333333,4,2,1,55,0,0
108098,-83.3333333333333,4,2,1,70,0,0
108688,-83.3333333333333,4,2,1,5,0,0
108741,-83.3333333333333,4,2,1,70,0,0
109545,-83.3333333333333,4,2,1,5,0,0
109598,-83.3333333333333,4,2,1,70,0,0
110455,-71.4285714285714,4,2,1,70,0,0
110670,-62.5,4,2,1,70,0,0
111527,-62.5,4,2,10,70,0,1
111687,-62.5,4,2,1,5,0,1
111741,-62.5,4,2,11,70,0,1
111848,-62.5,4,2,1,70,0,1
111955,-62.5,4,2,12,70,0,1
112063,-62.5,4,2,13,70,0,1
112170,-62.5,4,2,14,70,0,1
112277,-62.5,4,2,15,70,0,1
112384,-62.5,4,2,16,70,0,1
112545,-62.5,4,2,1,5,0,1
112598,-62.5,4,2,1,70,0,1
112813,-62.5,4,2,17,70,0,1
112920,-62.5,4,2,18,70,0,1
113027,-62.5,4,2,19,70,0,1
113134,-62.5,4,2,21,70,0,1
113241,-62.5,4,2,12,70,0,1
113455,-62.5,4,2,20,70,0,1
113563,-62.5,4,2,12,70,0,1
113670,-62.5,4,2,22,70,0,1
113884,-62.5,4,2,1,70,0,1
114098,-62.5,4,2,15,70,0,1
114205,-62.5,4,2,1,70,0,1
114473,-62.5,4,2,1,5,0,1
114527,-62.5,4,2,18,70,0,1
114848,-62.5,4,2,1,70,0,1
114955,-62.5,4,2,23,70,0,1
115063,-62.5,4,2,1,70,0,1
115170,-62.5,4,2,24,70,0,1
115277,-62.5,4,2,1,70,0,1
115384,-62.5,4,2,25,70,0,1
115491,-62.5,4,2,26,70,0,1
115598,-62.5,4,2,20,70,0,1
115705,-62.5,4,2,21,70,0,1
115813,-62.5,4,2,16,70,0,1
115973,-62.5,4,2,1,5,0,1
116027,-62.5,4,2,27,70,0,1
116134,-62.5,4,2,1,70,0,1
116241,-62.5,4,2,15,70,0,1
116348,-62.5,4,2,16,70,0,1
116455,-62.5,4,2,14,70,0,1
116563,-62.5,4,2,28,70,0,1
116670,-76.9230769230769,4,2,26,70,0,1
116777,-76.9230769230769,4,2,13,70,0,1
116884,-76.9230769230769,4,2,14,70,0,1
116991,-76.9230769230769,4,2,15,70,0,1
117098,-76.9230769230769,4,2,13,70,0,1
117205,-76.9230769230769,4,2,12,70,0,1
117312,-76.9230769230769,4,2,29,70,0,1
117419,-76.9230769230769,4,2,30,70,0,1
117527,-76.9230769230769,4,2,12,70,0,1
117634,-76.9230769230769,4,2,15,70,0,1
117741,-76.9230769230769,4,2,31,70,0,1
117848,-76.9230769230769,4,2,32,70,0,1
117955,-76.9230769230769,4,2,17,70,0,1
118063,-76.9230769230769,4,2,18,70,0,1
118170,-76.9230769230769,4,2,19,70,0,1
118330,-76.9230769230769,4,2,1,5,0,1
118384,-76.9230769230769,4,2,33,70,0,1
118491,-76.9230769230769,4,2,1,70,0,1
118598,-76.9230769230769,4,2,14,70,0,1
118705,-76.9230769230769,4,2,16,70,0,1
118813,-76.9230769230769,4,2,15,70,0,1
118920,-76.9230769230769,4,2,1,70,0,1
119027,-76.9230769230769,4,2,31,70,0,1
119134,-76.9230769230769,4,2,1,70,0,1
119241,-76.9230769230769,4,2,17,70,0,1
119348,-76.9230769230769,4,2,1,70,0,1
119455,-76.9230769230769,4,2,27,70,0,1
119527,-76.9230769230769,4,2,17,70,0,1
119598,-76.9230769230769,4,2,18,70,0,1
119830,-76.9230769230769,4,2,1,5,0,1
119884,-76.9230769230769,4,2,29,70,0,1
119991,-76.9230769230769,4,2,1,70,0,1
120098,-76.9230769230769,4,2,22,70,0,1
120205,-76.9230769230769,4,2,1,70,0,1
120313,-76.9230769230769,4,2,29,70,0,1
120420,-76.9230769230769,4,2,1,70,0,1
120527,-76.9230769230769,4,2,18,70,0,1
120634,-76.9230769230769,4,2,1,70,0,1
120741,-76.9230769230769,4,2,31,70,0,1
120848,-76.9230769230769,4,2,1,70,0,1
120955,-76.9230769230769,4,2,12,70,0,1
121063,-76.9230769230769,4,2,1,70,0,1
121170,-76.9230769230769,4,2,34,70,0,1
121277,-76.9230769230769,4,2,1,70,0,1
121384,-76.9230769230769,4,2,18,70,0,1
121491,-76.9230769230769,4,2,1,70,0,1
121598,-76.9230769230769,4,2,31,70,0,1
121759,-76.9230769230769,4,2,1,5,0,1
121813,-76.9230769230769,4,2,32,70,0,1
122027,-76.9230769230769,4,2,34,70,0,1
122134,-76.9230769230769,4,2,32,70,0,1
122241,-76.9230769230769,4,2,30,70,0,1
122348,-76.9230769230769,4,2,1,70,0,1
122455,-76.9230769230769,4,2,27,70,0,1
122563,-76.9230769230769,4,2,30,70,0,1
122670,-76.9230769230769,4,2,18,70,0,1
122777,-76.9230769230769,4,2,1,70,0,1
122884,-76.9230769230769,4,2,29,70,0,1
122991,-76.9230769230769,4,2,18,70,0,1
123098,-76.9230769230769,4,2,16,70,0,1
123205,-76.9230769230769,4,2,1,70,0,1
123313,-76.9230769230769,4,2,14,70,0,1
123420,-76.9230769230769,4,2,16,70,0,1
123527,-76.9230769230769,4,2,15,70,0,1
123634,-76.9230769230769,4,2,12,70,0,1
123741,-76.9230769230769,4,2,14,70,0,1
123848,-76.9230769230769,4,2,13,70,0,1
123955,-76.9230769230769,4,2,18,70,0,1
124062,-76.9230769230769,4,2,12,70,0,1
124169,-76.9230769230769,4,2,14,70,0,1
124276,-76.9230769230769,4,2,13,70,0,1
124384,-76.9230769230769,4,2,30,70,0,1
124491,-76.9230769230769,4,2,12,70,0,1
124598,-76.9230769230769,4,2,14,70,0,1
124705,-76.9230769230769,4,2,13,70,0,1
124813,-76.9230769230769,4,2,17,70,0,1
124920,-76.9230769230769,4,2,12,70,0,1
125027,-76.9230769230769,4,2,20,70,0,1
125134,-76.9230769230769,4,2,12,70,0,1
125241,-76.9230769230769,4,2,35,55,0,0
125670,-166.666666666667,4,2,1,35,0,0
138955,-166.666666666667,4,2,1,20,0,0
142384,-166.666666666667,4,2,1,35,0,0
145705,-166.666666666667,4,2,1,5,0,0
145813,-166.666666666667,4,2,1,35,0,0
148813,-166.666666666667,4,2,1,45,0,0
149241,-100,4,2,1,45,0,0
150955,-100,4,2,1,35,0,0
151813,-100,4,2,1,45,0,0
152670,-100,4,2,1,55,0,0
153527,-100,4,2,1,65,0,0
154384,-100,4,2,1,70,0,0
154438,-100,4,2,1,5,0,0
154598,-100,4,2,1,70,0,0
154652,-100,4,2,1,5,0,0
154813,-100,4,2,1,70,0,0
154866,-100,4,2,1,5,0,0
155027,-100,4,2,1,70,0,0
155080,-100,4,2,1,5,0,0
155455,-100,4,2,1,60,0,0
155616,-100,4,2,1,5,0,0
155670,-100,4,2,1,70,0,0
156099,-66.6666666666667,4,2,2,80,0,1
156205,-66.6666666666667,4,2,1,80,0,1
161830,-66.6666666666667,4,2,1,5,0,1
161884,-66.6666666666667,4,2,1,80,0,1
162955,-66.6666666666667,4,2,2,80,0,1
163063,-66.6666666666667,4,2,1,80,0,1
166384,-66.6666666666667,4,2,2,80,0,1
166491,-66.6666666666667,4,2,1,80,0,1
167830,-66.6666666666667,4,2,1,5,0,1
167884,-66.6666666666667,4,2,1,80,0,1
168099,-66.6666666666667,4,2,1,80,0,0
169384,-66.6666666666667,4,2,1,80,0,0
169545,-66.6666666666667,4,2,1,5,0,0
169598,-66.6666666666667,4,2,1,80,0,0
169813,-66.6666666666667,4,2,1,70,0,0
170884,-125,4,2,1,70,0,0
171098,-100,4,2,1,70,0,0
171313,-83.3333333333333,4,2,1,70,0,0
171527,-55.5555555555556,4,2,2,85,0,1
171634,-55.5555555555556,4,2,1,85,0,1
172384,-62.5,4,2,1,85,0,1
176188,-62.5,4,2,1,5,0,1
176241,-62.5,4,2,1,85,0,1
177259,-62.5,4,2,1,5,0,1
177312,-62.5,4,2,1,85,0,1
178384,-55.5555555555556,4,2,2,85,0,1
178491,-55.5555555555556,4,2,1,85,0,1
181813,-55.5555555555556,4,2,2,85,0,1
181920,-55.5555555555556,4,2,1,85,0,1
183687,-55.5555555555556,4,2,1,5,0,1
183741,-55.5555555555556,4,2,1,85,0,1
183901,-55.5555555555556,4,2,1,5,0,1
183955,-55.5555555555556,4,2,1,85,0,1
184115,-55.5555555555556,4,2,1,5,0,1
184170,-55.5555555555556,4,2,1,85,0,1
184330,-55.5555555555556,4,2,1,5,0,1
184384,-55.5555555555556,4,2,1,85,0,1
185241,-55.5555555555556,4,2,2,85,0,1
185348,-55.5555555555556,4,2,1,85,0,1
189902,-55.5555555555556,4,2,1,5,0,1
189955,-55.5555555555556,4,2,1,85,0,1
190973,-55.5555555555556,4,2,1,5,0,1
191027,-55.5555555555556,4,2,1,85,0,1
192098,-55.5555555555556,4,2,2,85,0,1
192205,-55.5555555555556,4,2,1,85,0,1
195527,-55.5555555555556,4,2,2,85,0,1
195634,-55.5555555555556,4,2,1,85,0,1
197401,-55.5555555555556,4,2,1,5,0,1
197455,-55.5555555555556,4,2,1,85,0,1
198473,-55.5555555555556,4,2,1,5,0,1
198527,-55.5555555555556,4,2,1,85,0,1
198955,-55.5555555555556,4,2,2,85,0,1
199063,-55.5555555555556,4,2,1,85,0,1
200670,-55.5555555555556,4,2,1,75,0,0
201955,-66.6666666666667,4,2,1,75,0,0
203080,-66.6666666666667,4,2,1,5,0,0
203134,-66.6666666666667,4,2,1,75,0,0
204045,-66.6666666666667,4,2,1,5,0,0
204098,-66.6666666666667,4,2,1,75,0,0
204795,-66.6666666666667,4,2,1,5,0,0
204848,-66.6666666666667,4,2,1,75,0,0
206509,-66.6666666666667,4,2,1,5,0,0
206563,-66.6666666666667,4,2,1,75,0,0
207259,-66.6666666666667,4,2,1,5,0,0
207313,-66.6666666666667,4,2,1,75,0,0
208438,-66.6666666666667,4,2,1,5,0,0
208491,-66.6666666666667,4,2,1,75,0,0
208973,-66.6666666666667,4,2,1,5,0,0
209027,-66.6666666666667,4,2,1,75,0,0
209938,-66.6666666666667,4,2,1,5,0,0
209991,-66.6666666666667,4,2,1,75,0,0
210902,-66.6666666666667,4,2,1,5,0,0
210955,-66.6666666666667,4,2,1,75,0,0
211652,-66.6666666666667,4,2,1,5,0,0
211705,-66.6666666666667,4,2,1,75,0,0
213366,-66.6666666666667,4,2,1,5,0,0
213420,-66.6666666666667,4,2,1,75,0,0
214116,-66.6666666666667,4,2,1,5,0,0
214170,-66.6666666666667,4,2,1,75,0,0
215402,-66.6666666666667,4,2,1,5,0,0
215455,-66.6666666666667,4,2,1,75,0,0

[Colours]
Combo1 : 167,216,198
Combo2 : 253,187,147
Combo3 : 149,149,230
Combo4 : 237,164,181

[HitObjects]
28,100,1813,6,0,P|84:98|187:158,1,160,2|2,3:2|3:2,0:0:0:0:
81,288,2670,2,0,P|53:289|1:259,1,80,2|0,3:2|0:0,0:0:0:0:
36,183,3098,2,0,P|64:182|115:212,1,80,2|2,3:2|0:0,0:0:0:0:
197,224,3527,6,0,P|234:204|258:149,1,80,2|2,3:2|0:0,0:0:0:0:
178,141,3955,1,2,3:2:0:0:
81,288,4170,2,0,P|147:289|216:358,1,160,2|2,0:0|0:0,0:0:0:0:
334,299,4813,6,0,P|297:294|259:268,1,80,2|0,3:2|0:0,0:0:0:0:
254,173,5241,2,0,P|328:183|403:235,1,160,2|2,3:2|3:2,0:0:0:0:
489,74,6098,2,0,P|447:101|413:109,1,80,2|2,3:2|0:0,0:0:0:0:
341,102,6527,1,0,3:0:0:0:
502,257,6955,6,0,P|488:206|486:169,1,80,2|2,3:2|0:0,0:0:0:0:
397,229,7384,2,0,P|383:280|381:317,1,80,2|2,3:2|0:0,0:0:0:0:
263,102,7813,2,0,B|355:72|340:141|429:103,1,160,2|2,3:2|3:2,0:0:0:0:
383,34,8455,1,0,0:0:0:0:
222,28,8670,6,0,P|236:96|242:201,1,160,6|2,3:2|3:2,0:0:0:0:
46,169,9527,2,0,P|39:135|36:82,1,80,2|0,3:2|0:0,0:0:0:0:
147,77,9955,2,0,P|154:111|157:163,1,80,2|2,3:2|0:0,0:0:0:0:
114,307,10384,2,0,P|107:273|104:220,2,80,2|2|2,3:2|0:0|3:2,0:0:0:0:
190,347,11027,2,0,P|230:360|308:282,1,160,2|2,0:0|0:0,0:0:0:0:
408,227,11670,6,0,P|351:209|324:187,1,80,6|0,3:2|0:0,0:0:0:0:
393,310,12098,6,0,P|422:321|436:330,1,40,6|0,3:2|0:0,0:0:0:0:
307,288,12313,2,0,P|317:323|319:343,1,40,2|0,0:0|0:0,0:0:0:0:
408,227,12527,6,0,P|439:230|453:235,1,42,2|0,3:2|0:0,0:0:0:0:
396,315,12741,2,0,P|424:327|438:336,1,42,2|0,3:2|0:0,0:0:0:0:
397,147,12955,6,0,P|423:136|441:133,1,44,2|0,3:2|0:0,0:0:0:0:
414,233,13170,2,0,P|445:237|459:243,1,44,2|0,3:2|0:0,0:0:0:0:
318,117,13384,6,0,P|339:89|355:76,1,46,2|0,3:2|0:0,0:0:0:0:
398,152,13598,2,0,P|425:142|443:139,1,46,2|0,3:2|0:0,0:0:0:0:
335,197,13813,6,0,P|294:208|233:206,1,80,2|2,0:0|0:0,0:0:0:0:
111,359,14455,2,0,P|152:348|213:350,1,80,2|2,0:0|0:0,0:0:0:0:
269,298,14884,5,4,3:0:0:0:
269,298,14991,1,4,3:0:0:0:
269,298,15098,2,0,P|263:244|253:197,1,90.0000000000002,14|0,0:0|0:0,0:0:0:0:
248,183,15527,6,0,P|202:173|178:168,1,48,6|0,3:2|0:0,0:0:0:0:
141,110,15741,2,0,P|121:134|112:169,1,48,2|0,0:3|0:0,0:0:0:0:
225,94,15955,5,10,0:0:0:0:
225,94,16063,2,0,P|257:101|285:109,1,48,2|0,0:0|0:0,0:0:0:0:
317,28,16277,2,0,P|254:17|200:-4,1,96,2|2,0:0|0:0,0:0:0:0:
362,97,16598,6,0,P|362:127|367:158,1,48,2|0,0:3|0:0,0:0:0:0:
474,67,16813,2,0,P|443:52|417:44,1,48,10|0,0:0|0:0,0:0:0:0:
440,142,17027,1,2,0:3:0:0:
373,226,17241,6,0,P|359:259|345:299,1,50,2|0,3:2|0:0,0:0:0:0:
479,330,17455,2,0,P|465:297|451:257,1,50,2|0,0:3|0:0,0:0:0:0:
340,353,17670,5,10,0:0:0:0:
340,353,17777,2,0,P|316:361|283:358,1,48,2|0,0:0|0:0,0:0:0:0:
261,281,17991,2,0,P|306:267|355:272,1,96,2|2,0:0|0:0,0:0:0:0:
178,325,18313,6,0,P|168:296|170:257,1,48,10|0,0:0|0:0,0:0:0:0:
77,274,18527,2,0,P|81:324|97:368,1,96,10|2,0:0|0:3,0:0:0:0:
164,176,18955,6,0,P|133:201|97:218,1,48,2|0,3:2|0:0,0:0:0:0:
247,159,19170,2,0,P|278:134|314:117,1,48,2|0,0:3|0:0,0:0:0:0:
195,96,19384,5,10,0:0:0:0:
195,96,19491,2,0,P|170:91|140:88,1,48,2|0,0:0|0:0,0:0:0:0:
136,0,19705,2,0,P|180:11|244:13,1,96,2|2,0:0|0:0,0:0:0:0:
67,59,20027,6,0,P|66:88|58:124,1,48,2|0,0:3|0:0,0:0:0:0:
0,182,20241,2,0,P|53:181|122:206,1,96,14|2,0:0|0:3,0:0:0:0:
263,255,20670,6,0,P|229:264|203:275,1,48,6|0,3:2|0:0,0:0:0:0:
134,337,20884,1,10,0:0:0:0:
134,337,20991,1,10,0:0:0:0:
134,337,21099,2,0,P|132:281|127:248,1,48,10|0,0:0|3:0,0:0:0:0:
211,173,21313,1,6,0:0:0:0:
211,173,21420,6,0,P|213:229|221:286,1,95.9999970703126,14|4,3:0|3:0,0:0:0:0:
42,310,21741,2,0,P|40:254|35:221,1,48,6|4,3:0|3:0,0:0:0:0:
94,191,21955,2,0,P|114:200|153:204,1,48,14|0,0:0|0:0,0:0:0:0:
217,268,22170,1,2,0:3:0:0:
176,83,22384,6,0,P|156:64|143:34,1,47.9999985351563,6|0,3:2|0:0,0:0:0:0:
272,4,22598,2,0,P|242:21|211:27,1,48,2|0,0:3|0:0,0:0:0:0:
331,81,22813,5,10,0:0:0:0:
331,81,22920,2,0,P|373:82|402:73,1,48,2|0,0:0|0:0,0:0:0:0:
470,138,23134,2,0,P|418:162|379:202,1,96,2|2,0:0|0:0,0:0:0:0:
456,237,23455,6,0,P|484:213|507:208,1,48,2|0,0:3|0:0,0:0:0:0:
377,233,23670,2,0,P|386:195|398:173,1,48,10|0,0:0|0:0,0:0:0:0:
311,279,23884,1,2,0:3:0:0:
292,140,24098,6,0,P|258:158|229:168,1,48,2|0,3:2|0:0,0:0:0:0:
172,263,24313,2,0,P|206:245|235:235,1,48,2|0,0:3|0:0,0:0:0:0:
142,129,24527,5,10,0:0:0:0:
142,129,24634,2,0,P|161:167|166:188,1,48,2|0,0:0|0:0,0:0:0:0:
109,48,24848,2,0,P|165:48|217:82,1,96,2|2,0:0|0:0,0:0:0:0:
81,188,25170,6,0,P|78:226|65:258,1,48,10|0,0:0|0:0,0:0:0:0:
58,336,25384,2,0,P|92:319|126:314,1,48,10|0,0:0|0:0,0:0:0:0:
172,263,25598,1,2,0:3:0:0:
296,324,25813,6,0,P|305:291|334:245,1,48,2|0,3:2|0:0,0:0:0:0:
389,369,26027,2,0,P|378:338|376:315,1,48,2|0,0:3|0:0,0:0:0:0:
458,323,26241,5,10,0:0:0:0:
458,323,26348,2,0,P|467:290|496:244,1,48,2|0,0:0|0:0,0:0:0:0:
376,323,26563,2,0,P|390:268|415:220,1,96,2|2,0:0|0:0,0:0:0:0:
511,162,26884,6,0,P|482:169|460:180,1,48,2|0,0:3|0:0,0:0:0:0:
402,113,27098,2,0,P|384:145|381:172,1,48,14|0,0:0|0:0,0:0:0:0:
293,148,27313,2,0,P|302:195|315:215,1,48,2|0,0:3|0:0,0:0:0:0:
250,20,27527,6,0,P|212:30|180:33,1,48,6|0,3:2|0:0,0:0:0:0:
108,71,27741,1,10,0:0:0:0:
108,71,27848,1,4,3:0:0:0:
108,71,27955,2,0,P|139:99|148:118,1,48,10|0,0:0|3:0,0:0:0:0:
203,195,28170,5,6,3:0:0:0:
203,195,28277,2,0,P|214:134|233:102,1,95.9999970703126,14|4,0:0|3:0,0:0:0:0:
82,152,28599,1,4,3:0:0:0:
82,152,28705,1,4,3:0:0:0:
82,152,28813,2,0,P|67:189|44:220,1,48,10|8,0:0|0:0,0:0:0:0:
107,264,29027,2,0,P|75:278|39:280,1,48,10|8,0:0|0:0,0:0:0:0:
14,341,29241,5,6,3:2:0:0:
207,301,29455,2,0,B|243:305|243:305|252:313|252:313|308:319,2,88,2|2|2,0:0|3:2|0:3,0:0:0:0:
368,269,30098,2,0,L|463:253,1,88,2|0,3:2|0:0,0:0:0:0:
374,114,30527,1,10,0:0:0:0:
374,114,30741,1,2,0:3:0:0:
317,165,30955,6,0,P|273:186|225:184,1,88,2|2,3:2|0:3,0:0:0:0:
162,150,31384,1,2,3:2:0:0:
123,317,31598,2,0,P|159:300|209:301,1,88,2|0,0:3|3:0,0:0:0:0:
289,349,32027,1,2,0:3:0:0:
289,349,32134,1,8,0:0:0:0:
289,349,32241,2,0,L|388:357,1,88,10|2,0:0|0:3,0:0:0:0:
491,300,32670,6,0,P|493:266|453:205,2,88,2|2|0,3:2|0:3|3:0,0:0:0:0:
376,356,33313,1,2,0:3:0:0:
320,270,33527,2,0,L|415:276,1,88,2|0,3:2|0:0,0:0:0:0:
464,139,33955,1,10,0:0:0:0:
395,185,34170,1,2,0:3:0:0:
273,89,34384,6,0,L|372:96,2,88,2|2|2,3:2|0:3|3:2,0:0:0:0:
162,150,35027,2,0,L|87:157,2,44,2|0|0,0:3|0:0|3:0,0:0:0:0:
264,224,35455,1,2,0:3:0:0:
264,224,35563,1,8,0:0:0:0:
264,224,35670,2,0,P|270:272|275:340,1,88,10|10,0:0|0:0,0:0:0:0:
204,362,36098,5,0,3:0:0:0:
362,325,36313,2,0,P|358:281|352:237,2,88,2|0|2,0:3|3:0|0:3,0:0:0:0:
422,189,36955,2,0,P|386:159|335:157,1,88,2|0,3:2|0:0,0:0:0:0:
389,52,37384,2,0,P|425:82|476:84,1,88,10|2,0:0|0:3,0:0:0:0:
282,70,37813,6,0,P|243:108|236:163,1,88,2|2,3:2|0:3,0:0:0:0:
162,85,38241,1,2,3:2:0:0:
264,224,38455,2,0,L|165:215,1,88,2|0,0:3|3:0,0:0:0:0:
77,173,38884,5,2,0:3:0:0:
77,173,38991,1,8,0:0:0:0:
77,173,39098,2,0,L|85:264,1,88,10|2,0:0|0:3,0:0:0:0:
256,311,39527,2,0,L|264:220,2,88,2|2|2,3:2|0:3|3:2,0:0:0:0:
179,354,40170,1,2,0:3:0:0:
347,280,40384,6,0,P|400:286|443:309,1,88,2|2,3:2|0:3,0:0:0:0:
508,215,40813,2,0,P|455:209|412:186,1,88,14|0,0:0|0:0,0:0:0:0:
401,173,41134,1,8,0:0:0:0:
389,144,41241,6,0,L|399:57,1,64,6|0,3:0|0:0,0:0:0:0:
318,61,41563,2,0,L|309:132,1,72.0000000000001,6|0,3:0|0:0,0:0:0:0:
237,170,41884,6,0,P|210:174|182:175,1,44,6|0,3:0|0:0,0:0:0:0:
233,250,42098,2,0,P|260:246|288:245,1,48,14|0,3:2|0:0,0:0:0:0:
143,349,42420,5,0,0:0:0:0:
143,349,42527,2,0,P|76:335|44:336,1,96,2|0,0:3|0:0,0:0:0:0:
19,343,42955,6,0,P|15:304|26:253,1,88.000002685547,6|2,3:2|0:0,0:0:0:0:
119,199,43277,1,2,0:0:0:0:
119,199,43384,2,0,P|123:238|123:249,1,44,10|0,0:0|0:0,0:0:0:0:
0,229,43598,5,2,3:2:0:0:
0,229,43706,2,0,L|43:224,1,44,2|2,0:0|3:2,0:0:0:0:
49,147,43920,2,0,L|-4:141,1,44,2|0,0:0|0:0,0:0:0:0:
87,74,44134,2,0,P|113:93|131:117,1,44,2|10,0:0|0:0,0:0:0:0:
169,35,44348,5,0,0:0:0:0:
169,35,44455,1,2,0:0:0:0:
322,99,44670,6,0,P|318:140|318:199,1,88,2|2,3:2|0:0,0:0:0:0:
240,229,44991,1,2,0:0:0:0:
240,229,45098,2,0,P|242:264|238:326,1,88.000002685547,10|2,0:0|0:0,0:0:0:0:
310,353,45420,1,0,0:0:0:0:
330,346,45527,2,0,P|353:337|385:333,1,44,2|0,3:2|0:0,0:0:0:0:
383,246,45741,2,0,P|360:255|328:259,1,44,2|0,0:0|0:0,0:0:0:0:
459,360,45955,6,0,P|459:332|466:303,1,44,10|0,0:0|0:0,0:0:0:0:
493,248,46170,1,2,0:3:0:0:
388,92,46384,6,0,P|412:127|425:138,1,44,2|0,3:2|0:0,0:0:0:0:
312,47,46598,2,0,P|304:80|319:136,1,88.000002685547,2|10,0:0|0:0,0:0:0:0:
293,205,46920,1,2,0:0:0:0:
293,205,47027,2,0,L|226:199,1,44,2|2,0:0|0:0,0:0:0:0:
221,110,47241,6,0,L|154:116,1,44,2|0,3:2|0:0,0:0:0:0:
104,174,47455,1,2,0:0:0:0:
104,174,47563,1,2,0:0:0:0:
104,174,47670,2,0,P|139:195|162:228,1,44,10|0,0:0|0:0,0:0:0:0:
93,271,47884,2,0,P|58:250|35:217,1,44,2|0,0:0|0:0,0:0:0:0:
185,277,48098,6,0,P|190:324|204:373,1,88,2|2,3:2|0:0,0:0:0:0:
273,330,48420,1,0,0:0:0:0:
273,330,48527,2,0,P|267:308|265:286,1,44,10|0,0:0|0:0,0:0:0:0:
353,272,48741,2,0,P|359:294|361:316,1,44,10|0,0:0|0:0,0:0:0:0:
454,337,48955,6,0,P|448:315|446:293,2,44,2|8|2,3:2|0:0|0:3,0:0:0:0:
409,170,49384,2,0,P|420:126|427:108,1,44,2|8,3:2|0:0,0:0:0:0:
344,80,49598,2,0,P|333:124|326:142,1,44,2|0,0:3|0:0,0:0:0:0:
420,128,49813,6,0,P|452:141|519:136,1,88.000002685547,6|2,3:2|0:0,0:0:0:0:
346,84,50134,1,2,0:0:0:0:
346,84,50241,2,0,P|371:70|400:47,1,44,10|0,0:0|0:0,0:0:0:0:
267,61,50455,2,0,P|235:74|203:77,1,44,2|2,0:3|0:0,0:0:0:0:
154,64,50670,5,2,3:2:0:0:
154,64,50777,2,0,L|146:2,1,44,2|0,0:0|0:0,0:0:0:0:
66,42,50991,1,2,0:0:0:0:
66,42,51098,2,0,L|72:86,1,44,10|0,0:0|0:0,0:0:0:0:
133,143,51313,2,0,L|144:201,1,44,2|0,0:3|0:0,0:0:0:0:
95,255,51527,6,0,L|106:313,1,44,2|2,3:2|0:0,0:0:0:0:
176,343,51741,2,0,L|230:337,1,44.0000013427735,2|2,0:3|0:0,0:0:0:0:
302,355,51955,1,10,0:0:0:0:
302,355,52063,1,0,0:0:0:0:
302,355,52170,2,0,P|300:329|296:296,1,44,2|8,0:3|0:0,0:0:0:0:
377,283,52384,2,0,P|384:328|383:373,1,88,2|2,3:2|0:3,0:0:0:0:
457,196,52813,5,10,0:0:0:0:
457,196,52920,1,8,0:0:0:0:
457,196,53027,2,0,P|421:202|393:199,1,44,2|0,0:3|0:0,0:0:0:0:
368,133,53241,6,0,P|358:98|362:71,1,44,6|0,3:2|0:0,0:0:0:0:
443,69,53456,2,0,P|453:104|449:131,1,44,6|4,3:0|3:0,0:0:0:0:
222,223,53670,6,0,P|225:186|238:162,1,48,10|2,0:0|0:0,0:0:0:0:
314,190,53884,2,0,P|310:226|297:250,1,48,2|4,0:3|3:2,0:0:0:0:
56,92,54098,6,0,P|58:66|67:42,1,52,2|4,0:0|3:0,0:0:0:0:
157,64,54313,2,0,P|154:89|145:113,1,52,6|4,3:0|3:0,0:0:0:0:
91,187,54527,5,10,0:0:0:0:
91,187,54634,1,8,0:0:0:0:
91,187,54741,1,8,0:0:0:0:
91,187,54848,1,8,0:0:0:0:
91,187,54956,6,0,P|94:216|96:262,1,58.0000017700196,6|0,3:2|0:0,0:0:0:0:
228,283,55170,2,0,P|225:254|223:213,1,62.0000004730225,2|0,3:0|0:0,0:0:0:0:
9,255,55384,6,0,P|15:283|15:331,1,71.9999978027344,10|0,3:2|0:0,0:0:0:0:
147,375,55598,2,0,P|149:340|159:293,1,71.9999978027344,14|0,0:0|0:0,0:0:0:0:
463,147,56670,6,0,P|401:136|331:45,1,180,14|0,3:2|0:0,0:0:0:0:
331,47,57098,2,0,P|369:44|401:53,1,60,10|0,0:0|0:0,0:0:0:0:
330,185,57313,2,0,P|294:152|283:124,1,60,2|0,0:3|0:0,0:0:0:0:
408,246,57527,6,0,P|331:267|265:348,1,180,2|0,3:2|0:0,0:0:0:0:
348,352,57955,2,0,P|376:330|410:326,1,60,10|0,0:0|0:0,0:0:0:0:
459,219,58170,2,0,P|431:241|397:245,1,60,2|0,0:3|0:0,0:0:0:0:
212,318,58384,6,0,P|255:332|276:348,1,60,2|0,3:2|0:0,0:0:0:0:
79,231,58598,2,0,P|97:195|118:180,1,56,2|0,0:3|0:0,0:0:0:0:
162,250,58813,6,0,P|196:236|215:234,1,52,10|0,0:0|0:0,0:0:0:0:
131,64,59027,2,0,P|93:90|71:100,1,52,10|8,3:0|0:0,0:0:0:0:
180,143,59241,1,4,3:0:0:0:
180,143,59348,1,8,0:0:0:0:
180,143,59455,2,0,P|218:117|240:107,1,52,2|0,0:3|0:0,0:0:0:0:
280,37,59670,6,0,P|307:93|406:139,1,156,10|0,0:0|0:0,0:0:0:0:
493,194,60098,2,0,P|435:220|397:274,1,120,2|0,3:2|0:0,0:0:0:0:
339,321,60420,1,2,0:0:0:0:
339,321,60527,6,0,P|320:285|298:263,1,60,10|0,0:0|0:0,0:0:0:0:
401,263,60741,2,0,P|420:299|442:321,1,60,2|0,0:3|0:0,0:0:0:0:
262,344,60955,6,0,P|228:338|192:335,1,60,2|0,3:2|0:0,0:0:0:0:
188,254,61170,2,0,P|250:265|341:272,1,120,2|8,0:3|0:0,0:0:0:0:
112,105,61598,2,0,P|94:135|65:162,1,60,2|0,0:3|0:0,0:0:0:0:
224,184,61813,6,0,L|155:174,1,60,2|0,3:2|0:0,0:0:0:0:
126,247,62027,2,0,L|185:254,1,60,2|0,0:3|0:0,0:0:0:0:
70,322,62241,6,0,P|54:289|23:265,1,60,10|0,0:0|0:0,0:0:0:0:
186,255,62455,1,2,0:3:0:0:
186,255,62563,2,0,P|170:281|160:335,1,60,8|2,0:0|3:2,0:0:0:0:
262,374,62777,1,10,0:0:0:0:
262,374,62884,2,0,P|243:338|244:305,1,60,2|2,0:3|0:3,0:0:0:0:
331,259,63098,5,10,0:0:0:0:
331,259,63205,2,0,P|369:331|367:397,1,120,8|0,0:0|0:0,0:0:0:0:
437,268,63527,6,0,P|442:199|514:75,1,204,6|0,3:2|0:0,0:0:0:0:
505,82,63955,2,0,P|515:132|509:162,1,68,10|0,0:0|0:0,0:0:0:0:
386,107,64170,2,0,P|415:58|441:35,1,68,2|0,0:3|0:0,0:0:0:0:
296,96,64384,6,0,P|321:164|459:152,1,204,2|0,3:2|0:0,0:0:0:0:
331,257,64813,2,0,P|280:261|237:277,1,68,10|0,0:0|0:0,0:0:0:0:
175,196,65027,2,0,P|226:192|269:176,1,68,2|0,0:3|0:0,0:0:0:0:
331,257,65241,6,0,P|313:310|313:335,1,68,2|0,3:2|0:0,0:0:0:0:
512,334,65455,2,0,P|457:344|440:354,1,60,2|0,0:3|0:0,0:0:0:0:
436,268,65670,6,0,P|393:304|382:325,1,52,10|0,0:0|0:0,0:0:0:0:
439,172,65884,2,0,P|481:135|493:117,1,52,10|8,3:0|0:0,0:0:0:0:
480,241,66098,5,4,3:0:0:0:
480,241,66205,1,8,0:0:0:0:
480,241,66313,2,0,P|432:270|417:286,1,52,2|0,0:3|0:0,0:0:0:0:
353,178,66527,2,0,P|369:120|411:93,1,104,10|2,0:0|0:3,0:0:0:0:
134,17,66955,6,0,P|222:67|238:168,1,180,6|0,3:2|0:0,0:0:0:0:
101,196,67384,2,0,P|76:180|64:153,1,60,10|0,0:0|0:0,0:0:0:0:
128,96,67598,2,0,P|153:112|166:140,1,60,2|0,0:3|0:0,0:0:0:0:
178,227,67813,6,0,P|152:260|125:270,1,60,2|0,3:2|0:0,0:0:0:0:
180,350,68027,2,0,P|206:317|233:307,1,60,2|0,0:3|0:0,0:0:0:0:
300,278,68241,6,0,P|332:285|365:295,1,60,10|0,0:0|0:0,0:0:0:0:
399,220,68455,2,0,P|366:212|340:204,1,60,2|0,0:3|0:0,0:0:0:0:
446,310,68670,5,14,0:0:0:0:
476,164,68884,1,10,0:0:0:0:
331,132,69098,1,2,3:2:0:0:
300,278,69313,1,14,0:0:0:0:
476,164,69527,5,6,3:2:0:0:
476,164,69634,1,8,0:0:0:0:
476,164,69741,2,0,L|485:99,1,60,10|0,0:0|0:0,0:0:0:0:
341,204,69955,5,10,0:0:0:0:
341,204,70063,1,8,0:0:0:0:
341,204,70170,2,0,L|332:139,1,60,10|8,0:0|0:0,0:0:0:0:
369,12,70384,6,0,P|317:62|192:82,1,198,14|0,3:2|0:0,0:0:0:0:
196,82,70813,2,0,P|219:106|233:136,1,66,10|0,0:0|0:0,0:0:0:0:
119,40,71027,2,0,P|144:13|170:-1,1,66,2|0,0:3|0:0,0:0:0:0:
143,145,71241,2,0,P|72:132|10:29,1,198.000001888275,2|0,3:2|0:0,0:0:0:0:
19,257,71670,6,0,P|49:240|92:235,1,66,10|0,0:0|0:0,0:0:0:0:
101,317,71884,2,0,P|71:334|28:339,1,66,2|0,0:3|0:0,0:0:0:0:
165,261,72098,6,0,P|180:293|183:335,1,66,2|0,3:2|0:0,0:0:0:0:
324,279,72313,2,0,L|258:270,1,66,2|0,0:3|0:0,0:0:0:0:
270,354,72527,2,0,L|335:362,1,66,10|0,0:0|0:0,0:0:0:0:
403,293,72741,5,10,3:0:0:0:
404,249,72848,1,8,0:0:0:0:
380,213,72955,1,4,3:0:0:0:
340,199,73063,1,8,0:0:0:0:
300,177,73170,6,0,P|279:145|269:100,1,66,2|0,0:3|0:0,0:0:0:0:
270,118,73384,2,0,P|368:92|431:157,1,198,10|0,0:0|0:0,0:0:0:0:
506,220,73813,6,0,P|449:240|398:303,1,132,2|0,3:2|0:0,0:0:0:0:
462,337,74134,1,2,0:0:0:0:
462,337,74241,2,0,P|483:311|517:292,1,66,10|0,0:0|0:0,0:0:0:0:
343,265,74455,2,0,P|387:280|413:305,1,66,2|0,0:3|0:0,0:0:0:0:
331,351,74670,6,0,L|261:342,1,66,2|0,3:2|0:0,0:0:0:0:
145,360,74884,2,0,P|195:298|193:201,1,132,2|8,0:3|0:0,0:0:0:0:
129,98,75313,2,0,P|111:128|79:157,1,66,2|0,0:3|0:0,0:0:0:0:
241,177,75527,6,0,L|167:166,1,66,2|0,3:2|0:0,0:0:0:0:
138,238,75741,2,0,L|203:247,1,66,2|0,0:3|0:0,0:0:0:0:
336,169,75955,6,0,P|315:140|303:101,1,66,10|0,0:0|0:0,0:0:0:0:
422,51,76170,1,2,0:3:0:0:
422,51,76277,2,0,P|401:80|389:119,1,66,8|0,0:0|3:0,0:0:0:0:
444,174,76491,1,8,0:0:0:0:
444,174,76598,2,0,L|513:165,1,66,2|2,0:3|0:3,0:0:0:0:
442,265,76813,5,10,0:0:0:0:
398,270,76920,1,8,0:0:0:0:
361,292,77027,1,10,0:0:0:0:
336,328,77134,1,8,0:0:0:0:
332,381,77241,6,0,P|285:291|198:245,1,198,6|0,3:2|0:0,0:0:0:0:
125,309,77670,2,0,P|174:323|204:348,1,66,10|0,0:0|0:0,0:0:0:0:
189,170,77884,2,0,P|141:199|130:240,1,66,2|0,0:3|0:0,0:0:0:0:
273,189,78098,2,0,P|258:120|134:98,1,198,2|0,3:2|0:0,0:0:0:0:
69,133,78527,6,0,P|23:129|-9:101,1,66,10|0,0:0|0:0,0:0:0:0:
136,206,78741,2,0,P|158:181|189:170,1,66,2|0,0:3|0:0,0:0:0:0:
44,219,78955,6,0,L|29:288,1,66,2|0,3:2|0:0,0:0:0:0:
139,373,79170,2,0,L|124:304,1,66,2|0,0:3|0:0,0:0:0:0:
202,246,79384,2,0,L|280:251,1,66,10|0,0:0|0:0,0:0:0:0:
382,339,79598,5,10,3:0:0:0:
382,339,79705,2,0,P|351:358|326:390,1,66,8|4,0:0|3:0,0:0:0:0:
427,270,79920,5,8,0:0:0:0:
427,270,80027,2,0,P|374:254|347:261,1,66,2|0,0:3|0:0,0:0:0:0:
326,168,80241,2,0,P|410:176|473:124,1,132,10|2,0:0|0:3,0:0:0:0:
180,50,80670,6,0,P|196:121|200:261,1,198,6|0,3:2|0:0,0:0:0:0:
201,245,81098,2,0,P|168:210|155:177,1,66,10|0,0:0|0:0,0:0:0:0:
113,339,81313,2,0,P|160:328|195:333,1,66,2|0,0:3|0:0,0:0:0:0:
108,259,81527,6,0,L|23:238,1,66,2|0,3:2|0:0,0:0:0:0:
262,312,81741,2,0,L|326:327,1,66,2|0,0:3|0:0,0:0:0:0:
433,236,81955,5,10,0:0:0:0:
433,236,82063,1,8,0:0:0:0:
433,236,82170,2,0,P|386:255|367:275,1,66,2|0,0:3|0:0,0:0:0:0:
326,327,82384,5,10,0:0:0:0:
479,362,82598,1,10,0:0:0:0:
489,138,83027,5,10,0:0:0:0:
298,181,83241,1,10,0:0:0:0:
250,95,83455,5,4,3:0:0:0:
250,95,83563,1,4,3:0:0:0:
250,95,83670,2,0,P|318:80|394:170,1,180,14|0,0:0|0:0,0:0:0:0:
326,261,84098,6,0,L|253:271,1,60,6|0,3:2|0:0,0:0:0:0:
238,189,84313,2,0,L|297:180,1,60,2|0,0:3|0:0,0:0:0:0:
159,229,84527,5,10,0:0:0:0:
159,229,84634,2,0,P|145:189|120:159,1,60,2|0,0:0|0:0,0:0:0:0:
266,269,84848,2,0,P|207:298|172:365,1,120,2|2,0:0|0:0,0:0:0:0:
177,342,85170,6,0,P|211:352|234:370,1,60,2|0,0:3|0:0,0:0:0:0:
266,269,85384,2,0,P|289:294|300:321,1,60,10|0,0:0|0:0,0:0:0:0:
397,329,85598,1,2,0:3:0:0:
504,194,85813,6,0,P|460:185|416:144,1,60,2|0,3:2|0:0,0:0:0:0:
348,115,86027,2,0,P|392:106|436:65,1,60,2|0,0:3|0:0,0:0:0:0:
469,40,86241,5,10,0:0:0:0:
469,40,86348,2,0,P|488:79|488:118,1,60,2|0,0:0|0:0,0:0:0:0:
447,177,86563,2,0,P|409:185|367:253,1,120,2|2,0:0|0:0,0:0:0:0:
242,198,86884,6,0,P|279:195|314:185,1,60,10|0,0:0|0:0,0:0:0:0:
320,324,87098,2,0,P|298:293|272:268,1,60,10|0,0:0|0:0,0:0:0:0:
367,249,87313,1,2,0:3:0:0:
348,115,87527,6,0,L|338:44,1,60,2|0,3:2|0:0,0:0:0:0:
253,39,87741,2,0,L|261:98,1,60,2|0,0:3|0:0,0:0:0:0:
105,69,87955,5,10,0:0:0:0:
105,69,88063,2,0,P|137:73|180:75,1,60,2|0,0:0|0:0,0:0:0:0:
180,157,88277,2,0,P|132:150|58:145,1,120,2|2,0:0|0:0,0:0:0:0:
60,145,88598,6,0,P|74:187|76:222,1,60,2|0,0:3|0:0,0:0:0:0:
150,297,88813,2,0,P|163:255|163:219,1,60,14|0,0:0|0:0,0:0:0:0:
55,279,89027,1,2,0:3:0:0:
237,297,89241,6,0,P|269:307|297:328,1,60.0000022888184,6|0,3:2|0:0,0:0:0:0:
349,260,89456,1,10,0:0:0:0:
349,260,89563,1,10,0:0:0:0:
349,260,89670,2,0,P|371:284|385:316,1,60,10|0,0:0|3:0,0:0:0:0:
461,352,89884,1,6,3:0:0:0:
461,352,89991,6,0,P|477:275|502:224,1,120.000004577637,14|4,0:0|3:0,0:0:0:0:
410,102,90313,1,6,3:0:0:0:
410,102,90420,1,4,3:0:0:0:
410,102,90527,2,0,P|442:100|469:95,1,60,14|0,0:0|0:0,0:0:0:0:
379,185,90741,1,10,0:0:0:0:
379,185,90848,1,8,0:0:0:0:
379,185,90955,6,0,P|346:180|320:174,1,60,6|0,3:2|0:0,0:0:0:0:
324,25,91170,2,0,P|353:20|383:17,1,60,2|0,0:3|0:0,0:0:0:0:
278,99,91384,5,10,0:0:0:0:
278,99,91491,2,0,P|246:96|216:95,1,60,2|0,0:0|0:0,0:0:0:0:
126,127,91705,6,0,P|171:170|197:235,1,120,2|2,0:0|0:0,0:0:0:0:
84,209,92027,2,0,P|61:255|60:290,1,60,2|0,0:3|0:0,0:0:0:0:
194,222,92241,2,0,P|152:251|133:281,1,60,10|0,0:0|0:0,0:0:0:0:
230,298,92455,1,2,0:3:0:0:
320,174,92670,6,0,P|357:161|381:161,1,60,2|0,3:2|0:0,0:0:0:0:
406,68,92884,2,0,P|369:81|345:81,1,60,2|0,0:3|0:0,0:0:0:0:
459,203,93098,1,10,0:0:0:0:
459,203,93205,2,0,P|461:160|477:128,1,60,2|0,0:0|0:0,0:0:0:0:
377,160,93420,6,0,P|371:227|408:285,1,120,2|2,0:0|0:0,0:0:0:0:
506,298,93741,6,0,P|480:313|447:346,1,60,10|0,0:0|0:0,0:0:0:0:
394,272,93955,2,0,P|378:297|366:343,1,60,10|0,0:0|0:0,0:0:0:0:
285,299,94170,1,2,0:3:0:0:
136,329,94384,6,0,L|57:315,1,60,2|0,3:2|0:0,0:0:0:0:
69,240,94598,2,0,L|128:250,1,60,2|0,0:3|0:0,0:0:0:0:
192,197,94813,5,10,0:0:0:0:
192,197,94920,2,0,L|184:118,1,60,2|0,0:0|0:0,0:0:0:0:
265,96,95134,2,0,L|277:215,1,120,2|2,0:0|0:0,0:0:0:0:
277,215,95455,6,0,P|320:206|347:206,1,60,2|0,0:3|0:0,0:0:0:0:
405,116,95670,2,0,P|362:125|335:125,1,60,14|0,0:0|0:0,0:0:0:0:
265,96,95884,1,2,0:3:0:0:
203,274,96098,6,0,L|209:333,1,60,6|0,3:2|0:0,0:0:0:0:
283,274,96313,2,0,L|277:215,1,60,10|2,0:0|0:0,0:0:0:0:
354,330,96527,5,10,0:0:0:0:
354,330,96634,2,0,P|393:319|421:319,1,60,0|4,3:0|3:0,0:0:0:0:
506,237,96848,6,0,P|498:293|501:360,1,120,6|0,3:2|3:0,0:0:0:0:
412,318,97170,2,0,P|411:282|419:245,1,60,4|0,3:0|3:0,0:0:0:0:
512,155,97384,5,10,0:0:0:0:
467,149,97491,1,8,0:0:0:0:
424,173,97598,5,10,0:0:0:0:
380,179,97705,1,8,0:0:0:0:
344,143,97813,5,6,3:2:0:0:
203,274,98027,2,0,B|167:278|167:278|158:286|158:286|97:293,2,96,2|8|2,0:0|0:0|0:0,0:0:0:0:
340,354,98670,2,0,L|444:366,1,96,2|0,3:2|0:0,0:0:0:0:
319,277,99098,2,0,P|274:306|262:361,1,96,10|2,0:0|0:0,0:0:0:0:
402,280,99527,6,0,L|392:180,2,96,2|2|10,3:2|0:0|0:0,0:0:0:0:
423,73,100170,2,0,P|380:104|330:110,1,96,2|0,0:0|3:0,0:0:0:0:
269,66,100598,1,2,0:3:0:0:
203,205,100813,2,0,L|308:190,1,96,10|2,0:0|0:0,0:0:0:0:
183,126,101241,6,0,P|130:163|127:222,1,96,2|2,3:2|0:0,0:0:0:0:
222,299,101670,2,0,L|201:196,1,96,8|2,0:0|0:0,0:0:0:0:
50,238,102098,2,0,P|95:271|150:263,1,96,2|0,3:2|0:0,0:0:0:0:
183,126,102527,1,10,0:0:0:0:
105,112,102741,1,2,0:0:0:0:
210,49,102955,6,0,P|251:80|261:141,1,96,2|2,3:2|0:0,0:0:0:0:
328,52,103384,1,10,0:0:0:0:
202,204,103598,2,0,L|297:190,1,96,2|0,0:0|3:0,0:0:0:0:
490,266,104027,2,0,P|449:287|415:345,2,96,2|10|2,0:3|0:0|0:3,0:0:0:0:
375,129,104670,6,0,L|387:237,1,96,2|2,3:2|0:0,0:0:0:0:
469,71,105098,2,0,P|419:53|394:3,1,96,8|2,0:0|0:0,0:0:0:0:
279,124,105527,2,0,L|381:129,1,96,2|0,3:2|0:0,0:0:0:0:
211,50,105956,1,10,0:0:0:0:
195,127,106170,1,2,0:0:0:0:
292,218,106384,6,0,L|278:122,2,96,2|2|10,3:2|0:0|0:0,0:0:0:0:
304,299,107027,1,2,0:0:0:0:
304,299,107455,2,0,L|416:314,2,96,2|10|2,0:3|0:0|0:3,0:0:0:0:
45,237,108098,6,0,P|85:279|89:333,1,96,6|2,3:2|0:3,0:0:0:0:
160,241,108527,1,10,0:0:0:0:
2,366,108741,1,2,0:3:0:0:
2,366,108955,2,0,L|194:349,1,192,2|14,3:2|0:0,0:0:0:0:
270,374,109598,2,0,L|279:306,1,48,10|8,0:0|0:0,0:0:0:0:
362,310,109813,5,12,0:0:0:0:
362,310,109920,1,8,0:0:0:0:
362,310,110027,2,0,L|355:357,1,48,2|0,0:3|0:0,0:0:0:0:
394,223,110241,5,12,0:0:0:0:
394,223,110348,1,8,0:0:0:0:
394,223,110455,2,0,L|448:248,1,56,2|0,0:3|0:0,0:0:0:0:
399,132,110670,6,0,P|330:149|306:230,1,128,14|8,0:0|0:0,0:0:0:0:
233,250,110991,1,8,0:0:0:0:
233,250,111098,2,0,L|222:171,1,64,14|8,0:0|0:0,0:0:0:0:
202,77,111313,5,4,3:0:0:0:
202,77,111420,1,4,3:0:0:0:
202,77,111527,2,0,P|172:121|108:146,1,96,14|0,3:2|0:0,0:0:0:0:
135,141,111741,2,0,P|122:101|125:69,1,64,2|0,0:0|0:0,0:0:0:0:
6,188,111955,5,10,0:0:0:0:
48,191,112063,1,2,0:0:0:0:
84,213,112170,1,2,0:0:0:0:
108,248,112277,1,2,0:0:0:0:
108,248,112384,6,0,P|63:290|-15:287,1,128,2|2,3:2|0:3,0:0:0:0:
295,252,112813,5,10,0:0:0:0:
336,243,112920,1,2,0:0:0:0:
374,259,113027,1,2,0:0:0:0:
398,294,113134,1,2,0:0:0:0:
400,326,113241,6,0,P|408:273|441:199,1,128,2|2,3:2|0:0,0:0:0:0:
448,123,113563,1,2,0:0:0:0:
448,123,113670,6,0,P|400:99|347:39,1,128,10|2,0:0|0:3,0:0:0:0:
267,15,113991,1,2,0:3:0:0:
267,15,114098,6,0,P|230:53|156:83,1,128,2|2,3:2|0:3,0:0:0:0:
111,153,114420,1,0,0:0:0:0:
111,153,114527,6,0,P|135:199|149:286,1,128,10|0,0:0|0:0,0:0:0:0:
194,344,114848,1,0,0:0:0:0:
194,344,114955,6,0,P|245:334|277:339,1,64,2|0,3:2|0:0,0:0:0:0:
301,246,115170,2,0,P|249:255|218:251,1,64,2|0,0:0|0:0,0:0:0:0:
335,368,115384,5,10,0:0:0:0:
347,327,115491,1,2,0:0:0:0:
375,295,115598,1,2,0:0:0:0:
413,277,115705,1,2,0:0:0:0:
457,278,115813,6,0,P|490:278|533:290,1,64,2|0,3:2|0:0,0:0:0:0:
478,194,116027,2,0,P|445:194|402:182,1,64,2|0,0:0|0:0,0:0:0:0:
340,83,116241,5,10,0:0:0:0:
300,66,116348,1,2,0:0:0:0:
258,63,116455,1,2,0:0:0:0:
217,75,116563,1,2,0:0:0:0:
187,103,116670,6,0,P|165:129|156:155,3,52,2|2|2|2,3:2|0:0|0:0|0:0,0:0:0:0:
262,211,117098,2,0,P|250:178|232:158,3,52,10|2|2|2,0:0|0:0|0:0|0:0,0:0:0:0:
266,257,117527,5,10,0:0:0:0:
247,304,117634,1,10,0:0:0:0:
204,333,117741,1,2,0:0:0:0:
153,331,117848,1,2,0:0:0:0:
112,301,117955,5,10,0:0:0:0:
89,289,118063,1,10,0:0:0:0:
64,283,118170,1,2,0:0:0:0:
38,284,118277,1,0,0:0:0:0:
12,293,118384,5,6,3:2:0:0:
185,259,118598,1,2,0:0:0:0:
185,259,118705,1,2,0:0:0:0:
185,259,118813,1,10,0:0:0:0:
331,353,119027,2,0,L|344:295,1,52,2|0,0:0|0:0,0:0:0:0:
366,219,119241,1,2,3:2:0:0:
495,100,119455,5,2,0:0:0:0:
503,106,119527,5,2,0:0:0:0:
503,114,119598,5,2,0:0:0:0:
508,119,119670,6,0,P|461:132|414:128,1,78,10|0,0:0|0:0,0:0:0:0:
424,128,119884,2,0,P|419:90|421:72,1,52,2|0,0:0|0:0,0:0:0:0:
354,18,120098,6,0,P|325:4|291:-1,1,52,2|0,3:2|0:0,0:0:0:0:
236,85,120313,2,0,P|279:75|309:76,1,52,2|0,0:0|0:0,0:0:0:0:
337,173,120527,2,0,P|308:159|274:154,1,52,10|0,0:0|0:0,0:0:0:0:
201,270,120741,2,0,P|247:234|291:234,1,104,2|2,0:0|3:2,0:0:0:0:
480,349,121170,6,0,B|482:322|482:322|467:294,1,52,2|0,0:0|0:0,0:0:0:0:
387,315,121384,2,0,B|385:342|385:342|400:370,1,52,10|0,0:0|0:0,0:0:0:0:
416,239,121598,1,2,0:0:0:0:
191,357,121813,5,2,3:2:0:0:
84,234,122027,5,2,0:0:0:0:
60,248,122134,1,2,0:0:0:0:
84,261,122241,1,10,0:0:0:0:
179,181,122455,5,2,0:0:0:0:
211,163,122563,1,2,0:0:0:0:
179,145,122670,1,2,3:2:0:0:
91,44,122884,5,2,0:0:0:0:
45,68,122991,1,2,0:0:0:0:
91,93,123098,1,10,0:0:0:0:
233,72,123313,5,10,0:0:0:0:
233,72,123420,1,10,0:0:0:0:
233,72,123527,6,0,L|299:61,3,52,10|10|2|10,0:0|0:0|0:0|0:0,0:0:0:0:
317,183,123955,2,0,L|274:131,3,52,10|10|2|10,0:0|0:0|0:0|0:0,0:0:0:0:
377,51,124384,2,0,L|353:113,3,52,2|10|2|10,3:2|0:0|0:0|0:0,0:0:0:0:
395,179,124813,5,10,0:0:0:0:
438,203,124920,1,10,0:0:0:0:
483,182,125027,1,2,0:0:0:0:
491,133,125134,1,10,0:0:0:0:
455,98,125241,5,6,3:2:0:0:
377,260,125670,2,0,L|374:324,1,47.9999985351563,0|2,3:0|0:3,0:0:0:0:
449,331,126099,2,0,L|455:234,1,95.9999970703126,2|0,3:2|3:0,0:0:0:0:
311,347,126741,1,2,0:3:0:0:
311,347,126849,1,2,0:3:0:0:
311,347,126956,6,0,P|282:353|256:355,1,47.9999985351563,2|2,3:2|0:3,0:0:0:0:
211,268,127384,2,0,P|239:274|266:276,1,47.9999985351563,2|2,3:2|0:3,0:0:0:0:
321,224,127813,2,0,L|313:169,1,47.9999985351563,2|2,3:2|0:3,0:0:0:0:
270,115,128241,1,2,3:2:0:0:
270,115,128456,1,2,0:3:0:0:
333,57,128670,6,0,P|362:56|394:68,1,47.9999985351563,2|2,3:2|0:3,0:0:0:0:
439,116,129099,1,2,3:2:0:0:
439,116,129313,1,2,0:3:0:0:
270,115,129527,6,0,P|241:114|209:126,1,47.9999985351563,2|2,3:2|0:3,0:0:0:0:
164,174,129956,1,2,3:2:0:0:
164,174,130170,1,2,0:3:0:0:
44,125,130384,6,0,L|34:65,1,47.9999985351563,2|2,3:2|0:3,0:0:0:0:
124,78,130813,2,0,L|131:30,1,47.9999985351563,2|2,3:2|0:3,0:0:0:0:
222,118,131241,2,0,L|212:58,1,47.9999985351563,2|2,3:2|0:3,0:0:0:0:
292,29,131670,1,2,3:2:0:0:
292,29,131884,1,2,0:3:0:0:
349,85,132099,6,0,P|388:88|433:38,1,95.9999970703126,2|0,3:2|3:0,0:0:0:0:
482,126,132741,1,2,0:3:0:0:
482,126,132956,2,0,L|475:223,1,95.9999970703126,2|0,3:2|3:0,0:0:0:0:
413,278,133599,1,2,0:3:0:0:
413,278,133813,6,0,P|387:266|363:264,1,47.9999985351563,2|2,3:2|0:3,0:0:0:0:
325,200,134241,2,0,P|348:191|372:190,1,47.9999985351563,2|2,3:2|0:3,0:0:0:0:
289,127,134670,2,0,P|265:143|251:163,1,47.9999985351563,2|2,3:2|0:3,0:0:0:0:
255,239,135099,1,2,3:2:0:0:
255,239,135313,1,2,0:3:0:0:
104,328,135527,6,0,L|38:316,2,47.9999985351563,2|2|2,3:2|0:3|3:2,0:0:0:0:
181,339,136170,1,2,0:3:0:0:
255,239,136384,6,0,L|321:227,2,47.9999985351563,2|2|2,3:2|0:3|3:2,0:0:0:0:
178,250,137027,1,2,0:3:0:0:
112,151,137241,6,0,L|46:139,2,47.9999985351563,2|2|2,3:2|0:3|3:2,0:0:0:0:
189,162,137884,1,2,0:3:0:0:
250,79,138099,6,0,L|255:24,1,47.9999985351563,2|2,3:2|0:3,0:0:0:0:
338,62,138527,2,0,L|342:109,1,47.9999985351563,2|2,3:2|0:3,0:0:0:0:
398,169,138956,6,0,P|424:177|461:180,3,47.9999999999999,2|0|0|0,0:3|0:0|0:0|0:0,0:0:0:0:
336,226,139813,2,0,P|310:234|273:237,3,47.9999999999999,2|0|0|0,0:0|0:0|0:0|0:0,0:0:0:0:
414,259,140670,6,0,P|406:281|401:305,1,47.9999999999999,2|0,0:0|0:0,0:0:0:0:
328,371,141098,2,0,P|321:348|318:325,1,47.9999999999999,2|0,0:0|0:0,0:0:0:0:
462,367,141527,1,2,0:0:0:0:
33,26,149241,6,0,L|23:117,1,80,2|2,0:0|0:0,0:0:0:0:
112,68,149670,2,0,L|203:78,1,80,2|2,0:0|0:0,0:0:0:0:
97,159,150098,6,0,L|87:250,1,80,2|2,0:0|0:0,0:0:0:0:
176,201,150527,2,0,L|267:211,1,80,2|2,0:0|0:0,0:0:0:0:
346,230,150955,5,2,0:0:0:0:
354,322,151170,1,2,0:0:0:0:
269,360,151384,2,0,P|251:342|234:336,1,40,2|0,3:2|3:0,0:0:0:0:
207,289,151598,2,0,P|231:258|235:244,1,40,2|0,3:2|3:0,0:0:0:0:
255,209,151813,2,0,P|285:225|313:230,3,40,8|8|8|8,0:3|0:3|0:3|0:3,0:0:0:0:
346,230,152241,2,0,P|340:263|343:291,3,40,6|4|4|4,0:3|0:3|0:3|0:3,0:0:0:0:
354,321,152670,5,10,0:0:0:0:
381,332,152777,1,8,0:0:0:0:
411,332,152884,1,8,0:0:0:0:
439,323,152991,1,8,0:0:0:0:
462,303,153098,2,0,L|477:248,3,40,8|8|8|8,0:0|0:0|0:0|0:0,0:0:0:0:
335,191,153527,2,0,L|349:246,3,40,8|8|10|8,0:0|0:0|0:0|0:0,0:0:0:0:
420,140,153955,5,10,0:0:0:0:
378,110,154063,1,8,3:0:0:0:
327,104,154170,1,6,3:0:0:0:
280,119,154277,1,4,3:0:0:0:
243,154,154384,5,14,0:0:0:0:
193,240,154598,1,14,0:0:0:0:
101,216,154813,1,14,0:0:0:0:
95,120,155027,1,14,0:0:0:0:
12,343,155455,6,0,P|36:337|57:336,1,40,6|0,3:0|0:0,0:0:0:0:
56,259,155670,1,10,0:0:0:0:
56,259,155777,1,8,0:0:0:0:
56,259,155884,2,0,P|32:265|11:266,1,40,10|8,0:0|0:0,0:0:0:0:
126,296,156099,6,0,P|190:299|278:373,1,180,14|0,3:2|0:0,0:0:0:0:
276,370,156527,2,0,P|229:365|207:347,1,60,10|0,0:0|0:0,0:0:0:0:
280,217,156741,2,0,P|320:245|336:280,1,60,2|0,0:3|0:0,0:0:0:0:
276,63,156955,6,0,P|213:125|126:138,1,180,2|0,3:2|0:0,0:0:0:0:
148,61,157384,2,0,P|179:57|206:33,1,60,10|0,0:0|0:0,0:0:0:0:
329,42,157598,2,0,P|298:46|271:70,1,60,2|0,0:3|0:0,0:0:0:0:
126,138,157813,6,0,P|167:160|181:200,1,60,2|0,3:2|0:0,0:0:0:0:
34,345,158027,2,0,P|56:303|96:289,1,60,2|0,0:3|0:0,0:0:0:0:
49,217,158241,2,0,P|95:215|127:243,1,60,10|0,0:0|0:0,0:0:0:0:
151,293,158455,5,10,3:0:0:0:
185,316,158563,1,8,0:0:0:0:
226,323,158670,1,4,3:0:0:0:
267,317,158777,1,8,0:0:0:0:
306,241,158884,6,0,P|316:292|345:322,1,60,2|0,0:3|0:0,0:0:0:0:
405,317,159098,2,0,P|390:226|322:149,1,180,10|0,0:0|0:0,0:0:0:0:
311,80,159527,6,0,P|345:33|385:117,1,180,2|0,3:2|0:0,0:0:0:0:
336,158,159955,2,0,P|295:165|260:175,1,60,10|0,0:0|0:0,0:0:0:0:
393,230,160170,2,0,P|434:223|469:213,1,60,2|0,0:3|0:0,0:0:0:0:
319,298,160384,6,0,P|284:288|248:286,1,60,2|0,3:2|0:0,0:0:0:0:
175,224,160598,2,0,P|242:204|290:142,1,120,2|8,0:3|0:0,0:0:0:0:
214,363,161027,2,0,P|173:328|143:317,1,60,2|0,0:3|0:0,0:0:0:0:
32,354,161241,6,0,L|110:361,1,60,2|0,3:2|0:0,0:0:0:0:
79,280,161455,2,0,L|19:274,1,60,2|0,0:3|0:0,0:0:0:0:
128,186,161670,6,0,P|169:221|199:232,1,60,14|0,0:0|0:0,0:0:0:0:
206,128,161884,2,0,P|186:107|160:91,1,60,2|8,0:3|0:0,0:0:0:0:
253,38,162099,1,10,0:0:0:0:
253,38,162205,1,8,0:0:0:0:
253,38,162313,2,0,P|294:73|324:84,1,60,2|2,0:3|0:3,0:0:0:0:
421,66,162527,5,10,0:0:0:0:
421,66,162634,2,0,P|372:102|339:173,1,120,8|0,0:0|0:0,0:0:0:0:
249,209,162955,6,0,P|322:227|379:332,1,180,6|0,3:2|0:0,0:0:0:0:
299,320,163384,2,0,P|279:297|252:288,1,60,10|0,0:0|0:0,0:0:0:0:
428,166,163598,2,0,P|426:187|432:229,1,60,2|0,0:3|0:0,0:0:0:0:
192,341,163813,6,0,P|172:282|253:208,1,180,2|0,3:2|0:0,0:0:0:0:
300,321,164241,2,0,P|280:298|252:288,1,60,10|0,0:0|0:0,0:0:0:0:
377,310,164455,2,0,P|396:332|424:342,1,60,2|0,0:3|0:0,0:0:0:0:
343,152,164670,6,0,P|341:173|347:215,1,60,2|0,3:2|0:0,0:0:0:0:
431,225,164884,2,0,P|433:204|427:162,1,60,2|0,0:3|0:0,0:0:0:0:
285,71,165098,2,0,P|272:106|247:134,1,60,10|0,0:0|0:0,0:0:0:0:
195,165,165313,5,10,3:0:0:0:
191,123,165420,1,8,0:0:0:0:
181,82,165527,1,4,3:0:0:0:
164,43,165634,1,8,0:0:0:0:
137,20,165741,6,0,P|82:8|41:12,1,60,2|0,0:3|0:0,0:0:0:0:
0,270,165955,2,0,P|52:230|175:253,1,180.000006866455,10|0,0:0|0:0,0:0:0:0:
212,314,166384,6,0,P|274:313|238:225,1,180,6|0,3:2|0:0,0:0:0:0:
322,170,166813,6,0,P|370:161|391:138,1,60,10|0,0:0|0:0,0:0:0:0:
472,311,167027,2,0,P|429:322|406:340,1,60,2|0,0:3|0:0,0:0:0:0:
458,233,167241,6,0,P|456:143|480:56,1,180,2|0,3:2|0:0,0:0:0:0:
385,96,167670,6,0,P|379:126|378:156,1,60,14|0,0:0|0:0,0:0:0:0:
297,83,167884,2,0,P|303:53|305:24,1,60,2|0,0:3|0:0,0:0:0:0:
227,117,168098,5,2,3:2:0:0:
19,49,168313,1,8,0:0:0:0:
90,11,168741,5,8,0:0:0:0:
30,275,168955,1,10,0:0:0:0:
118,235,169170,5,8,0:0:0:0:
118,235,169241,2,0,L|118:182,1,40.000001525879,0|0,3:0|3:0,0:0:0:0:
118,195,169384,6,0,P|191:186|286:261,1,180,14|0,0:0|0:0,0:0:0:0:
296,318,169813,1,4,3:2:0:0:
256,192,169884,12,0,170670,0:0:0:0:
501,26,170884,6,0,P|489:41|483:61,1,32,2|0,0:0|0:0,0:0:0:0:
403,40,171098,6,0,P|401:59|405:79,1,40,2|0,0:0|0:0,0:0:0:0:
320,96,171313,6,0,P|331:120|350:141,1,48,2|0,0:0|0:0,0:0:0:0:
498,140,171527,6,0,P|439:167|361:303,1,216,14|0,3:2|0:0,0:0:0:0:
455,280,171955,6,0,P|470:248|507:226,1,71.9999999999999,10|0,0:0|0:0,0:0:0:0:
328,361,172170,2,0,P|290:325|284:280,1,71.9999999999999,2|0,0:3|0:0,0:0:0:0:
159,208,172384,6,0,P|130:263|208:219,1,192,2|0,3:2|0:0,0:0:0:0:
82,340,172813,6,0,P|54:320|6:309,1,64,10|0,0:0|0:0,0:0:0:0:
0,208,173027,2,0,P|28:228|76:239,1,64,2|0,0:3|0:0,0:0:0:0:
227,159,173241,6,0,P|205:137|174:128,1,64,2|0,3:2|0:0,0:0:0:0:
116,62,173455,2,0,P|146:54|169:32,1,64,2|0,0:3|0:0,0:0:0:0:
255,10,173670,2,0,P|248:40|255:71,1,64,10|0,0:0|0:0,0:0:0:0:
367,229,173884,5,2,0:3:0:0:
395,194,173991,1,8,0:0:0:0:
414,153,174098,1,4,3:0:0:0:
419,108,174205,1,8,0:0:0:0:
441,138,174313,6,0,P|459:161|503:190,1,64,2|0,0:3|0:0,0:0:0:0:
502,195,174527,2,0,P|430:213|341:316,1,192,10|0,0:0|0:0,0:0:0:0:
290,362,174955,6,0,P|265:296|167:228,1,192,2|0,3:2|0:0,0:0:0:0:
89,202,175384,6,0,P|84:176|128:176,1,64,10|0,0:0|0:0,0:0:0:0:
185,327,175598,6,0,P|133:305|83:314,1,64,2|0,0:3|0:0,0:0:0:0:
210,151,175813,2,0,P|246:172|296:170,1,64,2|0,3:2|0:0,0:0:0:0:
367,41,176027,6,0,P|337:83|255:86,1,128,2|10,0:3|0:0,0:0:0:0:
415,228,176455,6,0,P|457:238|496:265,1,64,2|0,0:3|0:0,0:0:0:0:
403,129,176670,6,0,P|362:160|323:170,1,64,2|0,3:2|0:0,0:0:0:0:
357,299,176884,2,0,P|396:317|414:338,1,64,2|0,0:3|0:0,0:0:0:0:
282,231,177098,6,0,P|236:221|160:178,1,128,14|8,0:0|0:0,0:0:0:0:
147,286,177420,1,8,0:0:0:0:
147,286,177527,1,2,3:2:0:0:
147,286,177634,2,0,P|182:294|216:314,1,64,8|2,0:0|0:3,0:0:0:0:
77,219,177848,5,2,0:0:0:0:
77,219,177955,2,0,P|52:245|18:264,1,64,10|0,0:0|0:0,0:0:0:0:
165,182,178170,5,10,0:0:0:0:
165,182,178277,1,8,0:0:0:0:
165,182,178384,2,0,P|232:162|372:206,1,216,6|0,3:2|0:0,0:0:0:0:
456,124,178813,6,0,P|410:94|391:64,1,71.9999999999999,10|0,0:0|0:0,0:0:0:0:
276,263,179027,2,0,P|307:279|332:306,1,71.9999999999999,2|0,0:3|0:0,0:0:0:0:
451,204,179241,6,0,P|493:281|406:269,1,216,2|0,3:2|0:0,0:0:0:0:
343,384,179670,6,0,P|373:371|411:372,1,71.9999999999999,10|0,0:0|0:0,0:0:0:0:
261,344,179884,2,0,P|231:357|193:356,1,71.9999999999999,2|0,0:3|0:0,0:0:0:0:
32,288,180098,6,0,B|28:252|28:252|54:219,1,71.9999999999999,2|0,3:2|0:0,0:0:0:0:
136,245,180313,2,0,B|140:281|140:281|114:314,1,71.9999999999999,2|0,0:3|0:0,0:0:0:0:
106,169,180527,2,0,P|146:159|184:174,1,71.9999999999999,10|0,0:0|0:0,0:0:0:0:
245,242,180741,5,2,0:3:0:0:
295,246,180848,1,8,0:0:0:0:
343,233,180955,1,4,3:0:0:0:
381,199,181063,1,8,0:0:0:0:
399,162,181170,6,0,P|399:125|373:93,1,71.9999999999999,2|0,0:3|0:0,0:0:0:0:
347,0,181384,2,0,P|398:88|507:86,1,216,10|0,0:0|0:0,0:0:0:0:
502,88,181813,6,0,P|461:173|459:310,1,216,6|0,3:2|0:0,0:0:0:0:
263,283,182241,6,0,P|256:245|238:200,1,71.9999999999999,10|0,0:0|0:0,0:0:0:0:
368,283,182455,2,0,P|373:320|393:366,1,71.9999999999999,2|0,0:3|0:0,0:0:0:0:
281,371,182670,6,0,P|247:358|193:359,1,71.9999999999999,2|0,3:2|0:0,0:0:0:0:
360,196,182884,2,0,P|394:209|448:208,1,71.9999999999999,2|0,0:3|0:0,0:0:0:0:
244,213,183098,6,0,B|213:239|213:239|156:235,1,71.9999999999999,10|0,0:0|0:0,0:0:0:0:
155,160,183313,2,0,B|186:134|186:134|243:138,1,71.9999999999999,2|0,0:3|0:0,0:0:0:0:
360,196,183527,6,0,B|397:152|397:152|383:95,1,108,6|0,3:2|0:0,0:0:0:0:
381,99,183741,6,0,B|337:62|337:62|280:76,1,108,10|0,0:0|0:0,0:0:0:0:
287,80,183955,6,0,B|250:124|250:124|264:181,1,108,10|0,0:0|0:0,0:0:0:0:
281,189,184170,6,0,B|310:211|310:211|346:200,1,71.9999999999999,6|0,3:2|0:0,0:0:0:0:
443,270,184384,5,8,0:0:0:0:
423,319,184491,1,8,0:0:0:0:
378,349,184598,1,2,3:3:0:0:
325,347,184705,1,0,3:0:0:0:
282,316,184813,5,10,0:0:0:0:
258,303,184920,1,8,3:0:0:0:
231,297,185027,1,4,3:0:0:0:
204,298,185134,1,4,3:0:0:0:
175,305,185241,6,0,P|112:339|117:229,1,215.999993408203,14|0,3:2|0:0,0:0:0:0:
191,177,185670,6,0,P|151:163|113:125,1,71.9999999999999,10|0,0:0|0:0,0:0:0:0:
371,58,185884,2,0,P|381:103|362:147,1,71.9999999999999,2|0,0:3|0:0,0:0:0:0:
118,21,186098,6,0,P|193:93|330:83,1,216,2|0,3:2|0:0,0:0:0:0:
345,220,186527,6,0,P|312:191|258:187,1,71.9999999999999,10|0,0:0|0:0,0:0:0:0:
478,135,186741,2,0,P|453:167|458:212,1,71.9999999999999,2|0,0:3|0:0,0:0:0:0:
416,337,186955,6,0,P|410:362|439:343,1,71.9999999999999,2|0,3:2|0:0,0:0:0:0:
333,339,187170,2,0,P|300:368|246:372,1,71.9999999999999,2|0,0:3|0:0,0:0:0:0:
252,297,187384,6,0,P|246:272|275:291,1,71.9999999999999,10|0,0:0|0:0,0:0:0:0:
178,355,187598,5,2,0:3:0:0:
151,315,187705,1,8,0:0:0:0:
148,268,187813,1,4,3:0:0:0:
170,226,187920,1,8,0:0:0:0:
210,201,188027,6,0,P|208:161|187:118,1,71.9999978027344,2|0,0:3|0:0,0:0:0:0:
130,83,188241,2,0,P|110:36|207:59,1,215.999993408203,10|0,0:0|0:0,0:0:0:0:
323,101,188670,6,0,P|362:111|503:17,1,216,2|0,3:2|0:0,0:0:0:0:
421,7,189098,6,0,P|406:25|352:29,1,71.9999999999999,10|0,0:0|0:0,0:0:0:0:
298,211,189313,2,0,P|318:197|367:189,1,71.9999999999999,2|0,0:3|0:0,0:0:0:0:
486,146,189527,2,0,P|463:135|432:97,1,71.9999999999999,2|0,3:2|0:0,0:0:0:0:
352,270,189741,6,0,P|403:284|483:353,1,144,2|10,0:3|0:0,0:0:0:0:
217,220,190170,2,0,P|221:184|241:155,1,71.9999999999999,2|0,0:3|0:0,0:0:0:0:
405,379,190384,6,0,P|369:351|331:346,1,71.9999999999999,2|0,3:2|0:0,0:0:0:0:
298,211,190598,2,0,P|318:197|367:189,1,71.9999999999999,2|0,0:3|0:0,0:0:0:0:
256,289,190813,6,0,P|174:291|131:194,1,144,14|8,0:0|0:0,0:0:0:0:
24,312,191134,1,8,0:0:0:0:
34,337,191241,1,10,0:0:0:0:
46,361,191348,2,0,P|99:347|156:359,1,71.9999999999999,8|2,0:0|0:3,0:0:0:0:
216,220,191563,5,2,0:0:0:0:
216,220,191670,2,0,P|190:244|177:277,1,71.9999978027344,10|8,0:0|0:0,0:0:0:0:
196,74,191884,5,2,0:3:0:0:
213,80,191991,1,8,0:0:0:0:
227,72,192098,6,0,P|295:15|307:103,1,216,6|0,3:2|0:0,0:0:0:0:
390,116,192527,6,0,P|402:82|403:47,1,71.9999999999999,10|0,0:0|0:0,0:0:0:0:
161,3,192741,2,0,P|149:37|149:73,1,71.9999999999999,2|0,0:3|0:0,0:0:0:0:
96,232,192955,6,0,P|83:126|6:54,1,216,2|0,3:2|0:0,0:0:0:0:
0,140,193384,2,0,P|13:158|23:211,1,71.9999999999999,10|0,0:0|0:0,0:0:0:0:
142,307,193598,2,0,P|166:272|210:245,1,71.9999999999999,2|0,0:3|0:0,0:0:0:0:
96,232,193813,6,0,P|72:267|17:287,1,71.9999999999999,2|0,3:2|0:0,0:0:0:0:
226,329,194027,2,0,L|314:313,1,71.9999999999999,2|0,0:3|0:0,0:0:0:0:
260,241,194241,2,0,L|189:253,1,71.9999999999999,10|0,0:0|0:0,0:0:0:0:
252,151,194455,5,2,0:3:0:0:
294,151,194563,1,8,0:0:0:0:
332,171,194670,1,0,3:0:0:0:
356,206,194777,1,8,0:0:0:0:
362,245,194884,2,0,P|367:270|428:302,1,71.9999999999999,2|0,0:3|0:0,0:0:0:0:
427,324,195098,6,0,P|459:300|430:113,1,216,10|0,0:0|0:0,0:0:0:0:
384,100,195527,6,0,P|381:10|464:46,1,216,6|0,3:2|0:0,0:0:0:0:
462,139,195955,2,0,P|433:172|374:180,1,71.9999999999999,10|0,0:0|0:0,0:0:0:0:
313,93,196170,2,0,L|396:102,1,71.9999999999999,2|0,0:3|0:0,0:0:0:0:
206,248,196384,6,0,P|184:217|182:174,1,71.9999999999999,2|0,3:2|0:0,0:0:0:0:
255,159,196598,2,0,P|277:190|279:233,1,71.9999999999999,2|0,0:3|0:0,0:0:0:0:
104,352,196813,6,0,B|71:359|71:359|25:341,1,71.9999999999999,10|0,0:0|0:0,0:0:0:0:
46,263,197027,2,0,B|79:256|79:256|125:274,1,71.9999999999999,2|0,0:3|0:0,0:0:0:0:
222,331,197241,6,0,P|260:308|335:298,1,108,6|0,3:2|0:0,0:0:0:0:
336,301,197456,6,0,P|385:351|478:329,1,144,2|10,0:3|0:0,0:0:0:0:
433,32,197884,5,10,0:0:0:0:
392,33,197991,1,8,0:0:0:0:
358,52,198098,1,8,3:2:0:0:
337,83,198205,1,8,0:0:0:0:
337,120,198313,6,0,P|375:125|415:108,1,71.9999978027344,2|0,0:3|0:0,0:0:0:0:
488,153,198527,6,0,P|432:213|419:289,1,144,10|8,0:0|0:0,0:0:0:0:
293,232,198848,5,8,0:0:0:0:
293,232,198955,2,0,P|253:148|112:106,1,216,6|0,3:2|0:0,0:0:0:0:
153,183,199384,6,0,P|192:205|208:246,1,71.9999999999999,10|0,0:0|0:0,0:0:0:0:
362,286,199598,2,0,P|320:309|301:338,1,71.9999999999999,2|0,0:3|0:0,0:0:0:0:
149,335,199813,6,0,L|134:261,1,71.9999999999999,2|0,3:2|0:0,0:0:0:0:
307,161,200027,2,0,L|292:235,1,71.9999999999999,2|0,0:3|0:0,0:0:0:0:
69,99,200241,5,10,0:0:0:0:
69,99,200348,1,8,0:0:0:0:
69,99,200455,2,0,P|95:45|132:31,1,71.9999999999999,2|0,0:3|0:0,0:0:0:0:
297,67,200670,5,10,0:0:0:0:
144,102,200884,1,10,0:0:0:0:
134,264,201313,5,10,0:0:0:0:
308,288,201527,1,10,0:0:0:0:
356,202,201741,5,4,3:0:0:0:
356,202,201848,1,4,3:0:0:0:
356,202,201955,2,0,P|288:187|212:277,1,180,14|0,0:0|0:0,0:0:0:0:
249,364,202384,6,0,P|280:364|308:373,1,60,6|0,3:2|0:0,0:0:0:0:
367,297,202598,2,0,P|336:296|308:288,1,60,2|0,0:3|0:0,0:0:0:0:
431,361,202813,5,10,0:0:0:0:
431,361,202920,2,0,P|449:321|474:295,1,60,2|0,0:0|0:0,0:0:0:0:
496,193,203134,2,0,P|437:164|402:97,1,120,2|2,0:0|0:0,0:0:0:0:
407,119,203455,6,0,P|373:109|350:91,1,60,2|0,0:3|0:0,0:0:0:0:
318,192,203670,2,0,P|295:167|284:140,1,60,10|0,0:0|0:0,0:0:0:0:
187,132,203884,1,2,0:3:0:0:
38,227,204098,6,0,P|63:248|99:253,1,60,2|0,3:2|0:0,0:0:0:0:
36,382,204313,2,0,P|41:349|28:316,1,60,2|0,0:3|0:0,0:0:0:0:
171,308,204527,1,10,0:0:0:0:
171,308,204634,2,0,P|140:319|117:347,1,60,2|0,0:0|0:0,0:0:0:0:
253,321,204848,6,0,P|244:268|177:224,1,120,2|2,0:0|0:0,0:0:0:0:
371,227,205170,6,0,P|348:243|326:279,1,60,10|0,0:0|0:0,0:0:0:0:
392,330,205384,2,0,P|415:314|437:278,1,60,10|0,0:0|0:0,0:0:0:0:
452,210,205598,1,2,0:3:0:0:
394,93,205813,6,0,L|384:17,1,60,2|0,3:2|0:0,0:0:0:0:
302,28,206027,2,0,L|309:87,1,60,2|0,0:3|0:0,0:0:0:0:
272,174,206241,5,10,0:0:0:0:
272,174,206348,2,0,P|240:144|210:136,1,60,2|0,0:0|0:0,0:0:0:0:
140,86,206563,6,0,P|197:59|232:-4,1,120,2|2,0:0|0:0,0:0:0:0:
55,123,206884,6,0,P|92:155|101:189,1,60,2|0,0:3|0:0,0:0:0:0:
186,215,207098,2,0,P|149:240|126:278,1,60,12|0,0:0|0:0,0:0:0:0:
90,336,207313,1,2,0:3:0:0:
287,293,207527,6,0,P|307:266|319:233,1,60,6|0,3:2|0:0,0:0:0:0:
401,267,207741,1,8,0:0:0:0:
401,267,207848,1,8,0:0:0:0:
401,267,207955,2,0,P|405:234|399:200,1,60,8|8,0:0|0:0,0:0:0:0:
493,194,208170,1,8,0:0:0:0:
493,194,208277,2,0,P|480:163|458:136,1,60,6|0,3:2|0:0,0:0:0:0:
383,106,208491,5,8,0:0:0:0:
383,106,208598,2,0,P|404:66|436:41,1,60,4|4,3:0|3:0,0:0:0:0:
329,20,208813,6,0,L|255:13,1,60,14|0,0:0|0:0,0:0:0:0:
236,89,209027,1,8,0:0:0:0:
236,89,209134,1,8,0:0:0:0:
236,89,209241,6,0,L|295:94,1,60,6|0,3:2|0:0,0:0:0:0:
171,11,209455,2,0,P|149:44|126:68,1,60,2|0,0:3|0:0,0:0:0:0:
200,137,209670,1,10,0:0:0:0:
200,137,209777,2,0,P|222:104|245:80,1,60,2|0,0:0|0:0,0:0:0:0:
22,91,209991,6,0,P|79:124|99:196,1,120,2|2,0:0|0:0,0:0:0:0:
99,171,210313,6,0,P|57:202|42:231,1,60,2|0,0:3|0:0,0:0:0:0:
120,252,210527,2,0,P|98:299|99:331,1,60,10|0,0:0|0:0,0:0:0:0:
188,306,210741,1,2,0:3:0:0:
374,240,210955,6,0,L|439:248,1,60,2|0,3:2|0:0,0:0:0:0:
429,166,211170,2,0,L|369:158,1,60,2|0,0:3|0:0,0:0:0:0:
309,101,211384,5,10,0:0:0:0:
309,101,211491,2,0,P|312:57|317:22,1,60,2|0,0:0|0:0,0:0:0:0:
236,0,211705,2,0,P|231:51|224:119,1,120,2|2,0:0|0:0,0:0:0:0:
142,169,212027,6,0,P|178:192|194:225,1,60,10|0,0:0|0:0,0:0:0:0:
149,293,212241,2,0,P|116:249|36:228,1,120,10|0,0:0|0:0,0:0:0:0:
323,320,212670,6,0,B|346:292|346:292|334:249,1,60,2|0,3:2|0:0,0:0:0:0:
261,247,212884,2,0,B|238:275|238:275|250:318,1,60,2|0,0:3|0:3,0:3:0:0:
402,352,213098,5,10,0:0:0:0:
402,352,213205,2,0,P|434:344|475:340,1,60,2|0,0:0|0:0,0:0:0:0:
508,274,213420,6,0,P|466:262|399:188,1,120,2|2,0:0|0:0,0:0:0:0:
410,211,213741,6,0,P|458:184|470:162,1,60,2|0,0:3|0:0,0:0:0:0:
376,131,213955,2,0,P|328:103|316:81,1,60,14|0,0:0|0:0,0:0:0:0:
419,44,214170,1,2,0:3:0:0:
193,8,214384,6,0,L|181:74,1,60,6|0,3:2|0:0,0:0:0:0:
98,75,214598,5,10,0:0:0:0:
98,75,214705,1,10,0:0:0:0:
98,75,214813,2,0,L|110:141,1,60,10|0,0:0|3:0,0:0:0:0:
200,162,215027,5,4,3:0:0:0:
200,162,215134,2,0,L|174:292,1,120,6|10,3:2|0:0,0:0:0:0:
90,236,215455,2,0,L|20:250,1,60,4|4,3:0|3:0,0:0:0:0:
116,340,215670,5,10,0:0:0:0:
163,361,215777,5,8,0:0:0:0:
214,354,215884,5,10,0:0:0:0:
255,321,215991,5,8,0:0:0:0:
