osu file format v14

[General]
AudioFilename: audio.mp3
AudioLeadIn: 0
PreviewTime: 55920
Countdown: 0
SampleSet: Soft
StackLeniency: 0.4
Mode: 0
LetterboxInBreaks: 0
WidescreenStoryboard: 1

[Editor]
Bookmarks: 29241,84098,97813,111527,125241,142384,149241,156098,171527,202384,216098
DistanceSpacing: 0.1
BeatDivisor: 4
GridSize: 32
TimelineZoom: 2.38

[Metadata]
Title:Moonlight at midday
TitleUnicode:真昼の月明かり
Artist:Tsukuyomi
ArtistUnicode:月詠み
Creator:Seros
Version:Namki's Extra
Source:
Tags:climbx3145 namki shiratamamywife Setu Petal Matha 4th Song japanese j-pop jpop pop ユリイ・カノン epoch とうかさ mikoto 欠けた心象、世のよすが Mahiru no tsukiakari Getsumei Hana
BeatmapID:3245852
BeatmapSetID:1537310

[Difficulty]
HPDrainRate:6
CircleSize:4.2
OverallDifficulty:8
ApproachRate:9.3
SliderMultiplier:1.89
SliderTickRate:1

[Events]
//Background and Video events
0,0,"BG.jpg",0,0
Video,0,"Video.mp4"
//Break Periods
//Storyboard Layer 0 (Background)
//Storyboard Layer 1 (Fail)
//Storyboard Layer 2 (Pass)
//Storyboard Layer 3 (Foreground)
//Storyboard Layer 4 (Overlay)
//Storyboard Sound Samples

[TimingPoints]
99,428.571428571429,4,2,1,60,1,0
1170,-100,4,2,1,40,0,0
1813,-90.9090909090909,4,2,1,40,0,0
8670,-90.9090909090909,4,2,1,60,0,0
12098,-200,4,2,1,60,0,0
12527,-100,4,2,1,60,0,0
12955,-66.6666666666667,4,2,1,60,0,0
13384,-50,4,2,1,60,0,0
13813,-50,4,2,1,30,0,0
14884,-50,4,2,1,50,0,0
15098,-50,4,2,1,60,0,0
15527,-66.6666666666667,4,2,1,70,0,0
16170,-66.6666666666667,4,2,1,60,0,0
16277,-66.6666666666667,4,2,1,70,0,0
18420,-66.6666666666667,4,2,1,60,0,0
18527,-66.6666666666667,4,2,1,70,0,0
18634,-66.6666666666667,4,2,1,60,0,0
18741,-66.6666666666667,4,2,1,70,0,0
23027,-66.6666666666667,4,2,1,60,0,0
23134,-66.6666666666667,4,2,1,70,0,0
23991,-66.6666666666667,4,2,1,60,0,0
24098,-66.6666666666667,4,2,1,70,0,0
25277,-66.6666666666667,4,2,1,60,0,0
25384,-66.6666666666667,4,2,1,70,0,0
27205,-66.6666666666667,4,2,1,60,0,0
27313,-66.6666666666667,4,2,1,70,0,0
29241,-100,4,2,1,70,0,0
29562,-100,4,2,1,60,0,0
29670,-100,4,2,1,45,0,0
30205,-100,4,2,1,60,0,0
30527,-100,4,2,1,45,0,0
30848,-100,4,2,1,60,0,0
30955,-100,4,2,1,45,0,0
32562,-100,4,2,1,60,0,0
32670,-100,4,2,1,45,0,0
33741,-100,4,2,1,60,0,0
33955,-100,4,2,1,45,0,0
34276,-100,4,2,1,60,0,0
34384,-100,4,2,1,45,0,0
35134,-100,4,2,1,60,0,0
35241,-100,4,2,1,45,0,0
36419,-100,4,2,1,60,0,0
36527,-100,4,2,1,45,0,0
37063,-100,4,2,1,60,0,0
37384,-100,4,2,1,45,0,0
38563,-100,4,2,1,60,0,0
38670,-100,4,2,1,45,0,0
41027,-100,4,2,1,60,0,0
41241,-100,4,2,1,45,0,0
41670,-100,4,2,1,60,0,0
41884,-100,4,2,1,45,0,0
41991,-100,4,2,1,60,0,0
42098,-100,4,2,1,55,0,0
42419,-100,4,2,1,60,0,0
42527,-100,4,2,1,55,0,0
42634,-100,4,2,1,60,0,0
42955,-86.9565217391304,4,2,1,60,0,0
54955,-86.9565217391304,4,2,1,70,0,0
55705,-86.9565217391304,4,2,1,60,0,0
56027,-250,4,2,1,40,0,0
56134,-250,4,2,1,60,0,0
56670,-71.4285714285714,4,2,2,80,0,0
56777,-71.4285714285714,4,2,1,80,0,0
56884,-71.4285714285714,4,2,1,60,0,0
56991,-71.4285714285714,4,2,1,80,0,0
57741,-71.4285714285714,4,2,1,60,0,0
57848,-71.4285714285714,4,2,1,80,0,0
61277,-71.4285714285714,4,2,1,60,0,0
61384,-71.4285714285714,4,2,1,80,0,0
63527,-71.4285714285714,4,2,2,80,0,0
63634,-71.4285714285714,4,2,1,80,0,0
63741,-71.4285714285714,4,2,1,60,0,0
63848,-71.4285714285714,4,2,1,80,0,0
64598,-71.4285714285714,4,2,1,60,0,0
64813,-71.4285714285714,4,2,1,80,0,0
66634,-71.4285714285714,4,2,1,60,0,0
66741,-71.4285714285714,4,2,1,80,0,0
70384,-71.4285714285714,4,2,2,80,0,0
70491,-71.4285714285714,4,2,1,80,0,0
71348,-71.4285714285714,4,2,1,60,0,0
71563,-71.4285714285714,4,2,1,80,0,0
74027,-71.4285714285714,4,2,1,60,0,0
74134,-71.4285714285714,4,2,1,80,0,0
74991,-71.4285714285714,4,2,1,60,0,0
75098,-71.4285714285714,4,2,1,80,0,0
77241,-71.4285714285714,4,2,2,80,0,0
77348,-71.4285714285714,4,2,1,80,0,0
78205,-71.4285714285714,4,2,1,60,0,0
78527,-71.4285714285714,4,2,1,80,0,0
80670,-71.4285714285714,4,2,2,80,0,0
80777,-71.4285714285714,4,2,1,80,0,0
82384,-71.4285714285714,4,2,1,70,0,0
83348,-71.4285714285714,4,2,1,60,0,0
83455,-71.4285714285714,4,2,1,70,0,0
83884,-71.4285714285714,4,2,1,60,0,0
84098,-66.6666666666667,4,2,1,70,0,0
84741,-66.6666666666667,4,2,1,60,0,0
84848,-66.6666666666667,4,2,1,70,0,0
86455,-66.6666666666667,4,2,1,60,0,0
86563,-66.6666666666667,4,2,1,70,0,0
88170,-66.6666666666667,4,2,1,60,0,0
88277,-66.6666666666667,4,2,1,70,0,0
90634,-66.6666666666667,4,2,1,60,0,0
90741,-66.6666666666667,4,2,1,70,0,0
91598,-66.6666666666667,4,2,1,60,0,0
91705,-66.6666666666667,4,2,1,70,0,0
93312,-66.6666666666667,4,2,1,60,0,0
93420,-66.6666666666667,4,2,1,70,0,0
95027,-66.6666666666667,4,2,1,60,0,0
95134,-66.6666666666667,4,2,1,70,0,0
97813,-100,4,2,1,70,0,0
98027,-100,4,2,1,55,0,0
100277,-100,4,2,1,60,0,0
100384,-100,4,2,1,55,0,0
101991,-100,4,2,1,60,0,0
102098,-100,4,2,1,55,0,0
102313,-100,4,2,1,60,0,0
102527,-100,4,2,1,55,0,0
104991,-100,4,2,1,60,0,0
105098,-100,4,2,1,55,0,0
107134,-100,4,2,1,60,0,0
107241,-100,4,2,1,55,0,0
108098,-100,4,2,1,70,0,0
111527,-71.4285714285714,4,2,1,70,0,0
111741,-71.4285714285714,4,2,11,70,0,0
111955,-71.4285714285714,4,2,12,70,0,0
112170,-71.4285714285714,4,2,14,70,0,0
112277,-71.4285714285714,4,2,15,70,0,0
112384,-71.4285714285714,4,2,16,70,0,0
112598,-71.4285714285714,4,2,1,70,0,0
112813,-71.4285714285714,4,2,17,70,0,0
112920,-71.4285714285714,4,2,18,70,0,0
113027,-71.4285714285714,4,2,19,70,0,0
113241,-71.4285714285714,4,2,12,70,0,0
113455,-71.4285714285714,4,2,20,70,0,0
113670,-71.4285714285714,4,2,22,70,0,0
113884,-71.4285714285714,4,2,1,70,0,0
114098,-71.4285714285714,4,2,15,70,0,0
114419,-71.4285714285714,4,2,1,70,0,0
114527,-71.4285714285714,4,2,18,70,0,0
114848,-71.4285714285714,4,2,1,70,0,0
114955,-71.4285714285714,4,2,23,70,0,0
115170,-71.4285714285714,4,2,24,70,0,0
115384,-71.4285714285714,4,2,25,70,0,0
115491,-71.4285714285714,4,2,26,70,0,0
115598,-71.4285714285714,4,2,20,70,0,0
115813,-71.4285714285714,4,2,16,70,0,0
116027,-71.4285714285714,4,2,27,70,0,0
116241,-71.4285714285714,4,2,15,70,0,0
116348,-71.4285714285714,4,2,16,70,0,0
116455,-71.4285714285714,4,2,14,70,0,0
116670,-71.4285714285714,4,2,26,70,0,0
116777,-71.4285714285714,4,2,13,70,0,0
116884,-71.4285714285714,4,2,14,70,0,0
116991,-71.4285714285714,4,2,15,70,0,0
117098,-71.4285714285714,4,2,13,70,0,0
117205,-71.4285714285714,4,2,12,70,0,0
117313,-71.4285714285714,4,2,29,70,0,0
117420,-71.4285714285714,4,2,30,70,0,0
117527,-71.4285714285714,4,2,12,70,0,0
117634,-71.4285714285714,4,2,15,70,0,0
117741,-71.4285714285714,4,2,31,70,0,0
117955,-71.4285714285714,4,2,17,70,0,0
118063,-71.4285714285714,4,2,18,70,0,0
118170,-71.4285714285714,4,2,19,70,0,0
118384,-71.4285714285714,4,2,33,70,0,0
118598,-71.4285714285714,4,2,14,70,0,0
118705,-71.4285714285714,4,2,16,70,0,0
118813,-71.4285714285714,4,2,15,70,0,0
118920,-71.4285714285714,4,2,1,70,0,0
119027,-71.4285714285714,4,2,31,70,0,0
119241,-71.4285714285714,4,2,17,70,0,0
119455,-71.4285714285714,4,2,27,70,0,0
119563,-71.4285714285714,4,2,1,70,0,0
119670,-71.4285714285714,4,2,18,70,0,0
119884,-71.4285714285714,4,2,29,70,0,0
120098,-71.4285714285714,4,2,22,70,0,0
120313,-71.4285714285714,4,2,29,70,0,0
120527,-71.4285714285714,4,2,18,70,0,0
120742,-71.4285714285714,4,2,31,70,0,0
120848,-71.4285714285714,4,2,1,70,0,0
120955,-71.4285714285714,4,2,12,70,0,0
121170,-71.4285714285714,4,2,34,70,0,0
121384,-71.4285714285714,4,2,18,70,0,0
121598,-71.4285714285714,4,2,31,70,0,0
121813,-71.4285714285714,4,2,32,70,0,0
122027,-71.4285714285714,4,2,34,70,0,0
122134,-71.4285714285714,4,2,32,70,0,0
122241,-71.4285714285714,4,2,30,70,0,0
122455,-71.4285714285714,4,2,27,70,0,0
122563,-71.4285714285714,4,2,30,70,0,0
122670,-71.4285714285714,4,2,18,70,0,0
122884,-71.4285714285714,4,2,29,70,0,0
122991,-71.4285714285714,4,2,18,70,0,0
123098,-71.4285714285714,4,2,16,70,0,0
123313,-71.4285714285714,4,2,14,70,0,0
123420,-71.4285714285714,4,2,16,70,0,0
123527,-71.4285714285714,4,2,15,70,0,0
123634,-71.4285714285714,4,2,12,70,0,0
123741,-71.4285714285714,4,2,14,70,0,0
123955,-71.4285714285714,4,2,18,70,0,0
124276,-71.4285714285714,4,2,13,70,0,0
124384,-71.4285714285714,4,2,30,70,0,0
124491,-71.4285714285714,4,2,12,70,0,0
124598,-71.4285714285714,4,2,14,70,0,0
124812,-71.4285714285714,4,2,17,70,0,0
124920,-71.4285714285714,4,2,12,70,0,0
125027,-71.4285714285714,4,2,20,70,0,0
125241,-111.111111111111,4,2,35,55,0,0
125670,-111.111111111111,4,2,1,35,0,0
127598,-111.111111111111,4,2,1,35,0,0
127813,-111.111111111111,4,2,1,35,0,0
128027,-111.111111111111,4,2,1,35,0,0
128241,-111.111111111111,4,2,1,35,0,0
128563,-111.111111111111,4,2,1,35,0,0
128670,-111.111111111111,4,2,1,35,0,0
132848,-111.111111111111,4,2,1,35,0,0
132955,-111.111111111111,4,2,1,35,0,0
134455,-111.111111111111,4,2,1,35,0,0
134670,-111.111111111111,4,2,1,35,0,0
134884,-111.111111111111,4,2,1,35,0,0
135098,-111.111111111111,4,2,1,35,0,0
135205,-111.111111111111,4,2,1,35,0,0
135313,-111.111111111111,4,2,1,35,0,0
137348,-111.111111111111,4,2,1,35,0,0
137455,-111.111111111111,4,2,1,35,0,0
137777,-111.111111111111,4,2,1,35,0,0
137884,-111.111111111111,4,2,1,35,0,0
138205,-111.111111111111,4,2,1,35,0,0
138312,-111.111111111111,4,2,1,35,0,0
138634,-111.111111111111,4,2,1,35,0,0
138741,-111.111111111111,4,2,1,35,0,0
138955,-111.111111111111,4,2,1,20,0,0
139170,-111.111111111111,4,2,1,20,0,0
142384,-166.666666666666,4,2,1,35,0,0
142812,-166.666666666666,4,2,1,35,0,0
143241,-166.666666666666,4,2,1,35,0,0
143670,-166.666666666666,4,2,1,35,0,0
144098,-166.666666666666,4,2,1,35,0,0
144955,-166.666666666666,4,2,1,35,0,0
145384,-166.666666666666,4,2,1,35,0,0
145705,-166.666666666666,4,2,1,5,0,0
145813,-166.666666666666,4,2,1,35,0,0
146134,-166.666666666666,4,2,1,35,0,0
146670,-166.666666666666,4,2,1,35,0,0
146884,-166.666666666666,4,2,1,35,0,0
147527,-166.666666666666,4,2,1,35,0,0
148813,-166.666666666666,4,2,1,45,0,0
149241,-99.9999999999998,4,2,1,45,0,0
150955,-99.9999999999998,4,2,1,35,0,0
151813,-99.9999999999998,4,2,1,45,0,0
152670,-99.9999999999998,4,2,1,55,0,0
153527,-99.9999999999998,4,2,1,65,0,0
154384,-99.9999999999998,4,2,1,70,0,0
155455,-99.9999999999998,4,2,1,60,0,0
155670,-99.9999999999998,4,2,1,70,0,0
156098,-71.4285714285714,4,2,2,80,0,0
156205,-71.4285714285714,4,2,1,80,0,0
156312,-71.4285714285714,4,2,1,60,0,0
156420,-71.4285714285714,4,2,1,80,0,0
157062,-71.4285714285714,4,2,1,60,0,0
157277,-71.4285714285714,4,2,1,80,0,0
159634,-71.4285714285714,4,2,1,60,0,0
159955,-71.4285714285714,4,2,1,80,0,0
161955,-71.4285714285714,4,2,1,60,0,0
162098,-71.4285714285714,4,2,1,80,0,0
162955,-71.4285714285714,4,2,2,80,0,0
163170,-71.4285714285714,4,2,1,80,0,0
163277,-71.4285714285714,4,2,1,80,0,0
163920,-71.4285714285714,4,2,1,60,0,0
164241,-71.4285714285714,4,2,1,80,0,0
166384,-71.4285714285714,4,2,2,80,0,0
166491,-71.4285714285714,4,2,1,80,0,0
167777,-71.4285714285714,4,2,1,60,0,0
167884,-71.4285714285714,4,2,1,80,0,0
168527,-71.4285714285714,4,2,1,60,0,0
168741,-71.4285714285714,4,2,1,80,0,0
169277,-71.4285714285714,4,2,1,60,0,0
169384,-71.4285714285714,4,2,1,80,0,0
169813,-71.4285714285714,4,2,1,70,0,0
169920,-71.4285714285714,4,2,1,60,0,0
169973,-71.4285714285714,4,2,1,70,0,0
170027,-71.4285714285714,4,2,1,60,0,0
170134,-105.263157894737,4,2,1,70,0,0
170241,-71.4285714285714,4,2,1,60,0,0
171384,-71.4285714285714,4,2,1,70,0,0
171527,-66.6666666666667,4,2,2,85,0,0
171634,-66.6666666666667,4,2,1,85,0,0
171741,-66.6666666666667,4,2,1,60,0,0
171848,-66.6666666666667,4,2,1,85,0,0
174634,-66.6666666666667,4,2,1,60,0,0
174741,-66.6666666666667,4,2,1,85,0,0
175169,-66.6666666666667,4,2,1,60,0,0
175277,-66.6666666666667,4,2,1,85,0,0
176134,-66.6666666666667,4,2,1,60,0,0
176241,-66.6666666666667,4,2,1,85,0,0
177205,-66.6666666666667,4,2,1,60,0,0
177258,-66.6666666666667,4,2,1,60,0,0
177285,-66.6666666666667,4,2,1,60,0,0
177312,-66.6666666666667,4,2,1,85,0,0
177338,-66.6666666666667,4,2,1,60,0,0
177365,-66.6666666666667,4,2,1,85,0,0
177392,-66.6666666666667,4,2,1,60,0,0
177419,-66.6666666666667,4,2,1,85,0,0
178384,-66.6666666666667,4,2,2,85,0,0
178491,-66.6666666666667,4,2,1,85,0,0
178598,-66.6666666666667,4,2,1,60,0,0
178705,-66.6666666666667,4,2,1,85,0,0
179348,-66.6666666666667,4,2,1,60,0,0
179563,-66.6666666666667,4,2,1,85,0,0
181813,-66.6666666666667,4,2,2,85,0,0
181920,-66.6666666666667,4,2,1,85,0,0
182027,-66.6666666666667,4,2,1,60,0,0
182134,-66.6666666666667,4,2,1,85,0,0
183634,-66.6666666666667,4,2,1,60,0,0
183741,-66.6666666666667,4,2,1,85,0,0
183848,-66.6666666666667,4,2,1,60,0,0
183955,-66.6666666666667,4,2,1,85,0,0
184277,-66.6666666666667,4,2,1,60,0,0
184384,-66.6666666666667,4,2,1,85,0,0
185241,-66.6666666666667,4,2,2,85,0,0
185348,-66.6666666666667,4,2,1,85,0,0
185455,-66.6666666666667,4,2,1,60,0,0
185563,-66.6666666666667,4,2,1,85,0,0
186205,-66.6666666666667,4,2,1,60,0,0
186420,-66.6666666666667,4,2,1,85,0,0
188348,-66.6666666666667,4,2,1,60,0,0
188455,-66.6666666666667,4,2,1,85,0,0
188777,-66.6666666666667,4,2,1,60,0,0
189098,-66.6666666666667,4,2,1,85,0,0
189848,-66.6666666666667,4,2,1,60,0,0
189955,-66.6666666666667,4,2,1,85,0,0
191098,-66.6666666666667,4,2,1,60,0,0
191241,-66.6666666666667,4,2,1,85,0,0
192098,-66.6666666666667,4,2,2,85,0,0
192205,-66.6666666666667,4,2,1,60,0,0
192527,-66.6666666666667,4,2,1,85,0,0
193063,-66.6666666666667,4,2,1,60,0,0
193384,-66.6666666666667,4,2,1,85,0,0
195527,-66.6666666666667,4,2,2,85,0,0
195634,-66.6666666666667,4,2,1,85,0,0
195741,-66.6666666666667,4,2,1,60,0,0
195955,-66.6666666666667,4,2,1,85,0,0
197937,-66.6666666666667,4,2,1,60,0,0
197991,-66.6666666666667,4,2,1,85,0,0
198955,-66.6666666666667,4,2,2,85,0,0
199063,-66.6666666666667,4,2,1,85,0,0
200670,-66.6666666666667,4,2,1,75,0,0
203027,-66.6666666666667,4,2,1,60,0,0
203134,-66.6666666666667,4,2,1,75,0,0
203991,-66.6666666666667,4,2,1,60,0,0
204098,-66.6666666666667,4,2,1,75,0,0
204741,-66.6666666666667,4,2,1,60,0,0
204848,-66.6666666666667,4,2,1,75,0,0
205598,-66.6666666666667,4,2,1,60,0,0
205813,-66.6666666666667,4,2,1,75,0,0
208920,-66.6666666666667,4,2,1,60,0,0
209027,-66.6666666666667,4,2,1,75,0,0
212348,-66.6666666666667,4,2,1,60,0,0
212670,-66.6666666666667,4,2,1,75,0,0
213312,-66.6666666666667,4,2,1,60,0,0
213420,-66.6666666666667,4,2,1,75,0,0
215348,-66.6666666666667,4,2,1,60,0,0
215455,-66.6666666666667,4,2,1,75,0,0
216098,-66.6666666666667,4,2,1,55,0,0

[Colours]
Combo1 : 167,216,198
Combo2 : 253,187,147
Combo3 : 149,149,230
Combo4 : 237,164,181

[HitObjects]
55,216,1170,5,2,0:0:0:0:
121,162,1384,5,2,0:0:0:0:
204,175,1598,5,2,0:0:0:0:
327,203,1813,6,0,P|359:189|446:222,1,103.950003172302,2|2,3:2|0:0,0:0:0:0:
379,286,2134,5,2,0:0:0:0:
370,274,2241,2,0,P|366:308|294:367,1,103.950003172302,2|2,3:2|0:0,0:0:0:0:
238,259,2563,5,2,0:0:0:0:
266,272,2670,2,8,P|237:251|222:159,1,103.950003172302,2|2,3:2|0:0,0:0:0:0:
231,110,2991,5,0,0:0:0:0:
229,96,3099,2,0,L|214:46,2,51.9750015861512,2|2|2,3:2|0:0|0:0,0:0:0:0:
87,189,3420,1,2,0:0:0:0:
83,185,3527,2,0,L|68:235,2,51.9750015861512,2|2|2,3:2|0:0|0:0,0:0:0:0:
118,86,3849,1,2,0:0:0:0:
125,99,3955,1,2,3:2:0:0:
14,118,4170,1,2,0:0:0:0:
207,190,4384,5,0,3:0:0:0:
280,171,4491,2,0,P|292:197|288:239,1,51.9750015861512,2|2,0:0|0:0,0:0:0:0:
281,247,4813,6,0,P|280:185|338:107,1,155.925004758454,2|0,3:2|0:0,0:0:0:0:
348,36,5241,2,0,P|408:85|408:131,1,103.950003172302,2|2,3:2|0:0,0:0:0:0:
309,116,5563,5,2,0:0:0:0:
289,112,5670,2,0,L|161:88,1,103.950003172302,2|2,3:2|0:0,0:0:0:0:
34,169,5991,5,2,0:0:0:0:
63,185,6098,2,0,L|191:161,1,103.950003172302,2|2,3:2|0:0,0:0:0:0:
358,209,6420,5,2,0:0:0:0:
303,254,6527,2,0,L|175:230,1,103.950003172302,0|2,3:0|0:0,0:0:0:0:
200,234,6848,1,2,0:0:0:0:
265,164,6955,6,0,L|259:89,2,51.9750015861512,2|2|2,3:2|0:0|0:0,0:0:0:0:
183,84,7277,1,2,0:0:0:0:
177,69,7384,1,2,3:2:0:0:
94,139,7598,5,2,0:0:0:0:
103,120,7705,1,2,0:0:0:0:
21,166,7813,5,2,3:2:0:0:
16,245,7920,2,0,P|47:247|81:231,1,51.9750015861512,2|2,0:0|0:0,0:0:0:0:
206,203,8134,5,2,0:0:0:0:
226,207,8241,1,2,3:2:0:0:
246,212,8349,1,2,0:0:0:0:
266,217,8456,1,2,0:0:0:0:
286,222,8563,1,2,0:0:0:0:
362,243,8670,6,0,P|388:180|381:86,1,155.925004758454,6|2,3:2|0:0,0:0:0:0:
383,93,9098,2,0,P|424:144|462:163,1,103.950003172302,2|2,3:2|0:0,0:0:0:0:
470,49,9420,1,2,0:0:0:0:
461,46,9527,2,0,L|258:68,1,155.925004758454,2|2,3:2|0:0,0:0:0:0:
305,62,9955,5,2,3:2:0:0:
153,38,10170,1,2,0:0:0:0:
202,183,10384,1,2,3:2:0:0:
194,102,10598,5,2,0:0:0:0:
149,264,10813,1,2,3:2:0:0:
324,167,11027,1,2,0:0:0:0:
324,167,11134,1,2,0:0:0:0:
324,167,11241,1,0,3:0:0:0:
96,207,11455,6,0,L|28:199,1,51.9750015861512,2|0,0:0|0:0,0:0:0:0:
105,215,11670,2,0,P|146:172|248:201,1,155.925004758454,6|0,3:2|0:0,0:0:0:0:
214,168,12098,6,0,L|224:235,1,47.25,6|2,3:2|0:0,0:0:0:0:
317,131,12527,6,0,B|311:168|311:168|313:189|313:189|310:246,1,94.5,2|2,3:2|3:2,0:0:0:0:
77,144,12955,6,0,B|84:195|84:195|104:221|104:221|114:308,1,141.750005407334,2|2,3:2|3:2,0:0:0:0:
427,38,13384,6,0,B|410:104|410:104|424:148|424:148|406:243,1,189,2|2,3:2|3:2,0:0:0:0:
389,305,13813,5,2,0:0:0:0:
389,305,14027,1,2,0:0:0:0:
303,320,14455,5,2,0:0:0:0:
303,320,14670,1,2,0:0:0:0:
133,254,14884,5,4,3:0:0:0:
137,242,14955,1,4,3:0:0:0:
141,229,15027,1,4,3:0:0:0:
145,217,15098,1,14,0:0:0:0:
167,141,15527,6,0,B|313:169|313:169|345:145|310:90,1,212.625008111,6|0,3:2|0:0,0:0:0:0:
310,93,15955,1,10,0:0:0:0:
327,244,16063,2,0,P|339:278|373:315,1,70.8750027036668,2|2,0:0|0:3,0:0:0:0:
396,177,16277,1,2,0:0:0:0:
260,190,16384,2,0,P|236:217|221:265,1,70.8750027036668,0|2,3:0|0:0,0:0:0:0:
396,177,16598,2,0,B|380:119|380:119|353:99|353:99|334:24,1,141.750005407334,2|10,0:3|0:0,0:0:0:0:
466,278,17027,1,2,0:3:0:0:
191,127,17241,6,0,P|258:71|326:93,1,141.750005407334,2|2,3:2|0:3,0:0:0:0:
177,262,17670,1,10,0:0:0:0:
185,282,17777,2,8,L|193:212,1,70.8750027036668,2|2,0:0|0:3,0:0:0:0:
191,127,17991,2,0,P|124:71|56:93,1,141.750005407334,2|2,0:0|0:0,0:0:0:0:
274,208,18313,2,0,L|350:202,1,70.8750027036668,10|0,0:0|0:0,0:0:0:0:
415,131,18527,1,10,0:0:0:0:
429,130,18634,1,2,0:0:0:0:
443,129,18741,1,2,0:3:0:0:
344,289,18955,6,0,P|337:249|353:196,1,70.8750027036668,2|0,3:2|0:0,0:0:0:0:
424,216,19170,2,0,P|430:250|425:285,1,70.8750027036668,2|0,0:3|0:0,0:0:0:0:
234,249,19384,1,10,0:0:0:0:
217,249,19491,2,0,L|126:243,1,70.8750027036668,2|2,0:0|0:3,0:0:0:0:
342,326,19706,2,0,P|330:234|354:158,1,141.750005407334,2|2,0:0|0:0,0:0:0:0:
222,52,20027,1,2,0:3:0:0:
217,57,20134,1,2,0:0:0:0:
212,62,20241,2,0,P|293:89|342:55,1,141.750005407334,14|2,0:0|0:3,0:0:0:0:
495,123,20670,5,6,3:2:0:0:
487,122,20777,1,0,0:0:0:0:
421,165,20884,5,10,0:0:0:0:
414,167,20991,1,10,0:0:0:0:
409,79,21098,5,10,0:0:0:0:
410,64,21205,1,0,3:0:0:0:
411,49,21313,1,6,3:0:0:0:
338,129,21420,6,0,P|264:98|203:126,1,141.750005407334,14|4,0:0|3:0,0:0:0:0:
155,174,21741,1,6,3:0:0:0:
157,187,21848,1,4,3:0:0:0:
8,270,21955,2,0,P|73:291|135:260,1,141.750005407334,14|2,0:0|0:3,0:0:0:0:
279,135,22277,5,8,0:0:0:0:
244,52,22384,2,0,P|169:32|117:85,1,141.750005407334,6|2,3:2|0:3,0:0:0:0:
122,82,22705,1,0,0:0:0:0:
279,135,22813,2,0,L|362:168,2,70.8750027036668,10|2|2,0:0|0:0|0:3,0:0:0:0:
293,233,23134,1,2,0:0:0:0:
373,231,23241,2,0,P|368:153|385:85,1,141.750005407334,0|2,3:0|0:3,0:0:0:0:
382,91,23563,1,0,0:0:0:0:
457,151,23670,2,0,L|530:172,1,70.8750027036668,10|0,0:0|0:0,0:0:0:0:
292,98,23884,2,0,L|223:78,1,70.8750027036668,2|0,0:3|0:0,0:0:0:0:
451,28,24098,5,2,3:2:0:0:
455,48,24205,1,2,0:0:0:0:
459,68,24313,1,2,0:3:0:0:
202,240,24527,1,10,0:0:0:0:
131,202,24634,2,0,P|158:142|231:147,1,141.750005407334,2|2,0:0|0:0,0:0:0:0:
226,143,24955,2,0,L|245:64,1,70.8750027036668,0|2,3:0|0:0,0:0:0:0:
316,90,25170,1,10,0:0:0:0:
336,95,25277,1,2,0:0:0:0:
242,74,25384,2,0,P|162:87|108:35,1,141.750005407334,10|2,0:0|0:3,0:0:0:0:
309,311,25813,6,0,B|346:175|346:175|389:175|406:132,1,212.625008111,2|2,3:2|0:0,0:0:0:0:
365,68,26241,1,10,0:0:0:0:
444,60,26348,1,2,0:0:0:0:
213,108,26563,1,2,0:0:0:0:
140,135,26670,2,0,P|123:166|123:201,1,70.8750027036668,0|2,3:0|0:0,0:0:0:0:
165,274,26884,1,2,0:3:0:0:
171,286,26991,1,0,0:0:0:0:
263,175,27098,2,0,P|229:176|180:216,1,70.8750027036668,14|0,0:0|0:0,0:0:0:0:
165,274,27313,2,0,P|198:272|247:232,1,70.8750027036668,2|0,0:3|0:0,0:0:0:0:
303,266,27527,6,0,L|468:299,1,141.750005407334,6|10,3:2|0:0,0:0:0:0:
230,253,27848,1,4,3:0:0:0:
391,209,27955,2,0,L|470:182,2,70.8750027036668,10|0|6,0:0|3:0|3:0,0:0:0:0:
259,327,28277,6,0,P|271:246|251:154,1,141.750005407334,14|4,0:0|3:0,0:0:0:0:
213,125,28598,1,4,3:0:0:0:
198,137,28705,1,4,3:0:0:0:
262,187,28813,5,10,0:0:0:0:
310,194,28920,1,8,0:0:0:0:
359,189,29027,1,10,0:0:0:0:
402,166,29134,1,8,0:0:0:0:
318,109,29241,6,0,L|299:277,1,141.75,6|0,3:2|0:0,0:0:0:0:
299,275,29670,1,2,3:2:0:0:
217,183,29884,2,0,P|169:166|129:193,1,94.5,2|2,0:3|3:2,0:0:0:0:
129,177,30205,1,2,0:0:0:0:
124,168,30313,1,2,0:3:0:0:
230,302,30527,2,0,L|399:282,1,141.75,10|0,0:0|0:0,0:0:0:0:
449,277,30955,6,0,P|458:302|458:336,2,47.25,2|2|2,3:2|0:0|0:3,0:0:0:0:
317,204,31384,1,2,3:2:0:0:
422,190,31598,2,0,L|440:75,2,94.5,2|0|2,0:3|3:0|0:3,0:0:0:0:
386,25,32134,5,8,0:0:0:0:
323,78,32241,2,0,P|235:72|193:34,1,141.75,10|0,0:0|0:0,0:0:0:0:
196,39,32670,6,0,L|206:141,1,94.5,2|2,3:2|0:3,0:0:0:0:
211,211,33098,1,0,3:0:0:0:
106,95,33313,5,2,0:3:0:0:
95,266,33527,2,0,L|103:171,1,94.5,2|2,3:2|0:3,0:0:0:0:
40,334,33955,2,0,P|83:302|184:303,1,141.75,10|0,0:0|0:0,0:0:0:0:
183,313,34384,5,2,3:2:0:0:
249,219,34598,1,2,0:3:0:0:
366,341,34813,1,2,3:2:0:0:
428,274,35027,5,2,0:3:0:0:
428,274,35134,1,2,0:0:0:0:
428,274,35241,2,0,P|413:222|417:168,1,94.5,0|2,3:0|0:3,0:0:0:0:
457,102,35563,1,8,0:0:0:0:
318,172,35670,2,0,P|344:124|385:89,1,94.5,10|10,0:0|0:0,0:0:0:0:
391,221,36098,6,0,L|239:199,1,141.75,0|0,3:0|0:0,0:0:0:0:
226,195,36527,1,0,3:0:0:0:
298,349,36741,2,0,P|292:293|319:246,1,94.5,2|2,0:3|3:2,0:0:0:0:
314,265,37063,1,0,0:0:0:0:
321,271,37170,1,2,0:3:0:0:
192,309,37384,2,0,P|119:304|104:282,1,94.5,10|2,0:0|0:3,0:0:0:0:
75,171,37813,6,0,L|70:115,2,47.25,2|0|2,3:2|0:0|0:3,0:0:0:0:
32,314,38241,1,2,3:2:0:0:
154,217,38455,1,2,0:3:0:0:
172,213,38563,1,0,0:0:0:0:
189,209,38670,2,0,P|229:229|292:203,1,94.5,0|2,3:0|0:3,0:0:0:0:
241,153,38991,1,8,0:0:0:0:
299,292,39098,2,0,P|336:267|345:199,1,94.5,10|2,0:0|0:3,0:0:0:0:
241,153,39527,5,2,3:2:0:0:
426,208,39741,1,2,0:3:0:0:
319,113,39955,5,2,3:2:0:0:
463,110,40170,1,2,0:3:0:0:
342,248,40384,2,0,L|321:341,1,94.5,2|2,3:2|0:3,0:0:0:0:
96,171,40813,6,0,L|117:78,1,94.5,14|4,0:0|3:0,0:0:0:0:
141,77,41098,1,4,3:0:0:0:
166,75,41170,1,4,3:0:0:0:
190,73,41241,1,6,3:0:0:0:
332,199,41563,6,0,L|278:184,1,47.25,6|0,3:0|0:0,0:0:0:0:
314,116,41884,2,0,L|359:128,1,47.25,6|0,3:0|0:0,0:0:0:0:
333,200,42098,2,0,B|317:290|317:290|344:310|342:356,1,141.75,14|0,3:2|0:0,0:0:0:0:
265,346,42527,1,2,0:3:0:0:
255,347,42634,1,2,0:0:0:0:
245,348,42741,1,2,0:3:0:0:
320,217,42955,5,6,3:2:0:0:
402,235,43063,2,0,L|487:250,1,54.3375010364056,0|2,0:0|0:3,0:0:0:0:
320,217,43277,5,2,0:0:0:0:
271,156,43384,2,0,P|220:139|173:166,1,108.675002072811,10|2,0:0|0:3,0:0:0:0:
146,231,43705,5,2,0:0:0:0:
174,164,43813,2,0,L|200:93,2,54.3375010364056,2|2|2,3:2|0:0|0:3,0:0:0:0:
80,263,44134,5,2,0:0:0:0:
146,231,44241,2,0,P|207:253|240:219,1,108.675002072811,10|2,0:0|0:3,0:0:0:0:
276,124,44670,5,2,3:2:0:0:
357,131,44884,1,2,0:3:0:0:
378,135,44991,1,2,0:0:0:0:
399,139,45098,1,10,0:0:0:0:
419,227,45313,1,2,0:3:0:0:
419,227,45420,1,0,0:0:0:0:
419,227,45527,2,0,P|465:243|509:194,1,108.675002072811,2|2,3:2|0:3,0:0:0:0:
399,139,45955,6,0,P|437:103|486:118,1,108.675002072811,10|2,0:0|0:3,0:0:0:0:
479,104,46277,1,2,0:0:0:0:
469,90,46384,2,0,L|482:27,1,54.3375010364056,2|0,3:2|0:0,0:0:0:0:
316,77,46598,1,2,0:3:0:0:
332,218,46813,1,10,0:0:0:0:
332,218,46920,1,2,0:0:0:0:
332,218,47027,2,0,L|345:265,2,36.2250006909371,2|2|2,0:3|0:0|0:0,0:0:0:0:
246,247,47241,6,0,P|184:260|136:231,1,108.675002072811,2|2,3:2|0:3,0:0:0:0:
128,168,47563,1,2,0:0:0:0:
145,240,47670,2,0,L|163:320,1,54.3375010364056,10|0,0:0|0:0,0:0:0:0:
109,92,47884,1,2,0:3:0:0:
233,230,48098,6,0,P|287:261|334:252,1,108.675002072811,2|2,3:2|0:3,0:0:0:0:
325,131,48420,1,2,0:0:0:0:
323,104,48527,2,0,P|360:79|404:84,1,54.3375010364056,10|0,0:0|0:0,0:0:0:0:
434,132,48741,2,0,P|473:151|491:192,1,54.3375010364056,10|0,0:0|0:0,0:0:0:0:
330,253,48955,5,2,3:2:0:0:
297,245,49063,1,8,0:0:0:0:
265,237,49170,1,2,0:3:0:0:
217,167,49384,1,2,3:2:0:0:
185,175,49491,1,8,0:0:0:0:
152,183,49599,1,2,0:3:0:0:
334,156,49813,6,0,P|335:82|385:49,1,108.675002072811,6|2,3:2|0:3,0:0:0:0:
431,51,50134,1,2,0:0:0:0:
470,185,50241,2,0,P|406:147|402:87,1,108.675002072811,10|2,0:0|0:3,0:0:0:0:
385,166,50563,5,2,0:0:0:0:
380,181,50670,1,2,3:2:0:0:
313,235,50777,5,2,0:0:0:0:
324,265,50884,1,2,0:3:0:0:
378,332,50991,5,2,0:0:0:0:
378,332,51098,2,0,P|326:279|225:285,1,163.012503109217,10|0,0:0|0:0,0:0:0:0:
179,333,51527,5,2,3:2:0:0:
186,295,51634,1,2,0:0:0:0:
193,257,51741,1,2,0:3:0:0:
200,219,51848,1,2,0:0:0:0:
207,181,51955,6,0,L|331:156,1,108.675002072811,10|2,0:0|0:3,0:0:0:0:
210,101,52277,1,8,0:0:0:0:
332,168,52384,2,0,P|340:103|315:51,1,108.675002072811,2|2,3:2|0:3,0:0:0:0:
494,255,52813,5,10,0:0:0:0:
462,249,52920,1,8,0:0:0:0:
430,243,53027,1,2,0:3:0:0:
203,231,53241,5,6,3:2:0:0:
439,115,53455,1,6,3:0:0:0:
147,104,53670,5,10,0:0:0:0:
473,217,53884,1,2,0:3:0:0:
356,175,53991,1,4,3:2:0:0:
358,194,54098,5,4,3:0:0:0:
478,230,54206,1,2,0:0:0:0:
337,295,54313,5,6,3:0:0:0:
404,267,54420,1,4,3:0:0:0:
447,334,54527,5,10,0:0:0:0:
376,366,54634,1,8,0:0:0:0:
300,360,54741,1,8,0:0:0:0:
236,318,54848,1,8,0:0:0:0:
205,248,54955,5,6,3:2:0:0:
129,233,55170,1,2,3:0:0:0:
386,52,55384,5,10,3:2:0:0:
462,37,55599,1,14,0:0:0:0:
470,43,55706,1,2,0:3:0:0:
225,174,56027,6,0,L|218:202,1,18.9,2|0,0:0|0:0,0:0:0:0:
299,184,56241,2,0,L|292:212,1,18.9,2|0,0:0|0:0,0:0:0:0:
366,215,56455,2,0,L|371:197,1,18.9,2|0,0:0|0:0,0:0:0:0:
376,175,56670,6,0,P|399:247|363:313,1,132.299995962525,14|2,3:2|0:3,0:0:0:0:
446,141,56991,1,2,0:0:0:0:
366,215,57098,2,0,L|271:201,1,66.1499979812623,10|0,0:0|0:0,0:0:0:0:
228,191,57313,1,2,0:3:0:0:
214,189,57420,1,2,0:0:0:0:
139,177,57527,2,0,P|129:107|185:51,1,132.299995962525,2|2,3:2|0:3,0:0:0:0:
90,29,57848,5,2,0:0:0:0:
163,80,57955,2,0,L|246:102,1,66.1499979812623,10|0,0:0|0:0,0:0:0:0:
57,173,58170,2,0,P|41:205|44:251,1,66.1499979812623,2|0,0:3|0:0,0:0:0:0:
49,250,58384,6,0,P|83:253|108:298,1,66.1499979812623,2|0,3:2|0:0,0:0:0:0:
186,330,58598,2,0,L|102:356,1,66.1499979812623,2|2,0:3|0:0,0:0:0:0:
248,275,58813,6,0,P|253:239|282:204,1,66.1499979812623,10|0,0:0|0:0,0:0:0:0:
340,131,59027,2,0,L|355:208,1,66.1499979812623,10|8,3:0|0:0,0:0:0:0:
340,346,59241,5,4,3:0:0:0:
372,348,59348,1,8,0:0:0:0:
404,350,59455,1,2,0:3:0:0:
352,195,59670,2,0,P|364:125|401:60,1,132.299995962525,10|2,0:0|0:3,0:0:0:0:
440,14,59991,1,2,0:0:0:0:
400,79,60098,6,0,P|350:128|190:121,1,198.449993943787,2|2,3:2|0:0,0:0:0:0:
79,194,60527,1,10,0:0:0:0:
142,166,60634,2,0,P|210:178|245:238,1,132.299995962525,2|2,0:0|0:0,0:0:0:0:
243,227,60955,6,0,L|220:309,1,66.1499979812623,2|2,3:2|0:0,0:0:0:0:
382,280,61170,2,0,P|351:287|304:277,1,66.1499979812623,2|0,0:3|0:0,0:0:0:0:
156,250,61384,1,8,0:0:0:0:
249,359,61598,5,2,0:3:0:0:
249,359,61705,1,2,0:0:0:0:
249,359,61813,2,0,L|242:214,1,132.299995962525,2|2,3:2|0:3,0:0:0:0:
243,208,62134,1,2,0:0:0:0:
277,127,62241,2,0,P|246:114|202:135,1,66.1499979812623,10|0,0:0|0:0,0:0:0:0:
243,208,62455,2,0,P|274:221|318:200,1,66.1499979812623,2|8,0:3|0:0,0:0:0:0:
431,297,62670,5,2,3:2:0:0:
433,290,62777,1,10,0:0:0:0:
435,283,62884,1,2,0:3:0:0:
73,115,63098,5,10,0:0:0:0:
71,108,63205,1,8,0:0:0:0:
69,101,63312,1,2,0:3:0:0:
334,162,63527,6,0,P|356:246|332:306,1,132.299995962525,6|2,3:2|0:3,0:0:0:0:
369,272,63848,1,2,0:0:0:0:
266,194,63955,2,0,P|181:199|113:187,1,132.299995962525,10|2,0:0|0:3,0:0:0:0:
420,161,64277,1,2,0:0:0:0:
376,89,64384,2,0,P|461:84|529:96,1,132.299995962525,2|2,3:2|0:3,0:0:0:0:
266,194,64813,2,0,L|251:129,1,66.1499979812623,10|0,0:0|0:0,0:0:0:0:
112,124,65027,2,0,P|151:115|189:136,1,66.1499979812623,2|0,0:3|0:0,0:0:0:0:
173,110,65241,6,0,P|191:79|198:24,1,66.1499979812623,2|0,3:2|0:0,0:0:0:0:
131,199,65455,2,0,L|145:273,1,66.1499979812623,2|0,0:3|0:0,0:0:0:0:
302,273,65670,6,0,P|274:259|235:263,1,66.1499979812623,10|0,0:0|0:0,0:0:0:0:
120,367,65884,2,0,L|193:341,1,66.1499979812623,10|8,3:0|0:0,0:0:0:0:
393,283,66098,1,4,3:0:0:0:
411,276,66205,1,8,0:0:0:0:
429,269,66313,2,0,P|359:229|288:257,1,132.299995962525,2|10,0:3|0:0,0:0:0:0:
311,239,66634,2,0,L|285:169,2,66.1499979812623,2|2|2,0:0|0:3|0:0,0:0:0:0:
44,143,66955,6,0,B|105:210|216:155|216:155|224:123|256:93|313:101,1,264.599991925049,6|10,3:2|0:0,0:0:0:0:
286,103,67491,1,2,0:0:0:0:
354,121,67598,1,2,0:3:0:0:
184,62,67813,5,2,3:2:0:0:
354,121,68027,1,2,0:3:0:0:
147,201,68241,2,0,L|125:291,1,66.1499979812623,10|0,0:0|0:0,0:0:0:0:
273,83,68455,2,0,L|257:18,1,66.1499979812623,2|0,0:3|0:0,0:0:0:0:
396,217,68670,5,14,0:0:0:0:
111,101,68884,1,10,0:0:0:0:
396,217,69098,5,2,3:2:0:0:
111,101,69312,1,14,0:0:0:0:
344,122,69527,5,6,3:2:0:0:
304,128,69634,1,8,0:0:0:0:
152,169,69741,5,10,0:0:0:0:
192,175,69848,1,0,0:0:0:0:
284,254,69955,6,0,P|294:279|293:330,1,66.1499979812623,10|8,0:0|0:0,0:0:0:0:
288,339,70170,1,10,0:0:0:0:
192,175,70384,6,0,L|430:244,1,198.449993943787,14|0,3:2|0:0,0:0:0:0:
367,216,70813,2,0,P|346:146|376:81,1,132.299995962525,10|2,0:0|0:3,0:0:0:0:
449,97,71134,1,0,0:0:0:0:
269,177,71241,2,0,L|257:265,1,66.1499979812623,2|0,3:2|0:0,0:0:0:0:
192,124,71455,1,2,0:3:0:0:
192,124,71563,1,2,0:0:0:0:
192,124,71670,6,0,P|118:141|50:107,1,132.299995962525,10|2,0:0|0:3,0:0:0:0:
233,202,72098,2,0,L|337:226,1,66.1499979812623,2|0,3:2|0:0,0:0:0:0:
235,352,72313,2,0,P|253:319|255:282,1,66.1499979812623,2|2,0:3|0:0,0:0:0:0:
352,115,72527,6,0,P|380:90|444:90,1,66.1499979812623,10|0,0:0|0:0,0:0:0:0:
382,273,72741,2,0,L|396:197,1,66.1499979812623,10|8,3:0|0:0,0:0:0:0:
477,140,72955,5,4,3:0:0:0:
352,115,73063,2,0,L|181:89,1,132.299995962525,8|0,0:0|0:0,0:0:0:0:
148,109,73384,1,10,0:0:0:0:
374,28,73598,1,2,0:3:0:0:
148,109,73813,6,0,B|137:156|137:156|163:267,1,132.299995962525,2|2,3:2|0:3,0:0:0:0:
190,373,74134,1,2,0:0:0:0:
237,319,74241,2,0,P|208:301|162:313,1,66.1499979812623,10|0,0:0|0:0,0:0:0:0:
34,268,74455,2,0,P|63:286|109:274,1,66.1499979812623,2|2,0:3|0:0,0:0:0:0:
373,255,74670,2,0,L|220:233,1,132.299995962525,2|2,3:2|0:3,0:0:0:0:
242,229,74991,1,2,0:0:0:0:
242,222,75098,1,10,0:0:0:0:
454,267,75313,1,2,0:3:0:0:
350,115,75527,6,0,L|422:123,1,66.1499979812623,2|0,3:2|0:0,0:0:0:0:
454,267,75741,2,0,P|451:234|467:205,1,66.1499979812623,2|2,0:3|0:0,0:0:0:0:
505,15,75955,2,0,P|520:43|471:157,1,132.299995962525,10|2,0:0|0:3,0:0:0:0:
425,135,76277,1,8,0:0:0:0:
385,139,76384,1,0,3:0:0:0:
345,143,76491,1,8,0:0:0:0:
305,147,76598,1,2,0:3:0:0:
175,158,76813,5,10,0:0:0:0:
151,215,76920,1,8,0:0:0:0:
155,278,77027,1,10,0:0:0:0:
178,335,77134,1,8,0:0:0:0:
239,280,77241,6,0,P|144:263|64:184,1,198.449993943787,6|2,3:2|0:0,0:0:0:0:
70,195,77670,2,0,P|41:217|20:252,1,66.1499979812623,10|0,0:0|0:0,0:0:0:0:
153,138,77884,2,0,L|225:152,1,66.1499979812623,2|2,0:3|0:0,0:0:0:0:
47,110,78098,1,2,3:2:0:0:
47,110,78205,1,2,0:0:0:0:
47,110,78313,1,2,0:3:0:0:
284,127,78527,2,0,L|103:141,1,132.299995962525,10|2,0:0|0:3,0:0:0:0:
383,149,78955,6,0,P|400:116|395:70,1,66.1499979812623,2|0,3:2|0:0,0:0:0:0:
308,221,79170,2,0,L|384:258,1,66.1499979812623,2|2,0:3|0:0,0:0:0:0:
203,288,79384,6,0,P|170:271|124:276,1,66.1499979812623,10|0,0:0|0:0,0:0:0:0:
275,363,79599,2,0,L|312:287,1,66.1499979812623,10|10,3:0|0:0,0:0:0:0:
203,288,79813,1,4,3:0:0:0:
463,209,80027,5,2,0:3:0:0:
463,209,80134,1,2,0:0:0:0:
463,209,80241,2,0,P|377:228|325:202,1,132.299995962525,10|2,0:0|0:3,0:0:0:0:
339,38,80670,6,0,L|362:246,1,198.449993943787,6|2,3:2|0:0,0:0:0:0:
319,301,81098,1,10,0:0:0:0:
420,120,81313,1,2,0:3:0:0:
250,214,81527,1,2,3:2:0:0:
472,193,81741,1,2,0:3:0:0:
300,109,81955,1,10,0:0:0:0:
305,82,82063,1,8,0:0:0:0:
311,56,82170,1,2,0:3:0:0:
356,251,82384,6,0,P|273:199|223:205,1,132.299995962525,10|10,0:0|0:0,0:0:0:0:
242,200,83027,2,0,P|233:264|190:313,1,132.299995962525,10|10,0:0|0:0,0:0:0:0:
295,373,83348,6,0,L|209:383,1,66.1499979812623,2|4,0:0|3:0,0:0:0:0:
303,292,83563,1,4,3:0:0:0:
190,313,83670,2,0,L|37:299,1,132.299995962525,14|0,0:0|0:0,0:0:0:0:
303,292,84098,5,6,3:2:0:0:
153,182,84313,1,2,0:3:0:0:
325,151,84527,5,10,0:0:0:0:
252,161,84634,2,0,P|228:188|227:254,1,70.8750027036668,2|2,0:0|0:3,0:0:0:0:
325,151,84848,2,0,L|174:100,1,141.750005407334,2|2,0:0|0:0,0:0:0:0:
133,233,85170,2,0,P|144:267|201:301,1,70.8750027036668,2|0,0:3|0:0,0:0:0:0:
77,160,85384,1,10,0:0:0:0:
290,275,85598,1,2,0:3:0:0:
77,160,85813,6,0,P|22:221|24:286,1,141.750005407334,2|2,3:2|0:3,0:0:0:0:
198,56,86241,1,10,0:0:0:0:
122,82,86348,2,0,P|81:70|55:33,1,70.8750027036668,2|2,0:0|0:3,0:0:0:0:
198,56,86563,1,2,0:0:0:0:
221,71,86670,1,0,3:0:0:0:
403,227,86884,5,10,0:0:0:0:
268,212,87098,2,0,B|321:213|321:213|331:223|331:223|370:218|370:218|440:238,1,141.750005407334,10|2,0:0|0:3,0:0:0:0:
233,121,87527,5,2,3:2:0:0:
265,324,87741,1,2,0:3:0:0:
233,121,87955,5,10,0:0:0:0:
198,130,88063,1,2,0:0:0:0:
156,139,88170,2,0,P|118:163|82:160,1,70.8750027036668,2|2,0:3|0:0,0:0:0:0:
335,122,88384,2,0,P|311:84|314:48,1,70.8750027036668,0|2,3:0|0:0,0:0:0:0:
229,233,88598,1,2,0:3:0:0:
388,240,88813,2,0,P|463:192|553:221,1,141.750005407334,14|2,0:0|0:3,0:0:0:0:
330,322,89241,5,6,3:2:0:0:
330,322,89348,1,2,0:0:0:0:
259,312,89455,5,10,0:0:0:0:
237,310,89563,1,2,0:0:0:0:
166,301,89670,6,0,P|106:267|29:283,1,141.750005407334,10|6,0:0|3:0,0:0:0:0:
72,60,89991,2,0,P|38:120|54:197,1,141.750005407334,14|4,0:0|3:0,0:0:0:0:
156,200,90313,1,6,3:0:0:0:
190,193,90420,1,4,3:0:0:0:
223,186,90527,2,0,P|255:186|295:198,1,70.8750027036668,14|0,0:0|0:0,0:0:0:0:
432,159,90741,2,0,P|400:159|360:147,1,70.8750027036668,10|8,0:0|0:0,0:0:0:0:
143,337,90955,6,0,P|144:285|92:327,1,141.750005407334,6|2,3:2|0:3,0:0:0:0:
88,315,91384,1,10,0:0:0:0:
197,265,91491,2,0,P|237:264|273:279,1,70.8750027036668,2|2,0:0|0:3,0:0:0:0:
93,181,91705,2,0,P|59:192|24:190,1,70.8750027036668,2|0,0:0|3:0,0:0:0:0:
169,122,91920,1,2,0:0:0:0:
179,112,92027,1,2,0:3:0:0:
93,181,92241,2,0,L|76:23,1,141.750005407334,10|2,0:0|0:3,0:0:0:0:
192,217,92670,5,2,3:2:0:0:
0,78,92884,1,2,0:3:0:0:
192,217,93098,1,10,0:0:0:0:
268,245,93205,2,0,L|277:161,1,70.8750027036668,2|2,0:0|0:3,0:0:0:0:
288,93,93420,2,0,P|359:77|423:132,1,141.750005407334,2|2,0:0|0:0,0:0:0:0:
418,258,93741,5,10,0:0:0:0:
464,47,93955,2,0,L|433:203,1,141.750005407334,10|2,0:0|0:3,0:0:0:0:
453,325,94384,6,0,P|411:328|362:309,1,70.8750027036668,2|0,3:2|0:0,0:0:0:0:
299,302,94598,2,0,P|341:299|390:318,1,70.8750027036668,2|0,0:3|0:0,0:0:0:0:
189,349,94813,1,10,0:0:0:0:
206,276,94920,2,0,P|224:238|265:205,1,70.8750027036668,2|2,0:0|0:3,0:0:0:0:
189,349,95134,1,2,0:0:0:0:
176,184,95241,2,0,L|33:195,1,141.750005407334,0|2,3:0|0:3,0:0:0:0:
22,197,95563,1,0,0:0:0:0:
149,66,95670,2,0,P|102:95|110:24,1,141.750005407334,14|2,0:0|0:3,0:0:0:0:
328,127,96098,5,6,3:2:0:0:
196,228,96313,2,0,L|94:236,1,70.8750027036668,10|2,0:0|0:0,0:0:0:0:
277,195,96527,1,10,0:0:0:0:
279,209,96634,1,0,3:0:0:0:
281,223,96741,1,4,3:0:0:0:
360,204,96848,2,0,L|518:187,1,141.750005407334,6|0,3:2|3:0,0:0:0:0:
500,188,97170,5,4,3:0:0:0:
446,244,97277,1,0,3:0:0:0:
459,320,97384,1,10,0:0:0:0:
366,219,97598,1,10,0:0:0:0:
175,260,97813,5,6,3:2:0:0:
125,155,98027,1,2,0:0:0:0:
175,260,98241,2,0,P|221:232|261:247,1,94.5,8|2,0:0|0:0,0:0:0:0:
435,198,98670,1,2,3:2:0:0:
423,193,98884,1,2,0:0:0:0:
324,337,99098,2,0,P|322:271|354:197,1,141.75,10|0,0:0|0:0,0:0:0:0:
321,122,99527,5,2,3:2:0:0:
411,127,99741,1,2,0:0:0:0:
274,57,99955,1,10,0:0:0:0:
386,29,100170,1,2,0:0:0:0:
386,29,100277,1,0,0:0:0:0:
386,29,100384,1,0,3:0:0:0:
215,139,100598,1,2,0:3:0:0:
215,139,100705,1,0,0:0:0:0:
215,139,100813,2,0,L|68:126,1,141.75,10|0,0:0|0:0,0:0:0:0:
94,153,101241,5,2,3:2:0:0:
155,221,101455,1,2,0:0:0:0:
15,213,101670,1,8,0:0:0:0:
107,331,101884,1,2,0:0:0:0:
107,331,101991,1,0,0:0:0:0:
107,331,102098,1,2,3:2:0:0:
15,213,102313,1,0,0:0:0:0:
107,331,102527,2,0,P|57:312|5:325,1,94.5,10|2,0:0|0:0,0:0:0:0:
182,265,102955,5,2,3:2:0:0:
270,323,103170,1,2,0:0:0:0:
297,328,103277,1,0,0:0:0:0:
324,333,103384,1,10,0:0:0:0:
351,338,103491,1,0,0:0:0:0:
378,343,103598,1,2,0:0:0:0:
507,270,103813,2,0,P|443:240|418:262,1,94.5,0|2,3:0|0:3,0:0:0:0:
427,243,104134,1,0,0:0:0:0:
425,238,104241,1,10,0:0:0:0:
329,148,104455,5,2,0:3:0:0:
327,152,104563,1,0,0:0:0:0:
325,156,104670,2,0,L|214:170,1,94.5,2|2,3:2|0:0,0:0:0:0:
217,171,104991,1,0,0:0:0:0:
203,174,105098,1,8,0:0:0:0:
277,267,105313,1,2,0:0:0:0:
141,243,105527,2,0,P|172:175|144:101,1,141.75,2|0,3:2|0:0,0:0:0:0:
136,108,105955,5,10,0:0:0:0:
251,160,106170,1,2,0:0:0:0:
63,168,106384,5,2,3:2:0:0:
239,51,106598,1,2,0:0:0:0:
63,168,106813,1,10,0:0:0:0:
173,234,107027,1,2,0:0:0:0:
173,234,107134,1,0,0:0:0:0:
173,234,107241,1,0,3:0:0:0:
40,286,107455,2,0,L|-16:310,1,47.25,2|0,0:3|0:0,0:0:0:0:
196,352,107670,2,0,P|234:329|293:338,1,94.5,10|2,0:0|0:3,0:0:0:0:
158,138,108098,6,0,L|-12:99,1,141.75,6|0,3:2|0:0,0:0:0:0:
172,127,108527,1,10,0:0:0:0:
330,242,108741,1,2,0:3:0:0:
330,242,108848,1,0,0:3:0:0:
330,242,108955,2,0,P|281:189|294:77,1,189,2|14,3:2|0:0,0:0:0:0:
148,235,109598,5,10,0:0:0:0:
126,245,109705,1,0,0:0:0:0:
104,255,109813,1,12,0:0:0:0:
87,263,109920,1,8,0:0:0:0:
70,271,110027,1,2,0:3:0:0:
90,170,110241,1,12,0:0:0:0:
82,152,110348,1,8,0:0:0:0:
74,134,110455,1,2,0:3:0:0:
199,145,110670,5,14,0:0:0:0:
253,160,110777,1,8,0:0:0:0:
309,155,110884,1,8,0:0:0:0:
362,135,110991,1,8,0:0:0:0:
402,94,111098,1,14,0:0:0:0:
339,237,111313,1,4,3:0:0:0:
356,275,111420,1,4,3:0:0:0:
373,313,111527,1,14,3:2:0:0:
440,169,111741,6,0,L|284:152,1,132.299995962525,2|10,0:0|0:0,0:0:0:0:
193,137,112170,1,2,0:0:0:0:
193,137,112277,1,2,0:0:0:0:
193,137,112384,1,2,3:2:0:0:
231,240,112598,1,2,0:3:0:0:
265,94,112813,1,10,0:0:0:0:
273,69,112920,1,2,0:0:0:0:
282,44,113027,1,2,0:0:0:0:
129,102,113241,5,2,3:2:0:0:
151,206,113455,1,2,0:0:0:0:
145,27,113670,5,10,0:0:0:0:
71,218,113884,1,2,0:3:0:0:
231,66,114098,6,0,P|156:74|31:141,1,198.449993943787,2|0,3:2|0:0,0:0:0:0:
71,218,114527,2,0,P|77:258|16:204,1,198.449993943787,10|0,0:0|0:0,0:0:0:0:
46,127,114955,5,2,3:2:0:0:
194,181,115170,1,2,0:0:0:0:
169,266,115384,1,10,0:0:0:0:
194,271,115491,1,2,0:0:0:0:
219,276,115598,1,2,0:0:0:0:
321,292,115813,5,2,3:2:0:0:
378,163,116027,1,2,0:0:0:0:
474,166,116241,1,10,0:0:0:0:
471,139,116348,1,2,0:0:0:0:
468,112,116455,1,2,0:0:0:0:
293,99,116670,5,2,3:2:0:0:
306,61,116777,1,2,0:0:0:0:
345,61,116884,1,2,0:0:0:0:
361,97,116991,1,2,0:0:0:0:
293,99,117098,5,10,0:0:0:0:
240,106,117205,1,2,0:0:0:0:
187,114,117313,1,2,0:0:0:0:
134,122,117420,1,2,0:0:0:0:
61,128,117527,6,0,L|45:211,1,66.1499979812623,10|10,0:0|0:0,0:0:0:0:
76,49,117741,1,2,0:0:0:0:
48,192,117955,5,10,0:0:0:0:
116,218,118063,1,10,0:0:0:0:
184,243,118170,1,2,0:0:0:0:
293,374,118384,6,0,P|344:308|402:294,1,132.299995962525,6|2,3:2|0:0,0:0:0:0:
407,301,118705,1,2,0:0:0:0:
301,242,118813,2,0,L|321:171,1,66.1499979812623,10|0,0:0|0:0,0:0:0:0:
407,301,119027,1,2,0:0:0:0:
317,160,119241,2,0,P|253:186|151:144,1,132.299995962525,2|2,3:2|0:0,0:0:0:0:
140,118,119563,1,2,0:0:0:0:
132,108,119670,1,10,0:0:0:0:
185,271,119884,1,2,0:0:0:0:
17,91,120098,5,2,3:2:0:0:
114,72,120313,1,2,0:0:0:0:
246,158,120527,1,10,0:0:0:0:
343,139,120742,1,2,0:0:0:0:
343,139,120848,1,2,0:0:0:0:
343,139,120955,1,2,3:2:0:0:
189,245,121170,6,0,P|147:195|68:202,1,132.299995962525,2|10,0:0|0:0,0:0:0:0:
189,245,121598,1,2,0:0:0:0:
39,263,121813,5,2,3:2:0:0:
17,155,122027,1,2,0:0:0:0:
17,155,122134,1,2,0:0:0:0:
17,155,122241,1,10,0:0:0:0:
248,122,122455,5,2,0:0:0:0:
249,108,122563,1,2,0:0:0:0:
250,94,122670,1,2,3:2:0:0:
126,230,122884,5,2,0:0:0:0:
121,203,122991,1,2,0:0:0:0:
116,176,123098,1,10,0:0:0:0:
304,302,123313,5,10,0:0:0:0:
315,250,123420,1,10,0:0:0:0:
328,198,123527,2,0,L|406:191,1,66.1499979812623,10|10,0:0|0:0,0:0:0:0:
245,200,123741,1,2,0:0:0:0:
486,165,123955,6,0,P|397:106|290:107,1,198.449993943787,10|10,0:0|0:0,0:0:0:0:
307,102,124384,2,0,L|347:21,1,66.1499979812623,2|10,3:2|0:0,0:0:0:0:
245,200,124598,2,0,P|162:236|110:234,1,132.299995962525,2|10,0:0|0:0,0:0:0:0:
121,235,124920,1,10,0:0:0:0:
121,235,125027,1,2,0:0:0:0:
55,148,125241,5,6,3:2:0:0:
198,177,125670,1,0,3:0:0:0:
146,104,125884,5,2,0:3:0:0:
146,104,126098,2,0,P|75:127|62:120,1,85.0499974044801,2|2,3:2|0:3,0:0:0:0:
82,41,126527,1,0,3:0:0:0:
221,59,126741,2,0,L|239:97,1,42.52499870224,2|2,0:3|0:3,0:0:0:0:
224,172,126955,6,0,P|262:126|366:105,1,170.09999480896,2|2,3:2|3:2,0:0:0:0:
435,194,127598,5,2,0:3:0:0:
343,198,127813,2,0,P|363:147|344:105,1,85.0499974044801,2|2,3:2|0:3,0:0:0:0:
271,250,128241,1,2,3:2:0:0:
311,330,128455,5,2,0:3:0:0:
311,330,128563,1,2,0:0:0:0:
311,330,128670,2,0,L|406:312,1,85.0499974044801,2|2,3:2|0:3,0:0:0:0:
221,348,129098,1,2,3:2:0:0:
221,348,129313,1,2,0:3:0:0:
141,225,129527,6,0,P|103:202|43:229,1,85.0499974044801,2|2,3:2|0:3,0:0:0:0:
230,243,129955,1,2,3:2:0:0:
230,243,130170,1,2,0:3:0:0:
322,147,130384,6,0,P|354:85|372:83,1,85.0499974044801,2|2,3:2|0:3,0:0:0:0:
339,235,130813,1,2,3:2:0:0:
339,235,131027,1,2,0:3:0:0:
174,87,131241,6,0,P|126:102|162:125,1,85.0499974044801,2|2,3:2|0:3,0:0:0:0:
231,146,131670,1,2,3:2:0:0:
231,146,131884,1,2,0:3:0:0:
174,87,132098,6,0,B|158:95|158:95|146:275,1,170.09999480896,2|0,3:2|3:0,0:0:0:0:
149,335,132741,2,0,L|99:341,1,42.52499870224,2|2,0:3|0:0,0:0:0:0:
89,342,132955,1,2,3:2:0:0:
147,246,133170,1,2,0:3:0:0:
231,332,133384,2,0,B|247:316|247:316|259:245,1,85.0499974044801,0|2,3:0|0:3,0:0:0:0:
260,237,133705,1,2,0:3:0:0:
265,218,133813,6,0,P|330:176|428:209,1,170.09999480896,2|2,3:2|3:2,0:0:0:0:
361,75,134455,5,2,0:3:0:0:
438,120,134670,2,0,P|433:189|407:206,1,85.0499974044801,2|2,3:2|0:3,0:0:0:0:
361,75,135098,1,2,3:2:0:0:
344,77,135205,1,2,0:0:0:0:
327,79,135313,1,2,0:3:0:0:
251,147,135527,5,2,3:2:0:0:
161,125,135741,2,0,P|194:71|224:76,1,85.0499974044801,2|2,0:3|3:2,0:0:0:0:
114,317,136170,5,2,0:3:0:0:
179,291,136384,2,0,P|157:220|132:211,1,85.0499974044801,2|2,3:2|0:3,0:0:0:0:
114,317,136813,2,0,P|87:285|88:243,1,85.0499974044801,2|2,3:2|0:3,0:0:0:0:
23,166,137241,6,0,L|16:121,2,42.52499870224,2|0|2,3:2|0:0|0:3,0:0:0:0:
118,92,137670,2,0,L|134:49,2,42.52499870224,2|0|2,3:2|0:0|0:3,0:0:0:0:
238,76,138098,2,0,L|273:47,2,42.52499870224,2|0|2,3:2|0:0|0:3,0:0:0:0:
338,139,138527,1,2,3:2:0:0:
382,154,138634,1,0,0:0:0:0:
426,169,138741,1,2,0:3:0:0:
358,254,138956,5,2,0:3:0:0:
243,169,139170,1,0,0:0:0:0:
244,185,139384,1,0,0:0:0:0:
245,201,139598,1,0,0:0:0:0:
113,305,139813,5,2,0:3:0:0:
249,233,140027,1,0,0:0:0:0:
250,249,140241,1,0,0:0:0:0:
251,265,140455,1,0,0:0:0:0:
240,79,140670,5,2,0:3:0:0:
251,265,140884,1,0,0:0:0:0:
249,233,141098,1,0,0:0:0:0:
245,201,141313,1,0,0:0:0:0:
243,169,141527,1,2,0:3:0:0:
243,169,141956,6,0,L|296:179,3,42.52499870224,2|0|0|0,0:0|0:0|0:0|0:0,0:0:0:0:
174,233,142384,6,0,L|50:207,1,113.399996539307,2|2,0:0|0:0,0:0:0:0:
33,142,143027,1,2,0:0:0:0:
99,290,143241,1,2,0:0:0:0:
99,290,143670,5,2,0:0:0:0:
148,220,143884,1,2,0:0:0:0:
225,258,144098,2,0,L|234:325,1,56.6999982696534,2|2,0:0|0:0,0:0:0:0:
198,147,144527,1,2,0:0:0:0:
276,186,144741,2,0,L|283:129,1,56.6999982696534,2|0,0:0|0:0,0:0:0:0:
283,129,145170,5,2,0:0:0:0:
367,150,145384,2,0,L|471:171,1,85.0499974044801,2|0,0:0|0:0,0:0:0:0:
399,239,145813,6,0,P|395:273|418:344,1,85.0499974044801,2|2,0:0|0:0,0:0:0:0:
421,338,146241,1,2,0:0:0:0:
310,276,146455,1,2,0:0:0:0:
233,290,146670,2,0,L|173:297,2,56.6999982696534,2|2|0,0:0|0:0|0:0,0:0:0:0:
63,151,147527,5,2,0:0:0:0:
87,226,147741,1,2,0:0:0:0:
135,124,147955,1,2,0:0:0:0:
211,185,148170,1,2,0:0:0:0:
211,185,148384,2,0,L|287:179,1,56.6999982696534,2|2,0:0|0:3,0:0:0:0:
477,150,148813,6,0,P|480:82|468:59,1,85.0499974044801,2|0,0:3|0:0,0:0:0:0:
388,22,149241,6,0,L|385:128,1,94.5,2|2,0:0|0:0,0:0:0:0:
130,58,149670,2,0,L|133:164,1,94.5,2|2,0:0|0:0,0:0:0:0:
406,17,150098,6,0,L|403:123,1,94.5,2|2,0:0|0:0,0:0:0:0:
109,59,150527,2,0,L|112:165,1,94.5,2|2,0:0|0:0,0:0:0:0:
425,14,150955,6,0,L|422:120,1,94.5,2|2,0:0|0:0,0:0:0:0:
94,62,151384,2,0,L|97:168,1,94.5,2|2,3:2|0:0,0:0:0:0:
421,122,151813,6,0,L|367:109,3,47.25,8|8|8|8,0:3|0:3|0:3|0:3,0:0:0:0:
202,137,152241,2,0,L|247:148,3,47.25,6|4|4|4,0:3|0:3|0:3|0:3,0:0:0:0:
443,280,152670,5,10,0:0:0:0:
418,265,152777,1,8,0:0:0:0:
389,262,152884,1,8,0:0:0:0:
361,268,152991,1,8,0:0:0:0:
347,277,153098,5,8,0:0:0:0:
310,307,153205,1,8,0:0:0:0:
262,313,153313,1,8,0:0:0:0:
226,282,153420,1,8,0:0:0:0:
224,265,153527,5,8,0:0:0:0:
191,207,153634,1,8,0:0:0:0:
125,198,153741,1,10,0:0:0:0:
72,238,153848,1,8,0:0:0:0:
62,254,153955,5,10,0:0:0:0:
41,170,154063,1,8,3:0:0:0:
50,152,154170,5,6,3:0:0:0:
29,68,154278,1,4,3:0:0:0:
42,48,154384,5,14,0:0:0:0:
407,145,154598,1,14,0:0:0:0:
42,48,154813,5,14,0:0:0:0:
407,145,155027,1,14,0:0:0:0:
407,145,155455,6,0,L|416:215,1,47.25,6|0,3:0|0:0,0:0:0:0:
491,30,155670,5,10,0:0:0:0:
430,74,155777,1,8,0:0:0:0:
356,89,155884,1,10,0:0:0:0:
281,74,155991,1,8,0:0:0:0:
281,74,156098,6,0,L|107:97,1,132.299995962525,14|2,3:2|0:3,0:0:0:0:
77,102,156420,1,0,0:0:0:0:
6,121,156527,2,0,P|1:152|19:205,1,66.1499979812623,10|0,0:0|0:0,0:0:0:0:
69,222,156741,1,2,0:3:0:0:
81,226,156848,1,2,0:0:0:0:
143,329,156955,2,0,P|149:296|142:255,1,66.1499979812623,2|0,3:2|0:0,0:0:0:0:
281,74,157170,1,2,0:3:0:0:
281,74,157277,1,2,0:0:0:0:
281,74,157384,2,0,L|253:211,1,132.299995962525,10|2,0:0|0:3,0:0:0:0:
250,221,157705,1,0,0:0:0:0:
229,299,157813,6,0,P|252:316|309:323,1,66.1499979812623,2|0,3:2|0:0,0:0:0:0:
361,338,158027,2,0,P|334:319|301:311,1,66.1499979812623,2|0,0:3|0:0,0:0:0:0:
505,156,158241,6,0,P|482:173|425:180,1,66.1499979812623,10|0,0:0|0:0,0:0:0:0:
375,196,158455,2,0,B|401:177|458:175|434:169,1,66.1499979812623,10|8,3:0|0:0,0:0:0:0:
468,292,158670,5,4,3:0:0:0:
468,292,158777,1,8,0:0:0:0:
468,292,158884,1,2,0:3:0:0:
266,186,159098,2,0,L|292:36,1,132.299995962525,10|2,0:0|0:3,0:0:0:0:
298,78,159420,1,0,0:0:0:0:
198,97,159527,6,0,P|165:84|127:91,2,66.1499979812623,2|2|2,3:2|0:0|0:3,0:0:0:0:
360,178,159955,1,10,0:0:0:0:
172,188,160170,1,2,0:3:0:0:
286,73,160384,1,2,3:2:0:0:
286,73,160491,1,2,0:0:0:0:
286,73,160598,1,2,0:3:0:0:
274,244,160813,1,8,0:0:0:0:
286,73,161027,2,0,L|281:149,1,66.1499979812623,2|2,0:3|0:0,0:0:0:0:
194,337,161241,5,2,3:2:0:0:
194,337,161348,1,2,0:0:0:0:
194,337,161455,2,0,L|202:261,1,66.1499979812623,2|0,0:3|0:0,0:0:0:0:
218,177,161670,2,0,P|283:161|336:203,1,132.299995962525,14|2,0:0|0:3,0:0:0:0:
329,214,161955,1,2,0:0:0:0:
324,231,162027,1,2,0:0:0:0:
319,247,162098,2,0,L|401:234,1,66.1499979812623,10|8,0:0|0:0,0:0:0:0:
457,228,162313,1,2,0:3:0:0:
218,177,162527,1,10,0:0:0:0:
191,172,162634,1,8,0:0:0:0:
164,167,162741,1,2,0:3:0:0:
134,298,162955,6,0,L|63:311,1,66.1499979812623,6|0,3:2|0:0,0:0:0:0:
93,214,163170,2,0,P|80:181|81:131,1,66.1499979812623,2|0,0:3|0:0,0:0:0:0:
221,253,163384,2,0,P|287:291|344:280,1,132.299995962525,10|2,0:0|0:3,0:0:0:0:
501,315,163813,1,2,3:2:0:0:
481,319,163920,1,2,0:0:0:0:
461,323,164027,1,2,0:3:0:0:
335,166,164241,2,0,L|352:92,1,66.1499979812623,10|0,0:0|0:0,0:0:0:0:
355,81,164455,1,2,0:3:0:0:
169,159,164670,5,2,3:2:0:0:
136,166,164777,1,2,0:0:0:0:
104,176,164884,2,0,L|26:163,1,66.1499979812623,2|0,0:3|0:0,0:0:0:0:
263,236,165098,2,0,P|324:209|391:215,1,132.299995962525,10|10,0:0|3:0,0:0:0:0:
443,273,165420,1,8,0:0:0:0:
450,285,165527,2,0,L|445:357,1,66.1499979812623,4|8,3:0|0:0,0:0:0:0:
388,214,165741,1,2,0:3:0:0:
512,108,165955,2,0,P|451:135|384:129,1,132.299995962525,10|2,0:0|0:3,0:0:0:0:
310,99,166277,1,2,0:0:0:0:
100,45,166384,6,0,P|163:56|91:86,1,198.449993943787,6|0,3:2|0:0,0:0:0:0:
75,88,166813,6,0,P|60:121|65:162,1,66.1499979812623,10|0,0:0|0:0,0:0:0:0:
12,226,167027,2,0,P|33:255|71:271,1,66.1499979812623,2|0,0:3|0:0,0:0:0:0:
387,228,167241,6,0,B|275:254|315:169|194:202,1,198.449993943787,2|0,3:2|0:0,0:0:0:0:
217,185,167670,6,0,P|236:157|243:115,1,66.1499979812623,14|0,0:0|0:0,0:0:0:0:
135,235,167884,1,2,0:3:0:0:
320,102,168098,5,2,3:2:0:0:
38,123,168313,1,8,0:0:0:0:
118,94,168527,6,0,L|153:97,2,33.0749989906311,2|2|2,0:0|0:0|0:0,0:0:0:0:
227,50,168741,5,8,0:0:0:0:
104,281,168955,1,10,0:0:0:0:
241,232,169170,6,0,L|306:223,1,66.1499979812623,8|8,0:0|0:0,0:0:0:0:
459,206,169384,2,0,B|382:192|382:192|355:157|355:157|264:142,1,198.449993943787,14|0,0:0|0:0,0:0:0:0:
202,126,169813,5,4,3:2:0:0:
124,109,169920,2,0,L|84:99,2,33.0749989906311,0|0|0,3:0|3:0|3:0,0:0:0:0:
202,126,170134,6,0,L|183:177,1,44.8874988013745,8|8,0:0|0:0,0:0:0:0:
235,55,170348,1,8,0:0:0:0:
364,130,170527,5,8,0:0:0:0:
395,212,170670,1,8,0:0:0:0:
258,365,170813,5,0,3:0:0:0:
317,259,170955,1,0,3:0:0:0:
196,237,171098,1,14,0:0:0:0:
196,237,171241,6,0,L|104:225,1,88.1999973083497,2|0,0:0|0:0,0:0:0:0:
93,204,171527,6,0,B|196:197|129:148|249:146,1,141.750005407334,14|2,3:2|0:3,0:0:0:0:
293,148,171848,1,0,0:0:0:0:
104,125,171955,2,0,P|63:93|126:76,1,141.750005407334,10|2,0:0|0:3,0:0:0:0:
293,148,172277,1,0,0:0:0:0:
204,252,172384,2,0,L|232:21,1,212.625008111,2|0,3:2|0:0,0:0:0:0:
237,30,172813,6,0,P|266:48|307:55,1,70.8750027036668,10|0,0:0|0:0,0:0:0:0:
443,81,173027,2,0,P|414:63|373:56,1,70.8750027036668,2|0,0:3|0:0,0:0:0:0:
110,233,173241,6,0,P|139:215|180:208,1,70.8750027036668,2|0,3:2|0:0,0:0:0:0:
316,182,173455,2,0,P|287:200|246:207,1,70.8750027036668,2|0,0:3|0:0,0:0:0:0:
235,338,173670,2,0,P|204:321|178:289,1,70.8750027036668,10|0,0:0|0:0,0:0:0:0:
132,149,173884,1,2,0:3:0:0:
138,128,173991,1,8,0:0:0:0:
110,233,174098,6,0,L|90:324,1,70.8750027036668,4|8,3:0|0:0,0:0:0:0:
145,104,174313,2,0,L|165:13,1,70.8750027036668,2|0,0:3|0:0,0:0:0:0:
362,89,174527,1,10,0:0:0:0:
384,125,174634,1,2,0:0:0:0:
395,165,174741,1,2,0:3:0:0:
396,207,174848,1,2,0:0:0:0:
396,207,174955,6,0,P|450:181|551:228,1,141.750005407334,2|2,3:2|0:3,0:0:0:0:
462,265,175277,1,2,0:0:0:0:
339,287,175384,2,0,P|352:225|316:274,1,141.750005407334,10|2,0:0|0:3,0:0:0:0:
250,303,175705,1,2,0:0:0:0:
180,354,175813,2,0,B|88:356|127:301|13:315,1,141.750005407334,2|2,3:2|0:3,0:0:0:0:
52,299,176134,1,2,0:0:0:0:
56,285,176241,1,10,0:0:0:0:
218,201,176455,5,2,0:3:0:0:
214,187,176563,1,2,0:0:0:0:
208,174,176670,2,0,P|231:160|290:170,1,70.8750027036668,2|0,3:2|0:0,0:0:0:0:
314,84,176884,2,0,P|337:96|358:153,1,70.8750027036668,2|0,0:3|0:0,0:0:0:0:
433,195,177098,1,14,0:0:0:0:
452,200,177205,2,0,L|480:205,8,17.7187506759167,0|0|0|0|8|0|8|0|8,0:0|0:0|0:0|0:0|0:0|0:0|0:0|0:0|0:0,0:0:0:0:
314,84,177527,1,2,3:2:0:0:
278,88,177634,1,8,0:0:0:0:
243,95,177741,1,2,0:3:0:0:
325,242,177955,6,0,L|340:169,1,70.8750027036668,10|0,0:0|0:0,0:0:0:0:
308,319,178170,1,10,0:0:0:0:
308,319,178277,1,8,0:0:0:0:
318,189,178384,6,0,P|240:178|185:225,1,141.750005407334,6|2,3:2|0:3,0:0:0:0:
266,262,178705,1,2,0:0:0:0:
201,58,178813,2,0,P|223:105|231:42,1,141.750005407334,10|2,0:0|0:3,0:0:0:0:
266,262,179134,1,2,0:0:0:0:
190,214,179241,6,0,L|104:236,1,70.8750027036668,2|0,3:2|0:0,0:0:0:0:
301,182,179455,1,2,0:3:0:0:
314,179,179563,1,2,0:0:0:0:
388,160,179670,2,0,P|406:79|351:53,1,141.750005407334,10|2,0:0|0:3,0:0:0:0:
365,53,180098,6,0,P|395:60|445:55,1,70.8750027036668,2|0,3:2|0:0,0:0:0:0:
314,179,180313,2,0,P|293:201|272:246,1,70.8750027036668,2|0,0:3|0:0,0:0:0:0:
231,84,180527,2,0,P|222:55|192:14,1,70.8750027036668,10|0,0:0|0:0,0:0:0:0:
130,75,180741,1,2,0:3:0:0:
119,116,180848,1,8,0:0:0:0:
108,157,180955,1,4,3:0:0:0:
231,84,181170,5,2,0:3:0:0:
35,237,181384,2,0,P|119:199|175:191,1,141.750005407334,10|0,0:0|0:0,0:0:0:0:
346,188,181705,1,2,0:0:0:0:
265,196,181813,2,0,L|281:272,2,70.8750027036668,6|0|2,3:2|0:0|0:3,0:0:0:0:
243,116,182134,1,2,0:0:0:0:
240,102,182241,1,10,0:0:0:0:
186,263,182455,5,2,0:3:0:0:
236,89,182670,1,2,3:2:0:0:
349,221,182884,1,2,0:3:0:0:
95,105,183098,2,0,L|252:87,1,141.750005407334,10|2,0:0|0:3,0:0:0:0:
374,127,183420,5,2,0:0:0:0:
320,60,183527,2,0,P|283:34|262:8,1,70.8750027036668,6|0,3:2|0:0,0:0:0:0:
374,127,183741,2,0,P|334:145|301:151,1,70.8750027036668,10|0,0:0|0:0,0:0:0:0:
294,145,183955,1,10,0:0:0:0:
445,236,184170,1,6,3:2:0:0:
445,236,184277,1,2,3:0:0:0:
445,236,184384,1,10,0:0:0:0:
452,172,184491,1,8,0:0:0:0:
459,108,184598,1,2,0:3:0:0:
374,303,184813,5,10,0:0:0:0:
341,265,184920,1,8,3:0:0:0:
300,238,185027,1,4,3:0:0:0:
253,222,185134,1,4,3:0:0:0:
204,215,185241,2,0,B|289:206|230:157|343:147,1,141.750005407334,14|2,3:2|0:3,0:0:0:0:
400,148,185563,1,2,0:0:0:0:
246,138,185670,2,0,P|221:107|207:64,1,70.8750027036668,10|0,0:0|0:0,0:0:0:0:
157,268,185884,2,0,P|179:295|193:327,1,70.8750027036668,2|0,0:3|0:0,0:0:0:0:
52,210,186098,5,2,3:2:0:0:
65,193,186205,1,2,0:0:0:0:
74,173,186313,1,2,0:3:0:0:
77,152,186420,1,2,0:0:0:0:
0,146,186527,2,0,L|165:117,1,141.750005407334,10|2,0:0|0:3,0:0:0:0:
139,121,186955,6,0,P|154:82|149:44,1,70.8750027036668,2|0,3:2|0:0,0:0:0:0:
246,207,187170,2,0,P|210:208|178:194,1,70.8750027036668,2|0,0:3|0:0,0:0:0:0:
293,282,187384,2,0,L|271:120,1,141.750005407334,10|2,0:0|0:3,0:0:0:0:
264,67,187705,1,8,0:0:0:0:
295,38,187813,1,4,3:0:0:0:
337,36,187920,1,8,0:0:0:0:
377,50,188027,2,0,P|409:55|460:36,1,70.8750027036668,2|0,0:3|0:0,0:0:0:0:
491,117,188241,2,0,P|470:142|461:195,1,70.8750027036668,10|0,0:0|0:0,0:0:0:0:
374,171,188455,2,0,P|362:140|321:106,1,70.8750027036668,2|0,0:3|0:0,0:0:0:0:
264,48,188670,5,2,3:2:0:0:
235,88,188777,1,2,0:0:0:0:
235,137,188884,1,2,0:3:0:0:
94,340,189098,6,0,P|67:291|128:309,1,141.750005407334,10|2,0:0|0:3,0:0:0:0:
114,186,189420,1,2,0:0:0:0:
139,301,189527,2,0,P|161:323|206:335,1,70.8750027036668,2|0,3:2|0:0,0:0:0:0:
59,125,189741,2,0,P|33:149|0:160,1,70.8750027036668,2|0,0:3|0:0,0:0:0:0:
266,199,189955,2,0,L|244:33,1,141.750005407334,10|2,0:0|0:3,0:0:0:0:
352,185,190277,5,2,0:0:0:0:
321,312,190384,2,0,P|310:289|306:343,1,141.750005407334,2|2,3:2|0:3,0:0:0:0:
352,185,190705,1,2,0:0:0:0:
321,312,190813,2,0,B|251:307|280:263|169:257,1,141.750005407334,14|8,0:0|0:0,0:0:0:0:
179,263,191098,1,2,0:0:0:0:
165,267,191170,1,2,0:0:0:0:
152,273,191241,2,0,P|110:271|79:250,1,70.8750027036668,10|8,0:0|0:0,0:0:0:0:
32,201,191455,1,2,0:3:0:0:
231,100,191670,5,10,0:0:0:0:
305,89,191777,2,0,P|330:155|306:222,1,141.750005407334,8|8,0:0|0:0,0:0:0:0:
354,305,192098,5,6,3:2:0:0:
313,319,192205,1,2,0:0:0:0:
270,315,192313,1,2,0:3:0:0:
133,174,192527,1,10,0:0:0:0:
168,355,192741,1,2,0:3:0:0:
275,191,192955,1,2,3:2:0:0:
275,191,193063,1,2,0:0:0:0:
275,191,193170,1,2,0:3:0:0:
53,280,193384,5,10,0:0:0:0:
252,333,193598,1,2,0:3:0:0:
53,280,193813,2,0,P|105:254|189:297,1,141.750005407334,2|2,3:2|0:3,0:0:0:0:
180,268,194134,1,2,0:0:0:0:
183,254,194241,2,0,L|263:264,1,70.8750027036668,10|0,0:0|0:0,0:0:0:0:
327,278,194455,1,2,0:3:0:0:
222,173,194670,5,0,3:0:0:0:
212,131,194777,1,8,0:0:0:0:
202,89,194884,1,2,0:3:0:0:
327,278,195098,2,0,P|363:202|337:149,1,141.750005407334,10|2,0:0|0:3,0:0:0:0:
123,170,195527,6,0,L|35:187,2,70.8750027036668,6|2|2,3:2|0:0|0:3,0:0:0:0:
319,82,195955,5,10,0:0:0:0:
140,53,196170,1,2,0:3:0:0:
288,184,196384,5,2,3:2:0:0:
174,240,196598,1,2,0:3:0:0:
345,92,196813,5,10,0:0:0:0:
72,106,197027,1,2,0:3:0:0:
287,214,197241,6,0,B|263:189|263:189|132:172,1,141.750005407334,6|2,3:2|0:3,0:0:0:0:
144,254,197563,1,2,0:0:0:0:
142,268,197670,1,10,0:0:0:0:
50,236,197884,2,0,L|11:224,2,35.4375013518334,10|2|8,0:0|0:0|0:0,0:0:0:0:
156,175,198098,5,8,3:2:0:0:
168,134,198205,1,8,0:0:0:0:
162,91,198313,1,2,0:3:0:0:
76,144,198527,5,10,0:0:0:0:
258,61,198741,1,8,0:0:0:0:
76,144,198955,2,0,P|158:167|237:271,1,212.625008111,6|0,3:2|0:0,0:0:0:0:
234,263,199384,2,0,P|258:239|304:226,1,70.8750027036668,10|0,0:0|0:0,0:0:0:0:
373,198,199598,2,0,P|348:223|315:235,1,70.8750027036668,2|0,0:3|0:0,0:0:0:0:
76,144,199813,6,0,P|128:157|75:191,1,141.750005407334,2|2,3:2|0:3,0:0:0:0:
254,360,200241,1,10,0:0:0:0:
232,315,200348,1,8,0:0:0:0:
225,265,200455,1,2,0:3:0:0:
239,217,200563,1,2,0:0:0:0:
258,171,200670,6,0,L|426:192,1,141.750005407334,10|10,0:0|0:0,0:0:0:0:
398,188,201313,2,0,L|258:171,1,141.750005407334,10|10,0:0|0:0,0:0:0:0:
180,161,201634,5,2,0:0:0:0:
172,160,201741,1,4,3:0:0:0:
164,159,201848,1,4,3:0:0:0:
89,143,201955,2,0,B|31:93|30:25|99:-8|156:49|112:86,1,212.625008111,14|0,0:0|0:0,0:0:0:0:
164,159,202384,6,0,B|148:192|148:192|137:313,1,141.750005407334,6|2,3:2|0:3,0:0:0:0:
314,188,202813,1,10,0:0:0:0:
287,257,202920,2,0,P|249:265|201:239,1,70.8750027036668,2|2,0:0|0:3,0:0:0:0:
314,188,203134,2,0,P|287:117|313:40,1,141.750005407334,2|2,0:0|0:0,0:0:0:0:
368,95,203455,1,2,0:3:0:0:
201,114,203670,2,0,P|166:113|115:94,1,70.8750027036668,10|0,0:0|0:0,0:0:0:0:
56,71,203884,2,0,P|91:72|142:91,1,70.8750027036668,2|0,0:3|0:0,0:0:0:0:
172,243,204098,5,2,3:2:0:0:
181,37,204313,1,2,0:3:0:0:
172,243,204527,1,10,0:0:0:0:
96,237,204634,2,0,L|86:322,1,70.8750027036668,2|2,0:0|0:3,0:0:0:0:
172,243,204849,1,2,0:0:0:0:
23,216,204955,2,0,P|10:169|27:110,1,70.8750027036668,0|2,3:0|0:0,0:0:0:0:
159,110,205170,5,10,0:0:0:0:
252,253,205384,2,0,L|412:272,1,141.750005407334,10|2,0:0|0:3,0:0:0:0:
498,204,205813,5,2,3:2:0:0:
466,165,205920,1,2,0:0:0:0:
418,149,206027,1,2,0:3:0:0:
265,29,206241,5,10,0:0:0:0:
310,83,206348,2,0,P|235:47|168:53,1,141.750005407334,2|2,0:0|0:0,0:0:0:0:
98,76,206670,1,0,3:0:0:0:
110,101,206777,1,2,0:0:0:0:
130,120,206884,2,0,P|127:155|105:200,1,70.8750027036668,2|0,0:3|0:0,0:0:0:0:
48,234,207098,1,12,0:0:0:0:
273,158,207313,1,2,0:3:0:0:
48,234,207527,5,6,3:2:0:0:
279,278,207741,6,0,L|353:291,1,70.8750027036668,8|8,0:0|0:0,0:0:0:0:
206,323,207955,1,8,0:0:0:0:
189,275,208063,1,8,0:0:0:0:
207,229,208170,1,8,0:0:0:0:
279,278,208277,6,0,P|350:273|433:251,1,141.750005407334,6|8,3:2|0:0,0:0:0:0:
488,228,208598,1,4,3:0:0:0:
500,221,208705,1,4,3:0:0:0:
418,256,208813,2,0,L|403:177,1,70.8750027036668,14|0,0:0|0:0,0:0:0:0:
376,109,209027,2,0,L|389:178,1,70.8750027036668,8|8,0:0|0:0,0:0:0:0:
159,213,209241,6,0,P|207:244|145:254,1,141.750005407334,6|2,3:2|0:3,0:0:0:0:
181,130,209670,1,10,0:0:0:0:
159,213,209777,2,0,B|236:214|205:168|303:171,1,141.750005407334,2|2,0:0|0:0,0:0:0:0:
368,172,210098,1,0,3:0:0:0:
376,253,210206,2,0,P|406:262|474:232,2,70.8750027036668,2|2|2,0:0|0:3|0:0,0:0:0:0:
368,172,210527,5,10,0:0:0:0:
407,354,210741,1,2,0:3:0:0:
368,172,210955,6,0,L|374:81,2,70.8750027036668,2|2|2,3:2|0:0|0:3,0:0:0:0:
247,234,211384,1,10,0:0:0:0:
161,201,211491,2,0,L|192:363,1,141.750005407334,2|2,0:0|0:0,0:0:0:0:
116,132,211813,2,0,P|149:119|197:130,1,70.8750027036668,0|2,3:0|0:0,0:0:0:0:
247,234,212027,5,10,0:0:0:0:
61,202,212241,2,0,L|-19:220,2,70.8750027036668,10|2|2,0:0|0:0|0:3,0:0:0:0:
247,234,212670,6,0,P|256:190|283:241,1,141.750005407334,2|2,3:2|0:3,0:0:0:0:
294,251,212991,1,2,0:0:0:0:
351,310,213098,2,0,P|382:325|423:332,2,70.8750027036668,10|2|2,0:0|0:0|0:3,0:0:0:0:
267,324,213420,1,2,0:0:0:0:
255,332,213527,1,0,3:0:0:0:
391,235,213741,1,2,0:3:0:0:
183,301,213955,2,0,L|26:330,1,141.750005407334,14|2,0:0|0:3,0:0:0:0:
244,180,214384,5,6,3:2:0:0:
138,237,214598,2,0,P|116:198|110:152,1,70.8750027036668,10|2,0:0|0:0,0:0:0:0:
125,96,214813,1,10,0:0:0:0:
128,89,214920,1,0,3:0:0:0:
131,82,215027,1,4,3:0:0:0:
168,22,215134,2,0,L|331:41,1,141.750005407334,6|0,3:2|0:0,0:0:0:0:
409,53,215455,1,4,3:0:0:0:
422,56,215563,1,4,3:0:0:0:
435,59,215670,5,10,0:0:0:0:
384,107,215777,1,8,0:0:0:0:
358,173,215884,1,10,0:0:0:0:
362,243,215991,2,0,L|276:264,1,70.8750027036668,8|0,0:0|0:0,0:0:0:0:
