osu file format v14

[General]
AudioFilename: audio.mp3
AudioLeadIn: 0
PreviewTime: 55920
Countdown: 0
SampleSet: Soft
StackLeniency: 0.4
Mode: 0
LetterboxInBreaks: 0
WidescreenStoryboard: 0

[Editor]
DistanceSpacing: 1.1
BeatDivisor: 12
GridSize: 32
TimelineZoom: 2.2

[Metadata]
Title:Moonlight at midday
TitleUnicode:真昼の月明かり
Artist:Tsukuyomi
ArtistUnicode:月詠み
Creator:Seros
Version:Dance
Source:
Tags:climbx3145 namki shiratamamywife Setu Petal Matha 4th Song japanese j-pop jpop pop ユリイ・カノン epoch とうかさ mikoto 欠けた心象、世のよすが Mahiru no tsukiakari Getsumei Hana
BeatmapID:3143257
BeatmapSetID:1537310

[Difficulty]
HPDrainRate:5
CircleSize:4
OverallDifficulty:8.5
ApproachRate:9.6
SliderMultiplier:2
SliderTickRate:1

[Events]
//Background and Video events
0,0,"BG.jpg",0,0
Video,0,"Video.mp4"
//Break Periods
//Storyboard Layer 0 (Background)
//Storyboard Layer 1 (Fail)
//Storyboard Layer 2 (Pass)
//Storyboard Layer 3 (Foreground)
//Storyboard Layer 4 (Overlay)
//Storyboard Sound Samples

[TimingPoints]
99,428.571428571429,4,2,1,60,1,0
1813,-100,4,2,1,60,0,0
8241,-76.9230769230769,4,2,1,60,0,0
8670,-83.3333333333333,4,2,1,60,0,0
11670,-76.9230769230769,4,2,1,60,0,0
12098,-166.666666666667,4,2,1,60,0,0
12527,-125,4,2,1,60,0,0
12955,-100,4,2,1,60,0,0
13384,-83.3333333333333,4,2,1,60,0,0
13813,-83.3333333333333,4,2,1,30,0,0
14884,-83.3333333333333,4,2,1,50,0,0
15098,-71.4285714285714,4,2,1,60,0,0
15527,-58.8235294117647,4,2,1,70,0,0
16063,-50,4,2,1,70,0,0
16223,-50,4,2,1,5,0,0
16277,-58.8235294117647,4,2,1,70,0,0
17027,-50,4,2,1,70,0,0
17188,-50,4,2,1,5,0,0
17241,-58.8235294117647,4,2,1,70,0,0
17777,-50,4,2,1,70,0,0
17938,-50,4,2,1,5,0,0
17991,-58.8235294117647,4,2,1,70,0,0
19491,-50,4,2,1,70,0,0
19652,-50,4,2,1,5,0,0
19705,-58.8235294117647,4,2,1,70,0,0
20241,-41.6666666666667,4,2,1,70,0,0
20402,-41.6666666666667,4,2,1,5,0,0
20455,-58.8235294117647,4,2,1,70,0,0
21420,-41.6666666666667,4,2,1,70,0,0
22116,-41.6666666666667,4,2,1,5,0,0
22170,-58.8235294117647,4,2,1,70,0,0
22920,-50,4,2,1,70,0,0
23080,-50,4,2,1,5,0,0
23134,-58.8235294117647,4,2,1,70,0,0
23884,-50,4,2,1,70,0,0
24045,-50,4,2,1,5,0,0
24098,-58.8235294117647,4,2,1,70,0,0
24634,-50,4,2,1,70,0,0
24795,-50,4,2,1,5,0,0
24848,-58.8235294117647,4,2,1,70,0,0
26348,-50,4,2,1,70,0,0
26509,-50,4,2,1,5,0,0
26563,-58.8235294117647,4,2,1,70,0,0
27098,-41.6666666666667,4,2,1,70,0,0
27259,-41.6666666666667,4,2,1,5,0,0
27313,-58.8235294117647,4,2,1,70,0,0
28277,-41.6666666666667,4,2,1,70,0,0
29455,-100,4,2,1,45,0,0
30527,-166.666666666667,4,2,1,45,0,0
31598,-100,4,2,1,45,0,0
32670,-166.666666666667,4,2,1,45,0,0
32884,-100,4,2,1,45,0,0
33313,-166.666666666667,4,2,1,45,0,0
33527,-83.3333333333333,4,2,1,45,0,0
33955,-166.666666666667,4,2,1,45,0,0
35027,-100,4,2,1,45,0,0
35884,-166.666666666667,4,2,1,45,0,0
36313,-100,4,2,1,45,0,0
37384,-166.666666666667,4,2,1,45,0,0
38455,-100,4,2,1,45,0,0
39527,-166.666666666667,4,2,1,45,0,0
39955,-125,4,2,1,45,0,0
40384,-71.4285714285714,4,2,1,45,0,0
41241,-66.6666666666667,4,2,1,45,0,0
41563,-66.6666666666667,4,2,1,45,0,0
41884,-50,4,2,1,45,0,0
42045,-50,4,2,1,5,0,0
42098,-50,4,2,1,55,0,0
42527,-166.666666666667,4,2,1,55,0,0
42955,-71.4285714285714,4,2,1,60,0,0
44455,-58.8235294117647,4,2,1,60,0,0
44616,-58.8235294117647,4,2,1,5,0,0
44670,-71.4285714285714,4,2,1,60,0,0
45313,-58.8235294117647,4,2,1,60,0,0
45473,-58.8235294117647,4,2,1,5,0,0
45527,-100,4,2,1,60,0,0
45955,-71.4285714285714,4,2,1,60,0,0
47884,-58.8235294117647,4,2,1,60,0,0
48045,-58.8235294117647,4,2,1,5,0,0
48098,-100,4,2,1,60,0,0
48527,-71.4285714285714,4,2,1,60,0,0
49170,-66.6666666666667,4,2,1,60,0,0
49598,-58.8235294117647,4,2,1,60,0,0
49759,-58.8235294117647,4,2,1,5,0,0
49813,-66.6666666666667,4,2,1,60,0,0
50777,-55.5555555555556,4,2,1,60,0,0
50938,-55.5555555555556,4,2,1,5,0,0
50991,-55.5555555555556,4,2,1,60,0,0
51098,-66.6666666666667,4,2,1,60,0,0
51313,-55.5555555555556,4,2,1,60,0,0
51473,-55.5555555555556,4,2,1,5,0,0
51527,-66.6666666666667,4,2,1,60,0,0
52384,-55.5555555555556,4,2,1,60,0,0
53241,-66.6666666666667,4,2,1,60,0,0
54098,-58.8235294117647,4,2,1,60,0,0
54955,-45.4545454545455,4,2,1,70,0,0
55116,-45.4545454545455,4,2,1,5,0,0
55170,-50,4,2,1,70,0,0
55598,-333.333333333333,4,2,1,70,0,0
56027,-500,4,2,1,40,0,0
56670,-47.6190476190476,4,2,2,80,0,1
56777,-47.6190476190476,4,2,1,80,0,1
57098,-58.8235294117647,4,2,1,80,0,1
59670,-47.6190476190476,4,2,1,80,0,1
60527,-58.8235294117647,4,2,1,80,0,1
63313,-47.6190476190476,4,2,1,80,0,1
63473,-47.6190476190476,4,2,1,5,0,1
63527,-47.6190476190476,4,2,2,80,0,1
63634,-47.6190476190476,4,2,1,80,0,1
63955,-58.8235294117647,4,2,1,80,0,1
66527,-47.6190476190476,4,2,1,80,0,1
67384,-58.8235294117647,4,2,1,80,0,1
68670,-45.4545454545455,4,2,1,80,0,1
68830,-45.4545454545455,4,2,1,5,0,1
68884,-45.4545454545455,4,2,1,80,0,1
69045,-45.4545454545455,4,2,1,5,0,1
69098,-45.4545454545455,4,2,1,80,0,1
69259,-45.4545454545455,4,2,1,5,0,1
69313,-45.4545454545455,4,2,1,80,0,1
69473,-45.4545454545455,4,2,1,5,0,1
69527,-58.8235294117647,4,2,1,80,0,0
70384,-47.6190476190476,4,2,2,80,0,1
70491,-47.6190476190476,4,2,1,80,0,1
70813,-58.8235294117647,4,2,1,80,0,1
73384,-47.6190476190476,4,2,1,80,0,1
74241,-58.8235294117647,4,2,1,80,0,1
77241,-47.6190476190476,4,2,2,80,0,1
77348,-47.6190476190476,4,2,1,80,0,1
77670,-58.8235294117647,4,2,1,80,0,1
80241,-47.6190476190476,4,2,1,80,0,1
80670,-47.6190476190476,4,2,2,80,0,1
80777,-47.6190476190476,4,2,1,80,0,1
81098,-58.8235294117647,4,2,1,80,0,1
82384,-58.8235294117647,4,2,1,70,0,0
84634,-50,4,2,1,70,0,0
84795,-50,4,2,1,5,0,0
84848,-58.8235294117647,4,2,1,70,0,0
85598,-50,4,2,1,70,0,0
85759,-50,4,2,1,5,0,0
85813,-58.8235294117647,4,2,1,70,0,0
86348,-50,4,2,1,70,0,0
86509,-50,4,2,1,5,0,0
86563,-58.8235294117647,4,2,1,70,0,0
88063,-50,4,2,1,70,0,0
88223,-50,4,2,1,5,0,0
88277,-58.8235294117647,4,2,1,70,0,0
88813,-41.6666666666667,4,2,1,70,0,0
88973,-41.6666666666667,4,2,1,5,0,0
89027,-58.8235294117647,4,2,1,70,0,0
89991,-41.6666666666667,4,2,1,70,0,0
90688,-41.6666666666667,4,2,1,5,0,0
90741,-41.6666666666667,4,2,1,70,0,0
90955,-58.8235294117647,4,2,1,70,0,0
91491,-50,4,2,1,70,0,0
91652,-50,4,2,1,5,0,0
91705,-58.8235294117647,4,2,1,70,0,0
92455,-50,4,2,1,70,0,0
92616,-50,4,2,1,5,0,0
92670,-58.8235294117647,4,2,1,70,0,0
93205,-50,4,2,1,70,0,0
93366,-50,4,2,1,5,0,0
93420,-58.8235294117647,4,2,1,70,0,0
94920,-50,4,2,1,70,0,0
95080,-50,4,2,1,5,0,0
95134,-58.8235294117647,4,2,1,70,0,0
95670,-41.6666666666667,4,2,1,70,0,0
95830,-41.6666666666667,4,2,1,5,0,0
95884,-58.8235294117647,4,2,1,70,0,0
96848,-41.6666666666667,4,2,1,70,0,0
98027,-83.3333333333333,4,2,1,55,0,0
99098,-125,4,2,1,55,0,0
100170,-83.3333333333333,4,2,1,55,0,0
100598,-125,4,2,1,55,0,0
101455,-83.3333333333333,4,2,1,55,0,0
102527,-125,4,2,1,55,0,0
103598,-83.3333333333333,4,2,1,55,0,0
104027,-125,4,2,1,55,0,0
104884,-83.3333333333333,4,2,1,55,0,0
105955,-125,4,2,1,55,0,0
107027,-83.3333333333333,4,2,1,55,0,0
107455,-125,4,2,1,55,0,0
108098,-58.8235294117647,4,2,1,70,0,0
108527,-47.6190476190476,4,2,1,70,0,0
108688,-55.5555555555556,4,2,1,5,0,0
108741,-58.8235294117647,4,2,1,70,0,0
109384,-47.6190476190476,4,2,1,70,0,0
109545,-47.6190476190476,4,2,1,5,0,0
109598,-47.6190476190476,4,2,1,70,0,0
110027,-58.8235294117647,4,2,1,70,0,0
111527,-47.6190476190476,4,2,10,70,0,1
111688,-47.6190476190476,4,2,1,5,0,1
111741,-58.8235294117647,4,2,11,70,0,1
111848,-58.8235294117647,4,2,1,70,0,1
111955,-58.8235294117647,4,2,12,70,0,1
112063,-58.8235294117647,4,2,13,70,0,1
112170,-58.8235294117647,4,2,14,70,0,1
112277,-58.8235294117647,4,2,15,70,0,1
112384,-38.4615384615385,4,2,16,70,0,1
112545,-47.6190476190476,4,2,1,5,0,1
112598,-58.8235294117647,4,2,1,70,0,1
112813,-58.8235294117647,4,2,17,70,0,1
112920,-58.8235294117647,4,2,18,70,0,1
113027,-58.8235294117647,4,2,19,70,0,1
113134,-58.8235294117647,4,2,21,70,0,1
113241,-45.4545454545455,4,2,12,70,0,1
113455,-45.4545454545455,4,2,20,70,0,1
113563,-45.4545454545455,4,2,12,70,0,1
113670,-45.4545454545455,4,2,22,70,0,1
113884,-45.4545454545455,4,2,1,70,0,1
114098,-45.4545454545455,4,2,15,70,0,1
114205,-45.4545454545455,4,2,1,70,0,1
114473,-45.4545454545455,4,2,1,5,0,1
114527,-40,4,2,18,70,0,1
114848,-40,4,2,1,70,0,1
114955,-58.8235294117647,4,2,23,70,0,1
115063,-58.8235294117647,4,2,1,70,0,1
115170,-58.8235294117647,4,2,24,70,0,1
115277,-58.8235294117647,4,2,1,70,0,1
115384,-58.8235294117647,4,2,25,70,0,1
115491,-58.8235294117647,4,2,26,70,0,1
115598,-58.8235294117647,4,2,20,70,0,1
115705,-58.8235294117647,4,2,21,70,0,1
115813,-38.4615384615385,4,2,16,70,0,1
115973,-38.4615384615385,4,2,1,5,0,1
116027,-58.8235294117647,4,2,27,70,0,1
116134,-58.8235294117647,4,2,1,70,0,1
116241,-58.8235294117647,4,2,15,70,0,1
116348,-58.8235294117647,4,2,16,70,0,1
116455,-58.8235294117647,4,2,14,70,0,1
116563,-58.8235294117647,4,2,28,70,0,1
116670,-58.8235294117647,4,2,26,70,0,1
116777,-58.8235294117647,4,2,13,70,0,1
116884,-58.8235294117647,4,2,14,70,0,1
116991,-58.8235294117647,4,2,15,70,0,1
117098,-58.8235294117647,4,2,13,70,0,1
117205,-58.8235294117647,4,2,12,70,0,1
117313,-58.8235294117647,4,2,29,70,0,1
117420,-58.8235294117647,4,2,30,70,0,1
117527,-58.8235294117647,4,2,12,70,0,1
117634,-58.8235294117647,4,2,15,70,0,1
117741,-58.8235294117647,4,2,31,70,0,1
117848,-58.8235294117647,4,2,32,70,0,1
117955,-58.8235294117647,4,2,17,70,0,1
118063,-58.8235294117647,4,2,18,70,0,1
118170,-45.4545454545455,4,2,19,70,0,1
118330,-45.4545454545455,4,2,1,5,0,1
118384,-38.4615384615385,4,2,33,70,0,1
118491,-38.4615384615385,4,2,1,70,0,1
118598,-38.4615384615385,4,2,14,70,0,1
118705,-38.4615384615385,4,2,16,70,0,1
118813,-58.8235294117647,4,2,15,70,0,1
118920,-58.8235294117647,4,2,1,70,0,1
119027,-58.8235294117647,4,2,31,70,0,1
119134,-58.8235294117647,4,2,1,70,0,1
119241,-50,4,2,17,70,0,1
119348,-50,4,2,1,70,0,1
119455,-50,4,2,27,70,0,1
119527,-50,4,2,17,70,0,1
119598,-50,4,2,18,70,0,1
119670,-38.4615384615385,4,2,18,70,0,1
119830,-38.4615384615385,4,2,1,5,0,1
119884,-58.8235294117647,4,2,29,70,0,1
119991,-58.8235294117647,4,2,1,70,0,1
120098,-58.8235294117647,4,2,22,70,0,1
120205,-58.8235294117647,4,2,1,70,0,1
120313,-58.8235294117647,4,2,29,70,0,1
120420,-58.8235294117647,4,2,1,70,0,1
120527,-58.8235294117647,4,2,18,70,0,1
120634,-58.8235294117647,4,2,1,70,0,1
120741,-50,4,2,31,70,0,1
120848,-50,4,2,1,70,0,1
120955,-50,4,2,12,70,0,1
121063,-50,4,2,1,70,0,1
121170,-50,4,2,34,70,0,1
121277,-50,4,2,1,70,0,1
121384,-50,4,2,18,70,0,1
121491,-50,4,2,1,70,0,1
121598,-38.4615384615385,4,2,31,70,0,1
121759,-38.4615384615385,4,2,1,5,0,1
121813,-38.4615384615385,4,2,32,70,0,1
122027,-38.4615384615385,4,2,34,70,0,1
122134,-38.4615384615385,4,2,32,70,0,1
122241,-38.4615384615385,4,2,30,70,0,1
122348,-38.4615384615385,4,2,1,70,0,1
122455,-38.4615384615385,4,2,27,70,0,1
122563,-38.4615384615385,4,2,30,70,0,1
122670,-45.4545454545455,4,2,18,70,0,1
122777,-45.4545454545455,4,2,1,70,0,1
122884,-45.4545454545455,4,2,29,70,0,1
122991,-45.4545454545455,4,2,18,70,0,1
123098,-58.8235294117647,4,2,16,70,0,1
123205,-58.8235294117647,4,2,1,70,0,1
123313,-58.8235294117647,4,2,14,70,0,1
123420,-58.8235294117647,4,2,16,70,0,1
123527,-58.8235294117647,4,2,15,70,0,1
123634,-58.8235294117647,4,2,12,70,0,1
123741,-58.8235294117647,4,2,14,70,0,1
123848,-58.8235294117647,4,2,13,70,0,1
123955,-58.8235294117647,4,2,18,70,0,1
124063,-58.8235294117647,4,2,12,70,0,1
124170,-58.8235294117647,4,2,14,70,0,1
124277,-58.8235294117647,4,2,13,70,0,1
124384,-58.8235294117647,4,2,30,70,0,1
124491,-58.8235294117647,4,2,12,70,0,1
124598,-58.8235294117647,4,2,14,70,0,1
124705,-58.8235294117647,4,2,13,70,0,1
124813,-58.8235294117647,4,2,17,70,0,1
124920,-58.8235294117647,4,2,12,70,0,1
125027,-58.8235294117647,4,2,20,70,0,1
125134,-58.8235294117647,4,2,12,70,0,1
125241,-58.8235294117647,4,2,35,55,0,0
125670,-166.666666666667,4,2,1,35,0,0
126955,-100,4,2,1,35,0,0
128670,-125,4,2,1,35,0,0
132955,-166.666666666667,4,2,1,35,0,0
133813,-100,4,2,1,35,0,0
135527,-125,4,2,1,35,0,0
138955,-125,4,2,1,20,0,0
142384,-200,4,2,1,35,0,0
145705,-250,4,2,1,5,0,0
145813,-250,4,2,1,35,0,0
148813,-100,4,2,1,45,0,0
149241,-250,4,2,1,45,0,0
149670,-166.666666666667,4,2,1,45,0,0
150098,-125,4,2,1,45,0,0
150527,-100,4,2,1,45,0,0
150955,-83.3333333333333,4,2,1,35,0,0
151813,-83.3333333333333,4,2,1,45,0,0
152670,-100,4,2,1,55,0,0
153527,-100,4,2,1,65,0,0
154384,-62.5,4,2,1,70,0,0
154438,-62.5,4,2,1,5,0,0
154598,-62.5,4,2,1,70,0,0
154652,-62.5,4,2,1,5,0,0
154813,-62.5,4,2,1,70,0,0
154866,-62.5,4,2,1,5,0,0
155027,-62.5,4,2,1,70,0,0
155080,-62.5,4,2,1,5,0,0
155455,-41.6666666666667,4,2,1,60,0,0
155616,-41.6666666666667,4,2,1,5,0,0
155670,-41.6666666666667,4,2,1,70,0,0
156099,-47.6190476190476,4,2,2,80,0,1
156205,-47.6190476190476,4,2,1,80,0,1
156527,-58.8235294117647,4,2,1,80,0,1
159098,-47.6190476190476,4,2,1,80,0,1
159955,-58.8235294117647,4,2,1,80,0,1
161670,-43.4782608695652,4,2,1,80,0,1
161830,-43.4782608695652,4,2,1,5,0,1
161884,-58.8235294117647,4,2,1,80,0,1
162741,-47.6190476190476,4,2,1,80,0,1
162955,-47.6190476190476,4,2,2,80,0,1
163063,-58.8235294117647,4,2,1,80,0,1
165955,-47.6190476190476,4,2,1,80,0,1
166384,-47.6190476190476,4,2,2,80,0,1
166491,-58.8235294117647,4,2,1,80,0,1
167241,-47.6190476190476,4,2,1,80,0,1
167830,-47.6190476190476,4,2,1,5,0,1
167884,-58.8235294117647,4,2,1,80,0,1
168099,-58.8235294117647,4,2,1,80,0,0
169384,-47.6190476190476,4,2,1,80,0,0
169545,-47.6190476190476,4,2,1,5,0,0
169598,-58.8235294117647,4,2,1,80,0,0
169813,-58.8235294117647,4,2,1,70,0,0
171098,-333.333333333333,4,2,1,70,0,0
171527,-38.4615384615385,4,2,2,85,0,1
171634,-52.6315789473684,4,2,1,85,0,1
174527,-43.4782608695652,4,2,1,85,0,1
174955,-38.4615384615385,4,2,1,85,0,1
175384,-52.6315789473684,4,2,1,85,0,1
176027,-43.4782608695652,4,2,1,85,0,1
176188,-43.4782608695652,4,2,1,5,0,1
176241,-52.6315789473684,4,2,1,85,0,1
177098,-43.4782608695652,4,2,1,85,0,1
177259,-43.4782608695652,4,2,1,5,0,1
177313,-52.6315789473684,4,2,1,85,0,1
178384,-38.4615384615385,4,2,2,85,0,1
178491,-52.6315789473684,4,2,1,85,0,1
181384,-43.4782608695652,4,2,1,85,0,1
181813,-38.4615384615385,4,2,2,85,0,1
181920,-52.6315789473684,4,2,1,85,0,1
183527,-43.4782608695652,4,2,1,85,0,1
183688,-43.4782608695652,4,2,1,5,0,1
183741,-43.4782608695652,4,2,1,85,0,1
183902,-43.4782608695652,4,2,1,5,0,1
183955,-43.4782608695652,4,2,1,85,0,1
184116,-43.4782608695652,4,2,1,5,0,1
184170,-43.4782608695652,4,2,1,85,0,1
184330,-43.4782608695652,4,2,1,5,0,1
184384,-52.6315789473684,4,2,1,85,0,0
185241,-38.4615384615385,4,2,2,85,0,1
185348,-52.6315789473684,4,2,1,85,0,1
188241,-43.4782608695652,4,2,1,85,0,1
188670,-38.4615384615385,4,2,1,85,0,1
188777,-52.6315789473684,4,2,1,85,0,1
189741,-43.4782608695652,4,2,1,85,0,1
189902,-43.4782608695652,4,2,1,5,0,1
189955,-52.6315789473684,4,2,1,85,0,1
190813,-43.4782608695652,4,2,1,85,0,1
190973,-43.4782608695652,4,2,1,5,0,1
191027,-52.6315789473684,4,2,1,85,0,1
192098,-38.4615384615385,4,2,2,85,0,1
192205,-52.6315789473684,4,2,1,85,0,1
195098,-43.4782608695652,4,2,1,85,0,1
195527,-38.4615384615385,4,2,2,85,0,1
195634,-52.6315789473684,4,2,1,85,0,1
197241,-43.4782608695652,4,2,1,85,0,1
197402,-43.4782608695652,4,2,1,5,0,1
197455,-52.6315789473684,4,2,1,85,0,1
198313,-43.4782608695652,4,2,1,85,0,1
198473,-43.4782608695652,4,2,1,5,0,1
198527,-52.6315789473684,4,2,1,85,0,1
198955,-38.4615384615385,4,2,2,85,0,1
199063,-52.6315789473684,4,2,1,85,0,1
200670,-43.4782608695652,4,2,1,75,0,0
200884,-250,4,2,1,75,0,0
201313,-43.4782608695652,4,2,1,75,0,0
201527,-83.3333333333333,4,2,1,75,0,0
201955,-43.4782608695652,4,2,1,75,0,0
202384,-55.5555555555556,4,2,1,75,0,0
202920,-50,4,2,1,75,0,0
203080,-50,4,2,1,5,0,0
203134,-55.5555555555556,4,2,1,75,0,0
203884,-50,4,2,1,75,0,0
204045,-50,4,2,1,5,0,0
204098,-55.5555555555556,4,2,1,75,0,0
204634,-50,4,2,1,75,0,0
204795,-50,4,2,1,5,0,0
204848,-55.5555555555556,4,2,1,75,0,0
205384,-50,4,2,1,75,0,0
205813,-55.5555555555556,4,2,1,75,0,0
206348,-50,4,2,1,75,0,0
206509,-50,4,2,1,5,0,0
206563,-55.5555555555556,4,2,1,75,0,0
207098,-41.6666666666667,4,2,1,75,0,0
207259,-41.6666666666667,4,2,1,5,0,0
207313,-55.5555555555556,4,2,1,75,0,0
207527,-55.5555555555556,4,2,1,75,0,1
208277,-41.6666666666667,4,2,1,75,0,1
208438,-41.6666666666667,4,2,1,5,0,1
208491,-41.6666666666667,4,2,1,75,0,1
208813,-33.3333333333333,4,2,1,75,0,1
208973,-33.3333333333333,4,2,1,5,0,1
209027,-50,4,2,1,75,0,1
209241,-55.5555555555556,4,2,1,75,0,0
209777,-50,4,2,1,75,0,0
209938,-50,4,2,1,5,0,0
209991,-55.5555555555556,4,2,1,75,0,0
210741,-50,4,2,1,75,0,0
210902,-50,4,2,1,5,0,0
210955,-55.5555555555556,4,2,1,75,0,0
211491,-50,4,2,1,75,0,0
211652,-50,4,2,1,5,0,0
211705,-55.5555555555556,4,2,1,75,0,0
212241,-50,4,2,1,75,0,0
212670,-55.5555555555556,4,2,1,75,0,0
213205,-50,4,2,1,75,0,0
213366,-50,4,2,1,5,0,0
213420,-55.5555555555556,4,2,1,75,0,0
213955,-41.6666666666667,4,2,1,75,0,0
214116,-41.6666666666667,4,2,1,5,0,0
214170,-55.5555555555556,4,2,1,75,0,0
214384,-55.5555555555556,4,2,1,75,0,1
215134,-33.3333333333333,4,2,1,75,0,1
215402,-33.3333333333333,4,2,1,5,0,1
215455,-33.3333333333333,4,2,1,75,0,1
215991,-33.3333333333333,4,2,1,75,0,0

[Colours]
Combo1 : 167,216,198
Combo2 : 253,187,147
Combo3 : 149,149,230
Combo4 : 237,164,181

[HitObjects]
8,14,1813,6,0,B|73:27|73:27|81:39|81:39|161:57,1,150,2|0,3:2|0:0,0:0:0:0:
214,11,2241,1,2,3:2:0:0:
227,13,2455,1,2,0:0:0:0:
362,141,2670,6,0,P|344:181|245:180,1,150,2|0,3:2|0:0,0:0:0:0:
204,121,3098,1,2,3:2:0:0:
191,119,3312,1,2,0:0:0:0:
18,293,3527,5,2,3:2:0:0:
79,197,3740,1,2,0:0:0:0:
0,213,3955,1,2,3:2:0:0:
96,275,4170,1,2,0:0:0:0:
178,261,4384,6,0,L|159:363,1,100,0|2,3:0|0:0,0:0:0:0:
410,240,4813,2,0,B|416:210|416:210|334:231|334:231|331:257|314:269,1,150,2|0,3:2|0:0,0:0:0:0:
252,306,5241,6,0,P|302:296|365:373,1,150,2|0,3:2|0:0,0:0:0:0:
442,332,5670,1,2,3:2:0:0:
447,315,5884,1,2,0:0:0:0:
352,145,6098,5,2,3:2:0:0:
507,218,6313,2,0,L|402:241,1,100,2|0,0:0|3:0,0:0:0:0:
323,264,6741,5,2,0:0:0:0:
455,70,6955,5,2,3:2:0:0:
433,154,7170,1,2,0:0:0:0:
289,90,7384,5,2,3:2:0:0:
267,6,7599,1,2,0:0:0:0:
137,156,7813,6,0,L|292:191,1,150,2|0,3:2|0:0,0:0:0:0:
90,74,8241,6,0,B|114:208|114:208|83:222|76:254,1,194.999991073609,2|0,3:2|0:0,0:0:0:0:
0,286,8670,6,0,P|70:276|132:374,1,179.999994506836,6|0,3:2|0:0,0:0:0:0:
203,310,9098,1,2,3:2:0:0:
269,356,9313,1,2,0:0:0:0:
416,257,9527,6,0,P|346:267|284:169,1,179.999994506836,2|0,3:2|0:0,0:0:0:0:
216,145,9955,1,2,3:2:0:0:
330,26,10170,1,2,0:0:0:0:
196,61,10384,5,2,3:2:0:0:
272,84,10598,1,2,0:0:0:0:
448,165,10813,5,2,3:2:0:0:
372,188,11027,1,2,0:0:0:0:
330,26,11241,5,0,3:0:0:0:
216,145,11455,6,0,B|205:133|187:138|187:138|176:153|162:155,1,59.9999981689454,2|0,0:0|0:0,0:0:0:0:
8,162,11670,6,0,B|-9:127|-9:127|86:154|86:154|85:191|116:211,1,194.999991073609,6|0,3:2|0:0,0:0:0:0:
197,247,12098,6,0,P|181:258|179:277,1,29.9999990844727,6|0,3:2|0:0,0:0:0:0:
82,279,12313,2,0,P|83:298|98:309,1,29.9999990844727,2|0,0:0|0:0,0:0:0:0:
210,241,12527,6,0,P|192:227|172:232,1,40,2|0,3:2|0:0,0:0:0:0:
119,384,12741,2,0,P|140:384|154:368,1,40,2|0,3:2|0:0,0:0:0:0:
288,264,12955,6,0,P|296:238|283:215,1,50,2|0,3:2|0:0,0:0:0:0:
226,1,13170,2,0,P|204:17|201:43,1,50,2|0,3:2|0:0,0:0:0:0:
159,261,13384,6,0,P|190:260|211:237,1,59.9999981689454,2|0,3:2|0:0,0:0:0:0:
329,76,13598,2,0,P|302:57|272:63,1,59.9999981689454,2|0,3:2|0:0,0:0:0:0:
97,118,13813,5,2,0:0:0:0:
28,84,14027,1,2,0:0:0:0:
28,84,14455,5,2,0:0:0:0:
90,305,14669,1,2,0:0:0:0:
0,336,14884,5,4,3:0:0:0:
3,327,14955,1,4,3:0:0:0:
6,318,15027,1,4,3:0:0:0:
9,311,15098,6,0,B|98:328|98:328|115:350|115:350|227:369,1,209.999993591309,14|0,0:0|0:0,0:0:0:0:
362,346,15527,6,0,P|358:300|318:268,1,85.0000016212464,6|0,3:2|0:0,0:0:0:0:
253,306,15741,2,0,P|254:351|295:383,1,85.0000016212464,2|0,0:3|0:0,0:0:0:0:
467,177,15955,1,10,0:0:0:0:
410,232,16063,2,0,P|337:235|292:155,1,150,2|0,0:0|0:0,0:0:0:0:
234,127,16277,6,0,P|277:128|304:81,1,85.0000016212464,2|0,0:0|3:0,0:0:0:0:
219,0,16491,1,2,0:0:0:0:
364,52,16598,2,0,P|320:53|293:6,1,85.0000016212464,2|0,0:3|0:0,0:0:0:0:
135,80,16813,6,0,P|133:62|145:86,1,85.0000016212464,10|0,0:0|0:0,0:0:0:0:
293,178,17027,2,0,P|213:180|166:252,1,150,2|0,0:3|0:0,0:0:0:0:
108,275,17241,6,0,P|60:273|32:231,1,85.0000016212464,2|0,3:2|0:0,0:0:0:0:
63,52,17455,2,0,P|110:53|138:95,1,85.0000016212464,2|0,0:3|0:0,0:0:0:0:
331,249,17670,1,10,0:0:0:0:
293,178,17777,2,0,P|213:180|166:252,1,150,2|0,0:0|0:0,0:0:0:0:
108,275,17991,6,0,P|155:278|180:322,1,85.0000016212464,2|0,0:0|3:0,0:0:0:0:
306,373,18205,1,2,0:0:0:0:
187,383,18313,6,0,P|213:380|227:356,1,42.5000008106232,10|0,0:0|0:0,0:0:0:0:
457,326,18527,2,0,P|373:316|331:224,1,170.000003242493,10|2,0:0|0:3,0:0:0:0:
246,31,18955,6,0,B|225:18|246:10|254:-1|254:-1|262:10|283:19|263:31,1,85.0000016212464,2|0,3:2|0:0,0:0:0:0:
363,144,19170,2,0,P|322:147|289:190,1,85.0000016212464,2|0,0:3|0:0,0:0:0:0:
108,275,19384,1,10,0:0:0:0:
64,208,19491,2,0,P|112:244|216:256,1,150,2|0,0:0|0:0,0:0:0:0:
265,302,19705,6,0,P|224:305|191:348,1,85.0000016212464,2|0,0:0|3:0,0:0:0:0:
108,275,19920,1,2,0:0:0:0:
135,384,20027,2,0,P|94:381|61:338,1,85.0000016212464,2|0,0:3|0:0,0:0:0:0:
0,134,20241,6,0,P|96:122|171:59,1,179.999994506836,14|0,0:0|0:0,0:0:0:0:
226,33,20455,2,0,P|184:29|155:0,1,85.0000016212464,2|0,0:3|0:0,0:0:0:0:
292,177,20670,6,0,P|321:147|363:144,1,85.0000016212464,6|0,3:2|0:0,0:0:0:0:
428,187,20884,5,10,0:0:0:0:
359,223,20991,1,10,0:0:0:0:
379,51,21098,2,0,P|416:69|432:108,1,85.0000016212464,10|0,0:0|3:0,0:0:0:0:
382,342,21313,5,6,3:0:0:0:
510,216,21420,2,0,P|428:299|311:293,1,239.999992675781,14|4,0:0|3:0,0:0:0:0:
149,161,21741,5,6,3:0:0:0:
47,222,21848,1,4,3:0:0:0:
108,275,21955,2,0,P|124:192|81:88,1,179.999994506836,14|0,0:0|0:0,0:0:0:0:
43,41,22170,2,0,B|18:40|32:22|33:9|33:9|46:14|69:12|57:32,1,85.0000016212464,2|8,0:3|0:0,0:0:0:0:
221,131,22384,6,0,P|170:137|142:182,1,85.0000016212464,6|0,3:2|0:0,0:0:0:0:
232,21,22598,2,0,P|262:48|304:50,1,85.0000016212464,2|0,0:3|0:0,0:0:0:0:
503,156,22813,1,10,0:0:0:0:
460,90,22920,2,0,P|387:87|342:167,1,150,2|0,0:0|0:0,0:0:0:0:
281,189,23134,6,0,P|332:195|360:240,1,85.0000016212464,2|0,0:0|3:0,0:0:0:0:
310,363,23348,1,2,0:0:0:0:
418,265,23455,2,0,P|367:271|339:316,1,85.0000016212464,2|0,0:3|0:0,0:0:0:0:
208,384,23670,6,0,P|209:352|220:380,1,85.0000016212464,10|0,0:0|0:0,0:0:0:0:
281,189,23884,2,0,P|236:245|164:242,1,150,2|0,0:3|0:0,0:0:0:0:
109,186,24098,6,0,L|127:93,1,85.0000016212464,2|0,3:2|0:0,0:0:0:0:
0,340,24313,2,0,P|42:337|69:371,1,85.0000016212464,2|0,0:3|0:0,0:0:0:0:
228,126,24527,1,10,0:0:0:0:
281,189,24634,2,0,P|236:245|164:242,1,150,2|0,0:0|0:0,0:0:0:0:
109,186,24848,6,0,P|66:183|39:217,1,85.0000016212464,2|0,0:0|3:0,0:0:0:0:
0,340,25063,1,2,0:0:0:0:
105,298,25170,6,0,P|87:285|63:290,1,42.5000008106232,10|0,0:0|0:0,0:0:0:0:
12,81,25384,2,0,P|84:84|166:0,1,170.000003242493,10|2,0:0|0:3,0:0:0:0:
421,39,25813,6,0,B|443:34|427:18|423:5|423:5|412:13|389:13|405:33,1,85.0000016212464,2|0,3:2|0:0,0:0:0:0:
232,50,26027,2,0,P|278:55|310:90,1,85.0000016212464,2|0,0:3|0:0,0:0:0:0:
462,207,26241,1,10,0:0:0:0:
512,142,26348,2,0,P|465:169|359:184,1,150,2|0,0:0|0:0,0:0:0:0:
306,229,26563,6,0,P|352:234|382:273,1,85.0000016212464,2|0,0:0|3:0,0:0:0:0:
290,331,26777,1,2,0:0:0:0:
438,306,26884,2,0,P|391:311|364:349,1,85.0000016212464,2|0,0:3|0:0,0:0:0:0:
203,384,27098,6,0,P|209:287|182:190,1,179.999994506836,14|0,0:0|0:0,0:0:0:0:
155,136,27313,2,0,B|131:130|148:116|152:103|152:103|163:110|186:112|171:130,1,85.0000016212464,2|0,0:3|0:0,0:0:0:0:
144,384,27527,6,0,P|114:355|73:353,1,85.0000016212464,6|0,3:2|0:0,0:0:0:0:
189,207,27741,5,10,0:0:0:0:
238,272,27848,1,4,3:0:0:0:
308,106,27955,2,0,P|271:125|255:164,1,85.0000016212464,10|0,0:0|3:0,0:0:0:0:
133,318,28170,5,6,3:0:0:0:
54,177,28277,2,0,P|104:260|253:262,1,239.999992675781,14|4,0:0|3:0,0:0:0:0:
380,162,28598,5,4,3:0:0:0:
375,145,28705,1,4,3:0:0:0:
452,35,28813,5,10,0:0:0:0:
308,106,28920,1,8,0:0:0:0:
461,139,29027,5,10,0:0:0:0:
290,0,29134,1,8,0:0:0:0:
379,69,29241,5,6,3:2:0:0:
171,131,29455,6,0,P|220:129|258:175,2,100,2|2|2,0:0|3:2|0:3,0:0:0:0:
9,28,30098,6,0,P|18:0|76:53,1,150,2|0,3:2|0:0,0:0:0:0:
33,127,30527,6,0,P|24:114|32:98,1,29.9999990844727,10|0,0:0|0:0,0:0:0:0:
80,47,30741,1,2,0:3:0:0:
191,208,30955,6,0,P|194:222|186:233,1,29.9999990844727,2|0,3:2|0:0,0:0:0:0:
106,216,31170,2,0,P|102:201|110:190,1,29.9999990844727,2|0,0:3|0:0,0:0:0:0:
204,209,31384,2,0,P|207:223|199:234,1,29.9999990844727,2|0,3:2|0:0,0:0:0:0:
35,258,31598,6,0,P|87:261|116:306,1,100,2|0,0:3|3:0,0:0:0:0:
279,327,32027,5,2,0:3:0:0:
350,311,32134,1,8,0:0:0:0:
310,296,32241,1,10,0:0:0:0:
330,384,32455,5,2,0:3:0:0:
294,178,32670,5,2,3:2:0:0:
408,218,32884,2,0,P|373:211|403:227,1,100,2|0,0:3|3:0,0:0:0:0:
221,0,33313,5,2,0:3:0:0:
80,47,33527,2,0,B|155:62|155:62|164:79|164:79|254:98,1,179.999994506836,2|0,3:2|0:0,0:0:0:0:
294,178,33955,6,0,P|303:165|295:149,1,29.9999990844727,10|0,0:0|0:0,0:0:0:0:
246,96,34169,1,2,0:3:0:0:
511,0,34384,6,0,P|494:3|488:20,1,29.9999990844727,2|0,3:2|0:0,0:0:0:0:
359,99,34598,2,0,P|369:111|383:112,1,29.9999990844727,2|0,0:3|0:0,0:0:0:0:
410,11,34813,2,0,P|404:25|411:38,1,29.9999990844727,2|0,3:2|0:0,0:0:0:0:
512,212,35027,6,0,P|463:214|424:259,1,100,2|0,0:3|3:0,0:0:0:0:
267,332,35455,5,2,0:3:0:0:
174,314,35562,1,8,0:0:0:0:
225,293,35669,1,10,0:0:0:0:
209,384,35883,5,10,0:0:0:0:
246,206,36098,5,0,3:0:0:0:
98,384,36313,6,0,P|84:333|24:304,2,100,2|0|2,0:3|3:0|0:3,0:0:0:0:
301,138,36955,6,0,P|292:166|234:113,1,150,2|0,3:2|0:0,0:0:0:0:
277,39,37384,6,0,P|286:52|278:68,1,29.9999990844727,10|0,0:0|0:0,0:0:0:0:
230,119,37598,1,2,0:3:0:0:
27,105,37813,6,0,P|24:91|32:80,1,29.9999990844727,2|0,3:2|0:0,0:0:0:0:
112,97,38028,2,0,P|116:112|108:123,1,29.9999990844727,2|0,0:3|0:0,0:0:0:0:
14,104,38242,2,0,P|11:90|19:79,1,29.9999990844727,2|0,3:2|0:0,0:0:0:0:
183,55,38456,6,0,P|131:52|102:7,1,100,2|0,0:3|3:0,0:0:0:0:
202,191,38884,5,2,0:3:0:0:
274,181,38991,1,8,0:0:0:0:
241,209,39098,1,10,0:0:0:0:
230,119,39312,5,2,0:3:0:0:
0,218,39527,6,0,L|38:227,1,29.9999990844727,2|0,3:2|0:0,0:0:0:0:
75,236,39741,2,0,L|46:230,1,29.9999990844727,2|0,0:3|0:0,0:0:0:0:
74,384,39955,6,0,L|113:375,1,40,2|0,3:2|0:0,0:0:0:0:
224,347,40169,2,0,L|185:356,1,40,2|0,0:3|0:0,0:0:0:0:
106,162,40384,6,0,L|135:316,1,139.999995727539,2|2,3:2|0:3,0:0:0:0:
452,309,40813,6,0,P|436:350|395:266,1,209.999993591309,14|8,0:0|0:0,0:0:0:0:
434,205,41241,6,0,B|385:191|361:224|367:230|340:269|283:243,1,150,6|0,3:0|0:0,0:0:0:0:
263,42,41563,6,0,B|275:90|316:94|318:86|365:90|371:153,1,150,6|0,3:0|0:0,0:0:0:0:
203,268,41884,6,0,B|239:233|222:195|213:197|194:155|244:118,1,150,6|0,3:0|0:0,0:0:0:0:
297,170,42098,5,14,3:2:0:0:
0,11,42527,6,0,P|39:50|82:46,1,89.9999972534181,2|0,0:3|0:0,0:0:0:0:
158,22,42955,6,0,L|143:105,1,69.9999978637696,6|0,3:2|0:0,0:0:0:0:
4,164,43170,1,2,0:0:0:0:
0,175,43277,1,2,0:0:0:0:
29,199,43384,6,0,L|112:183,1,69.9999978637696,10|0,0:0|0:0,0:0:0:0:
309,188,43598,1,2,0:0:0:0:
314,173,43705,1,2,0:0:0:0:
283,134,43813,5,2,3:2:0:0:
169,224,43920,2,0,L|252:208,1,69.9999978637696,2|0,0:0|0:0,0:0:0:0:
474,189,44134,1,2,0:0:0:0:
399,162,44241,6,0,L|383:234,1,69.9999978637696,10|0,0:0|0:0,0:0:0:0:
329,329,44455,2,0,L|462:302,1,127.50000243187,2|0,0:0|0:0,0:0:0:0:
464,297,44670,6,0,P|470:274|453:293,1,69.9999978637696,2|0,3:2|0:0,0:0:0:0:
262,384,44884,1,2,0:0:0:0:
266,369,44991,1,2,0:0:0:0:
238,335,45098,6,0,L|150:352,1,69.9999978637696,10|0,0:0|0:0,0:0:0:0:
0,346,45313,2,0,P|44:333|99:391,1,127.50000243187,2|0,0:0|0:0,0:0:0:0:
169,348,45527,6,0,L|158:287,1,50,2|0,3:2|0:0,0:0:0:0:
122,103,45741,2,0,L|130:152,1,50,2|0,0:0|0:0,0:0:0:0:
275,202,45955,6,0,L|206:214,1,69.9999978637696,10|0,0:0|0:0,0:0:0:0:
14,252,46170,2,0,L|82:239,1,69.9999978637696,2|0,0:3|0:0,0:0:0:0:
113,25,46384,6,0,B|129:12|109:7|101:1|101:1|97:9|80:19|100:28,1,69.9999978637696,2|0,3:2|0:0,0:0:0:0:
218,104,46598,2,0,B|198:112|215:122|219:131|219:131|227:124|247:119|231:106,1,69.9999978637696,2|0,0:0|0:0,0:0:0:0:
464,0,46813,5,10,0:0:0:0:
453,32,46920,1,2,0:0:0:0:
423,48,47027,1,2,0:0:0:0:
390,40,47134,1,2,0:0:0:0:
324,84,47241,6,0,L|341:163,1,69.9999978637696,2|0,3:2|0:0,0:0:0:0:
505,289,47455,1,2,0:0:0:0:
512,276,47563,1,2,0:0:0:0:
476,242,47670,6,0,L|400:257,1,69.9999978637696,10|0,0:0|0:0,0:0:0:0:
248,259,47884,2,0,P|305:259|348:328,1,127.50000243187,2|0,0:0|0:0,0:0:0:0:
407,255,48098,6,0,L|394:198,1,50,2|0,3:2|0:0,0:0:0:0:
262,332,48313,2,0,L|272:380,1,50,2|0,0:0|0:0,0:0:0:0:
499,364,48527,6,0,L|423:379,1,69.9999978637696,10|0,0:0|0:0,0:0:0:0:
248,259,48741,2,0,L|172:274,1,69.9999978637696,10|0,0:0|0:0,0:0:0:0:
52,176,48955,5,2,3:2:0:0:
111,229,49063,1,8,0:0:0:0:
143,78,49170,2,0,L|128:155,1,75.0000028610231,2|0,0:3|0:0,0:0:0:0:
98,312,49384,5,2,3:2:0:0:
179,272,49491,1,8,0:0:0:0:
0,261,49598,2,0,P|55:260|100:332,1,127.50000243187,2|0,0:3|0:0,0:0:0:0:
122,384,49813,6,0,L|198:369,1,75.0000028610231,6|0,3:2|0:0,0:0:0:0:
333,297,50027,1,2,0:3:0:0:
339,279,50134,1,2,0:0:0:0:
248,259,50241,6,0,L|263:335,1,75.0000028610231,10|0,0:0|0:0,0:0:0:0:
395,219,50455,5,2,0:3:0:0:
364,175,50563,1,2,0:0:0:0:
321,200,50670,1,2,3:2:0:0:
339,279,50777,6,0,L|479:253,1,134.999995880127,2|0,0:0|0:0,0:0:0:0:
477,241,50991,5,2,0:0:0:0:
463,337,51098,2,0,L|371:355,1,75.0000028610231,10|0,0:0|0:0,0:0:0:0:
149,225,51313,2,0,P|224:214|244:137,1,134.999995880127,2|0,0:3|0:0,0:0:0:0:
310,119,51527,5,2,3:2:0:0:
304,100,51634,1,2,0:0:0:0:
270,64,51741,1,2,0:3:0:0:
276,45,51848,1,2,0:0:0:0:
341,0,51955,6,0,L|427:16,1,75.0000028610231,10|0,0:0|0:0,0:0:0:0:
176,84,52170,1,2,0:3:0:0:
130,24,52277,1,8,0:0:0:0:
208,1,52384,6,0,P|179:45|57:47,1,179.999994506836,2|2,3:2|0:3,0:0:0:0:
99,206,52813,5,10,0:0:0:0:
58,146,52920,1,8,0:0:0:0:
173,191,53027,1,2,0:3:0:0:
180,203,53241,6,0,L|159:289,1,75.0000028610231,6|0,3:2|0:0,0:0:0:0:
19,384,53455,2,0,P|8:368|28:383,1,75.0000028610231,6|4,3:0|3:0,0:0:0:0:
220,328,53670,5,10,0:0:0:0:
147,350,53777,1,2,0:0:0:0:
162,275,53884,1,2,0:3:0:0:
200,368,53991,2,0,P|220:368|226:393,1,37.5000014305115,4|0,3:2|0:0,0:0:0:0:
299,345,54098,6,0,P|361:327|371:295,1,85.0000016212464,2|4,0:0|3:0,0:0:0:0:
512,194,54313,2,0,P|450:176|440:144,1,85.0000016212464,6|4,3:0|3:0,0:0:0:0:
221,35,54527,5,10,0:0:0:0:
341,51,54634,1,8,0:0:0:0:
234,109,54741,1,8,0:0:0:0:
288,0,54848,1,8,0:0:0:0:
309,120,54955,6,0,P|240:133|178:205,1,165.000005035401,6|0,3:2|0:0,0:0:0:0:
107,221,55170,2,0,P|62:212|23:165,1,100,2|0,3:0|0:0,0:0:0:0:
304,209,55384,6,0,B|324:226|297:234|285:243|285:243|277:229|254:215|283:202,1,100,10|0,3:2|0:0,0:0:0:0:
133,1,55598,6,0,B|121:11|126:29|126:29|140:40|142:54,1,59.9999981689454,14|0,0:0|0:0,0:0:0:0:
404,152,56670,6,0,P|438:77|325:142,1,314.999990386963,14|0,3:2|0:0,0:0:0:0:
247,164,57098,6,0,P|293:168|319:214,1,85.0000016212464,10|0,0:0|0:0,0:0:0:0:
485,332,57313,2,0,P|439:336|413:382,1,85.0000016212464,2|0,0:3|0:0,0:0:0:0:
198,261,57527,6,0,P|268:264|408:136,1,255.000004863739,2|0,3:2|0:0,0:0:0:0:
484,93,57955,6,0,P|477:71|476:101,1,85.0000016212464,10|0,0:0|0:0,0:0:0:0:
247,164,58170,2,0,P|293:168|319:214,1,85.0000016212464,2|0,0:3|0:0,0:0:0:0:
472,183,58384,6,0,P|426:179|400:133,1,85.0000016212464,2|0,3:2|0:0,0:0:0:0:
201,72,58598,2,0,P|247:68|273:22,1,85.0000016212464,2|0,0:3|0:0,0:0:0:0:
393,275,58813,2,0,P|386:253|385:283,1,85.0000016212464,10|0,0:0|0:0,0:0:0:0:
77,288,59027,5,10,3:0:0:0:
167,201,59134,1,8,0:0:0:0:
210,323,59241,1,4,3:0:0:0:
150,274,59348,1,8,0:0:0:0:
12,335,59455,6,0,P|49:334|86:393,1,85.0000016212464,2|0,0:3|0:0,0:0:0:0:
247,164,59670,2,0,P|169:164|81:33,1,209.999993591309,10|2,0:0|0:3,0:0:0:0:
86,206,59991,1,2,0:0:0:0:
313,115,60098,6,0,P|347:57|229:100,1,314.999990386963,2|2,3:2|0:0,0:0:0:0:
390,183,60527,6,0,P|344:187|318:233,1,85.0000016212464,10|0,0:0|0:0,0:0:0:0:
187,351,60741,2,0,P|233:355|259:401,1,85.0000016212464,2|0,0:3|0:0,0:0:0:0:
466,200,60955,6,0,P|439:159|448:114,1,85.0000016212464,2|0,3:2|0:0,0:0:0:0:
247,164,61170,2,0,P|303:242|305:341,1,170.000003242493,2|8,0:3|0:0,0:0:0:0:
447,366,61491,5,2,0:0:0:0:
424,289,61598,2,0,P|418:266|412:297,1,85.0000016212464,2|0,0:3|0:0,0:0:0:0:
135,266,61813,6,0,P|181:262|207:216,1,85.0000016212464,2|0,3:2|0:0,0:0:0:0:
376,74,62027,2,0,P|330:70|304:24,1,85.0000016212464,2|0,0:3|0:0,0:0:0:0:
198,10,62241,2,0,P|204:-13|210:18,1,85.0000016212464,10|0,0:0|0:0,0:0:0:0:
63,88,62455,5,2,0:3:0:0:
55,13,62563,1,8,0:0:0:0:
124,45,62670,5,2,3:2:0:0:
0,130,62777,2,0,P|46:134|72:180,1,85.0000016212464,10|2,0:0|0:3,0:0:0:0:
135,266,62991,1,2,0:3:0:0:
62,281,63098,5,10,0:0:0:0:
139,191,63205,1,8,0:0:0:0:
206,310,63313,2,0,P|151:312|79:391,1,157.499995193482,2|0,0:3|0:0,0:0:0:0:
257,125,63527,6,0,P|223:200|336:135,1,314.999990386963,6|0,3:2|0:0,0:0:0:0:
345,82,63955,6,0,P|372:112|414:114,1,85.0000016212464,10|0,0:0|0:0,0:0:0:0:
487,275,64170,2,0,P|445:276|417:307,1,85.0000016212464,2|0,0:3|0:0,0:0:0:0:
139,191,64384,6,0,P|209:194|349:66,1,255.000004863739,2|0,3:2|0:0,0:0:0:0:
414,113,64813,6,0,P|372:111|344:81,1,85.0000016212464,10|0,0:0|0:0,0:0:0:0:
162,106,65027,2,0,P|150:66|170:30,1,85.0000016212464,2|0,0:3|0:0,0:0:0:0:
430,27,65241,6,0,P|427:11|417:38,1,85.0000016212464,2|0,3:2|0:0,0:0:0:0:
241,141,65455,2,0,P|283:142|311:173,1,85.0000016212464,2|0,0:3|0:0,0:0:0:0:
487,275,65670,2,0,P|445:276|417:307,1,85.0000016212464,10|0,0:0|0:0,0:0:0:0:
201,325,65884,5,10,3:0:0:0:
176,255,65991,1,8,0:0:0:0:
279,331,66098,1,4,3:0:0:0:
152,383,66205,1,8,0:0:0:0:
273,256,66313,6,0,P|301:286|342:287,1,85.0000016212464,2|0,0:3|0:0,0:0:0:0:
162,106,66527,2,0,P|102:184|-2:178,1,209.999993591309,10|2,0:0|0:3,0:0:0:0:
134,19,66848,1,2,0:0:0:0:
241,141,66955,6,0,P|286:81|165:113,1,314.999990386963,6|0,3:2|0:0,0:0:0:0:
56,115,67384,6,0,P|42:92|64:112,1,85.0000016212464,10|0,0:0|0:0,0:0:0:0:
176,255,67598,2,0,P|162:278|184:258,1,85.0000016212464,2|0,0:3|0:0,0:0:0:0:
391,155,67813,6,0,P|346:157|317:202,1,85.0000016212464,2|0,3:2|0:0,0:0:0:0:
299,380,68027,2,0,P|331:354|336:313,1,85.0000016212464,2|0,0:3|0:0,0:0:0:0:
241,141,68241,2,0,P|229:180|249:217,1,85.0000016212464,10|0,0:0|0:0,0:0:0:0:
429,302,68455,2,0,P|415:262|377:245,1,85.0000016212464,2|0,0:3|0:0,0:0:0:0:
161,106,68670,6,0,P|242:105|306:35,1,165.000005035401,14|0,0:0|0:0,0:0:0:0:
293,30,68884,2,0,P|212:31|148:101,1,165.000005035401,10|0,0:0|0:0,0:0:0:0:
140,234,69098,6,0,P|59:233|-5:163,1,165.000005035401,2|0,3:2|0:0,0:0:0:0:
8,158,69313,2,0,P|89:159|153:229,1,165.000005035401,14|0,0:0|0:0,0:0:0:0:
125,319,69527,5,6,3:2:0:0:
271,270,69634,1,8,0:0:0:0:
221,212,69741,2,0,P|191:253|201:297,1,85.0000016212464,10|0,0:0|0:0,0:0:0:0:
239,381,69955,5,10,0:0:0:0:
374,324,70063,1,8,0:0:0:0:
271,270,70170,1,10,0:0:0:0:
320,384,70277,1,8,0:0:0:0:
445,286,70384,6,0,P|489:216|368:262,1,314.999990386963,14|0,3:2|0:0,0:0:0:0:
374,324,70813,6,0,P|414:327|441:359,1,85.0000016212464,10|0,0:0|0:0,0:0:0:0:
289,177,71027,2,0,P|262:208|221:212,1,85.0000016212464,2|0,0:3|0:0,0:0:0:0:
307,0,71241,6,0,P|388:94|512:109,1,255.000004863739,2|0,3:2|0:0,0:0:0:0:
470,34,71670,6,0,P|428:30|401:0,1,85.0000016212464,10|0,0:0|0:0,0:0:0:0:
252,108,71884,2,0,P|210:111|183:142,1,85.0000016212464,2|0,0:3|0:0,0:0:0:0:
22,24,72098,6,0,P|24:5|30:31,1,85.0000016212464,2|0,3:2|0:0,0:0:0:0:
138,204,72313,2,0,P|96:201|69:170,1,85.0000016212464,2|0,0:3|0:0,0:0:0:0:
132,0,72527,2,0,P|174:3|201:34,1,85.0000016212464,10|0,0:0|0:0,0:0:0:0:
422,142,72741,5,10,3:0:0:0:
289,177,72848,1,8,0:0:0:0:
332,55,72955,1,4,3:0:0:0:
349,128,73062,1,8,0:0:0:0:
487,189,73169,6,0,P|450:188|413:247,1,85.0000016212464,2|0,0:3|0:0,0:0:0:0:
189,287,73384,2,0,P|267:287|355:418,1,209.999993591309,10|2,0:0|0:3,0:0:0:0:
342,238,73705,1,2,0:0:0:0:
103,326,73813,6,0,P|99:202|189:286,1,314.999990386963,2|2,3:2|0:0,0:0:0:0:
260,325,74241,6,0,P|214:332|192:381,1,85.0000016212464,10|0,0:0|0:0,0:0:0:0:
37,364,74455,2,0,P|82:356|104:307,1,85.0000016212464,2|0,0:3|0:0,0:0:0:0:
289,177,74670,6,0,P|292:158|284:180,1,85.0000016212464,2|0,3:2|0:0,0:0:0:0:
53,201,74884,2,0,P|109:210|198:315,1,170.000003242493,2|8,0:3|0:0,0:0:0:0:
327,366,75205,5,2,0:0:0:0:
260,325,75313,2,0,P|214:332|192:381,1,85.0000016212464,2|0,0:3|0:0,0:0:0:0:
53,201,75527,6,0,P|98:193|120:144,1,85.0000016212464,2|0,3:2|0:0,0:0:0:0:
280,180,75741,2,0,P|286:134|247:98,1,85.0000016212464,2|0,0:3|0:0,0:0:0:0:
33,46,75955,2,0,P|27:92|66:128,1,85.0000016212464,10|0,0:0|0:0,0:0:0:0:
258,30,76170,5,2,0:3:0:0:
187,0,76277,1,8,0:0:0:0:
192,75,76384,5,0,3:0:0:0:
328,65,76491,2,0,P|282:75|262:124,1,85.0000016212464,8|2,0:0|0:3,0:0:0:0:
129,244,76705,1,2,0:3:0:0:
118,162,76813,5,10,0:0:0:0:
190,191,76920,1,8,0:0:0:0:
230,311,77027,5,10,0:0:0:0:
306,295,77134,1,8,0:0:0:0:
375,149,77241,6,0,P|292:55|279:179,1,314.999990386963,6|0,3:2|0:0,0:0:0:0:
442,184,77670,6,0,P|396:194|376:243,1,85.0000016212464,10|0,0:0|0:0,0:0:0:0:
227,384,77884,2,0,P|181:373|161:324,1,85.0000016212464,2|0,0:3|0:0,0:0:0:0:
58,213,78098,6,0,P|128:216|268:88,1,255.000004863739,2|0,3:2|0:0,0:0:0:0:
376,62,78527,6,0,P|350:63|299:16,1,85.0000016212464,10|0,0:0|0:0,0:0:0:0:
149,102,78741,2,0,P|123:101|74:149,1,85.0000016212464,2|0,0:3|0:0,0:0:0:0:
0,10,78955,6,0,P|-2:0|13:19,1,85.0000016212464,2|0,3:2|0:0,0:0:0:0:
58,213,79170,2,0,P|33:205|2:144,1,85.0000016212464,2|0,0:3|0:0,0:0:0:0:
207,48,79384,2,0,P|231:55|262:116,1,85.0000016212464,10|0,0:0|0:0,0:0:0:0:
167,253,79598,5,10,3:0:0:0:
143,183,79705,1,8,0:0:0:0:
243,258,79812,1,4,3:0:0:0:
115,306,79919,1,8,0:0:0:0:
262,179,80027,6,0,P|279:216|317:234,1,85.0000016212464,2|0,0:3|0:0,0:0:0:0:
241,375,80241,2,0,P|341:359|392:271,1,209.999993591309,10|2,0:0|0:3,0:0:0:0:
338,162,80563,1,2,0:0:0:0:
475,231,80670,6,0,P|449:152|407:274,1,314.999990386963,6|0,3:2|0:0,0:0:0:0:
507,354,81098,6,0,P|465:356|435:385,1,85.0000016212464,10|0,0:0|0:0,0:0:0:0:
243,258,81313,2,0,P|284:259|317:234,1,85.0000016212464,2|0,0:3|0:0,0:0:0:0:
419,96,81527,6,0,P|417:72|409:101,1,85.0000016212464,2|0,3:2|0:0,0:0:0:0:
262,179,81741,2,0,P|221:180|188:155,1,85.0000016212464,2|0,0:3|0:0,0:0:0:0:
170,49,81955,5,10,0:0:0:0:
251,98,82063,1,8,0:0:0:0:
121,191,82170,2,0,P|107:152|120:113,1,85.0000016212464,2|0,0:3|0:0,0:0:0:0:
247,20,82384,5,10,0:0:0:0:
317,233,82598,1,10,0:0:0:0:
262,179,83027,5,10,0:0:0:0:
178,384,83241,1,10,0:0:0:0:
198,309,83455,5,4,3:0:0:0:
253,364,83563,1,4,3:0:0:0:
107,333,83670,6,0,P|187:338|320:222,1,255.000004863739,14|0,0:0|0:0,0:0:0:0:
334,155,84098,6,0,P|286:154|256:192,1,85.0000016212464,6|0,3:2|0:0,0:0:0:0:
304,305,84313,2,0,P|351:305|381:267,1,85.0000016212464,2|0,0:3|0:0,0:0:0:0:
479,127,84527,1,10,0:0:0:0:
411,166,84634,2,0,P|358:145|337:53,1,150,2|0,0:0|0:0,0:0:0:0:
288,1,84848,6,0,P|240:3|212:45,1,85.0000016212464,2|0,0:0|3:0,0:0:0:0:
195,138,85063,1,2,0:0:0:0:
78,46,85170,2,0,P|126:48|154:90,1,85.0000016212464,2|0,0:3|0:0,0:0:0:0:
261,178,85384,6,0,P|249:157|245:191,1,85.0000016212464,10|0,0:0|0:0,0:0:0:0:
3,219,85598,2,0,P|73:229|139:165,1,150,2|0,0:3|0:0,0:0:0:0:
195,138,85813,6,0,P|241:148|261:193,1,85.0000016212464,2|0,3:2|0:0,0:0:0:0:
179,299,86027,2,0,P|133:289|113:244,1,85.0000016212464,2|0,0:3|0:0,0:0:0:0:
55,147,86241,1,10,0:0:0:0:
3,219,86348,2,0,P|73:229|139:165,1,150,2|0,0:0|0:0,0:0:0:0:
195,138,86563,6,0,P|241:148|261:193,1,85.0000016212464,2|0,0:0|3:0,0:0:0:0:
305,277,86777,1,2,0:0:0:0:
381,195,86884,6,0,P|353:201|341:228,1,42.5000008106232,10|0,0:0|0:0,0:0:0:0:
179,299,87098,2,0,P|249:295|313:377,1,170.000003242493,10|2,0:0|0:3,0:0:0:0:
499,207,87527,6,0,B|518:192|497:186|488:175|488:175|481:187|461:198|482:208,1,85.0000016212464,2|0,3:2|0:0,0:0:0:0:
387,282,87741,2,0,P|416:319|463:319,1,85.0000016212464,2|0,0:3|0:0,0:0:0:0:
481,73,87955,1,10,0:0:0:0:
425,129,88063,2,0,P|366:142|300:83,1,150,2|0,0:0|0:0,0:0:0:0:
250,28,88277,6,0,P|207:21|176:52,1,85.0000016212464,2|0,0:0|3:0,0:0:0:0:
138,171,88491,1,2,0:0:0:0:
38,80,88598,2,0,P|80:73|111:104,1,85.0000016212464,2|0,0:3|0:0,0:0:0:0:
212,234,88813,6,0,P|140:217|59:289,1,179.999994506836,14|0,0:0|0:0,0:0:0:0:
5,332,89027,2,0,P|47:325|78:356,1,85.0000016212464,2|0,0:3|0:0,0:0:0:0:
285,198,89241,6,0,P|314:168|356:165,1,85.0000016212464,6|0,3:2|0:0,0:0:0:0:
421,208,89455,5,10,0:0:0:0:
352,244,89562,1,10,0:0:0:0:
372,72,89669,2,0,P|409:90|425:129,1,85.0000016212464,10|0,0:0|3:0,0:0:0:0:
375,363,89884,5,6,3:0:0:0:
502,237,89991,2,0,P|420:320|303:314,1,239.999992675781,14|4,0:0|3:0,0:0:0:0:
143,260,90313,5,6,3:0:0:0:
285,198,90420,1,4,3:0:0:0:
225,288,90527,2,0,P|200:198|145:95,1,179.999994506836,14|0,0:0|0:0,0:0:0:0:
86,108,90741,5,10,0:0:0:0:
204,0,90848,1,8,0:0:0:0:
77,0,90955,6,0,P|96:31|173:29,1,85.0000016212464,6|0,3:2|0:0,0:0:0:0:
327,80,91170,2,0,P|286:90|263:124,1,85.0000016212464,2|0,0:3|0:0,0:0:0:0:
53,273,91384,1,10,0:0:0:0:
9,204,91491,2,0,P|61:243|158:258,1,150,2|0,0:0|0:0,0:0:0:0:
225,288,91705,6,0,P|183:299|162:346,1,85.0000016212464,2|0,0:0|3:0,0:0:0:0:
206,200,91920,1,2,0:0:0:0:
347,242,92027,2,0,P|305:231|284:184,1,85.0000016212464,2|0,0:3|0:0,0:0:0:0:
156,119,92241,6,0,P|159:96|165:125,1,85.0000016212464,10|0,0:0|0:0,0:0:0:0:
317,327,92455,2,0,P|377:269|461:293,1,150,2|0,0:3|0:0,0:0:0:0:
491,335,92670,6,0,P|518:300|508:257,1,85.0000016212464,2|0,3:2|0:0,0:0:0:0:
367,169,92884,2,0,P|339:203|349:246,1,85.0000016212464,2|0,0:3|0:0,0:0:0:0:
512,83,93098,1,10,0:0:0:0:
449,127,93205,2,0,P|376:129|327:75,1,150,2|0,0:0|0:0,0:0:0:0:
280,14,93420,6,0,P|227:21|199:66,1,85.0000016212464,2|0,0:0|3:0,0:0:0:0:
136,114,93634,1,2,0:0:0:0:
66,22,93741,6,0,P|94:31|105:58,1,42.5000008106232,10|0,0:0|0:0,0:0:0:0:
236,153,93955,2,0,P|163:150|100:224,1,170.000003242493,10|2,0:0|0:3,0:0:0:0:
313,350,94384,6,0,B|332:365|311:371|302:382|302:382|295:370|275:359|296:349,1,85.0000016212464,2|0,3:2|0:0,0:0:0:0:
38,261,94598,2,0,P|74:259|107:297,1,85.0000016212464,2|0,0:3|0:0,0:0:0:0:
162,384,94813,1,10,0:0:0:0:
83,368,94920,2,0,P|148:362|219:319,1,150,2|2,0:0|0:3,0:0:0:0:
263,252,95134,6,0,P|313:253|349:287,1,85.0000016212464,2|0,0:0|3:0,0:0:0:0:
412,364,95348,1,2,0:0:0:0:
493,275,95455,2,0,P|442:273|406:239,1,85.0000016212464,2|0,0:3|0:0,0:0:0:0:
236,153,95670,6,0,P|301:147|395:75,1,179.999994506836,14|2,0:0|0:3,0:0:0:0:
448,28,95884,2,0,P|397:26|361:-7,1,85.0000016212464,2|0,0:3|0:0,0:0:0:0:
226,70,96098,6,0,P|178:88|156:133,1,85.0000016212464,6|0,3:2|0:0,0:0:0:0:
101,217,96313,1,10,0:0:0:0:
177,203,96420,1,2,0:0:0:0:
60,60,96527,6,0,P|63:110|98:145,1,85.0000016212464,10|0,0:0|3:0,0:0:0:0:
153,279,96741,1,4,3:0:0:0:
32,323,96848,6,0,P|99:347|236:240,1,239.999992675781,6|0,3:2|3:0,0:0:0:0:
409,172,97170,5,4,3:0:0:0:
404,152,97277,1,0,3:0:0:0:
304,52,97384,5,10,0:0:0:0:
483,122,97491,1,8,0:0:0:0:
322,157,97598,5,10,0:0:0:0:
464,17,97705,1,8,0:0:0:0:
391,80,97813,5,6,3:2:0:0:
501,218,98027,6,0,P|451:216|402:264,2,119.999996337891,2|8|2,0:0|0:0|0:0,0:0:0:0:
261,334,98670,6,0,B|277:289|331:296|331:296|347:326|373:325,1,119.999996337891,2|0,3:2|0:0,0:0:0:0:
425,333,98991,5,0,0:0:0:0:
433,342,99098,2,0,L|423:384,1,40,10|0,0:0|0:0,0:0:0:0:
342,358,99313,2,0,L|352:316,1,40,2|0,0:0|0:0,0:0:0:0:
220,181,99527,6,0,P|200:180|185:203,1,40,2|0,3:2|0:0,0:0:0:0:
70,282,99741,2,0,P|85:294|104:291,1,40,2|0,0:0|0:0,0:0:0:0:
109,182,99955,2,0,P|101:200|110:217,1,40,10|0,0:0|0:0,0:0:0:0:
157,355,100170,6,0,P|194:323|277:353,1,119.999996337891,2|0,0:0|3:0,0:0:0:0:
402,261,100491,1,0,0:0:0:0:
394,249,100598,6,0,P|368:240|369:220,1,40,2|0,0:3|0:0,0:0:0:0:
430,145,100813,2,0,P|435:171|416:180,1,40,10|0,0:0|0:0,0:0:0:0:
314,167,101027,2,0,P|333:148|350:159,1,40,2|0,0:0|0:0,0:0:0:0:
377,189,101241,5,2,3:2:0:0:
241,62,101455,2,0,L|219:180,2,119.999996337891,2|8|2,0:0|0:0|0:0,0:0:0:0:
444,29,102098,6,0,P|434:73|313:57,1,179.999994506836,2|0,3:2|0:0,0:0:0:0:
169,10,102527,6,0,L|159:60,1,40,10|0,0:0|0:0,0:0:0:0:
291,2,102741,1,2,0:0:0:0:
106,134,102955,6,0,L|146:126,1,40,2|0,3:2|0:0,0:0:0:0:
258,172,103170,2,0,L|218:180,1,40,2|0,0:0|0:0,0:0:0:0:
30,170,103384,2,0,L|20:120,1,40,10|0,0:0|0:0,0:0:0:0:
254,252,103598,6,0,L|230:368,1,119.999996337891,2|0,0:0|3:0,0:0:0:0:
32,332,103920,1,0,0:0:0:0:
44,322,104027,6,0,P|67:336|82:322,1,40,2|0,0:3|0:0,0:0:0:0:
100,228,104242,2,0,P|76:240|82:261,1,40,10|0,0:0|0:0,0:0:0:0:
158,331,104456,2,0,P|160:304|140:298,1,40,2|0,0:3|0:0,0:0:0:0:
101,296,104670,5,2,3:2:0:0:
229,369,104884,2,0,L|346:344,2,119.999996337891,2|8|2,0:0|0:0|0:0,0:0:0:0:
326,215,105527,6,0,P|363:261|430:249,1,119.999996337891,2|0,3:2|0:0,0:0:0:0:
502,287,105848,1,0,0:0:0:0:
512,278,105955,6,0,L|504:238,1,40,10|0,0:0|0:0,0:0:0:0:
419,256,106170,2,0,L|426:295,1,40,2|0,0:0|0:0,0:0:0:0:
370,41,106384,6,0,P|350:40|335:63,1,40,2|0,3:2|0:0,0:0:0:0:
231,148,106598,2,0,P|246:160|265:157,1,40,2|0,0:0|0:0,0:0:0:0:
257,43,106813,2,0,P|249:61|258:78,1,40,10|0,0:0|0:0,0:0:0:0:
326,214,107027,6,0,P|363:168|430:180,1,119.999996337891,2|0,0:0|3:0,0:0:0:0:
512,111,107348,1,0,0:0:0:0:
499,102,107455,6,0,L|490:158,1,40,2|0,0:3|0:0,0:0:0:0:
250,235,107670,2,0,L|241:291,1,40,10|0,0:0|0:0,0:0:0:0:
299,333,107884,2,0,L|290:389,1,40,2|0,0:3|0:0,0:0:0:0:
102,182,108098,6,0,P|142:176|177:205,1,85.0000016212464,6|0,3:2|0:0,0:0:0:0:
155,282,108313,2,0,P|115:288|79:258,1,85.0000016212464,2|0,0:3|0:0,0:0:0:0:
0,100,108527,2,0,P|95:85|128:19,1,157.499995193482,10|0,0:0|0:0,0:0:0:0:
220,11,108741,6,0,P|222:-11|207:15,1,85.0000016212464,2|0,0:3|0:3,0:3:0:0:
384,187,108955,6,0,P|406:153|394:109,1,85.0000016212464,2|0,3:2|0:0,0:0:0:0:
314,95,109170,2,0,P|291:128|303:174,1,85.0000016212464,2|0,0:3|0:0,0:0:0:0:
425,279,109384,2,0,P|341:279|295:367,1,157.499995193482,14|0,0:0|0:0,0:0:0:0:
199,356,109598,6,0,P|224:363|239:391,2,52.4999983978272,10|8|0,0:0|0:0|0:0,0:0:0:0:
167,245,109813,5,12,0:0:0:0:
234,281,109920,1,8,0:0:0:0:
119,382,110027,2,0,P|83:382|63:327,1,85.0000016212464,2|0,0:3|0:0,0:0:0:0:
231,206,110241,5,12,0:0:0:0:
199,356,110348,1,8,0:0:0:0:
77,272,110455,2,0,P|65:237|112:201,1,85.0000016212464,2|0,0:3|0:0,0:0:0:0:
325,133,110670,5,14,0:0:0:0:
240,129,110777,1,8,0:0:0:0:
168,86,110884,1,8,0:0:0:0:
126,14,110991,1,8,0:0:0:0:
96,125,111098,5,14,0:0:0:0:
241,51,111205,1,8,0:0:0:0:
50,26,111313,5,4,3:0:0:0:
165,170,111420,1,4,3:0:0:0:
357,61,111527,6,0,P|282:65|241:158,1,157.499995193482,14|0,3:2|0:0,0:0:0:0:
165,170,111741,2,0,P|206:173|231:205,1,85.0000016212464,2|0,0:0|0:0,0:0:0:0:
347,379,111955,5,10,0:0:0:0:
365,333,112062,1,2,0:0:0:0:
339,291,112169,1,2,0:0:0:0:
290,289,112276,1,2,0:0:0:0:
264,365,112384,6,0,P|356:329|465:314,1,194.999991073609,2|0,3:2|0:0,0:0:0:0:
512,269,112598,2,0,P|471:271|454:208,1,85.0000016212464,2|0,0:3|0:0,0:0:0:0:
398,19,112813,5,10,0:0:0:0:
388,9,112920,1,2,0:0:0:0:
398,0,113027,1,2,0:0:0:0:
407,9,113134,1,2,0:0:0:0:
499,63,113241,6,0,P|384:45|276:2,1,220.000006713867,2|2,3:2|0:0,0:0:0:0:
213,108,113563,1,2,0:0:0:0:
337,127,113670,6,0,P|222:144|114:187,1,220.000006713867,10|2,0:0|0:3,0:0:0:0:
52,70,113991,1,2,0:3:0:0:
23,208,114098,5,2,3:2:0:0:
125,94,114205,1,2,0:3:0:0:
0,134,114313,2,0,P|49:161|96:288,1,165.000005035401,2|0,0:3|0:0,0:0:0:0:
184,374,114527,6,0,B|244:413|292:354|283:284|204:258|161:326|161:326|122:401|41:377,1,375,10|0,0:0|0:0,0:0:0:0:
125,180,114955,6,0,P|169:211|206:212,1,85.0000016212464,2|0,3:2|0:0,0:0:0:0:
407,347,115170,2,0,P|365:353|333:380,1,85.0000016212464,2|0,0:0|0:0,0:0:0:0:
196,132,115384,5,10,0:0:0:0:
237,122,115491,1,2,0:0:0:0:
273,100,115598,1,2,0:0:0:0:
301,69,115705,1,2,0:0:0:0:
238,0,115813,6,0,P|271:62|301:207,1,194.999991073609,2|0,3:2|0:0,0:0:0:0:
282,266,116027,2,0,P|252:279|270:253,1,85.0000016212464,2|0,0:0|0:0,0:0:0:0:
372,121,116241,5,10,0:0:0:0:
413,130,116348,1,2,0:0:0:0:
449,152,116455,1,2,0:0:0:0:
477,183,116562,1,2,0:0:0:0:
387,232,116670,5,2,3:2:0:0:
377,222,116777,1,2,0:0:0:0:
387,213,116884,1,2,0:0:0:0:
396,222,116991,1,2,0:0:0:0:
313,38,117098,5,10,0:0:0:0:
324,60,117205,1,2,0:0:0:0:
301,69,117312,1,2,0:0:0:0:
292,49,117419,1,2,0:0:0:0:
128,232,117527,5,10,0:0:0:0:
202,220,117634,1,10,0:0:0:0:
270,253,117741,1,2,0:0:0:0:
307,319,117848,1,2,0:0:0:0:
201,300,117955,5,10,0:0:0:0:
309,185,118063,1,10,0:0:0:0:
382,335,118170,2,0,B|331:320|307:354|313:360|285:400|227:381,1,165.000005035401,2|0,0:0|0:0,0:0:0:0:
48,309,118384,6,0,P|109:290|124:218,1,129.999994049073,6|0,3:2|0:0,0:0:0:0:
70,52,118598,5,2,0:0:0:0:
20,175,118705,1,2,0:0:0:0:
149,146,118813,2,0,P|171:123|141:133,1,85.0000016212464,10|0,0:0|0:0,0:0:0:0:
0,15,119027,2,0,P|-22:-8|7:2,1,85.0000016212464,2|0,0:0|0:0,0:0:0:0:
211,89,119241,6,0,P|253:86|288:27,1,100,2|0,3:2|0:0,0:0:0:0:
458,54,119455,5,2,0:0:0:0:
478,82,119527,5,2,0:0:0:0:
512,59,119598,5,2,0:0:0:0:
512,68,119670,6,0,P|412:54|344:119,1,194.999991073609,10|0,0:0|0:0,0:0:0:0:
268,171,119884,2,0,P|308:180|335:239,1,85.0000016212464,2|0,0:0|0:0,0:0:0:0:
508,362,120098,6,0,P|507:381|500:355,1,85.0000016212464,2|0,3:2|0:0,0:0:0:0:
269,268,120313,2,0,P|252:275|270:256,1,85.0000016212464,2|0,0:0|0:0,0:0:0:0:
212,24,120527,2,0,P|194:16|221:18,1,85.0000016212464,10|0,0:0|0:0,0:0:0:0:
463,242,120741,6,0,P|417:252|387:318,1,100,2|0,0:0|0:0,0:0:0:0:
238,365,120955,1,2,3:2:0:0:
242,350,121063,1,2,0:3:0:0:
398,373,121170,6,0,P|336:362|320:317,1,100,2|0,0:0|0:0,0:0:0:0:
110,231,121384,2,0,P|172:220|188:175,1,100,10|0,0:0|0:0,0:0:0:0:
395,57,121598,2,0,P|316:18|344:92,1,194.999991073609,2|0,0:0|0:0,0:0:0:0:
385,133,121813,5,2,3:2:0:0:
136,4,122027,5,2,0:0:0:0:
225,33,122134,1,2,0:0:0:0:
130,28,122241,2,0,P|62:41|-4:83,1,129.999994049073,10|0,0:0|0:0,0:0:0:0:
338,193,122455,5,2,0:0:0:0:
268,221,122562,1,2,0:0:0:0:
344,217,122670,2,0,P|399:227|452:261,1,110.000003356934,2|0,3:2|0:0,0:0:0:0:
151,323,122884,5,2,0:0:0:0:
198,348,122991,1,2,0:0:0:0:
144,347,123099,2,0,P|98:355|54:383,1,85.0000016212464,10|0,0:0|0:0,0:0:0:0:
305,304,123313,5,10,0:0:0:0:
312,285,123420,1,10,0:0:0:0:
187,173,123527,5,10,0:0:0:0:
177,181,123634,1,10,0:0:0:0:
187,191,123741,1,2,0:0:0:0:
195,181,123848,1,10,0:0:0:0:
377,107,123955,5,10,0:0:0:0:
389,118,124063,1,10,0:0:0:0:
378,132,124170,1,2,0:0:0:0:
364,120,124277,1,10,0:0:0:0:
148,5,124384,5,2,3:2:0:0:
168,50,124491,1,10,0:0:0:0:
212,71,124598,1,2,0:0:0:0:
261,60,124705,1,10,0:0:0:0:
461,208,124813,5,10,0:0:0:0:
376,212,124920,1,10,0:0:0:0:
304,255,125027,1,2,0:0:0:0:
262,327,125134,1,10,0:0:0:0:
98,189,125241,5,6,3:2:0:0:
98,189,125670,5,0,3:0:0:0:
24,216,125884,5,2,0:3:0:0:
71,323,126098,2,0,L|85:256,1,59.9999981689454,2|2,3:2|0:3,0:0:0:0:
113,112,126527,5,0,3:0:0:0:
195,260,126741,1,2,0:3:0:0:
188,268,126848,1,2,0:3:0:0:
182,276,126955,6,0,L|66:261,1,100,2|2,3:2|0:3,0:0:0:0:
30,81,127384,2,0,P|90:88|154:12,1,150,2|0,3:2|0:0,0:0:0:0:
306,35,127813,6,0,B|286:-23|211:-18|211:-18|231:0|225:31,1,150,2|0,3:2|0:0,0:0:0:0:
150,29,128241,1,2,3:2:0:0:
256,192,128455,1,2,0:3:0:0:
250,114,128670,6,0,P|237:88|232:120,1,80,2|2,3:2|0:3,0:0:0:0:
268,267,129098,2,0,P|280:292|285:260,1,80,2|2,3:2|0:3,0:0:0:0:
179,173,129527,6,0,P|152:177|181:192,1,80,2|2,3:2|0:3,0:0:0:0:
331,203,129955,2,0,P|358:199|329:184,1,80,2|2,3:2|0:3,0:0:0:0:
215,258,130384,6,0,P|210:286|233:263,1,80,2|2,3:2|0:3,0:0:0:0:
290,124,130812,2,0,P|295:96|272:119,1,80,2|2,3:2|0:3,0:0:0:0:
306,251,131241,6,0,P|331:264|316:235,1,80,2|2,3:2|0:3,0:0:0:0:
202,138,131669,2,0,P|177:125|191:154,1,80,2|2,3:2|0:3,0:0:0:0:
256,192,132098,6,0,P|326:192|372:111,1,160,2|0,3:2|3:0,0:0:0:0:
494,14,132741,5,2,0:3:0:0:
468,87,132955,2,0,P|435:75|427:29,1,59.9999981689454,2|2,3:2|0:3,0:0:0:0:
291,119,133384,5,0,3:0:0:0:
454,180,133598,1,2,0:3:0:0:
447,172,133705,1,2,0:3:0:0:
441,164,133813,6,0,P|386:171|352:223,1,100,2|2,3:2|0:3,0:0:0:0:
209,262,134241,2,0,P|277:271|321:336,1,150,2|0,3:2|0:0,0:0:0:0:
467,328,134670,6,0,B|452:387|376:389|376:389|396:374|398:345,1,150,2|0,3:2|0:0,0:0:0:0:
381,286,135098,1,2,3:2:0:0:
256,192,135313,1,2,0:3:0:0:
328,137,135527,6,0,P|344:112|313:124,1,80,2|2,3:2|0:3,0:0:0:0:
191,254,135955,2,0,P|175:276|205:265,1,80,2|2,3:2|0:3,0:0:0:0:
225,106,136384,6,0,P|207:83|209:116,1,80,2|2,3:2|0:3,0:0:0:0:
294,272,136812,2,0,P|311:294|310:262,1,80,2|2,3:2|0:3,0:0:0:0:
165,194,137241,6,0,P|138:204|169:212,1,80,2|2,3:2|0:3,0:0:0:0:
345,180,137669,2,0,P|371:170|339:162,1,80,2|2,3:2|0:3,0:0:0:0:
230,278,138099,6,0,P|231:307|248:280,1,80,2|2,3:2|0:3,0:0:0:0:
272,103,138527,2,0,P|271:75|253:103,1,80,2|2,3:2|0:3,0:0:0:0:
256,192,138955,5,0,0:3:0:0:
406,192,142384,5,2,0:0:0:0:
389,122,143241,5,2,0:0:0:0:
341,68,144098,5,2,0:0:0:0:
274,42,144313,1,2,0:0:0:0:
202,51,144527,5,2,0:0:0:0:
143,92,144742,1,2,0:0:0:0:
109,155,145384,6,0,P|101:191|112:231,1,75,2|0,0:0|0:0,0:0:0:0:
143,291,145813,5,2,0:0:0:0:
202,332,146670,5,2,0:0:0:0:
274,341,147527,5,2,0:0:0:0:
341,315,147741,1,2,0:0:0:0:
389,261,147955,5,2,0:0:0:0:
406,192,148169,1,2,0:0:0:0:
256,192,148384,5,2,0:0:0:0:
254,183,148598,1,2,0:3:0:0:
253,175,148813,2,0,B|243:124|278:103|283:110|324:86|304:27,1,150,2|0,0:3|0:0,0:0:0:0:
239,12,149241,6,0,P|223:13|215:31,1,20,2|0,0:0|0:0,0:0:0:0:
97,90,149455,2,0,P|104:96|114:97,1,20,2|0,0:0|0:0,0:0:0:0:
147,0,149670,6,0,P|141:13|144:27,1,29.9999990844727,2|0,0:0|0:0,0:0:0:0:
157,167,149884,2,0,P|173:152|167:123,1,29.9999990844727,2|0,0:0|0:0,0:0:0:0:
332,171,150098,6,0,P|350:173|361:195,1,40,2|0,0:0|0:0,0:0:0:0:
501,259,150312,2,0,P|496:270|466:276,1,40,2|0,0:0|0:0,0:0:0:0:
435,157,150527,6,0,P|445:166|441:200,1,50,2|0,0:0|0:0,0:0:0:0:
433,350,150741,2,0,P|419:348|402:318,1,50,2|0,0:0|0:0,0:0:0:0:
331,269,150955,5,2,0:0:0:0:
325,270,151063,1,0,0:0:0:0:
319,271,151170,1,2,0:0:0:0:
313,272,151277,1,0,0:0:0:0:
307,273,151384,1,2,3:2:0:0:
301,273,151491,1,0,0:0:0:0:
295,274,151599,1,2,0:0:0:0:
289,275,151706,1,0,0:0:0:0:
260,304,151813,5,8,0:3:0:0:
230,304,151920,1,8,0:3:0:0:
205,319,152027,1,8,0:3:0:0:
191,345,152134,1,8,0:3:0:0:
118,318,152241,5,6,0:3:0:0:
71,326,152348,1,4,0:3:0:0:
30,304,152455,1,4,0:3:0:0:
13,260,152562,1,4,0:3:0:0:
76,140,152670,5,10,0:0:0:0:
89,144,152777,1,8,0:0:0:0:
103,148,152884,1,8,0:0:0:0:
118,152,152991,1,8,0:0:0:0:
188,126,153098,5,8,0:0:0:0:
211,198,153205,1,8,0:0:0:0:
273,150,153313,5,8,0:0:0:0:
296,222,153420,1,8,0:0:0:0:
496,186,153527,5,8,0:0:0:0:
420,206,153634,1,8,0:0:0:0:
353,168,153741,1,10,0:0:0:0:
333,93,153848,1,8,0:0:0:0:
273,150,153955,5,10,0:0:0:0:
411,113,154063,1,8,3:0:0:0:
312,19,154170,1,6,3:0:0:0:
333,93,154277,1,4,3:0:0:0:
448,2,154384,6,0,L|436:45,1,40,14|0,0:0|0:0,0:0:0:0:
211,198,154598,2,0,L|223:241,1,40,14|0,0:0|0:0,0:0:0:0:
64,2,154813,6,0,L|76:45,1,40,14|0,0:0|0:0,0:0:0:0:
272,299,155027,2,0,L|260:342,1,40,14|0,0:0|0:0,0:0:0:0:
323,381,155455,6,0,B|270:407|239:361|246:354|218:316|161:333,1,179.999994506836,6|0,3:0|0:0,0:0:0:0:
155,342,155670,5,10,0:0:0:0:
90,380,155777,1,8,0:0:0:0:
20,267,155884,5,10,0:0:0:0:
85,305,155991,1,8,0:0:0:0:
187,151,156099,6,0,P|151:225|128:96,1,314.999990386963,14|0,3:2|0:0,0:0:0:0:
94,22,156527,6,0,P|125:56|174:44,1,85.0000016212464,10|0,0:0|0:0,0:0:0:0:
295,256,156741,2,0,P|340:245|355:197,1,85.0000016212464,2|0,0:3|0:0,0:0:0:0:
397,33,156955,6,0,P|351:93|152:145,1,255.000004863739,2|0,3:2|0:0,0:0:0:0:
105,213,157384,6,0,P|86:198|115:208,1,85.0000016212464,10|0,0:0|0:0,0:0:0:0:
264,333,157598,2,0,P|219:344|204:392,1,85.0000016212464,2|0,0:3|0:0,0:0:0:0:
17,328,157813,6,0,P|62:317|77:269,1,85.0000016212464,2|0,3:2|0:0,0:0:0:0:
247,196,158027,2,0,P|202:182|187:134,1,85.0000016212464,2|0,0:3|0:0,0:0:0:0:
94,22,158241,2,0,P|121:6|108:34,1,85.0000016212464,10|0,0:0|0:0,0:0:0:0:
384,78,158455,5,10,3:0:0:0:
281,0,158562,1,8,0:0:0:0:
253,123,158669,1,4,3:0:0:0:
307,68,158776,1,8,0:0:0:0:
448,126,158884,6,0,P|401:128|376:170,1,85.0000016212464,2|0,0:3|0:0,0:0:0:0:
335,360,159098,2,0,P|226:343|177:240,1,209.999993591309,10|2,0:0|0:3,0:0:0:0:
127,356,159420,1,2,0:0:0:0:
396,311,159527,6,0,P|434:256|313:288,1,314.999990386963,2|0,3:2|0:0,0:0:0:0:
335,360,159955,6,0,P|379:359|415:400,1,85.0000016212464,10|0,0:0|0:0,0:0:0:0:
512,173,160170,2,0,P|483:203|442:202,1,85.0000016212464,2|0,0:3|0:0,0:0:0:0:
253,123,160384,6,0,P|241:99|264:122,1,85.0000016212464,2|0,3:2|0:0,0:0:0:0:
440,0,160598,2,0,P|403:59|379:181,1,170.000003242493,2|8,0:3|0:0,0:0:0:0:
507,253,160920,5,2,0:0:0:0:
442,202,161027,2,0,P|400:201|372:231,1,85.0000016212464,2|0,0:3|0:0,0:0:0:0:
200,384,161241,6,0,P|188:360|211:383,1,85.0000016212464,2|0,3:2|0:0,0:0:0:0:
512,331,161455,2,0,P|470:331|442:301,1,85.0000016212464,2|0,0:3|0:0,0:0:0:0:
253,123,161670,6,0,P|283:179|298:303,1,172.500003290176,14|0,0:0|0:0,0:0:0:0:
364,331,161884,2,0,P|322:331|294:361,1,85.0000016212464,2|8,0:3|0:0,0:0:0:0:
106,384,162098,5,10,0:0:0:0:
0,284,162205,2,0,P|41:280|72:307,1,85.0000016212464,8|2,0:0|0:3,0:0:0:0:
203,260,162420,1,2,0:3:0:0:
87,209,162527,5,10,0:0:0:0:
154,322,162634,1,8,0:0:0:0:
256,207,162741,2,0,P|196:207|142:123,1,157.499995193482,2|0,0:3|0:0,0:0:0:0:
0,41,162955,6,0,P|22:120|67:-3,1,314.999990386963,6|0,3:2|0:0,0:0:0:0:
192,0,163384,6,0,P|243:14|258:47,1,85.0000016212464,10|0,0:0|0:0,0:0:0:0:
408,176,163598,2,0,P|355:181|334:211,1,85.0000016212464,2|0,0:3|0:0,0:0:0:0:
142,134,163813,6,0,P|211:143|362:27,1,255.000004863739,2|0,3:2|0:0,0:0:0:0:
480,110,164241,6,0,P|471:86|469:117,1,85.0000016212464,10|0,0:0|0:0,0:0:0:0:
272,252,164455,2,0,P|325:257|346:287,1,85.0000016212464,2|0,0:3|0:0,0:0:0:0:
499,378,164670,6,0,P|490:354|488:385,1,85.0000016212464,2|0,3:2|0:0,0:0:0:0:
329,353,164884,2,0,P|382:348|403:318,1,85.0000016212464,2|0,0:3|0:0,0:0:0:0:
479,203,165098,2,0,P|426:198|405:168,1,85.0000016212464,10|0,0:0|0:0,0:0:0:0:
142,134,165313,5,10,3:0:0:0:
161,2,165420,1,8,0:0:0:0:
261,79,165527,1,4,3:0:0:0:
186,73,165634,1,8,0:0:0:0:
332,119,165742,6,0,P|285:125|264:169,1,85.0000016212464,2|0,0:3|0:0,0:0:0:0:
1,264,165955,2,0,P|73:253|167:340,1,209.999993591309,10|2,0:0|0:3,0:0:0:0:
200,212,166277,1,2,0:0:0:0:
252,381,166384,6,0,P|296:311|175:357,1,314.999990386963,6|0,3:2|0:0,0:0:0:0:
66,365,166813,6,0,P|50:336|78:357,1,85.0000016212464,10|0,0:0|0:0,0:0:0:0:
328,194,167027,2,0,P|281:183|264:138,1,85.0000016212464,2|0,0:3|0:0,0:0:0:0:
55,118,167241,6,0,P|11:48|132:94,1,314.999990386963,2|0,3:2|0:0,0:0:0:0:
251,76,167670,6,0,P|177:96|130:188,1,157.499995193482,14|0,0:0|0:0,0:0:0:0:
25,201,167884,2,0,P|63:204|93:246,1,85.0000016212464,2|0,0:3|0:0,0:0:0:0:
166,340,168098,5,2,3:2:0:0:
413,277,168313,1,8,0:0:0:0:
469,221,168741,5,8,0:0:0:0:
140,77,168955,1,10,0:0:0:0:
448,46,169170,5,8,0:0:0:0:
446,57,169241,1,0,3:0:0:0:
444,68,169313,1,0,3:0:0:0:
442,78,169384,2,0,L|277:104,1,157.499995193482,14|0,0:0|0:0,0:0:0:0:
223,60,169598,2,0,L|103:83,1,85.0000016212464,2|0,0:0|0:0,0:0:0:0:
0,207,169813,5,4,3:2:0:0:
5,197,169884,1,0,3:0:0:0:
10,187,169955,1,0,3:0:0:0:
42,172,170027,5,8,0:0:0:0:
117,189,170134,1,8,0:0:0:0:
145,261,170241,5,8,0:0:0:0:
220,244,170348,1,8,0:0:0:0:
442,78,170527,5,8,0:0:0:0:
399,284,170670,5,8,0:0:0:0:
469,248,170813,5,0,3:0:0:0:
372,113,170955,5,0,3:0:0:0:
421,179,171098,6,0,L|378:198,1,44.999998626709,14|0,0:0|0:0,0:0:0:0:
243,343,171527,6,0,P|234:260|305:373,1,389.999982147218,14|0,3:2|0:0,0:0:0:0:
148,207,171955,6,0,P|98:215|72:255,1,94.9999974632264,10|0,0:0|0:0,0:0:0:0:
0,9,172170,2,0,P|5:-12|4:14,1,94.9999974632264,2|0,0:3|0:0,0:0:0:0:
0,287,172384,6,0,P|110:264|206:98,1,284.999992389679,2|0,3:2|0:0,0:0:0:0:
372,54,172813,6,0,P|366:32|360:64,1,94.9999974632264,10|0,0:0|0:0,0:0:0:0:
45,90,173027,2,0,P|95:98|121:138,1,94.9999974632264,2|0,0:3|0:0,0:0:0:0:
303,234,173241,6,0,P|353:226|379:186,1,94.9999974632264,2|0,3:2|0:0,0:0:0:0:
263,8,173455,2,0,P|213:16|187:56,1,94.9999974632264,2|0,0:3|0:0,0:0:0:0:
446,140,173670,2,0,P|462:123|431:134,1,94.9999974632264,10|0,0:0|0:0,0:0:0:0:
244,290,173884,5,2,0:3:0:0:
288,157,173991,1,8,0:0:0:0:
380,266,174098,1,4,3:0:0:0:
303,234,174205,1,8,0:0:0:0:
176,329,174313,6,0,P|221:334|254:376,1,94.9999974632264,2|0,0:3|0:0,0:0:0:0:
473,263,174527,2,0,P|373:247|279:128,1,230.000004386902,10|2,0:0|0:3,0:0:0:0:
198,13,174848,1,2,0:0:0:0:
100,257,174955,6,0,P|98:104|204:214,1,389.999982147218,2|0,3:2|0:0,0:0:0:0:
451,183,175384,6,0,P|406:178|373:136,1,94.9999974632264,10|0,0:0|0:0,0:0:0:0:
176,329,175598,2,0,P|221:334|254:376,1,94.9999974632264,2|0,0:3|0:0,0:0:0:0:
346,64,175813,6,0,P|345:44|332:74,1,94.9999974632264,2|0,3:2|0:0,0:0:0:0:
252,369,176027,2,0,P|331:355|398:274,1,172.500003290176,2|0,0:3|0:0,0:0:0:0:
504,284,176241,2,0,P|503:264|490:294,1,94.9999974632264,10|0,0:0|0:0,0:0:0:0:
244,289,176455,6,0,P|292:283|329:230,1,94.9999974632264,2|0,0:3|0:0,0:0:0:0:
509,38,176670,6,0,P|461:27|429:-21,1,94.9999974632264,2|0,3:2|0:0,0:0:0:0:
182,202,176884,2,0,P|183:182|196:212,1,94.9999974632264,2|0,0:3|0:0,0:0:0:0:
440,68,177098,6,0,P|361:82|294:163,1,172.500003290176,14|0,0:0|0:0,0:0:0:0:
141,20,177313,2,0,P|118:16|99:-7,2,47.4999987316132,8|8|8,0:0|0:0|0:0,0:0:0:0:
231,98,177527,5,2,3:2:0:0:
282,36,177634,1,8,0:0:0:0:
68,79,177741,2,0,P|71:121|110:161,1,94.9999974632264,2|0,0:3|0:0,0:0:0:0:
307,298,177955,6,0,P|321:277|302:298,1,94.9999974632264,10|0,0:0|0:0,0:0:0:0:
95,280,178170,1,10,0:0:0:0:
170,384,178277,1,8,0:0:0:0:
314,183,178384,6,0,B|235:164|203:236|208:239|213:243|188:315|130:316|52:269|64:215|102:167|161:147|195:224,1,389.999982147218,6|0,3:2|0:0,0:0:0:0:
229,335,178813,6,0,P|281:342|307:394,1,94.9999974632264,10|0,0:0|0:0,0:0:0:0:
512,222,179027,2,0,P|460:215|434:163,1,94.9999974632264,2|0,0:3|0:0,0:0:0:0:
302,60,179241,6,0,P|342:164|385:354,1,284.999992389679,2|0,3:2|0:0,0:0:0:0:
497,384,179670,6,0,P|507:367|479:384,1,94.9999974632264,10|0,0:0|0:0,0:0:0:0:
246,234,179884,2,0,P|295:218|312:162,1,94.9999974632264,2|0,0:3|0:0,0:0:0:0:
512,21,180098,6,0,P|522:4|494:21,1,94.9999974632264,2|0,3:2|0:0,0:0:0:0:
241,151,180313,2,0,P|191:135|174:79,1,94.9999974632264,2|0,0:3|0:0,0:0:0:0:
431,66,180527,2,0,P|381:81|364:137,1,94.9999974632264,10|0,0:0|0:0,0:0:0:0:
89,111,180741,5,2,0:3:0:0:
193,22,180848,1,8,0:0:0:0:
241,151,180955,1,4,3:0:0:0:
173,99,181063,1,8,0:0:0:0:
11,142,181170,6,0,P|67:159|84:206,1,94.9999974632264,2|0,0:3|0:0,0:0:0:0:
238,372,181384,2,0,P|360:346|405:249,1,230.000004386902,10|0,0:0|0:0,0:0:0:0:
292,88,181705,1,2,0:0:0:0:
491,227,181813,6,0,P|492:143|431:262,1,389.999982147218,6|0,3:2|0:0,0:0:0:0:
512,341,182241,6,0,P|464:349|437:402,1,94.9999974632264,10|0,0:0|0:0,0:0:0:0:
241,151,182455,2,0,P|240:130|248:156,1,94.9999974632264,2|0,0:3|0:0,0:0:0:0:
375,330,182670,6,0,P|327:322|300:269,1,94.9999974632264,2|0,3:2|0:0,0:0:0:0:
77,108,182884,2,0,P|125:100|152:47,1,94.9999974632264,2|0,0:3|0:0,0:0:0:0:
413,11,183098,6,0,P|414:-10|406:16,1,94.9999974632264,10|0,0:0|0:0,0:0:0:0:
82,188,183313,2,0,P|34:180|7:127,1,94.9999974632264,2|0,0:3|0:0,0:0:0:0:
297,0,183527,6,0,B|306:51|269:73|263:66|220:91|242:155,1,172.500003290176,6|0,3:2|0:0,0:0:0:0:
321,136,183741,2,0,B|312:83|270:75|267:84|218:75|216:7,1,172.500003290176,10|0,0:0|0:0,0:0:0:0:
188,213,183955,6,0,B|179:264|216:286|222:279|265:304|243:368,1,172.500003290176,10|0,0:0|0:0,0:0:0:0:
164,349,184170,2,0,B|172:296|214:288|217:297|266:288|268:220,1,172.500003290176,6|0,3:2|0:0,0:0:0:0:
240,150,184384,5,8,0:0:0:0:
418,285,184491,1,8,0:0:0:0:
400,163,184598,2,0,B|399:196|375:205|372:201|341:211|348:255,1,94.9999974632264,2|0,0:3|0:0,0:0:0:0:
244,363,184813,5,10,0:0:0:0:
115,272,184920,1,8,3:0:0:0:
188,213,185027,1,4,3:0:0:0:
164,349,185134,1,4,3:0:0:0:
0,150,185241,6,0,P|23:246|68:103,1,389.999982147218,14|0,3:2|0:0,0:0:0:0:
0,0,185670,6,0,P|35:29|89:18,1,94.9999974632264,10|0,0:0|0:0,0:0:0:0:
432,82,185884,2,0,P|385:80|353:113,1,94.9999974632264,2|0,0:3|0:0,0:0:0:0:
76,185,186098,6,0,P|205:134|265:9,1,284.999992389679,2|0,3:2|0:0,0:0:0:0:
443,181,186527,6,0,P|437:159|431:191,1,94.9999974632264,10|0,0:0|0:0,0:0:0:0:
81,23,186741,2,0,P|126:17|162:47,1,94.9999974632264,2|0,0:3|0:0,0:0:0:0:
236,211,186955,6,0,P|281:217|317:187,1,94.9999974632264,2|0,3:2|0:0,0:0:0:0:
374,28,187170,2,0,P|375:5|359:33,1,94.9999974632264,2|0,0:3|0:0,0:0:0:0:
173,123,187384,2,0,P|165:155|184:128,1,94.9999974632264,10|0,0:0|0:0,0:0:0:0:
421,287,187598,5,2,0:3:0:0:
317,186,187705,1,8,0:0:0:0:
281,328,187813,1,4,3:0:0:0:
339,266,187920,1,8,0:0:0:0:
494,326,188027,6,0,P|435:337|411:382,1,94.9999974632264,2|0,0:3|0:0,0:0:0:0:
188,292,188241,2,0,P|61:268|9:171,1,230.000004386902,10|2,0:0|0:3,0:0:0:0:
1,337,188563,1,2,0:0:0:0:
256,243,188670,6,0,P|300:154|173:235,1,389.999982147218,2|0,3:2|0:0,0:0:0:0:
82,333,189098,6,0,P|124:340|157:393,1,94.9999974632264,10|0,0:0|0:0,0:0:0:0:
398,206,189313,2,0,P|355:198|322:145,1,94.9999974632264,2|0,0:3|0:0,0:0:0:0:
74,12,189527,6,0,P|80:-10|86:22,1,94.9999974632264,2|0,3:2|0:0,0:0:0:0:
153,214,189741,2,0,P|221:179|259:88,1,172.500003290176,2|0,0:3|0:0,0:0:0:0:
326,25,189955,2,0,P|321:2|313:33,1,94.9999974632264,10|0,0:0|0:0,0:0:0:0:
111,139,190170,6,0,P|153:127|181:71,1,94.9999974632264,2|0,0:3|0:0,0:0:0:0:
475,52,190384,6,0,P|432:40|404:-15,1,94.9999974632264,2|0,3:2|0:0,0:0:0:0:
247,236,190598,2,0,P|230:265|255:243,1,94.9999974632264,2|0,0:3|0:0,0:0:0:0:
400,78,190813,6,0,P|348:139|349:244,1,172.500003290176,14|0,0:0|0:0,0:0:0:0:
486,337,191027,2,0,P|500:353|499:382,2,47.4999987316132,8|8|8,0:0|0:0|0:0,0:0:0:0:
323,305,191241,5,10,0:0:0:0:
415,373,191348,1,8,0:0:0:0:
465,234,191455,2,0,P|417:254|401:307,1,94.9999974632264,2|0,0:3|0:0,0:0:0:0:
170,384,191670,5,10,0:0:0:0:
152,290,191777,1,8,0:0:0:0:
243,321,191884,5,2,0:3:0:0:
76,350,191991,1,8,0:0:0:0:
200,155,192098,6,0,P|194:223|104:101,1,389.999982147218,6|0,3:2|0:0,0:0:0:0:
98,0,192527,6,0,P|125:36|182:44,1,94.9999974632264,10|0,0:0|0:0,0:0:0:0:
439,32,192741,2,0,P|453:20|431:31,1,94.9999974632264,2|0,0:3|0:0,0:0:0:0:
123,183,192955,6,0,P|200:125|401:97,1,284.999992389679,2|0,3:2|0:0,0:0:0:0:
437,189,193384,6,0,P|465:160|443:91,1,94.9999974632264,10|0,0:0|0:0,0:0:0:0:
292,0,193598,2,0,P|264:29|286:98,1,94.9999974632264,2|0,0:3|0:0,0:0:0:0:
400,258,193813,6,0,P|417:251|392:254,1,94.9999974632264,2|0,3:2|0:0,0:0:0:0:
217,229,194027,2,0,P|267:230|302:274,1,94.9999974632264,2|0,0:3|0:0,0:0:0:0:
512,353,194241,2,0,P|462:354|427:398,1,94.9999974632264,10|0,0:0|0:0,0:0:0:0:
134,209,194455,5,2,0:3:0:0:
234,305,194563,1,8,0:0:0:0:
282,179,194670,1,0,3:0:0:0:
217,229,194777,1,8,0:0:0:0:
297,353,194884,6,0,P|247:354|212:398,1,94.9999974632264,2|0,0:3|0:0,0:0:0:0:
77,125,195098,2,0,P|144:133|278:21,1,230.000004386902,10|0,0:0|0:0,0:0:0:0:
166,0,195420,1,2,0:0:0:0:
357,95,195527,6,0,P|325:188|293:42,1,389.999982147218,6|0,3:2|0:0,0:0:0:0:
344,14,195955,6,0,P|379:47|426:44,1,94.9999974632264,10|0,0:0|0:0,0:0:0:0:
512,266,196170,2,0,P|465:264|432:297,1,94.9999974632264,2|0,0:3|0:0,0:0:0:0:
215,154,196384,6,0,P|212:117|231:147,1,94.9999974632264,2|0,3:2|0:0,0:0:0:0:
359,324,196598,2,0,P|312:326|279:293,1,94.9999974632264,2|0,0:3|0:0,0:0:0:0:
268,42,196813,6,0,P|274:7|251:34,1,94.9999974632264,10|0,0:0|0:0,0:0:0:0:
47,233,197027,2,0,P|94:236|127:204,1,94.9999974632264,2|0,0:3|0:0,0:0:0:0:
463,146,197241,6,0,P|444:103|395:174,1,172.500003290176,6|0,3:2|0:0,0:0:0:0:
311,223,197455,2,0,P|284:247|292:212,1,94.9999974632264,2|0,0:3|0:0,0:0:0:0:
37,74,197670,2,0,P|64:110|109:115,1,94.9999974632264,10|0,0:0|0:0,0:0:0:0:
286,133,197884,5,10,0:0:0:0:
179,59,197991,1,8,0:0:0:0:
268,42,198098,1,8,3:2:0:0:
194,146,198205,1,8,0:0:0:0:
311,223,198313,6,0,P|236:221|174:315,1,172.500003290176,2|0,0:3|0:0,0:0:0:0:
121,348,198527,2,0,P|74:349|36:291,1,94.9999974632264,10|0,0:0|0:0,0:0:0:0:
108,242,198741,1,8,0:0:0:0:
194,384,198848,1,8,0:0:0:0:
385,256,198955,6,0,P|362:160|317:303,1,389.999982147218,6|0,3:2|0:0,0:0:0:0:
364,341,199384,6,0,P|326:339|281:389,1,94.9999974632264,10|0,0:0|0:0,0:0:0:0:
434,106,199598,2,0,P|466:139|512:139,1,94.9999974632264,2|0,0:3|0:0,0:0:0:0:
216,34,199813,6,0,P|214:-1|236:25,1,94.9999974632264,2|0,3:2|0:0,0:0:0:0:
382,175,200027,2,0,P|336:183|311:222,1,94.9999974632264,2|0,0:3|0:0,0:0:0:0:
289,299,200241,5,10,0:0:0:0:
385,256,200348,1,8,0:0:0:0:
211,155,200455,2,0,P|205:200|233:236,1,94.9999974632264,2|0,0:3|0:0,0:0:0:0:
457,287,200670,6,0,B|419:285|407:312|413:315|400:348|355:339,1,115.000002193451,10|0,0:0|0:0,0:0:0:0:
75,210,200884,2,0,B|82:224|101:222|101:222|114:210|128:211,1,59.9999981689454,10|0,0:0|0:0,0:0:0:0:
112,371,201313,6,0,B|110:333|137:321|140:327|173:314|167:269,1,115.000002193451,10|0,0:0|0:0,0:0:0:0:
339,4,201527,2,0,B|353:11|351:30|351:30|339:43|340:57,1,59.9999981689454,10|0,0:0|0:0,0:0:0:0:
309,130,201741,5,4,3:0:0:0:
246,81,201848,1,4,3:0:0:0:
483,154,201955,6,0,P|477:65|410:185,1,345.000006580353,14|0,0:0|0:0,0:0:0:0:
446,223,202384,6,0,P|386:229|367:260,1,89.9999972534181,6|0,3:2|0:0,0:0:0:0:
410,376,202598,2,0,P|470:370|489:339,1,89.9999972534181,2|0,0:3|0:0,0:0:0:0:
298,212,202813,1,10,0:0:0:0:
256,281,202920,2,0,P|187:291|129:214,1,150,2|0,0:0|0:0,0:0:0:0:
65,196,203134,6,0,P|100:196|132:155,1,89.9999972534181,2|0,0:0|3:0,0:0:0:0:
181,5,203348,1,2,0:0:0:0:
259,135,203455,2,0,P|223:135|191:94,1,89.9999972534181,2|0,0:3|0:0,0:0:0:0:
52,75,203670,6,0,P|39:41|69:-1,1,89.9999972534181,10|0,0:0|0:0,0:0:0:0:
322,64,203884,2,0,L|293:237,1,150,2|0,0:3|0:0,0:0:0:0:
360,263,204098,6,0,L|468:237,1,89.9999972534181,2|0,3:2|0:0,0:0:0:0:
215,384,204313,2,0,L|127:362,1,89.9999972534181,2|0,0:3|0:0,0:0:0:0:
17,209,204527,1,10,0:0:0:0:
68,149,204634,2,0,P|126:143|168:239,1,150,2|0,0:0|0:0,0:0:0:0:
239,260,204848,6,0,P|199:255|168:315,1,89.9999972534181,2|0,0:0|3:0,0:0:0:0:
215,384,205063,1,2,0:0:0:0:
65,300,205170,6,0,B|71:277|71:277|98:304,1,44.999998626709,10|0,0:0|0:0,0:0:0:0:
291,345,205384,2,0,B|363:317|363:317|383:179|383:179|490:147,1,300,10|0,0:0|0:0,0:0:0:0:
456,74,205813,6,0,L|350:103,1,89.9999972534181,2|0,3:2|0:0,0:0:0:0:
239,260,206027,2,0,P|228:231|254:255,1,89.9999972534181,2|0,0:3|0:0,0:0:0:0:
262,0,206241,1,10,0:0:0:0:
293,74,206348,2,0,P|238:108|154:67,1,150,2|0,0:0|0:0,0:0:0:0:
116,16,206563,6,0,P|132:-10|103:8,1,89.9999972534181,2|0,0:0|3:0,0:0:0:0:
62,154,206777,1,2,0:0:0:0:
8,85,206884,2,0,P|-8:59|21:77,1,89.9999972534181,2|0,0:3|0:0,0:0:0:0:
209,187,207098,6,0,P|133:177|58:269,1,179.999994506836,12|0,0:0|0:0,0:0:0:0:
0,291,207313,2,0,P|38:286|75:332,1,89.9999972534181,2|0,0:3|0:0,0:0:0:0:
305,379,207527,6,0,P|342:387|383:344,1,89.9999972534181,6|0,3:2|0:0,0:0:0:0:
346,227,207741,1,8,0:0:0:0:
326,302,207848,1,8,0:0:0:0:
411,284,207955,5,8,0:0:0:0:
479,317,208063,1,8,0:0:0:0:
364,147,208170,1,8,0:0:0:0:
287,169,208277,6,0,P|248:102|144:49,1,179.999994506836,6|0,3:2|0:0,0:0:0:0:
97,94,208491,5,8,0:0:0:0:
234,28,208598,1,4,3:0:0:0:
94,18,208705,1,4,3:0:0:0:
222,104,208813,6,0,B|216:177|156:195|151:183|80:201|86:269,1,225.000008583069,14|0,0:0|0:0,0:0:0:0:
18,298,209027,2,0,B|20:329|46:337|48:331|79:339|76:368,1,100,8|8,0:0|0:0,0:0:0:0:
306,242,209241,6,0,P|291:214|292:250,1,89.9999972534181,6|0,3:2|0:0,0:0:0:0:
143,321,209455,2,0,P|191:327|223:376,1,89.9999972534181,2|0,0:3|0:0,0:0:0:0:
490,310,209670,1,10,0:0:0:0:
440,370,209777,2,0,P|346:363|316:280,1,150,2|0,0:0|0:0,0:0:0:0:
286,249,209991,6,0,P|285:215|303:246,1,89.9999972534181,2|0,0:0|3:0,0:0:0:0:
395,302,210205,1,2,0:0:0:0:
478,197,210313,2,0,P|428:192|399:142,1,89.9999972534181,2|0,0:3|0:0,0:0:0:0:
242,0,210527,6,0,P|192:5|163:55,1,89.9999972534181,10|0,0:0|0:0,0:0:0:0:
4,171,210741,2,0,L|168:196,1,150,2|0,0:3|0:0,0:0:0:0:
223,157,210955,6,0,P|244:117|226:63,1,89.9999972534181,2|0,3:2|0:0,0:0:0:0:
82,48,211170,2,0,P|61:88|79:142,1,89.9999972534181,2|0,0:3|0:0,0:0:0:0:
286,249,211384,1,10,0:0:0:0:
219,286,211491,2,0,P|139:271|89:332,1,150,2|0,0:0|0:0,0:0:0:0:
30,357,211705,6,0,P|80:359|107:396,1,89.9999972534181,2|0,0:0|3:0,0:0:0:0:
286,327,211920,1,2,0:0:0:0:
185,369,212027,6,0,B|206:382|206:382|217:346,1,44.999998626709,10|0,0:0|0:0,0:0:0:0:
466,316,212241,2,0,B|394:288|394:288|374:150|374:150|267:118,1,300,10|0,0:0|0:0,0:0:0:0:
266,31,212670,6,0,L|363:60,1,89.9999972534181,2|0,3:2|0:0,0:0:0:0:
494,194,212884,2,0,P|495:173|478:200,1,89.9999972534181,2|0,0:3|0:3,0:3:0:0:
286,249,213098,1,10,0:0:0:0:
236,183,213205,2,0,P|299:169|364:237,1,150,2|0,0:0|0:0,0:0:0:0:
422,269,213420,6,0,P|377:267|341:320,1,89.9999972534181,2|0,0:0|3:0,0:0:0:0:
277,384,213634,1,2,0:0:0:0:
161,291,213741,2,0,P|205:289|241:342,1,89.9999972534181,2|0,0:3|0:0,0:0:0:0:
443,376,213955,6,0,L|480:186,1,179.999994506836,14|0,0:0|0:0,0:0:0:0:
473,117,214170,2,0,P|474:96|457:123,1,89.9999972534181,2|0,0:3|0:3,0:3:0:0:
266,81,214384,6,0,P|224:116|175:99,1,89.9999972534181,6|0,3:2|0:0,0:0:0:0:
63,100,214598,1,10,0:0:0:0:
130,53,214705,1,10,0:0:0:0:
177,216,214813,6,0,P|130:186|131:135,1,89.9999972534181,10|0,0:0|3:0,0:0:0:0:
207,20,215027,1,4,3:0:0:0:
0,31,215134,6,0,P|71:19|283:205,1,375.000014305115,6|0,3:2|0:0,0:0:0:0:
347,251,215455,5,4,3:0:0:0:
354,226,215563,1,4,3:0:0:0:
300,115,215670,5,10,0:0:0:0:
432,234,215777,1,8,0:0:0:0:
397,78,215884,5,10,0:0:0:0:
282,199,215991,1,8,0:0:0:0:
