osu file format v14

[General]
AudioFilename: audio.mp3
AudioLeadIn: 0
PreviewTime: 55920
Countdown: 0
SampleSet: Normal
StackLeniency: 0.7
Mode: 1
LetterboxInBreaks: 0
WidescreenStoryboard: 0

[Editor]
Bookmarks: 15527,29241,42956,70384,97813,138956,142384,149241,185241,216099
DistanceSpacing: 1.3
BeatDivisor: 4
GridSize: 32
TimelineZoom: 1.1

[Metadata]
Title:Moonlight at midday
TitleUnicode:真昼の月明かり
Artist:Tsukuyomi
ArtistUnicode:月詠み
Creator:Jaltzu
Version:Muzukashii
Source:
Tags:japanese pop jpop j-pop rock jrock j-rock ツクヨミ 2943 mahiru no tsukiakari female vocals 欠けた心象、世のよすが kaketa shinshou yo no yosuga 4th digital single ユリイ・カノン yurii yurry kanon canon epoch とうかさ toukasa mikoto 矢尾拓也 yao takuya 脇山"コジロウ"真幸 wakiyama "kojirou" masayuki daichigumi 松橋秀幸 matsuhashi hideyuki birdie house 山崎翼 yamazaki tsubasa flugel mastering
BeatmapID:4063713
BeatmapSetID:1959210

[Difficulty]
HPDrainRate:7
CircleSize:2
OverallDifficulty:5
ApproachRate:10
SliderMultiplier:1.4
SliderTickRate:1

[Events]
//Background and Video events
0,0,"aki.jpg",0,0
//Break Periods
//Storyboard Layer 0 (Background)
//Storyboard Layer 1 (Fail)
//Storyboard Layer 2 (Pass)
//Storyboard Layer 3 (Foreground)
//Storyboard Layer 4 (Overlay)
//Storyboard Sound Samples

[TimingPoints]
1808,428.571428571429,4,1,0,70,1,0
8558,-95.2380952380952,4,1,0,70,0,0
12415,-94.1176470588235,4,1,0,70,0,0
12843,-93.0232558139535,4,1,0,70,0,0
13058,-92.485549132948,4,1,0,70,0,0
13272,-91.9540229885057,4,1,0,70,0,0
13486,-91.4285714285714,4,1,0,70,0,0
13808,-90.9090909090909,4,1,0,70,0,0
14665,-95.2380952380952,4,1,0,80,0,0
15415,-86.9565217391304,4,1,0,90,0,0
15629,-90.9090909090909,4,1,0,90,0,0
18254,-86.9565217391304,4,1,0,90,0,0
18629,-90.9090909090909,4,1,0,90,0,0
20129,-86.9565217391304,4,1,0,90,0,0
20558,-90.9090909090909,4,1,0,90,0,0
21361,-86.9565217391304,4,1,0,90,0,0
21522,-90.9090909090909,4,1,0,90,0,0
21897,-86.9565217391304,4,1,0,90,0,0
22486,-90.9090909090909,4,1,0,90,0,0
25058,-86.9565217391304,4,1,0,90,0,0
25486,-90.9090909090909,4,1,0,90,0,0
26986,-86.9565217391304,4,1,0,90,0,0
27415,-90.9090909090909,4,1,0,90,0,0
28218,-86.9565217391304,4,1,0,90,0,0
28379,-90.9090909090909,4,1,0,90,0,0
29183,-86.9565217391304,4,1,0,90,0,0
29343,-100,4,1,0,70,0,0
42843,-90.9090909090909,4,1,0,80,0,0
43058,-95.2380952380952,4,1,0,80,0,0
49700,-86.9565217391304,4,1,0,80,0,0
49915,-95.2380952380952,4,1,0,80,0,0
53129,-90.9090909090909,4,1,0,80,0,0
53343,-95.2380952380952,4,1,0,80,0,0
53879,-90.9090909090909,4,1,0,80,0,0
54093,-95.2380952380952,4,1,0,80,0,0
54897,-93.0232558139535,4,1,0,90,0,0
55058,-90.9090909090909,4,1,0,90,0,0
55272,-88.8888888888889,4,1,0,90,0,0
55486,-86.9565217391304,4,1,0,90,0,0
56558,-83.3333333333333,4,1,0,100,0,0
56665,-83.3333333333333,4,1,0,100,0,1
56772,-86.9565217391304,4,1,0,100,0,1
63468,-83.3333333333333,4,1,0,100,0,1
63629,-86.9565217391304,4,1,0,100,0,1
66843,-83.3333333333333,4,1,0,100,0,1
67058,-86.9565217391304,4,1,0,100,0,1
68558,-83.3333333333333,4,1,0,100,0,1
68772,-86.9565217391304,4,1,0,100,0,1
69200,-83.3333333333333,4,1,0,100,0,1
69415,-86.9565217391304,4,1,0,100,0,1
70272,-83.3333333333333,4,1,0,100,0,1
70486,-86.9565217391304,4,1,0,100,0,1
77183,-83.3333333333333,4,1,0,100,0,1
77343,-86.9565217391304,4,1,0,100,0,1
80558,-83.3333333333333,4,1,0,100,0,1
80772,-86.9565217391304,4,1,0,100,0,1
82272,-83.3333333333333,4,1,0,100,0,1
84093,-86.9565217391304,4,1,0,100,0,0
84200,-90.9090909090909,4,1,0,90,0,0
86825,-86.9565217391304,4,1,0,90,0,0
87200,-90.9090909090909,4,1,0,90,0,0
88700,-86.9565217391304,4,1,0,90,0,0
89129,-90.9090909090909,4,1,0,90,0,0
89879,-86.9565217391304,4,1,0,90,0,0
90093,-90.9090909090909,4,1,0,90,0,0
90468,-86.9565217391304,4,1,0,90,0,0
91058,-90.9090909090909,4,1,0,90,0,0
93683,-86.9565217391304,4,1,0,90,0,0
94058,-90.9090909090909,4,1,0,90,0,0
95558,-86.9565217391304,4,1,0,90,0,0
95986,-90.9090909090909,4,1,0,90,0,0
96736,-86.9565217391304,4,1,0,90,0,0
96950,-90.9090909090909,4,1,0,90,0,0
97325,-86.9565217391304,4,1,0,90,0,0
97754,-90.9090909090909,4,1,0,90,0,0
97915,-100,4,1,0,70,0,0
107986,-95.2380952380952,4,1,0,75,0,0
108415,-95.2380952380952,4,1,0,75,0,0
108843,-95.2380952380952,4,1,0,80,0,0
109486,-93.8967136150235,4,1,0,80,0,0
109700,-92.5925925925926,4,1,0,85,0,0
109861,-91.9540229885057,4,1,0,85,0,0
109968,-91.324200913242,4,1,0,85,0,0
110129,-90.0900900900901,4,1,0,85,0,0
110343,-88.8888888888889,4,1,0,85,0,0
110558,-87.719298245614,4,1,0,90,0,0
110772,-86.5800865800866,4,1,0,90,0,0
110933,-86.0215053763441,4,1,0,90,0,0
111040,-85.4700854700855,4,1,0,90,0,0
111415,-83.3333333333333,4,1,0,100,0,0
111522,-83.3333333333333,4,1,0,100,0,1
111629,-86.9565217391304,4,1,0,100,0,1
118272,-83.3333333333333,4,1,0,100,0,1
118486,-86.9565217391304,4,1,0,100,0,1
125183,-90.9090909090909,4,1,0,90,0,1
125236,-90.9090909090909,4,1,0,90,0,0
125343,-100,4,1,0,70,0,0
138843,-105.263157894737,4,1,0,60,0,0
148700,-100,4,1,0,60,0,0
149129,-95.2380952380952,4,1,0,70,0,0
152611,-95.2380952380952,4,1,0,70,0,0
152718,-94.5626477541371,4,1,0,70,0,0
152825,-93.8967136150235,4,1,0,70,0,0
153040,-92.5925925925926,4,1,0,70,0,0
153147,-91.743119266055,4,1,0,70,0,0
153254,-90.9090909090909,4,1,0,70,0,0
153361,-90.0900900900901,4,1,0,71,0,0
153468,-89.2857142857143,4,1,0,72,0,0
153575,-88.4955752212389,4,1,0,73,0,0
153683,-87.719298245614,4,1,0,74,0,0
153790,-86.9565217391304,4,1,0,75,0,0
153897,-86.2068965517241,4,1,0,76,0,0
154004,-85.4700854700855,4,1,0,77,0,0
154111,-84.7457627118644,4,1,0,78,0,0
154218,-84.0336134453781,4,1,0,79,0,0
154325,-83.3333333333333,4,1,0,80,0,0
155236,-90.9090909090909,4,1,0,70,0,0
155558,-88.2378893496868,4,1,0,70,0,0
155718,-86.9565217391304,4,1,0,70,0,0
155825,-85.7118368046627,4,1,0,70,0,0
155986,-83.3333333333333,4,1,0,100,0,0
156093,-83.3333333333333,4,1,0,100,0,1
156200,-86.9565217391304,4,1,0,100,0,1
162897,-83.3333333333333,4,1,0,100,0,1
163058,-86.9565217391304,4,1,0,100,0,1
167986,-83.3333333333333,4,1,0,100,0,1
169593,-90.9090909090909,4,1,0,70,0,1
169808,-90.9090909090909,4,1,0,70,0,0
171415,-83.3333333333333,4,1,0,100,0,0
171522,-83.3333333333333,4,1,0,100,0,1
171629,-86.9565217391304,4,1,0,100,0,1
178325,-83.3333333333333,4,1,0,100,0,1
178486,-86.9565217391304,4,1,0,100,0,1
185183,-83.3333333333333,4,1,0,100,0,1
185343,-86.9565217391304,4,1,0,100,0,1
192040,-83.3333333333333,4,1,0,100,0,1
192200,-86.9565217391304,4,1,0,100,0,1
198897,-83.3333333333333,4,1,0,100,0,1
199058,-86.9565217391304,4,1,0,100,0,1
200558,-83.3333333333333,4,1,0,100,0,1
202379,-86.9565217391304,4,1,0,100,0,0
202486,-90.9090909090909,4,1,0,90,0,0
205111,-86.9565217391304,4,1,0,90,0,0
205486,-90.9090909090909,4,1,0,90,0,0
208218,-86.9565217391304,4,1,0,90,0,0
208433,-90.9090909090909,4,1,0,90,0,0
208754,-86.9565217391304,4,1,0,90,0,0
209343,-90.9090909090909,4,1,0,90,0,0
211968,-86.9565217391304,4,1,0,90,0,0
212343,-90.9090909090909,4,1,0,90,0,0
213843,-86.9565217391304,4,1,0,90,0,0
214272,-90.9090909090909,4,1,0,90,0,0
215075,-86.9565217391304,4,1,0,90,0,0
215343,-90.9090909090909,4,1,0,90,0,0
215611,-87.719298245614,4,1,0,90,0,0
215718,-86.2068965517241,4,1,0,90,0,0
215825,-84.7457627118644,4,1,0,90,0,0
215933,-83.3333333333333,4,1,0,90,0,0

[HitObjects]
256,192,1808,5,8,0:0:0:0:
256,192,2236,1,0,0:0:0:0:
256,192,2450,1,0,0:0:0:0:
256,192,2665,1,8,0:0:0:0:
256,192,3093,1,8,0:0:0:0:
256,192,3522,1,0,0:0:0:0:
256,192,3736,1,8,0:0:0:0:
256,192,3950,1,0,0:0:0:0:
256,192,4165,1,8,0:0:0:0:
256,192,4593,1,0,0:0:0:0:
256,192,4808,1,8,0:0:0:0:
256,192,5236,1,0,0:0:0:0:
256,192,5665,1,0,0:0:0:0:
256,192,5879,1,0,0:0:0:0:
256,192,6093,1,8,0:0:0:0:
256,192,6308,1,0,0:0:0:0:
256,192,6950,1,8,0:0:0:0:
256,192,7165,1,8,0:0:0:0:
256,192,7379,1,0,0:0:0:0:
256,192,7593,1,8,0:0:0:0:
256,192,7808,1,0,0:0:0:0:
256,192,8665,5,4,0:0:0:0:
256,192,9093,1,0,0:0:0:0:
256,192,9308,1,0,0:0:0:0:
256,192,9522,1,8,0:0:0:0:
256,192,9950,1,8,0:0:0:0:
256,192,10379,1,0,0:0:0:0:
256,192,10593,1,0,0:0:0:0:
256,192,10808,1,0,0:0:0:0:
256,192,11022,1,8,0:0:0:0:
256,192,11450,1,0,0:0:0:0:
256,192,11665,1,8,0:0:0:0:
256,192,12093,1,12,0:0:0:0:
256,192,12522,1,0,0:0:0:0:
256,192,12950,1,0,0:0:0:0:
256,192,13165,1,0,0:0:0:0:
256,192,13379,1,8,0:0:0:0:
256,192,13593,1,8,0:0:0:0:
256,192,14879,1,0,0:0:0:0:
256,192,15093,1,12,0:0:0:0:
256,192,15522,5,4,0:0:0:0:
256,192,15950,1,8,0:0:0:0:
256,192,16272,1,0,0:0:0:0:
256,192,16593,1,0,0:0:0:0:
256,192,16808,1,8,0:0:0:0:
256,192,17236,1,0,0:0:0:0:
256,192,17450,1,8,0:0:0:0:
256,192,17665,1,8,0:0:0:0:
256,192,18308,1,12,0:0:0:0:
256,192,18522,1,12,0:0:0:0:
256,192,18950,1,0,0:0:0:0:
256,192,19379,1,8,0:0:0:0:
256,192,19700,1,0,0:0:0:0:
256,192,20022,1,0,0:0:0:0:
256,192,20236,1,12,0:0:0:0:
256,192,20665,1,4,0:0:0:0:
256,192,20879,1,8,0:0:0:0:
256,192,21093,1,0,0:0:0:0:
256,192,21200,1,0,0:0:0:0:
256,192,21415,1,12,0:0:0:0:
256,192,21736,1,0,0:0:0:0:
256,192,21950,1,12,0:0:0:0:
256,192,22379,1,4,0:0:0:0:
256,192,22808,1,8,0:0:0:0:
256,192,23129,1,0,0:0:0:0:
256,192,23450,1,0,0:0:0:0:
256,192,23665,1,8,0:0:0:0:
256,192,24093,1,8,0:0:0:0:
256,192,24308,1,8,0:0:0:0:
256,192,24522,1,8,0:0:0:0:
256,192,25165,1,12,0:0:0:0:
256,192,25379,1,12,0:0:0:0:
256,192,25808,1,0,0:0:0:0:
256,192,26236,1,8,0:0:0:0:
256,192,26558,1,0,0:0:0:0:
256,192,26879,1,0,0:0:0:0:
256,192,27093,1,12,0:0:0:0:
256,192,27522,1,4,0:0:0:0:
256,192,27736,1,0,0:0:0:0:
256,192,27950,1,8,0:0:0:0:
256,192,28058,1,8,0:0:0:0:
256,192,28272,1,4,0:0:0:0:
256,192,28593,1,0,0:0:0:0:
256,192,28808,1,8,0:0:0:0:
256,192,28915,1,8,0:0:0:0:
256,192,29022,1,8,0:0:0:0:
256,192,29236,5,4,0:0:0:0:
256,192,29665,1,0,0:0:0:0:
256,192,30093,1,8,0:0:0:0:
256,192,30522,1,8,0:0:0:0:
256,192,30950,1,0,0:0:0:0:
256,192,31165,1,0,0:0:0:0:
256,192,31379,1,8,0:0:0:0:
256,192,31593,1,0,0:0:0:0:
256,192,32022,1,0,0:0:0:0:
256,192,32236,1,8,0:0:0:0:
256,192,32450,1,0,0:0:0:0:
256,192,32665,1,0,0:0:0:0:
256,192,32879,1,8,0:0:0:0:
256,192,33308,1,0,0:0:0:0:
256,192,33522,1,8,0:0:0:0:
256,192,33950,1,0,0:0:0:0:
256,192,34379,1,8,0:0:0:0:
256,192,34593,1,8,0:0:0:0:
256,192,34808,1,8,0:0:0:0:
256,192,35022,1,0,0:0:0:0:
256,192,35450,1,0,0:0:0:0:
256,192,35665,1,8,0:0:0:0:
256,192,35879,1,8,0:0:0:0:
256,192,36522,1,8,0:0:0:0:
256,192,36736,1,0,0:0:0:0:
256,192,36950,1,8,0:0:0:0:
256,192,37379,1,0,0:0:0:0:
256,192,37808,1,0,0:0:0:0:
256,192,38022,1,8,0:0:0:0:
256,192,38236,1,8,0:0:0:0:
256,192,38450,1,0,0:0:0:0:
256,192,38879,1,0,0:0:0:0:
256,192,39093,1,8,0:0:0:0:
256,192,39522,1,0,0:0:0:0:
256,192,39736,1,0,0:0:0:0:
256,192,39950,1,8,0:0:0:0:
256,192,40165,1,0,0:0:0:0:
256,192,40379,1,8,0:0:0:0:
256,192,40808,1,8,0:0:0:0:
256,192,41022,1,8,0:0:0:0:
256,192,41236,1,0,0:0:0:0:
256,192,41558,1,0,0:0:0:0:
256,192,41879,1,0,0:0:0:0:
256,192,42093,1,8,0:0:0:0:
256,192,42950,5,12,0:0:0:0:
256,192,43379,1,8,0:0:0:0:
256,192,43593,1,0,0:0:0:0:
256,192,43808,1,8,0:0:0:0:
256,192,43915,1,8,0:0:0:0:
256,192,44129,1,0,0:0:0:0:
256,192,44236,1,0,0:0:0:0:
256,192,44450,1,8,0:0:0:0:
256,192,44665,1,0,0:0:0:0:
256,192,44879,1,0,0:0:0:0:
256,192,45093,1,8,0:0:0:0:
256,192,45308,1,8,0:0:0:0:
256,192,45522,1,0,0:0:0:0:
256,192,46165,1,0,0:0:0:0:
256,192,46379,1,8,0:0:0:0:
256,192,46593,1,0,0:0:0:0:
256,192,46808,1,8,0:0:0:0:
256,192,47022,1,8,0:0:0:0:
256,192,47236,1,0,0:0:0:0:
256,192,47450,1,8,0:0:0:0:
256,192,47558,1,8,0:0:0:0:
256,192,47665,1,8,0:0:0:0:
256,192,48093,1,0,0:0:0:0:
256,192,48308,1,0,0:0:0:0:
256,192,48522,1,8,0:0:0:0:
256,192,48736,1,8,0:0:0:0:
256,192,48950,1,0,0:0:0:0:
256,192,49808,5,12,0:0:0:0:
256,192,50236,1,8,0:0:0:0:
256,192,50450,1,0,0:0:0:0:
256,192,50665,1,8,0:0:0:0:
256,192,50772,1,8,0:0:0:0:
256,192,50986,1,0,0:0:0:0:
256,192,51093,1,0,0:0:0:0:
256,192,51308,1,8,0:0:0:0:
256,192,51522,1,0,0:0:0:0:
256,192,51629,1,0,0:0:0:0:
256,192,51736,1,0,0:0:0:0:
256,192,51950,1,8,0:0:0:0:
256,192,52165,1,8,0:0:0:0:
256,192,52379,1,0,0:0:0:0:
256,192,52808,1,8,0:0:0:0:
256,192,53236,1,12,0:0:0:0:
256,192,53450,1,0,0:0:0:0:
256,192,53665,1,0,0:0:0:0:
256,192,53986,1,12,0:0:0:0:
256,192,54308,1,0,0:0:0:0:
256,192,54522,1,8,0:0:0:0:
256,192,54629,1,8,0:0:0:0:
256,192,54736,1,8,0:0:0:0:
256,192,54950,1,4,0:0:0:0:
256,192,55165,1,4,0:0:0:0:
256,192,55379,1,4,0:0:0:0:
256,192,55593,1,12,0:0:0:0:
256,192,56665,5,12,0:0:0:0:
256,192,57093,1,0,0:0:0:0:
256,192,57308,1,0,0:0:0:0:
256,192,57522,1,8,0:0:0:0:
256,192,57629,1,8,0:0:0:0:
256,192,57736,1,8,0:0:0:0:
256,192,57950,1,0,0:0:0:0:
256,192,58165,1,0,0:0:0:0:
256,192,58379,1,8,0:0:0:0:
256,192,58593,1,8,0:0:0:0:
256,192,58808,1,0,0:0:0:0:
256,192,59022,1,8,0:0:0:0:
256,192,59450,1,0,0:0:0:0:
256,192,59665,1,8,0:0:0:0:
256,192,60093,1,0,0:0:0:0:
256,192,60415,1,8,0:0:0:0:
256,192,60522,1,0,0:0:0:0:
256,192,60736,1,8,0:0:0:0:
256,192,60950,1,8,0:0:0:0:
256,192,61593,1,0,0:0:0:0:
256,192,61808,1,0,0:0:0:0:
256,192,62022,1,8,0:0:0:0:
256,192,62236,1,8,0:0:0:0:
256,192,62450,1,0,0:0:0:0:
256,192,62558,1,0,0:0:0:0:
256,192,62665,1,0,0:0:0:0:
256,192,63093,1,8,0:0:0:0:
256,192,63522,1,4,0:0:0:0:
256,192,63950,1,8,0:0:0:0:
256,192,64165,1,0,0:0:0:0:
256,192,64379,1,8,0:0:0:0:
256,192,64486,1,8,0:0:0:0:
256,192,64593,1,8,0:0:0:0:
256,192,64808,1,8,0:0:0:0:
256,192,65022,1,0,0:0:0:0:
256,192,65236,1,8,0:0:0:0:
256,192,65450,1,0,0:0:0:0:
256,192,65665,1,0,0:0:0:0:
256,192,65879,1,8,0:0:0:0:
256,192,66522,1,0,0:0:0:0:
256,192,66950,1,12,0:0:0:0:
256,192,67379,1,8,0:0:0:0:
256,192,67593,1,8,0:0:0:0:
256,192,67808,1,0,0:0:0:0:
256,192,68022,1,0,0:0:0:0:
256,192,68236,1,8,0:0:0:0:
256,192,68450,1,0,0:0:0:0:
256,192,68665,1,12,0:0:0:0:
256,192,68879,1,0,0:0:0:0:
256,192,69093,1,0,0:0:0:0:
256,192,69308,1,12,0:0:0:0:
256,192,69736,1,8,0:0:0:0:
256,192,69950,1,0,0:0:0:0:
256,192,70379,5,12,0:0:0:0:
256,192,70808,1,0,0:0:0:0:
256,192,71022,1,0,0:0:0:0:
256,192,71236,1,8,0:0:0:0:
256,192,71343,1,8,0:0:0:0:
256,192,71450,1,8,0:0:0:0:
256,192,71665,1,8,0:0:0:0:
256,192,71879,1,0,0:0:0:0:
256,192,72093,1,0,0:0:0:0:
256,192,72308,1,8,0:0:0:0:
256,192,72522,1,0,0:0:0:0:
256,192,72736,1,8,0:0:0:0:
256,192,73165,1,0,0:0:0:0:
256,192,73379,1,8,0:0:0:0:
256,192,73808,1,0,0:0:0:0:
256,192,74129,1,0,0:0:0:0:
256,192,74236,1,0,0:0:0:0:
256,192,74450,1,0,0:0:0:0:
256,192,74665,1,8,0:0:0:0:
256,192,75308,1,8,0:0:0:0:
256,192,75522,1,0,0:0:0:0:
256,192,75736,1,8,0:0:0:0:
256,192,75950,1,8,0:0:0:0:
256,192,76165,1,0,0:0:0:0:
256,192,76272,1,0,0:0:0:0:
256,192,76379,1,0,0:0:0:0:
256,192,76808,1,8,0:0:0:0:
256,192,76915,1,8,0:0:0:0:
256,192,77022,1,8,0:0:0:0:
256,192,77236,1,4,0:0:0:0:
256,192,77665,1,0,0:0:0:0:
256,192,77879,1,0,0:0:0:0:
256,192,78093,1,8,0:0:0:0:
256,192,78200,1,8,0:0:0:0:
256,192,78308,1,8,0:0:0:0:
256,192,78522,1,0,0:0:0:0:
256,192,78736,1,8,0:0:0:0:
256,192,78950,1,0,0:0:0:0:
256,192,79165,1,0,0:0:0:0:
256,192,79379,1,8,0:0:0:0:
256,192,79593,1,8,0:0:0:0:
256,192,80236,1,0,0:0:0:0:
256,192,80665,1,12,0:0:0:0:
256,192,81093,1,0,0:0:0:0:
256,192,81308,1,0,0:0:0:0:
256,192,81522,1,8,0:0:0:0:
256,192,81736,1,8,0:0:0:0:
256,192,81950,1,0,0:0:0:0:
256,192,82058,1,0,0:0:0:0:
256,192,82165,1,0,0:0:0:0:
256,192,82379,1,12,0:0:0:0:
256,192,82593,1,4,0:0:0:0:
256,192,83022,1,12,0:0:0:0:
256,192,83236,1,4,0:0:0:0:
256,192,83665,1,12,0:0:0:0:
256,192,84093,5,12,0:0:0:0:
256,192,84522,1,8,0:0:0:0:
256,192,84843,1,0,0:0:0:0:
256,192,85165,1,0,0:0:0:0:
256,192,85379,1,8,0:0:0:0:
256,192,85808,1,0,0:0:0:0:
256,192,86022,1,8,0:0:0:0:
256,192,86236,1,8,0:0:0:0:
256,192,86879,1,12,0:0:0:0:
256,192,87093,1,12,0:0:0:0:
256,192,87522,1,0,0:0:0:0:
256,192,87950,1,8,0:0:0:0:
256,192,88272,1,0,0:0:0:0:
256,192,88593,1,0,0:0:0:0:
256,192,88808,1,12,0:0:0:0:
256,192,89236,1,4,0:0:0:0:
256,192,89450,1,8,0:0:0:0:
256,192,89665,1,0,0:0:0:0:
256,192,89986,1,12,0:0:0:0:
256,192,90308,1,0,0:0:0:0:
256,192,90522,1,12,0:0:0:0:
256,192,90950,1,4,0:0:0:0:
256,192,91379,1,8,0:0:0:0:
256,192,91700,1,0,0:0:0:0:
256,192,92022,1,0,0:0:0:0:
256,192,92236,1,8,0:0:0:0:
256,192,92665,1,8,0:0:0:0:
256,192,92879,1,8,0:0:0:0:
256,192,93093,1,8,0:0:0:0:
256,192,93736,1,12,0:0:0:0:
256,192,93950,1,12,0:0:0:0:
256,192,94379,1,0,0:0:0:0:
256,192,94808,1,8,0:0:0:0:
256,192,95129,1,0,0:0:0:0:
256,192,95450,1,0,0:0:0:0:
256,192,95665,1,12,0:0:0:0:
256,192,96093,1,4,0:0:0:0:
256,192,96308,1,8,0:0:0:0:
256,192,96522,1,8,0:0:0:0:
256,192,96629,1,8,0:0:0:0:
256,192,96843,1,4,0:0:0:0:
256,192,97165,1,0,0:0:0:0:
256,192,97379,1,12,0:0:0:0:
256,192,97808,5,4,0:0:0:0:
256,192,98236,1,0,0:0:0:0:
256,192,98665,1,8,0:0:0:0:
256,192,99093,1,8,0:0:0:0:
256,192,99522,1,0,0:0:0:0:
256,192,99736,1,0,0:0:0:0:
256,192,99950,1,8,0:0:0:0:
256,192,100165,1,0,0:0:0:0:
256,192,100593,1,0,0:0:0:0:
256,192,100808,1,8,0:0:0:0:
256,192,101236,1,0,0:0:0:0:
256,192,101450,1,0,0:0:0:0:
256,192,101665,1,8,0:0:0:0:
256,192,101879,1,0,0:0:0:0:
256,192,102093,1,8,0:0:0:0:
256,192,102522,1,0,0:0:0:0:
256,192,102736,1,8,0:0:0:0:
256,192,102950,1,0,0:0:0:0:
256,192,103165,1,8,0:0:0:0:
256,192,103379,1,8,0:0:0:0:
256,192,103593,1,0,0:0:0:0:
256,192,104236,1,8,0:0:0:0:
256,192,104450,1,0,0:0:0:0:
256,192,104879,1,0,0:0:0:0:
256,192,105093,1,8,0:0:0:0:
256,192,105308,1,0,0:0:0:0:
256,192,105522,1,8,0:0:0:0:
256,192,105950,1,8,0:0:0:0:
256,192,106165,1,0,0:0:0:0:
256,192,106379,1,0,0:0:0:0:
256,192,106593,1,8,0:0:0:0:
256,192,106808,1,8,0:0:0:0:
256,192,107022,1,0,0:0:0:0:
256,192,107450,1,8,0:0:0:0:
256,192,107665,1,0,0:0:0:0:
256,192,108093,1,12,0:0:0:0:
256,192,108736,1,0,0:0:0:0:
256,192,108950,1,8,0:0:0:0:
256,192,109379,1,0,0:0:0:0:
256,192,109593,1,0,0:0:0:0:
256,192,109808,1,8,0:0:0:0:
256,192,109915,1,8,0:0:0:0:
256,192,110022,1,8,0:0:0:0:
256,192,110236,1,0,0:0:0:0:
256,192,110450,1,8,0:0:0:0:
256,192,110665,1,4,0:0:0:0:
256,192,110879,1,8,0:0:0:0:
256,192,110986,1,8,0:0:0:0:
256,192,111093,1,8,0:0:0:0:
256,192,111522,5,12,0:0:0:0:
256,192,111950,1,0,0:0:0:0:
256,192,112379,1,8,0:0:0:0:
256,192,112808,1,8,0:0:0:0:
256,192,112915,1,8,0:0:0:0:
256,192,113022,1,8,0:0:0:0:
256,192,113236,1,0,0:0:0:0:
256,192,113450,1,0,0:0:0:0:
256,192,113665,1,8,0:0:0:0:
256,192,114093,1,8,0:0:0:0:
256,192,114308,1,0,0:0:0:0:
256,192,114522,1,8,0:0:0:0:
256,192,114950,1,0,0:0:0:0:
256,192,115165,1,0,0:0:0:0:
256,192,115379,1,8,0:0:0:0:
256,192,115593,1,8,0:0:0:0:
256,192,115808,1,0,0:0:0:0:
256,192,116022,1,8,0:0:0:0:
256,192,116236,1,8,0:0:0:0:
256,192,116665,1,0,0:0:0:0:
256,192,116772,1,0,0:0:0:0:
256,192,116879,1,0,0:0:0:0:
256,192,117093,1,8,0:0:0:0:
256,192,117200,1,8,0:0:0:0:
256,192,117308,1,8,0:0:0:0:
256,192,117522,1,0,0:0:0:0:
256,192,117736,1,8,0:0:0:0:
256,192,117843,1,8,0:0:0:0:
256,192,117950,1,8,0:0:0:0:
256,192,118165,1,0,0:0:0:0:
256,192,118379,1,12,0:0:0:0:
256,192,119022,1,0,0:0:0:0:
256,192,119236,1,8,0:0:0:0:
256,192,119450,1,8,0:0:0:0:
256,192,119665,1,0,0:0:0:0:
256,192,120093,1,0,0:0:0:0:
256,192,120308,1,0,0:0:0:0:
256,192,120522,1,8,0:0:0:0:
256,192,120736,1,8,0:0:0:0:
256,192,121165,1,8,0:0:0:0:
256,192,121379,1,0,0:0:0:0:
256,192,121808,1,8,0:0:0:0:
256,192,122022,1,8,0:0:0:0:
256,192,122129,1,8,0:0:0:0:
256,192,122236,1,8,0:0:0:0:
256,192,122450,1,0,0:0:0:0:
256,192,122665,1,8,0:0:0:0:
256,192,122879,1,0,0:0:0:0:
256,192,122986,1,0,0:0:0:0:
256,192,123093,1,0,0:0:0:0:
256,192,123522,1,8,0:0:0:0:
256,192,123629,1,8,0:0:0:0:
256,192,123736,1,8,0:0:0:0:
256,192,123950,1,0,0:0:0:0:
256,192,124379,1,0,0:0:0:0:
256,192,124486,1,0,0:0:0:0:
256,192,124593,1,0,0:0:0:0:
256,192,124808,1,8,0:0:0:0:
256,192,125236,5,12,0:0:0:0:
256,192,125879,1,0,0:0:0:0:
256,192,126093,1,8,0:0:0:0:
256,192,126736,1,8,0:0:0:0:
256,192,126950,1,8,0:0:0:0:
256,192,127379,1,8,0:0:0:0:
256,192,127808,1,0,0:0:0:0:
256,192,128236,1,8,0:0:0:0:
256,192,128450,1,0,0:0:0:0:
256,192,128665,1,0,0:0:0:0:
256,192,129308,1,8,0:0:0:0:
256,192,129522,1,0,0:0:0:0:
256,192,130165,1,0,0:0:0:0:
256,192,130379,1,0,0:0:0:0:
256,192,131022,1,0,0:0:0:0:
256,192,131236,1,8,0:0:0:0:
256,192,131450,1,8,0:0:0:0:
256,192,131665,1,0,0:0:0:0:
256,192,132093,1,8,0:0:0:0:
256,192,132736,1,0,0:0:0:0:
256,192,132950,1,8,0:0:0:0:
256,192,133593,1,8,0:0:0:0:
256,192,133808,1,0,0:0:0:0:
256,192,134236,1,0,0:0:0:0:
256,192,134665,1,8,0:0:0:0:
256,192,135093,1,8,0:0:0:0:
256,192,135308,1,0,0:0:0:0:
256,192,135522,1,0,0:0:0:0:
256,192,136165,1,8,0:0:0:0:
256,192,136379,1,0,0:0:0:0:
256,192,137022,1,0,0:0:0:0:
256,192,137236,1,0,0:0:0:0:
256,192,137879,1,0,0:0:0:0:
256,192,138093,1,8,0:0:0:0:
256,192,138308,1,8,0:0:0:0:
256,192,138522,1,0,0:0:0:0:
256,192,138950,1,0,0:0:0:0:
256,192,139808,1,0,0:0:0:0:
256,192,140665,1,0,0:0:0:0:
256,192,142379,5,0,0:0:0:0:
256,192,143236,1,8,0:0:0:0:
256,192,144093,1,0,0:0:0:0:
256,192,144736,1,8,0:0:0:0:
256,192,145379,1,8,0:0:0:0:
256,192,145808,1,0,0:0:0:0:
256,192,146665,1,0,0:0:0:0:
256,192,147522,1,8,0:0:0:0:
256,192,148808,5,8,0:0:0:0:
256,192,149236,1,0,0:0:0:0:
256,192,149665,1,0,0:0:0:0:
256,192,149879,1,0,0:0:0:0:
256,192,150093,1,8,0:0:0:0:
256,192,150522,1,8,0:0:0:0:
256,192,150950,1,0,0:0:0:0:
256,192,151165,1,0,0:0:0:0:
256,192,151379,1,8,0:0:0:0:
256,192,151593,1,8,0:0:0:0:
256,192,152236,1,0,0:0:0:0:
256,192,152665,1,8,0:0:0:0:
256,192,152772,1,8,0:0:0:0:
256,192,152879,1,8,0:0:0:0:
256,192,153093,1,0,0:0:0:0:
256,192,153308,1,8,0:0:0:0:
256,192,153415,1,8,0:0:0:0:
256,192,153522,1,8,0:0:0:0:
256,192,153736,1,8,0:0:0:0:
256,192,153950,1,0,0:0:0:0:
256,192,154058,1,0,0:0:0:0:
256,192,154165,1,0,0:0:0:0:
256,192,154379,1,12,0:0:0:0:
256,192,154593,1,12,0:0:0:0:
256,192,154808,1,12,0:0:0:0:
256,192,155022,1,12,0:0:0:0:
256,192,155450,1,0,0:0:0:0:
256,192,155665,1,8,0:0:0:0:
256,192,155772,1,8,0:0:0:0:
256,192,155879,1,8,0:0:0:0:
256,192,156093,5,4,0:0:0:0:
256,192,156522,1,8,0:0:0:0:
256,192,156736,1,0,0:0:0:0:
256,192,156950,1,8,0:0:0:0:
256,192,157058,1,8,0:0:0:0:
256,192,157165,1,8,0:0:0:0:
256,192,157379,1,0,0:0:0:0:
256,192,157593,1,8,0:0:0:0:
256,192,157808,1,0,0:0:0:0:
256,192,158022,1,0,0:0:0:0:
256,192,158236,1,8,0:0:0:0:
256,192,158450,1,8,0:0:0:0:
256,192,158879,1,0,0:0:0:0:
256,192,159093,1,8,0:0:0:0:
256,192,159522,1,0,0:0:0:0:
256,192,159950,1,0,0:0:0:0:
256,192,160165,1,0,0:0:0:0:
256,192,160379,1,8,0:0:0:0:
256,192,161022,1,8,0:0:0:0:
256,192,161236,1,0,0:0:0:0:
256,192,161450,1,8,0:0:0:0:
256,192,161665,1,8,0:0:0:0:
256,192,161879,1,0,0:0:0:0:
256,192,161986,1,0,0:0:0:0:
256,192,162093,1,0,0:0:0:0:
256,192,162522,1,8,0:0:0:0:
256,192,162736,1,8,0:0:0:0:
256,192,162950,1,4,0:0:0:0:
256,192,163379,1,8,0:0:0:0:
256,192,163593,1,0,0:0:0:0:
256,192,163808,1,8,0:0:0:0:
256,192,163915,1,8,0:0:0:0:
256,192,164022,1,8,0:0:0:0:
256,192,164236,1,8,0:0:0:0:
256,192,164450,1,0,0:0:0:0:
256,192,164665,1,8,0:0:0:0:
256,192,164879,1,0,0:0:0:0:
256,192,165093,1,0,0:0:0:0:
256,192,165308,1,8,0:0:0:0:
256,192,165950,1,0,0:0:0:0:
256,192,166379,1,8,0:0:0:0:
256,192,166808,1,0,0:0:0:0:
256,192,167022,1,8,0:0:0:0:
256,192,167236,1,0,0:0:0:0:
256,192,167665,1,0,0:0:0:0:
256,192,167879,1,0,0:0:0:0:
256,192,168093,1,12,0:0:0:0:
256,192,168308,1,12,0:0:0:0:
256,192,168736,1,12,0:0:0:0:
256,192,168950,1,12,0:0:0:0:
256,192,169379,1,12,0:0:0:0:
256,192,169808,12,0,171093,0:0:0:0:
256,192,171522,5,12,0:0:0:0:
256,192,171950,1,0,0:0:0:0:
256,192,172165,1,0,0:0:0:0:
256,192,172379,1,8,0:0:0:0:
256,192,172486,1,8,0:0:0:0:
256,192,172593,1,8,0:0:0:0:
256,192,172808,1,0,0:0:0:0:
256,192,173022,1,0,0:0:0:0:
256,192,173236,1,8,0:0:0:0:
256,192,173450,1,0,0:0:0:0:
256,192,173665,1,8,0:0:0:0:
256,192,173879,1,8,0:0:0:0:
256,192,174308,1,0,0:0:0:0:
256,192,174522,1,8,0:0:0:0:
256,192,174950,1,0,0:0:0:0:
256,192,175379,1,0,0:0:0:0:
256,192,175593,1,8,0:0:0:0:
256,192,175808,1,8,0:0:0:0:
256,192,176450,1,0,0:0:0:0:
256,192,176665,1,8,0:0:0:0:
256,192,176879,1,8,0:0:0:0:
256,192,177093,1,0,0:0:0:0:
256,192,177308,1,8,0:0:0:0:
256,192,177522,1,0,0:0:0:0:
256,192,177629,1,0,0:0:0:0:
256,192,177736,1,0,0:0:0:0:
256,192,177950,1,8,0:0:0:0:
256,192,178165,1,8,0:0:0:0:
256,192,178379,1,4,0:0:0:0:
256,192,178808,1,8,0:0:0:0:
256,192,179022,1,0,0:0:0:0:
256,192,179236,1,8,0:0:0:0:
256,192,179343,1,8,0:0:0:0:
256,192,179450,1,8,0:0:0:0:
256,192,179665,1,8,0:0:0:0:
256,192,179879,1,0,0:0:0:0:
256,192,180093,1,8,0:0:0:0:
256,192,180308,1,0,0:0:0:0:
256,192,180522,1,8,0:0:0:0:
256,192,180736,1,8,0:0:0:0:
256,192,181379,1,0,0:0:0:0:
256,192,181808,1,8,0:0:0:0:
256,192,182236,1,8,0:0:0:0:
256,192,182450,1,8,0:0:0:0:
256,192,182665,1,0,0:0:0:0:
256,192,182879,1,0,0:0:0:0:
256,192,183093,1,8,0:0:0:0:
256,192,183308,1,0,0:0:0:0:
256,192,183522,1,8,0:0:0:0:
256,192,183736,1,8,0:0:0:0:
256,192,183950,1,0,0:0:0:0:
256,192,184165,1,8,0:0:0:0:
256,192,184272,1,8,0:0:0:0:
256,192,184379,1,8,0:0:0:0:
256,192,184808,1,0,0:0:0:0:
256,192,184915,1,0,0:0:0:0:
256,192,185022,1,0,0:0:0:0:
256,192,185236,5,12,0:0:0:0:
256,192,185665,1,0,0:0:0:0:
256,192,185879,1,0,0:0:0:0:
256,192,186093,1,8,0:0:0:0:
256,192,186200,1,8,0:0:0:0:
256,192,186308,1,8,0:0:0:0:
256,192,186522,1,0,0:0:0:0:
256,192,186736,1,0,0:0:0:0:
256,192,186950,1,8,0:0:0:0:
256,192,187165,1,0,0:0:0:0:
256,192,187379,1,0,0:0:0:0:
256,192,187593,1,8,0:0:0:0:
256,192,188022,1,0,0:0:0:0:
256,192,188236,1,8,0:0:0:0:
256,192,188665,1,0,0:0:0:0:
256,192,189093,1,0,0:0:0:0:
256,192,189308,1,0,0:0:0:0:
256,192,189522,1,8,0:0:0:0:
256,192,190165,1,0,0:0:0:0:
256,192,190379,1,8,0:0:0:0:
256,192,190593,1,8,0:0:0:0:
256,192,190808,1,0,0:0:0:0:
256,192,191022,1,8,0:0:0:0:
256,192,191129,1,8,0:0:0:0:
256,192,191236,1,8,0:0:0:0:
256,192,191450,1,0,0:0:0:0:
256,192,191665,1,8,0:0:0:0:
256,192,191772,1,8,0:0:0:0:
256,192,191879,1,8,0:0:0:0:
256,192,192093,1,4,0:0:0:0:
256,192,192522,1,8,0:0:0:0:
256,192,192736,1,0,0:0:0:0:
256,192,192950,1,8,0:0:0:0:
256,192,193058,1,8,0:0:0:0:
256,192,193165,1,8,0:0:0:0:
256,192,193379,1,0,0:0:0:0:
256,192,193593,1,8,0:0:0:0:
256,192,193808,1,0,0:0:0:0:
256,192,194022,1,0,0:0:0:0:
256,192,194236,1,8,0:0:0:0:
256,192,194450,1,8,0:0:0:0:
256,192,195093,1,0,0:0:0:0:
256,192,195522,1,8,0:0:0:0:
256,192,195950,1,8,0:0:0:0:
256,192,196165,1,8,0:0:0:0:
256,192,196379,1,0,0:0:0:0:
256,192,196593,1,8,0:0:0:0:
256,192,196808,1,0,0:0:0:0:
256,192,197022,1,0,0:0:0:0:
256,192,197236,1,8,0:0:0:0:
256,192,197879,1,8,0:0:0:0:
256,192,198093,1,0,0:0:0:0:
256,192,198522,1,8,0:0:0:0:
256,192,198736,1,8,0:0:0:0:
256,192,198950,1,4,0:0:0:0:
256,192,199379,1,8,0:0:0:0:
256,192,199593,1,8,0:0:0:0:
256,192,199808,1,0,0:0:0:0:
256,192,200022,1,8,0:0:0:0:
256,192,200236,1,0,0:0:0:0:
256,192,200343,1,0,0:0:0:0:
256,192,200450,1,0,0:0:0:0:
256,192,200665,1,12,0:0:0:0:
256,192,200879,1,4,0:0:0:0:
256,192,201308,1,12,0:0:0:0:
256,192,201522,1,4,0:0:0:0:
256,192,201950,1,12,0:0:0:0:
256,192,202379,5,12,0:0:0:0:
256,192,202808,1,8,0:0:0:0:
256,192,203129,1,0,0:0:0:0:
256,192,203450,1,8,0:0:0:0:
256,192,203665,1,8,0:0:0:0:
256,192,204093,1,0,0:0:0:0:
256,192,204308,1,8,0:0:0:0:
256,192,204522,1,8,0:0:0:0:
256,192,205165,1,12,0:0:0:0:
256,192,205379,1,12,0:0:0:0:
256,192,205808,1,0,0:0:0:0:
256,192,206236,1,8,0:0:0:0:
256,192,206558,1,0,0:0:0:0:
256,192,206879,1,0,0:0:0:0:
256,192,207093,1,8,0:0:0:0:
256,192,207522,1,4,0:0:0:0:
256,192,207736,1,8,0:0:0:0:
256,192,207950,1,8,0:0:0:0:
256,192,208058,1,8,0:0:0:0:
256,192,208272,1,4,0:0:0:0:
256,192,208593,1,0,0:0:0:0:
256,192,208808,1,12,0:0:0:0:
256,192,209236,1,4,0:0:0:0:
256,192,209665,1,8,0:0:0:0:
256,192,209986,1,0,0:0:0:0:
256,192,210308,1,0,0:0:0:0:
256,192,210522,1,8,0:0:0:0:
256,192,210950,1,0,0:0:0:0:
256,192,211165,1,8,0:0:0:0:
256,192,211379,1,8,0:0:0:0:
256,192,212022,1,12,0:0:0:0:
256,192,212236,1,12,0:0:0:0:
256,192,212665,1,0,0:0:0:0:
256,192,213093,1,8,0:0:0:0:
256,192,213415,1,0,0:0:0:0:
256,192,213736,1,0,0:0:0:0:
256,192,213950,1,12,0:0:0:0:
256,192,214379,1,4,0:0:0:0:
256,192,214593,1,8,0:0:0:0:
256,192,214808,1,0,0:0:0:0:
256,192,214915,1,0,0:0:0:0:
256,192,215129,1,12,0:0:0:0:
256,192,215450,1,0,0:0:0:0:
256,192,215665,1,8,0:0:0:0:
256,192,215772,1,8,0:0:0:0:
256,192,215879,1,8,0:0:0:0:
256,192,215986,1,8,0:0:0:0:
