osu file format v14

[General]
AudioFilename: audio.mp3
AudioLeadIn: 0
PreviewTime: 55920
Countdown: 0
SampleSet: Normal
StackLeniency: 0.7
Mode: 1
LetterboxInBreaks: 0
WidescreenStoryboard: 0

[Editor]
Bookmarks: 15527,29241,42956,70384,97813,138956,142384,149241,185241,216099
DistanceSpacing: 1.1
BeatDivisor: 8
GridSize: 32
TimelineZoom: 1.5

[Metadata]
Title:Moonlight at midday
TitleUnicode:真昼の月明かり
Artist:Tsukuyomi
ArtistUnicode:月詠み
Creator:Jaltzu
Version:Moonlit Oni
Source:
Tags:japanese pop jpop j-pop rock jrock j-rock ツクヨミ 2943 mahiru no tsukiakari female vocals 欠けた心象、世のよすが kaketa shinshou yo no yosuga 4th digital single ユリイ・カノン yurii yurry kanon canon epoch とうかさ toukasa mikoto 矢尾拓也 yao takuya 脇山"コジロウ"真幸 wakiyama "kojirou" masayuki daichigumi 松橋秀幸 matsuhashi hideyuki birdie house 山崎翼 yamazaki tsubasa flugel mastering
BeatmapID:4059708
BeatmapSetID:1959210

[Difficulty]
HPDrainRate:6
CircleSize:2
OverallDifficulty:6
ApproachRate:10
SliderMultiplier:1.4
SliderTickRate:1

[Events]
//Background and Video events
0,0,"aki.jpg",0,0
//Break Periods
//Storyboard Layer 0 (Background)
//Storyboard Layer 1 (Fail)
//Storyboard Layer 2 (Pass)
//Storyboard Layer 3 (Foreground)
//Storyboard Layer 4 (Overlay)
//Storyboard Sound Samples

[TimingPoints]
1808,428.571428571429,4,1,0,70,1,0
8343,-95.2380952380952,4,1,0,70,0,0
8558,-86.9565217391304,4,1,0,70,0,0
8986,-90.9090909090909,4,1,0,70,0,0
11986,-87.719298245614,4,1,0,70,0,0
12200,-86.2068965517241,4,1,0,70,0,0
12415,-84.7457627118644,4,1,0,70,0,0
12629,-83.3333333333333,4,1,0,70,0,0
12843,-81.9672131147541,4,1,0,70,0,0
13058,-80.6451612903226,4,1,0,70,0,0
13272,-79.3650793650794,4,1,0,70,0,0
13486,-78.125,4,1,0,70,0,0
13808,-76.9230769230769,4,1,0,70,0,0
14665,-86.9565217391304,4,1,0,80,0,0
15415,-66.6666666666667,4,1,0,90,0,0
15629,-76.9230769230769,4,1,0,90,0,0
18254,-71.4285714285714,4,1,0,90,0,0
18629,-76.9230769230769,4,1,0,90,0,0
20129,-71.4285714285714,4,1,0,90,0,0
20343,-76.9230769230769,4,1,0,90,0,0
20558,-71.4285714285714,4,1,0,90,0,0
20772,-76.9230769230769,4,1,0,90,0,0
20933,-75.187969924812,4,1,0,90,0,0
21040,-73.5294117647059,4,1,0,90,0,0
21147,-71.9424460431655,4,1,0,90,0,0
21254,-70.4225352112676,4,1,0,90,0,0
21361,-68.9655172413793,4,1,0,90,0,0
21522,-74.0740740740741,4,1,0,90,0,0
21683,-71.4285714285714,4,1,0,90,0,0
21790,-68.9655172413793,4,1,0,90,0,0
21897,-66.6666666666667,4,1,0,90,0,0
22111,-69.7690643968464,4,1,0,90,0,0
22218,-71.4285714285714,4,1,0,90,0,0
22325,-73.1689470988512,4,1,0,90,0,0
22540,-76.9230769230769,4,1,0,90,0,0
25111,-71.4285714285714,4,1,0,90,0,0
25486,-76.9230769230769,4,1,0,90,0,0
26986,-71.4285714285714,4,1,0,90,0,0
27200,-76.9230769230769,4,1,0,90,0,0
27415,-71.4285714285714,4,1,0,90,0,0
27629,-76.9230769230769,4,1,0,90,0,0
27790,-75.187969924812,4,1,0,90,0,0
27897,-73.5294117647059,4,1,0,90,0,0
28004,-71.9424460431655,4,1,0,90,0,0
28111,-70.4225352112676,4,1,0,90,0,0
28218,-68.9655172413793,4,1,0,90,0,0
28379,-73.5294117647059,4,1,0,90,0,0
28540,-72.463768115942,4,1,0,90,0,0
28647,-71.4285714285714,4,1,0,90,0,0
28754,-70.4225352112676,4,1,0,90,0,0
28861,-69.4444444444444,4,1,0,90,0,0
28968,-68.4931506849315,4,1,0,90,0,0
29075,-67.5675675675676,4,1,0,90,0,0
29183,-66.6666666666667,4,1,0,90,0,0
29343,-74.6268656716418,4,1,0,70,0,0
29558,-81.9672131147541,4,1,0,70,0,0
29772,-87.719298245614,4,1,0,70,0,0
29986,-90.9090909090909,4,1,0,70,0,0
35075,-88.8888888888889,4,1,0,70,0,0
35183,-86.9565217391304,4,1,0,70,0,0
35397,-83.3333333333333,4,1,0,70,0,0
35504,-85.1063829787234,4,1,0,70,0,0
35611,-86.9565217391304,4,1,0,70,0,0
35772,-90.9090909090909,4,1,0,70,0,0
38504,-88.8888888888889,4,1,0,70,0,0
38611,-86.9565217391304,4,1,0,70,0,0
38825,-88.8888888888889,4,1,0,70,0,0
38933,-86.9565217391304,4,1,0,70,0,0
39040,-85.8369098712446,4,1,0,70,0,0
39254,-87.9120879120879,4,1,0,70,0,0
39468,-90.9090909090909,4,1,0,70,0,0
40915,-87.719298245614,4,1,0,70,0,0
41058,-86.7077083152692,4,1,0,70,0,0
41129,-85.7118368046627,4,1,0,70,0,0
41200,-84.7457627118644,4,1,0,70,0,0
41450,-88.1057268722467,4,1,0,70,0,0
41772,-91.743119266055,4,1,0,70,0,0
41986,-94.3396226415094,4,1,0,70,0,0
42415,-100,4,1,0,70,0,0
42843,-80,4,1,0,80,0,0
43058,-86.9565217391304,4,1,0,80,0,0
48897,-83.3333333333333,4,1,0,80,0,0
49004,-85.1063829787234,4,1,0,80,0,0
49111,-86.9565217391304,4,1,0,80,0,0
49325,-83.3333333333333,4,1,0,80,0,0
49433,-85.1063829787234,4,1,0,80,0,0
49540,-86.9565217391304,4,1,0,80,0,0
49700,-80,4,1,0,80,0,0
49915,-86.9565217391304,4,1,0,80,0,0
53129,-80,4,1,0,80,0,0
53343,-86.9565217391304,4,1,0,80,0,0
53611,-84.0336134453781,4,1,0,80,0,0
53718,-82.6446280991736,4,1,0,80,0,0
53825,-81.3008130081301,4,1,0,80,0,0
53933,-80,4,1,0,80,0,0
54147,-86.2068965517241,4,1,0,80,0,0
54254,-84.7457627118644,4,1,0,80,0,0
54361,-83.3333333333333,4,1,0,80,0,0
54468,-81.9672131147541,4,1,0,80,0,0
54575,-80.6451612903226,4,1,0,80,0,0
54683,-79.3650793650794,4,1,0,80,0,0
54790,-78.125,4,1,0,80,0,0
54897,-76.9230769230769,4,1,0,90,0,0
55058,-73.1689470988512,4,1,0,90,0,0
55272,-69.7690643968464,4,1,0,90,0,0
55486,-66.6666666666667,4,1,0,90,0,0
56558,-62.5,4,1,0,100,0,0
56665,-62.5,4,1,0,100,0,1
56772,-71.4285714285714,4,1,0,100,0,1
61861,-70.7964601769911,4,1,0,100,0,1
61968,-70.1754385964912,4,1,0,100,0,1
62075,-69.5652173913043,4,1,0,100,0,1
62183,-68.9655172413793,4,1,0,100,0,1
62397,-70.4225352112676,4,1,0,100,0,1
62504,-69.4444444444444,4,1,0,100,0,1
62611,-68.4931506849315,4,1,0,100,0,1
62718,-67.5675675675676,4,1,0,100,0,1
62825,-66.6666666666667,4,1,0,100,0,1
63040,-68.9655172413793,4,1,0,100,0,1
63147,-67.7966101694915,4,1,0,100,0,1
63254,-66.6666666666667,4,1,0,100,0,1
63361,-65.5737704918033,4,1,0,100,0,1
63468,-64.5161290322581,4,1,0,100,0,1
63629,-71.4285714285714,4,1,0,100,0,1
66843,-66.6666666666667,4,1,0,100,0,1
67058,-71.4285714285714,4,1,0,100,0,1
68558,-68.9655172413793,4,1,0,100,0,1
68772,-68.1802686302584,4,1,0,100,0,1
68986,-67.4172453313558,4,1,0,100,0,1
69200,-66.6666666666667,4,1,0,100,0,1
69415,-69.4444444444444,4,1,0,100,0,1
69575,-68.4931506849315,4,1,0,100,0,1
69683,-67.5675675675676,4,1,0,100,0,1
69790,-66.6666666666667,4,1,0,100,0,1
69897,-65.7894736842105,4,1,0,100,0,1
70004,-64.9350649350649,4,1,0,100,0,1
70111,-64.1025641025641,4,1,0,100,0,1
70272,-62.5,4,1,0,100,0,1
70486,-71.4285714285714,4,1,0,100,0,1
75575,-70.7964601769911,4,1,0,100,0,1
75683,-70.1754385964912,4,1,0,100,0,1
75790,-69.5652173913043,4,1,0,100,0,1
75897,-68.9655172413793,4,1,0,100,0,1
76111,-71.4285714285714,4,1,0,100,0,1
76218,-70.6713780918728,4,1,0,100,0,1
76325,-69.9300699300699,4,1,0,100,0,1
76433,-69.204152249135,4,1,0,100,0,1
76540,-68.4931506849315,4,1,0,100,0,1
76647,-67.7966101694915,4,1,0,100,0,1
76754,-67.1140939597315,4,1,0,100,0,1
76861,-66.4451827242525,4,1,0,100,0,1
76968,-65.7894736842105,4,1,0,100,0,1
77075,-65.1465798045603,4,1,0,100,0,1
77183,-64.5161290322581,4,1,0,100,0,1
77343,-71.4285714285714,4,1,0,100,0,1
80558,-66.6666666666667,4,1,0,100,0,1
80772,-71.4285714285714,4,1,0,100,0,1
82272,-62.5,4,1,0,100,0,1
82486,-66.6666666666667,4,1,0,100,0,1
82915,-62.5,4,1,0,100,0,1
83129,-66.6666666666667,4,1,0,100,0,1
83343,-71.4285714285714,4,1,0,100,0,1
83486,-70.5865744335427,4,1,0,100,0,1
83558,-69.7690643968464,4,1,0,100,0,1
83629,-68.9655172413793,4,1,0,100,0,1
84093,-66.6666666666667,4,1,0,100,0,0
84200,-76.9230769230769,4,1,0,90,0,0
86825,-71.4285714285714,4,1,0,90,0,0
87200,-76.9230769230769,4,1,0,90,0,0
88700,-71.4285714285714,4,1,0,90,0,0
88915,-76.9230769230769,4,1,0,90,0,0
89129,-71.4285714285714,4,1,0,90,0,0
89343,-76.9230769230769,4,1,0,90,0,0
89504,-75.187969924812,4,1,0,90,0,0
89611,-73.5294117647059,4,1,0,90,0,0
89718,-71.9424460431655,4,1,0,90,0,0
89825,-70.4225352112676,4,1,0,90,0,0
89933,-68.9655172413793,4,1,0,90,0,0
90147,-74.0740740740741,4,1,0,90,0,0
90254,-71.4285714285714,4,1,0,90,0,0
90361,-68.9655172413793,4,1,0,90,0,0
90468,-66.6666666666667,4,1,0,90,0,0
90683,-69.7690643968464,4,1,0,90,0,0
90790,-71.4285714285714,4,1,0,90,0,0
90897,-73.1689470988512,4,1,0,90,0,0
91111,-76.9230769230769,4,1,0,90,0,0
93683,-71.4285714285714,4,1,0,90,0,0
94058,-76.9230769230769,4,1,0,90,0,0
95558,-71.4285714285714,4,1,0,90,0,0
95772,-76.9230769230769,4,1,0,90,0,0
95986,-71.4285714285714,4,1,0,90,0,0
96200,-76.9230769230769,4,1,0,90,0,0
96361,-75.187969924812,4,1,0,90,0,0
96468,-73.5294117647059,4,1,0,90,0,0
96575,-71.9424460431655,4,1,0,90,0,0
96683,-70.4225352112676,4,1,0,90,0,0
96790,-68.9655172413793,4,1,0,90,0,0
97004,-74.0740740740741,4,1,0,90,0,0
97111,-71.4285714285714,4,1,0,90,0,0
97218,-68.9655172413793,4,1,0,90,0,0
97325,-66.6666666666667,4,1,0,90,0,0
97540,-73.1689470988512,4,1,0,90,0,0
97647,-76.9230769230769,4,1,0,90,0,0
97754,-81.0832725208789,4,1,0,90,0,0
97915,-90.9090909090909,4,1,0,70,0,0
107986,-83.3333333333333,4,1,0,75,0,0
108200,-86.9565217391304,4,1,0,75,0,0
108415,-86.2068965517241,4,1,0,75,0,0
108629,-85.4700854700855,4,1,0,75,0,0
108843,-84.7457627118644,4,1,0,80,0,0
109058,-84.0336134453781,4,1,0,80,0,0
109272,-83.3333333333333,4,1,0,80,0,0
109486,-82.6446280991736,4,1,0,80,0,0
109700,-81.9672131147541,4,1,0,85,0,0
109861,-81.6326530612245,4,1,0,85,0,0
109968,-81.3008130081301,4,1,0,85,0,0
110183,-80.6451612903226,4,1,0,85,0,0
110290,-80.3212851405623,4,1,0,85,0,0
110397,-80,4,1,0,85,0,0
110558,-74.0740740740741,4,1,0,90,0,0
110772,-76.9230769230769,4,1,0,90,0,0
110933,-75.7575757575758,4,1,0,90,0,0
111040,-74.6268656716418,4,1,0,90,0,0
111254,-72.463768115942,4,1,0,90,0,0
111361,-71.4285714285714,4,1,0,90,0,0
111468,-62.5,4,1,0,100,0,0
111522,-62.5,4,1,0,100,0,1
111629,-71.4285714285714,4,1,0,100,0,1
117575,-70.9219858156028,4,1,0,100,0,1
117683,-70.4225352112676,4,1,0,100,0,1
117790,-69.9300699300699,4,1,0,100,0,1
117897,-68.4931506849315,4,1,0,100,0,1
118004,-66.6666666666667,4,1,0,100,0,1
118111,-64.5161290322581,4,1,0,100,0,1
118272,-62.5,4,1,0,100,0,1
118486,-71.4285714285714,4,1,0,100,0,1
121700,-66.6666666666667,4,1,0,100,0,1
121915,-68.9655172413793,4,1,0,100,0,1
122075,-67.7966101694915,4,1,0,100,0,1
122183,-66.6666666666667,4,1,0,100,0,1
122397,-68.9655172413793,4,1,0,100,0,1
122504,-70.1754385964912,4,1,0,100,0,1
122611,-71.4285714285714,4,1,0,100,0,1
122825,-74.0740740740741,4,1,0,100,0,1
122933,-72.7272727272727,4,1,0,100,0,1
123040,-71.4285714285714,4,1,0,100,0,1
123254,-76.9230769230769,4,1,0,100,0,1
123361,-75.947444368497,4,1,0,100,0,1
123468,-75.0018750468762,4,1,0,100,0,1
123575,-74.0740740740741,4,1,0,100,0,1
123683,-73.1689470988512,4,1,0,100,0,1
123790,-72.2908985758693,4,1,0,100,0,1
123897,-71.4285714285714,4,1,0,100,0,1
124111,-74.0740740740741,4,1,0,100,0,1
124218,-73.5294117647059,4,1,0,100,0,1
124325,-72.992700729927,4,1,0,100,0,1
124433,-72.463768115942,4,1,0,100,0,1
124540,-71.9424460431655,4,1,0,100,0,1
124647,-71.4285714285714,4,1,0,100,0,1
124754,-71.9424460431655,4,1,0,100,0,1
124861,-72.992700729927,4,1,0,100,0,1
124968,-74.6268656716418,4,1,0,100,0,1
125075,-76.9230769230769,4,1,0,100,0,1
125183,-80,4,1,0,90,0,1
125236,-80,4,1,0,90,0,0
125343,-90.9090909090909,4,1,0,70,0,0
138200,-91.743119266055,4,1,0,70,0,0
138415,-93.4579439252336,4,1,0,70,0,0
138629,-96.1538461538461,4,1,0,70,0,0
138843,-100,4,1,0,60,0,0
142272,-111.111111111111,4,1,0,60,0,0
148700,-100,4,1,0,60,0,0
149129,-90.9090909090909,4,1,0,70,0,0
149343,-90.0900900900901,4,1,0,70,0,0
149558,-89.2857142857143,4,1,0,70,0,0
149772,-88.4955752212389,4,1,0,70,0,0
149986,-87.719298245614,4,1,0,70,0,0
150200,-86.9565217391304,4,1,0,70,0,0
150415,-86.2068965517241,4,1,0,70,0,0
150629,-85.4700854700855,4,1,0,70,0,0
150843,-84.7457627118644,4,1,0,70,0,0
151058,-84.0336134453781,4,1,0,70,0,0
151272,-83.3333333333333,4,1,0,52,0,0
151433,-82.6446280991736,4,1,0,53,0,0
151540,-81.9672131147541,4,1,0,54,0,0
151647,-81.3008130081301,4,1,0,55,0,0
151754,-80.6451612903226,4,1,0,56,0,0
151861,-80,4,1,0,57,0,0
151968,-79.3650793650794,4,1,0,58,0,0
152075,-78.7401574803149,4,1,0,59,0,0
152183,-78.125,4,1,0,60,0,0
152290,-77.5193798449612,4,1,0,61,0,0
152397,-76.9230769230769,4,1,0,62,0,0
152504,-76.3358778625954,4,1,0,63,0,0
152611,-75.7575757575758,4,1,0,64,0,0
152718,-75.187969924812,4,1,0,65,0,0
152825,-74.6268656716418,4,1,0,66,0,0
152933,-74.0740740740741,4,1,0,67,0,0
153040,-73.5294117647059,4,1,0,68,0,0
153147,-72.992700729927,4,1,0,69,0,0
153254,-72.463768115942,4,1,0,70,0,0
153361,-71.9424460431655,4,1,0,71,0,0
153468,-71.4285714285714,4,1,0,72,0,0
153575,-70.9219858156028,4,1,0,73,0,0
153683,-70.4225352112676,4,1,0,74,0,0
153790,-69.9300699300699,4,1,0,75,0,0
153897,-69.4444444444444,4,1,0,76,0,0
154004,-68.9655172413793,4,1,0,77,0,0
154111,-68.4931506849315,4,1,0,78,0,0
154218,-68.0272108843537,4,1,0,79,0,0
154325,-67.5675675675676,4,1,0,80,0,0
154486,-65.7894736842105,4,1,0,80,0,0
154700,-64.1025641025641,4,1,0,80,0,0
154915,-62.5,4,1,0,80,0,0
155236,-66.6666666666667,4,1,0,70,0,0
155558,-71.4285714285714,4,1,0,70,0,0
155718,-69.7690643968464,4,1,0,70,0,0
155825,-68.1802686302584,4,1,0,70,0,0
155933,-66.6666666666667,4,1,0,70,0,0
156040,-62.5,4,1,0,100,0,0
156093,-62.5,4,1,0,100,0,1
156200,-71.4285714285714,4,1,0,100,0,1
161290,-70.7964601769911,4,1,0,100,0,1
161397,-70.1754385964912,4,1,0,100,0,1
161504,-69.5652173913043,4,1,0,100,0,1
161611,-68.9655172413793,4,1,0,100,0,1
161825,-70.4225352112676,4,1,0,100,0,1
161933,-69.4444444444444,4,1,0,100,0,1
162040,-68.4931506849315,4,1,0,100,0,1
162147,-67.5675675675676,4,1,0,100,0,1
162254,-66.6666666666667,4,1,0,100,0,1
162468,-68.9655172413793,4,1,0,100,0,1
162575,-67.7966101694915,4,1,0,100,0,1
162683,-66.6666666666667,4,1,0,100,0,1
162790,-65.5737704918033,4,1,0,100,0,1
162897,-64.5161290322581,4,1,0,100,0,1
163058,-71.4285714285714,4,1,0,100,0,1
167986,-66.6666666666667,4,1,0,100,0,1
168522,-68.0272108843537,4,1,0,100,0,1
168683,-66.6666666666667,4,1,0,100,0,1
169165,-68.0272108843537,4,1,0,100,0,1
169325,-66.6666666666667,4,1,0,100,0,1
169593,-90.9090909090909,4,1,0,70,0,1
169808,-90.9090909090909,4,1,0,70,0,0
171415,-62.5,4,1,0,100,0,0
171522,-62.5,4,1,0,100,0,1
171629,-71.4285714285714,4,1,0,100,0,1
176718,-70.7964601769911,4,1,0,100,0,1
176825,-70.1754385964912,4,1,0,100,0,1
176933,-69.5652173913043,4,1,0,100,0,1
177040,-68.9655172413793,4,1,0,100,0,1
177254,-70.4225352112676,4,1,0,100,0,1
177343,-69.7690643968464,4,1,0,100,0,1
177415,-69.1228312711689,4,1,0,100,0,1
177486,-68.4931506849315,4,1,0,100,0,1
177575,-67.5675675675676,4,1,0,100,0,1
177683,-66.6666666666667,4,1,0,100,0,1
177897,-68.9655172413793,4,1,0,100,0,1
178004,-67.7966101694915,4,1,0,100,0,1
178111,-66.6666666666667,4,1,0,100,0,1
178218,-65.5737704918033,4,1,0,100,0,1
178325,-64.5161290322581,4,1,0,100,0,1
178486,-71.4285714285714,4,1,0,100,0,1
184200,-70.7563857638152,4,1,0,100,0,1
184272,-70.0918202845728,4,1,0,100,0,1
184343,-69.4444444444444,4,1,0,100,0,1
184433,-68.4931506849315,4,1,0,100,0,1
184540,-67.5675675675676,4,1,0,100,0,1
184647,-66.6666666666667,4,1,0,100,0,1
184754,-65.7894736842105,4,1,0,100,0,1
184861,-64.9350649350649,4,1,0,100,0,1
184968,-64.1025641025641,4,1,0,100,0,1
185075,-63.2911392405063,4,1,0,100,0,1
185183,-62.5,4,1,0,100,0,1
185343,-71.4285714285714,4,1,0,100,0,1
190433,-70.7964601769911,4,1,0,100,0,1
190540,-70.1754385964912,4,1,0,100,0,1
190647,-69.5652173913043,4,1,0,100,0,1
190754,-68.9655172413793,4,1,0,100,0,1
190968,-71.4285714285714,4,1,0,100,0,1
191058,-70.9219858156028,4,1,0,100,0,1
191129,-70.4225352112676,4,1,0,100,0,1
191200,-69.9300699300699,4,1,0,100,0,1
191290,-69.204152249135,4,1,0,100,0,1
191397,-68.4931506849315,4,1,0,100,0,1
191504,-67.7966101694915,4,1,0,100,0,1
191611,-67.1140939597315,4,1,0,100,0,1
191718,-66.4451827242525,4,1,0,100,0,1
191825,-65.7894736842105,4,1,0,100,0,1
191933,-65.1465798045603,4,1,0,100,0,1
192040,-64.5161290322581,4,1,0,100,0,1
192200,-71.4285714285714,4,1,0,100,0,1
197933,-71.007597812966,4,1,0,100,0,1
198040,-70.5865744335427,4,1,0,100,0,1
198147,-70.1754385964912,4,1,0,100,0,1
198254,-69.7690643968464,4,1,0,100,0,1
198468,-68.9655172413793,4,1,0,100,0,1
198575,-68.4931506849315,4,1,0,100,0,1
198683,-67.5675675675676,4,1,0,100,0,1
198790,-66.2251655629139,4,1,0,100,0,1
198897,-64.5161290322581,4,1,0,100,0,1
199058,-71.4285714285714,4,1,0,100,0,1
200558,-62.5,4,1,0,100,0,1
200772,-66.6666666666667,4,1,0,100,0,1
201200,-62.5,4,1,0,100,0,1
201415,-66.6666666666667,4,1,0,100,0,1
201629,-71.4285714285714,4,1,0,100,0,1
201772,-70.5865744335427,4,1,0,100,0,1
201843,-69.7690643968464,4,1,0,100,0,1
201915,-68.9655172413793,4,1,0,100,0,1
202379,-66.6666666666667,4,1,0,100,0,0
202486,-76.9230769230769,4,1,0,90,0,0
205111,-71.4285714285714,4,1,0,90,0,0
205486,-76.9230769230769,4,1,0,90,0,0
207415,-74.0740740740741,4,1,0,90,0,0
207629,-76.9230769230769,4,1,0,90,0,0
207790,-75.187969924812,4,1,0,90,0,0
207897,-73.5294117647059,4,1,0,90,0,0
208004,-71.9424460431655,4,1,0,90,0,0
208111,-70.4225352112676,4,1,0,90,0,0
208218,-68.9655172413793,4,1,0,90,0,0
208433,-74.0740740740741,4,1,0,90,0,0
208540,-71.4285714285714,4,1,0,90,0,0
208647,-68.9655172413793,4,1,0,90,0,0
208754,-66.6666666666667,4,1,0,90,0,0
208968,-69.7690643968464,4,1,0,90,0,0
209075,-71.4285714285714,4,1,0,90,0,0
209183,-73.1689470988512,4,1,0,90,0,0
209397,-76.9230769230769,4,1,0,90,0,0
211968,-71.4285714285714,4,1,0,90,0,0
212343,-76.9230769230769,4,1,0,90,0,0
213843,-71.4285714285714,4,1,0,90,0,0
214058,-76.9230769230769,4,1,0,90,0,0
214272,-71.4285714285714,4,1,0,90,0,0
214486,-76.9230769230769,4,1,0,90,0,0
214647,-75.187969924812,4,1,0,90,0,0
214754,-73.5294117647059,4,1,0,90,0,0
214861,-71.9424460431655,4,1,0,90,0,0
214968,-70.4225352112676,4,1,0,90,0,0
215075,-68.9655172413793,4,1,0,90,0,0
215290,-72.992700729927,4,1,0,90,0,0
215397,-71.4285714285714,4,1,0,90,0,0
215504,-69.9300699300699,4,1,0,90,0,0
215611,-68.4931506849315,4,1,0,90,0,0
215718,-67.1140939597315,4,1,0,90,0,0
215825,-65.7894736842105,4,1,0,90,0,0
215933,-64.5161290322581,4,1,0,90,0,0

[HitObjects]
256,192,1808,5,8,0:0:0:0:
256,192,2236,1,0,0:0:0:0:
256,192,2450,1,0,0:0:0:0:
256,192,2665,1,8,0:0:0:0:
256,192,3093,1,8,0:0:0:0:
256,192,3308,1,8,0:0:0:0:
256,192,3522,1,0,0:0:0:0:
256,192,3736,1,8,0:0:0:0:
256,192,3950,1,0,0:0:0:0:
256,192,4165,1,8,0:0:0:0:
256,192,4593,1,0,0:0:0:0:
256,192,4808,1,8,0:0:0:0:
256,192,5236,1,0,0:0:0:0:
256,192,5665,1,0,0:0:0:0:
256,192,5879,1,0,0:0:0:0:
256,192,6093,1,8,0:0:0:0:
256,192,6308,1,0,0:0:0:0:
256,192,6736,1,0,0:0:0:0:
256,192,6950,1,8,0:0:0:0:
256,192,7165,1,8,0:0:0:0:
256,192,7379,1,0,0:0:0:0:
256,192,7593,1,8,0:0:0:0:
256,192,7808,1,0,0:0:0:0:
256,192,8236,1,0,0:0:0:0:
256,192,8450,1,8,0:0:0:0:
256,192,8665,1,4,0:0:0:0:
256,192,9093,1,0,0:0:0:0:
256,192,9308,1,0,0:0:0:0:
256,192,9522,1,8,0:0:0:0:
256,192,9950,1,8,0:0:0:0:
256,192,10165,1,0,0:0:0:0:
256,192,10379,1,0,0:0:0:0:
256,192,10593,1,8,0:0:0:0:
256,192,10808,1,0,0:0:0:0:
256,192,11022,1,8,0:0:0:0:
256,192,11450,1,0,0:0:0:0:
256,192,11665,1,8,0:0:0:0:
256,192,12093,1,12,0:0:0:0:
256,192,12308,1,0,0:0:0:0:
256,192,12522,1,0,0:0:0:0:
256,192,12736,1,0,0:0:0:0:
256,192,12950,1,8,0:0:0:0:
256,192,13165,1,0,0:0:0:0:
256,192,13379,1,8,0:0:0:0:
256,192,13593,1,8,0:0:0:0:
256,192,14879,1,0,0:0:0:0:
256,192,14950,1,0,0:0:0:0:
256,192,15022,1,0,0:0:0:0:
256,192,15093,1,12,0:0:0:0:
256,192,15522,5,4,0:0:0:0:
256,192,15736,1,8,0:0:0:0:
256,192,15950,1,8,0:0:0:0:
256,192,16058,1,0,0:0:0:0:
256,192,16272,1,8,0:0:0:0:
256,192,16379,1,0,0:0:0:0:
256,192,16486,1,0,0:0:0:0:
256,192,16593,1,8,0:0:0:0:
256,192,16808,1,8,0:0:0:0:
256,192,17022,1,0,0:0:0:0:
256,192,17236,1,0,0:0:0:0:
256,192,17379,1,8,0:0:0:0:
256,192,17450,1,8,0:0:0:0:
256,192,17665,1,8,0:0:0:0:
256,192,17772,1,0,0:0:0:0:
256,192,17986,1,0,0:0:0:0:
256,192,18093,1,0,0:0:0:0:
256,192,18200,1,0,0:0:0:0:
256,192,18308,1,12,0:0:0:0:
256,192,18522,1,12,0:0:0:0:
256,192,18950,1,0,0:0:0:0:
256,192,19165,1,8,0:0:0:0:
256,192,19379,1,8,0:0:0:0:
256,192,19486,1,0,0:0:0:0:
256,192,19700,1,8,0:0:0:0:
256,192,19808,1,8,0:0:0:0:
256,192,19915,1,0,0:0:0:0:
256,192,20022,1,8,0:0:0:0:
256,192,20236,1,12,0:0:0:0:
256,192,20450,1,0,0:0:0:0:
256,192,20665,1,4,0:0:0:0:
256,192,20879,1,8,0:0:0:0:
256,192,20986,1,0,0:0:0:0:
256,192,21093,1,8,0:0:0:0:
256,192,21200,1,8,0:0:0:0:
256,192,21308,1,0,0:0:0:0:
256,192,21415,1,12,0:0:0:0:
256,192,21629,1,8,0:0:0:0:
256,192,21736,1,0,0:0:0:0:
256,192,21843,1,0,0:0:0:0:
256,192,21950,1,12,0:0:0:0:
256,192,22165,1,8,0:0:0:0:
256,192,22272,1,8,0:0:0:0:
256,192,22379,1,4,0:0:0:0:
256,192,22593,1,8,0:0:0:0:
256,192,22808,1,8,0:0:0:0:
256,192,22915,1,0,0:0:0:0:
256,192,23129,1,8,0:0:0:0:
256,192,23236,1,0,0:0:0:0:
256,192,23343,1,0,0:0:0:0:
256,192,23450,1,8,0:0:0:0:
256,192,23665,1,8,0:0:0:0:
256,192,23879,1,0,0:0:0:0:
256,192,24093,1,0,0:0:0:0:
256,192,24236,1,8,0:0:0:0:
256,192,24308,1,8,0:0:0:0:
256,192,24522,1,8,0:0:0:0:
256,192,24629,1,0,0:0:0:0:
256,192,24843,1,0,0:0:0:0:
256,192,24950,1,0,0:0:0:0:
256,192,25058,1,0,0:0:0:0:
256,192,25165,1,12,0:0:0:0:
256,192,25379,1,12,0:0:0:0:
256,192,25808,1,0,0:0:0:0:
256,192,26022,1,8,0:0:0:0:
256,192,26236,1,8,0:0:0:0:
256,192,26343,1,0,0:0:0:0:
256,192,26558,1,8,0:0:0:0:
256,192,26665,1,8,0:0:0:0:
256,192,26772,1,0,0:0:0:0:
256,192,26879,1,8,0:0:0:0:
256,192,27093,1,12,0:0:0:0:
256,192,27308,1,8,0:0:0:0:
256,192,27522,1,4,0:0:0:0:
256,192,27736,1,0,0:0:0:0:
256,192,27843,1,0,0:0:0:0:
256,192,27950,1,8,0:0:0:0:
256,192,28058,1,8,0:0:0:0:
256,192,28165,1,8,0:0:0:0:
256,192,28272,1,4,0:0:0:0:
256,192,28486,1,8,0:0:0:0:
256,192,28593,1,0,0:0:0:0:
256,192,28700,1,0,0:0:0:0:
256,192,28808,1,8,0:0:0:0:
256,192,28915,1,8,0:0:0:0:
256,192,29022,1,8,0:0:0:0:
256,192,29129,1,8,0:0:0:0:
256,192,29236,5,4,0:0:0:0:
256,192,29450,1,0,0:0:0:0:
256,192,29665,1,8,0:0:0:0:
256,192,29879,1,0,0:0:0:0:
256,192,30093,1,8,0:0:0:0:
256,192,30522,1,8,0:0:0:0:
256,192,30736,1,0,0:0:0:0:
256,192,30950,1,0,0:0:0:0:
256,192,31165,1,0,0:0:0:0:
256,192,31379,1,8,0:0:0:0:
256,192,31593,1,0,0:0:0:0:
256,192,32022,1,0,0:0:0:0:
256,192,32129,1,8,0:0:0:0:
256,192,32236,1,8,0:0:0:0:
256,192,32450,1,8,0:0:0:0:
256,192,32665,1,0,0:0:0:0:
256,192,32879,1,8,0:0:0:0:
256,192,33308,1,0,0:0:0:0:
256,192,33522,1,8,0:0:0:0:
256,192,33736,1,0,0:0:0:0:
256,192,33950,1,8,0:0:0:0:
256,192,34165,1,8,0:0:0:0:
256,192,34379,1,0,0:0:0:0:
256,192,34593,1,8,0:0:0:0:
256,192,34808,1,8,0:0:0:0:
256,192,35022,1,0,0:0:0:0:
256,192,35129,1,8,0:0:0:0:
256,192,35236,1,8,0:0:0:0:
256,192,35450,1,0,0:0:0:0:
256,192,35558,1,0,0:0:0:0:
256,192,35665,1,8,0:0:0:0:
256,192,35879,1,8,0:0:0:0:
256,192,36093,1,0,0:0:0:0:
256,192,36308,1,0,0:0:0:0:
256,192,36522,1,8,0:0:0:0:
256,192,36736,1,0,0:0:0:0:
256,192,36950,1,8,0:0:0:0:
256,192,37379,1,8,0:0:0:0:
256,192,37593,1,0,0:0:0:0:
256,192,37808,1,0,0:0:0:0:
256,192,38022,1,0,0:0:0:0:
256,192,38236,1,8,0:0:0:0:
256,192,38450,1,0,0:0:0:0:
256,192,38558,1,0,0:0:0:0:
256,192,38665,1,8,0:0:0:0:
256,192,38879,1,0,0:0:0:0:
256,192,38986,1,8,0:0:0:0:
256,192,39093,1,8,0:0:0:0:
256,192,39308,1,8,0:0:0:0:
256,192,39522,1,0,0:0:0:0:
256,192,39736,1,0,0:0:0:0:
256,192,39950,1,8,0:0:0:0:
256,192,40165,1,8,0:0:0:0:
256,192,40379,1,0,0:0:0:0:
256,192,40593,1,0,0:0:0:0:
256,192,40808,1,8,0:0:0:0:
256,192,41022,1,8,0:0:0:0:
256,192,41093,1,8,0:0:0:0:
256,192,41165,1,8,0:0:0:0:
256,192,41236,1,0,0:0:0:0:
256,192,41558,1,0,0:0:0:0:
256,192,41879,1,0,0:0:0:0:
256,192,42093,1,8,0:0:0:0:
256,192,42522,1,0,0:0:0:0:
256,192,42950,5,12,0:0:0:0:
256,192,43165,1,0,0:0:0:0:
256,192,43272,1,0,0:0:0:0:
256,192,43379,1,8,0:0:0:0:
256,192,43593,1,0,0:0:0:0:
256,192,43700,1,8,0:0:0:0:
256,192,43808,1,8,0:0:0:0:
256,192,43915,1,0,0:0:0:0:
256,192,44129,1,0,0:0:0:0:
256,192,44236,1,8,0:0:0:0:
256,192,44450,1,8,0:0:0:0:
256,192,44665,1,0,0:0:0:0:
256,192,44879,1,8,0:0:0:0:
256,192,44986,1,0,0:0:0:0:
256,192,45093,1,0,0:0:0:0:
256,192,45308,1,8,0:0:0:0:
256,192,45522,1,0,0:0:0:0:
256,192,45736,1,0,0:0:0:0:
256,192,45950,1,8,0:0:0:0:
256,192,46165,1,0,0:0:0:0:
256,192,46379,1,8,0:0:0:0:
256,192,46593,1,8,0:0:0:0:
256,192,46700,1,0,0:0:0:0:
256,192,46808,1,8,0:0:0:0:
256,192,46915,1,8,0:0:0:0:
256,192,47022,1,0,0:0:0:0:
256,192,47129,1,8,0:0:0:0:
256,192,47236,1,0,0:0:0:0:
256,192,47450,1,8,0:0:0:0:
256,192,47558,1,0,0:0:0:0:
256,192,47665,1,8,0:0:0:0:
256,192,47879,1,8,0:0:0:0:
256,192,48093,1,0,0:0:0:0:
256,192,48308,1,8,0:0:0:0:
256,192,48415,1,8,0:0:0:0:
256,192,48522,1,0,0:0:0:0:
256,192,48736,1,8,0:0:0:0:
256,192,48950,1,0,0:0:0:0:
256,192,49058,1,8,0:0:0:0:
256,192,49165,1,0,0:0:0:0:
256,192,49379,1,8,0:0:0:0:
256,192,49486,1,8,0:0:0:0:
256,192,49593,1,0,0:0:0:0:
256,192,49808,5,12,0:0:0:0:
256,192,50022,1,0,0:0:0:0:
256,192,50129,1,0,0:0:0:0:
256,192,50236,1,8,0:0:0:0:
256,192,50450,1,0,0:0:0:0:
256,192,50558,1,8,0:0:0:0:
256,192,50665,1,8,0:0:0:0:
256,192,50772,1,0,0:0:0:0:
256,192,50986,1,8,0:0:0:0:
256,192,51093,1,8,0:0:0:0:
256,192,51308,1,0,0:0:0:0:
256,192,51522,1,0,0:0:0:0:
256,192,51629,1,0,0:0:0:0:
256,192,51736,1,8,0:0:0:0:
256,192,51843,1,0,0:0:0:0:
256,192,51950,1,0,0:0:0:0:
256,192,52165,1,0,0:0:0:0:
256,192,52272,1,8,0:0:0:0:
256,192,52379,1,0,0:0:0:0:
256,192,52593,1,0,0:0:0:0:
256,192,52808,1,8,0:0:0:0:
256,192,52915,1,8,0:0:0:0:
256,192,53022,1,0,0:0:0:0:
256,192,53236,1,12,0:0:0:0:
256,192,53450,1,0,0:0:0:0:
256,192,53665,1,8,0:0:0:0:
256,192,53772,1,0,0:0:0:0:
256,192,53879,1,0,0:0:0:0:
256,192,53986,1,12,0:0:0:0:
256,192,54200,1,8,0:0:0:0:
256,192,54308,1,0,0:0:0:0:
256,192,54415,1,0,0:0:0:0:
256,192,54522,1,8,0:0:0:0:
256,192,54629,1,8,0:0:0:0:
256,192,54736,1,8,0:0:0:0:
256,192,54843,1,8,0:0:0:0:
256,192,54950,1,4,0:0:0:0:
256,192,55165,1,4,0:0:0:0:
256,192,55379,1,4,0:0:0:0:
256,192,55593,1,12,0:0:0:0:
256,192,56665,5,12,0:0:0:0:
256,192,57093,1,0,0:0:0:0:
256,192,57308,1,8,0:0:0:0:
256,192,57522,1,8,0:0:0:0:
256,192,57629,1,8,0:0:0:0:
256,192,57736,1,0,0:0:0:0:
256,192,57843,1,8,0:0:0:0:
256,192,57950,1,0,0:0:0:0:
256,192,58165,1,8,0:0:0:0:
256,192,58379,1,0,0:0:0:0:
256,192,58593,1,0,0:0:0:0:
256,192,58700,1,0,0:0:0:0:
256,192,58808,1,8,0:0:0:0:
256,192,59022,1,0,0:0:0:0:
256,192,59129,1,8,0:0:0:0:
256,192,59236,1,0,0:0:0:0:
256,192,59343,1,8,0:0:0:0:
256,192,59450,1,0,0:0:0:0:
256,192,59665,1,8,0:0:0:0:
256,192,60093,1,0,0:0:0:0:
256,192,60415,1,8,0:0:0:0:
256,192,60522,1,0,0:0:0:0:
256,192,60736,1,8,0:0:0:0:
256,192,60950,1,8,0:0:0:0:
256,192,61058,1,0,0:0:0:0:
256,192,61165,1,0,0:0:0:0:
256,192,61379,1,0,0:0:0:0:
256,192,61593,1,8,0:0:0:0:
256,192,61808,1,0,0:0:0:0:
256,192,61915,1,0,0:0:0:0:
256,192,62022,1,8,0:0:0:0:
256,192,62129,1,8,0:0:0:0:
256,192,62236,1,0,0:0:0:0:
256,192,62450,1,0,0:0:0:0:
256,192,62558,1,8,0:0:0:0:
256,192,62665,1,0,0:0:0:0:
256,192,62772,1,8,0:0:0:0:
256,192,62879,1,8,0:0:0:0:
256,192,63093,1,8,0:0:0:0:
256,192,63200,1,0,0:0:0:0:
256,192,63308,1,8,0:0:0:0:
256,192,63415,1,8,0:0:0:0:
256,192,63522,1,4,0:0:0:0:
256,192,63950,1,8,0:0:0:0:
256,192,64165,1,0,0:0:0:0:
256,192,64379,1,8,0:0:0:0:
256,192,64486,1,8,0:0:0:0:
256,192,64593,1,0,0:0:0:0:
256,192,64700,1,0,0:0:0:0:
256,192,64808,1,8,0:0:0:0:
256,192,65022,1,0,0:0:0:0:
256,192,65236,1,0,0:0:0:0:
256,192,65450,1,8,0:0:0:0:
256,192,65558,1,0,0:0:0:0:
256,192,65665,1,8,0:0:0:0:
256,192,65879,1,0,0:0:0:0:
256,192,65986,1,8,0:0:0:0:
256,192,66093,1,0,0:0:0:0:
256,192,66200,1,8,0:0:0:0:
256,192,66308,1,0,0:0:0:0:
256,192,66522,1,8,0:0:0:0:
256,192,66950,1,12,0:0:0:0:
256,192,67165,1,0,0:0:0:0:
256,192,67272,1,0,0:0:0:0:
256,192,67379,1,8,0:0:0:0:
256,192,67593,1,8,0:0:0:0:
256,192,67808,1,0,0:0:0:0:
256,192,67915,1,0,0:0:0:0:
256,192,68022,1,8,0:0:0:0:
256,192,68129,1,0,0:0:0:0:
256,192,68236,1,8,0:0:0:0:
256,192,68450,1,0,0:0:0:0:
256,192,68665,1,12,0:0:0:0:
256,192,68879,1,0,0:0:0:0:
256,192,69093,1,0,0:0:0:0:
256,192,69308,1,12,0:0:0:0:
256,192,69522,1,0,0:0:0:0:
256,192,69629,1,8,0:0:0:0:
256,192,69736,1,8,0:0:0:0:
256,192,69843,1,0,0:0:0:0:
256,192,69950,1,8,0:0:0:0:
256,192,70058,1,8,0:0:0:0:
256,192,70165,1,0,0:0:0:0:
256,192,70379,5,12,0:0:0:0:
256,192,70808,1,0,0:0:0:0:
256,192,71022,1,8,0:0:0:0:
256,192,71129,1,8,0:0:0:0:
256,192,71236,1,0,0:0:0:0:
256,192,71343,1,8,0:0:0:0:
256,192,71450,1,8,0:0:0:0:
256,192,71665,1,8,0:0:0:0:
256,192,71879,1,0,0:0:0:0:
256,192,72093,1,0,0:0:0:0:
256,192,72308,1,8,0:0:0:0:
256,192,72415,1,0,0:0:0:0:
256,192,72522,1,8,0:0:0:0:
256,192,72736,1,0,0:0:0:0:
256,192,72843,1,8,0:0:0:0:
256,192,72950,1,0,0:0:0:0:
256,192,73058,1,8,0:0:0:0:
256,192,73165,1,0,0:0:0:0:
256,192,73379,1,8,0:0:0:0:
256,192,73808,1,0,0:0:0:0:
256,192,74129,1,8,0:0:0:0:
256,192,74236,1,0,0:0:0:0:
256,192,74450,1,8,0:0:0:0:
256,192,74665,1,8,0:0:0:0:
256,192,74772,1,8,0:0:0:0:
256,192,74879,1,0,0:0:0:0:
256,192,75093,1,8,0:0:0:0:
256,192,75308,1,0,0:0:0:0:
256,192,75522,1,8,0:0:0:0:
256,192,75629,1,0,0:0:0:0:
256,192,75736,1,8,0:0:0:0:
256,192,75843,1,8,0:0:0:0:
256,192,75950,1,0,0:0:0:0:
256,192,76165,1,0,0:0:0:0:
256,192,76272,1,8,0:0:0:0:
256,192,76379,1,0,0:0:0:0:
256,192,76486,1,8,0:0:0:0:
256,192,76593,1,8,0:0:0:0:
256,192,76700,1,0,0:0:0:0:
256,192,76808,1,0,0:0:0:0:
256,192,76915,1,8,0:0:0:0:
256,192,77022,1,8,0:0:0:0:
256,192,77129,1,8,0:0:0:0:
256,192,77236,1,4,0:0:0:0:
256,192,77665,1,0,0:0:0:0:
256,192,77879,1,8,0:0:0:0:
256,192,78093,1,8,0:0:0:0:
256,192,78200,1,8,0:0:0:0:
256,192,78308,1,0,0:0:0:0:
256,192,78415,1,8,0:0:0:0:
256,192,78522,1,0,0:0:0:0:
256,192,78736,1,8,0:0:0:0:
256,192,78950,1,0,0:0:0:0:
256,192,79165,1,0,0:0:0:0:
256,192,79272,1,0,0:0:0:0:
256,192,79379,1,8,0:0:0:0:
256,192,79593,1,0,0:0:0:0:
256,192,79700,1,8,0:0:0:0:
256,192,79808,1,0,0:0:0:0:
256,192,79915,1,8,0:0:0:0:
256,192,80022,1,0,0:0:0:0:
256,192,80236,1,8,0:0:0:0:
256,192,80665,1,12,0:0:0:0:
256,192,80879,1,0,0:0:0:0:
256,192,80986,1,0,0:0:0:0:
256,192,81093,1,8,0:0:0:0:
256,192,81308,1,8,0:0:0:0:
256,192,81522,1,0,0:0:0:0:
256,192,81736,1,8,0:0:0:0:
256,192,81950,1,0,0:0:0:0:
256,192,82058,1,8,0:0:0:0:
256,192,82165,1,8,0:0:0:0:
256,192,82379,1,12,0:0:0:0:
256,192,82593,1,4,0:0:0:0:
256,192,83022,1,12,0:0:0:0:
256,192,83236,1,4,0:0:0:0:
256,192,83450,1,0,0:0:0:0:
256,192,83522,1,0,0:0:0:0:
256,192,83593,1,0,0:0:0:0:
256,192,83665,1,12,0:0:0:0:
256,192,84093,5,12,0:0:0:0:
256,192,84308,1,0,0:0:0:0:
256,192,84522,1,8,0:0:0:0:
256,192,84629,1,0,0:0:0:0:
256,192,84843,1,0,0:0:0:0:
256,192,84950,1,0,0:0:0:0:
256,192,85058,1,0,0:0:0:0:
256,192,85165,1,8,0:0:0:0:
256,192,85379,1,8,0:0:0:0:
256,192,85593,1,0,0:0:0:0:
256,192,85808,1,0,0:0:0:0:
256,192,85950,1,8,0:0:0:0:
256,192,86022,1,8,0:0:0:0:
256,192,86236,1,8,0:0:0:0:
256,192,86343,1,0,0:0:0:0:
256,192,86558,1,8,0:0:0:0:
256,192,86665,1,0,0:0:0:0:
256,192,86772,1,0,0:0:0:0:
256,192,86879,1,12,0:0:0:0:
256,192,87093,1,12,0:0:0:0:
256,192,87522,1,0,0:0:0:0:
256,192,87629,1,0,0:0:0:0:
256,192,87736,1,8,0:0:0:0:
256,192,87950,1,8,0:0:0:0:
256,192,88058,1,0,0:0:0:0:
256,192,88272,1,8,0:0:0:0:
256,192,88379,1,8,0:0:0:0:
256,192,88486,1,0,0:0:0:0:
256,192,88593,1,8,0:0:0:0:
256,192,88808,1,12,0:0:0:0:
256,192,89022,1,8,0:0:0:0:
256,192,89236,1,4,0:0:0:0:
256,192,89450,1,8,0:0:0:0:
256,192,89558,1,0,0:0:0:0:
256,192,89665,1,8,0:0:0:0:
256,192,89879,1,0,0:0:0:0:
256,192,89986,1,12,0:0:0:0:
256,192,90200,1,8,0:0:0:0:
256,192,90308,1,0,0:0:0:0:
256,192,90415,1,0,0:0:0:0:
256,192,90522,1,12,0:0:0:0:
256,192,90736,1,8,0:0:0:0:
256,192,90843,1,8,0:0:0:0:
256,192,90950,1,4,0:0:0:0:
256,192,91165,1,8,0:0:0:0:
256,192,91379,1,8,0:0:0:0:
256,192,91486,1,0,0:0:0:0:
256,192,91700,1,0,0:0:0:0:
256,192,91808,1,0,0:0:0:0:
256,192,91915,1,0,0:0:0:0:
256,192,92022,1,8,0:0:0:0:
256,192,92236,1,8,0:0:0:0:
256,192,92450,1,0,0:0:0:0:
256,192,92665,1,0,0:0:0:0:
256,192,92808,1,8,0:0:0:0:
256,192,92879,1,8,0:0:0:0:
256,192,93093,1,8,0:0:0:0:
256,192,93200,1,0,0:0:0:0:
256,192,93415,1,8,0:0:0:0:
256,192,93522,1,0,0:0:0:0:
256,192,93629,1,0,0:0:0:0:
256,192,93736,1,12,0:0:0:0:
256,192,93950,1,12,0:0:0:0:
256,192,94379,1,0,0:0:0:0:
256,192,94593,1,8,0:0:0:0:
256,192,94808,1,8,0:0:0:0:
256,192,94915,1,0,0:0:0:0:
256,192,95129,1,8,0:0:0:0:
256,192,95236,1,0,0:0:0:0:
256,192,95343,1,0,0:0:0:0:
256,192,95450,1,8,0:0:0:0:
256,192,95665,1,12,0:0:0:0:
256,192,95879,1,0,0:0:0:0:
256,192,96093,1,4,0:0:0:0:
256,192,96308,1,8,0:0:0:0:
256,192,96415,1,0,0:0:0:0:
256,192,96522,1,8,0:0:0:0:
256,192,96629,1,8,0:0:0:0:
256,192,96736,1,8,0:0:0:0:
256,192,96843,1,4,0:0:0:0:
256,192,97058,1,8,0:0:0:0:
256,192,97165,1,0,0:0:0:0:
256,192,97272,1,0,0:0:0:0:
256,192,97379,1,12,0:0:0:0:
256,192,97593,1,8,0:0:0:0:
256,192,97700,1,8,0:0:0:0:
256,192,97808,5,4,0:0:0:0:
256,192,98022,1,0,0:0:0:0:
256,192,98236,1,8,0:0:0:0:
256,192,98450,1,0,0:0:0:0:
256,192,98665,1,8,0:0:0:0:
256,192,99093,1,8,0:0:0:0:
256,192,99308,1,8,0:0:0:0:
256,192,99522,1,0,0:0:0:0:
256,192,99736,1,0,0:0:0:0:
256,192,99843,1,0,0:0:0:0:
256,192,99950,1,8,0:0:0:0:
256,192,100165,1,0,0:0:0:0:
256,192,100593,1,0,0:0:0:0:
256,192,100808,1,8,0:0:0:0:
256,192,101022,1,8,0:0:0:0:
256,192,101236,1,0,0:0:0:0:
256,192,101450,1,0,0:0:0:0:
256,192,101665,1,8,0:0:0:0:
256,192,101879,1,0,0:0:0:0:
256,192,102093,1,8,0:0:0:0:
256,192,102522,1,0,0:0:0:0:
256,192,102736,1,8,0:0:0:0:
256,192,102950,1,8,0:0:0:0:
256,192,103165,1,0,0:0:0:0:
256,192,103272,1,0,0:0:0:0:
256,192,103379,1,8,0:0:0:0:
256,192,103593,1,8,0:0:0:0:
256,192,104022,1,8,0:0:0:0:
256,192,104236,1,8,0:0:0:0:
256,192,104450,1,8,0:0:0:0:
256,192,104665,1,0,0:0:0:0:
256,192,104879,1,0,0:0:0:0:
256,192,105093,1,8,0:0:0:0:
256,192,105308,1,0,0:0:0:0:
256,192,105522,1,8,0:0:0:0:
256,192,105629,1,8,0:0:0:0:
256,192,105736,1,0,0:0:0:0:
256,192,105950,1,0,0:0:0:0:
256,192,106165,1,8,0:0:0:0:
256,192,106379,1,8,0:0:0:0:
256,192,106593,1,0,0:0:0:0:
256,192,106808,1,8,0:0:0:0:
256,192,107022,1,0,0:0:0:0:
256,192,107450,1,8,0:0:0:0:
256,192,107665,1,8,0:0:0:0:
256,192,107879,1,0,0:0:0:0:
256,192,108093,1,12,0:0:0:0:
256,192,108308,1,0,0:0:0:0:
256,192,108522,1,0,0:0:0:0:
256,192,108736,1,0,0:0:0:0:
256,192,108950,1,8,0:0:0:0:
256,192,109165,1,0,0:0:0:0:
256,192,109379,1,8,0:0:0:0:
256,192,109593,1,8,0:0:0:0:
256,192,109808,1,0,0:0:0:0:
256,192,109915,1,8,0:0:0:0:
256,192,110022,1,0,0:0:0:0:
256,192,110236,1,8,0:0:0:0:
256,192,110343,1,8,0:0:0:0:
256,192,110450,1,0,0:0:0:0:
256,192,110665,1,4,0:0:0:0:
256,192,110879,1,8,0:0:0:0:
256,192,110986,1,8,0:0:0:0:
256,192,111093,1,8,0:0:0:0:
256,192,111308,1,0,0:0:0:0:
256,192,111415,1,0,0:0:0:0:
256,192,111522,5,12,0:0:0:0:
256,192,111736,1,0,0:0:0:0:
256,192,111950,1,0,0:0:0:0:
256,192,112165,1,8,0:0:0:0:
256,192,112272,1,8,0:0:0:0:
256,192,112379,1,0,0:0:0:0:
256,192,112593,1,0,0:0:0:0:
256,192,112808,1,8,0:0:0:0:
256,192,112915,1,8,0:0:0:0:
256,192,113022,1,8,0:0:0:0:
256,192,113129,1,8,0:0:0:0:
256,192,113236,1,0,0:0:0:0:
256,192,113450,1,0,0:0:0:0:
256,192,113665,1,8,0:0:0:0:
256,192,113879,1,0,0:0:0:0:
256,192,113986,1,8,0:0:0:0:
256,192,114093,1,0,0:0:0:0:
256,192,114200,1,8,0:0:0:0:
256,192,114308,1,8,0:0:0:0:
256,192,114522,1,8,0:0:0:0:
256,192,114629,1,0,0:0:0:0:
256,192,114736,1,0,0:0:0:0:
256,192,114950,1,0,0:0:0:0:
256,192,115165,1,0,0:0:0:0:
256,192,115379,1,8,0:0:0:0:
256,192,115486,1,0,0:0:0:0:
256,192,115593,1,8,0:0:0:0:
256,192,115700,1,8,0:0:0:0:
256,192,115808,1,0,0:0:0:0:
256,192,116022,1,8,0:0:0:0:
256,192,116236,1,8,0:0:0:0:
256,192,116343,1,0,0:0:0:0:
256,192,116450,1,8,0:0:0:0:
256,192,116558,1,8,0:0:0:0:
256,192,116665,1,0,0:0:0:0:
256,192,116772,1,0,0:0:0:0:
256,192,116879,1,0,0:0:0:0:
256,192,116986,1,8,0:0:0:0:
256,192,117093,1,0,0:0:0:0:
256,192,117200,1,0,0:0:0:0:
256,192,117308,1,8,0:0:0:0:
256,192,117415,1,8,0:0:0:0:
256,192,117522,1,0,0:0:0:0:
256,192,117629,1,8,0:0:0:0:
256,192,117736,1,8,0:0:0:0:
256,192,117843,1,8,0:0:0:0:
256,192,117950,1,8,0:0:0:0:
256,192,118058,1,0,0:0:0:0:
256,192,118165,1,0,0:0:0:0:
256,192,118379,1,12,0:0:0:0:
256,192,118593,1,0,0:0:0:0:
256,192,118700,1,0,0:0:0:0:
256,192,118808,1,8,0:0:0:0:
256,192,119022,1,8,0:0:0:0:
256,192,119129,1,0,0:0:0:0:
256,192,119236,1,8,0:0:0:0:
256,192,119450,1,0,0:0:0:0:
256,192,119558,1,8,0:0:0:0:
256,192,119665,1,8,0:0:0:0:
256,192,119879,1,8,0:0:0:0:
256,192,120093,1,0,0:0:0:0:
256,192,120308,1,0,0:0:0:0:
256,192,120522,1,8,0:0:0:0:
256,192,120736,1,8,0:0:0:0:
256,192,120950,1,0,0:0:0:0:
256,192,121058,1,0,0:0:0:0:
256,192,121165,1,8,0:0:0:0:
256,192,121379,1,0,0:0:0:0:
256,192,121593,1,8,0:0:0:0:
256,192,121808,1,8,0:0:0:0:
256,192,122022,1,0,0:0:0:0:
256,192,122129,1,8,0:0:0:0:
256,192,122236,1,8,0:0:0:0:
256,192,122450,1,0,0:0:0:0:
256,192,122558,1,8,0:0:0:0:
256,192,122665,1,0,0:0:0:0:
256,192,122879,1,0,0:0:0:0:
256,192,122986,1,0,0:0:0:0:
256,192,123093,1,8,0:0:0:0:
256,192,123308,1,0,0:0:0:0:
256,192,123415,1,8,0:0:0:0:
256,192,123522,1,0,0:0:0:0:
256,192,123629,1,8,0:0:0:0:
256,192,123736,1,8,0:0:0:0:
256,192,123843,1,0,0:0:0:0:
256,192,123950,1,8,0:0:0:0:
256,192,124165,1,8,0:0:0:0:
256,192,124272,1,0,0:0:0:0:
256,192,124379,1,0,0:0:0:0:
256,192,124486,1,8,0:0:0:0:
256,192,124593,1,8,0:0:0:0:
256,192,124700,1,0,0:0:0:0:
256,192,124808,1,8,0:0:0:0:
256,192,124915,1,8,0:0:0:0:
256,192,125022,1,0,0:0:0:0:
256,192,125129,1,0,0:0:0:0:
256,192,125236,5,12,0:0:0:0:
256,192,125879,1,0,0:0:0:0:
256,192,126093,1,8,0:0:0:0:
256,192,126736,1,8,0:0:0:0:
256,192,126950,1,8,0:0:0:0:
256,192,127379,1,8,0:0:0:0:
256,192,127808,1,0,0:0:0:0:
256,192,128236,1,8,0:0:0:0:
256,192,128450,1,0,0:0:0:0:
256,192,128665,1,0,0:0:0:0:
256,192,128879,1,8,0:0:0:0:
256,192,129093,1,8,0:0:0:0:
256,192,129308,1,0,0:0:0:0:
256,192,129522,1,0,0:0:0:0:
256,192,129736,1,8,0:0:0:0:
256,192,129950,1,8,0:0:0:0:
256,192,130165,1,0,0:0:0:0:
256,192,130379,1,0,0:0:0:0:
256,192,130593,1,8,0:0:0:0:
256,192,130808,1,0,0:0:0:0:
256,192,131022,1,8,0:0:0:0:
256,192,131236,1,8,0:0:0:0:
256,192,131450,1,8,0:0:0:0:
256,192,131665,1,0,0:0:0:0:
256,192,131879,1,0,0:0:0:0:
256,192,132093,1,8,0:0:0:0:
256,192,132736,1,0,0:0:0:0:
256,192,132950,1,8,0:0:0:0:
256,192,133593,1,8,0:0:0:0:
256,192,133808,1,0,0:0:0:0:
256,192,134236,1,0,0:0:0:0:
256,192,134665,1,8,0:0:0:0:
256,192,135093,1,0,0:0:0:0:
256,192,135308,1,8,0:0:0:0:
256,192,135522,1,0,0:0:0:0:
256,192,135736,1,8,0:0:0:0:
256,192,135950,1,8,0:0:0:0:
256,192,136165,1,0,0:0:0:0:
256,192,136379,1,0,0:0:0:0:
256,192,136593,1,8,0:0:0:0:
256,192,136808,1,8,0:0:0:0:
256,192,137022,1,0,0:0:0:0:
256,192,137236,1,0,0:0:0:0:
256,192,137450,1,8,0:0:0:0:
256,192,137665,1,0,0:0:0:0:
256,192,137879,1,8,0:0:0:0:
256,192,138093,1,8,0:0:0:0:
256,192,138308,1,8,0:0:0:0:
256,192,138522,1,0,0:0:0:0:
256,192,138736,1,0,0:0:0:0:
256,192,138950,5,0,0:0:0:0:
256,192,139808,1,0,0:0:0:0:
256,192,140665,1,0,0:0:0:0:
256,192,141522,1,8,0:0:0:0:
256,192,142379,5,0,0:0:0:0:
256,192,143236,1,8,0:0:0:0:
256,192,144093,1,0,0:0:0:0:
256,192,144736,1,8,0:0:0:0:
256,192,145379,1,8,0:0:0:0:
256,192,145808,1,0,0:0:0:0:
256,192,146665,1,0,0:0:0:0:
256,192,147522,1,8,0:0:0:0:
256,192,148808,1,8,0:0:0:0:
256,192,149236,5,0,0:0:0:0:
256,192,149450,1,0,0:0:0:0:
256,192,149665,1,0,0:0:0:0:
256,192,149879,1,0,0:0:0:0:
256,192,150093,1,8,0:0:0:0:
256,192,150308,1,8,0:0:0:0:
256,192,150522,1,8,0:0:0:0:
256,192,150736,1,8,0:0:0:0:
256,192,150950,1,0,0:0:0:0:
256,192,151165,1,0,0:0:0:0:
256,192,151379,1,0,0:0:0:0:
256,192,151486,1,8,0:0:0:0:
256,192,151593,1,0,0:0:0:0:
256,192,151700,1,8,0:0:0:0:
256,192,151808,1,0,0:0:0:0:
256,192,151915,1,0,0:0:0:0:
256,192,152022,1,8,0:0:0:0:
256,192,152129,1,8,0:0:0:0:
256,192,152236,1,0,0:0:0:0:
256,192,152343,1,0,0:0:0:0:
256,192,152450,1,8,0:0:0:0:
256,192,152558,1,8,0:0:0:0:
256,192,152665,1,0,0:0:0:0:
256,192,152772,1,8,0:0:0:0:
256,192,152879,1,8,0:0:0:0:
256,192,152986,1,8,0:0:0:0:
256,192,153093,1,0,0:0:0:0:
256,192,153200,1,0,0:0:0:0:
256,192,153308,1,8,0:0:0:0:
256,192,153415,1,8,0:0:0:0:
256,192,153522,1,8,0:0:0:0:
256,192,153629,1,0,0:0:0:0:
256,192,153736,1,8,0:0:0:0:
256,192,153843,1,8,0:0:0:0:
256,192,153950,1,8,0:0:0:0:
256,192,154058,1,8,0:0:0:0:
256,192,154165,1,0,0:0:0:0:
256,192,154272,1,0,0:0:0:0:
256,192,154379,1,12,0:0:0:0:
256,192,154593,1,12,0:0:0:0:
256,192,154808,1,12,0:0:0:0:
256,192,155022,1,12,0:0:0:0:
256,192,155450,1,4,0:0:0:0:
256,192,155665,1,8,0:0:0:0:
256,192,155772,1,8,0:0:0:0:
256,192,155879,1,8,0:0:0:0:
256,192,155986,1,8,0:0:0:0:
256,192,156093,5,4,0:0:0:0:
256,192,156522,1,8,0:0:0:0:
256,192,156736,1,0,0:0:0:0:
256,192,156950,1,8,0:0:0:0:
256,192,157058,1,8,0:0:0:0:
256,192,157165,1,0,0:0:0:0:
256,192,157272,1,8,0:0:0:0:
256,192,157379,1,0,0:0:0:0:
256,192,157593,1,8,0:0:0:0:
256,192,157808,1,0,0:0:0:0:
256,192,158022,1,8,0:0:0:0:
256,192,158129,1,0,0:0:0:0:
256,192,158236,1,8,0:0:0:0:
256,192,158343,1,0,0:0:0:0:
256,192,158450,1,8,0:0:0:0:
256,192,158665,1,0,0:0:0:0:
256,192,158879,1,0,0:0:0:0:
256,192,159093,1,8,0:0:0:0:
256,192,159522,1,0,0:0:0:0:
256,192,159736,1,0,0:0:0:0:
256,192,159843,1,0,0:0:0:0:
256,192,159950,1,8,0:0:0:0:
256,192,160165,1,0,0:0:0:0:
256,192,160379,1,8,0:0:0:0:
256,192,160486,1,8,0:0:0:0:
256,192,160593,1,0,0:0:0:0:
256,192,160808,1,0,0:0:0:0:
256,192,161022,1,8,0:0:0:0:
256,192,161236,1,0,0:0:0:0:
256,192,161343,1,0,0:0:0:0:
256,192,161450,1,8,0:0:0:0:
256,192,161558,1,0,0:0:0:0:
256,192,161665,1,8,0:0:0:0:
256,192,161879,1,0,0:0:0:0:
256,192,161986,1,8,0:0:0:0:
256,192,162093,1,8,0:0:0:0:
256,192,162200,1,8,0:0:0:0:
256,192,162308,1,0,0:0:0:0:
256,192,162522,1,8,0:0:0:0:
256,192,162629,1,8,0:0:0:0:
256,192,162736,1,8,0:0:0:0:
256,192,162843,1,8,0:0:0:0:
256,192,162950,1,4,0:0:0:0:
256,192,163379,1,8,0:0:0:0:
256,192,163593,1,0,0:0:0:0:
256,192,163808,1,8,0:0:0:0:
256,192,163915,1,8,0:0:0:0:
256,192,164022,1,0,0:0:0:0:
256,192,164129,1,0,0:0:0:0:
256,192,164236,1,8,0:0:0:0:
256,192,164450,1,8,0:0:0:0:
256,192,164665,1,0,0:0:0:0:
256,192,164879,1,0,0:0:0:0:
256,192,164986,1,0,0:0:0:0:
256,192,165093,1,8,0:0:0:0:
256,192,165308,1,0,0:0:0:0:
256,192,165415,1,8,0:0:0:0:
256,192,165522,1,0,0:0:0:0:
256,192,165629,1,8,0:0:0:0:
256,192,165736,1,0,0:0:0:0:
256,192,165950,1,8,0:0:0:0:
256,192,166379,1,8,0:0:0:0:
256,192,166700,1,0,0:0:0:0:
256,192,166808,1,8,0:0:0:0:
256,192,167022,1,8,0:0:0:0:
256,192,167236,1,0,0:0:0:0:
256,192,167343,1,8,0:0:0:0:
256,192,167450,1,8,0:0:0:0:
256,192,167558,1,0,0:0:0:0:
256,192,167665,1,8,0:0:0:0:
256,192,167879,1,0,0:0:0:0:
256,192,168093,1,12,0:0:0:0:
256,192,168308,1,12,0:0:0:0:
256,192,168575,1,0,0:0:0:0:
256,192,168736,1,12,0:0:0:0:
256,192,168950,1,12,0:0:0:0:
256,192,169218,1,0,0:0:0:0:
256,192,169379,1,12,0:0:0:0:
256,192,169808,12,0,171093,0:0:0:0:
256,192,171522,5,12,0:0:0:0:
256,192,171950,1,0,0:0:0:0:
256,192,172165,1,8,0:0:0:0:
256,192,172272,1,0,0:0:0:0:
256,192,172379,1,8,0:0:0:0:
256,192,172486,1,8,0:0:0:0:
256,192,172593,1,0,0:0:0:0:
256,192,172808,1,8,0:0:0:0:
256,192,173022,1,8,0:0:0:0:
256,192,173236,1,0,0:0:0:0:
256,192,173450,1,8,0:0:0:0:
256,192,173558,1,0,0:0:0:0:
256,192,173665,1,8,0:0:0:0:
256,192,173879,1,0,0:0:0:0:
256,192,173986,1,8,0:0:0:0:
256,192,174093,1,0,0:0:0:0:
256,192,174200,1,8,0:0:0:0:
256,192,174308,1,0,0:0:0:0:
256,192,174522,1,8,0:0:0:0:
256,192,174950,1,0,0:0:0:0:
256,192,175165,1,0,0:0:0:0:
256,192,175272,1,0,0:0:0:0:
256,192,175379,1,0,0:0:0:0:
256,192,175593,1,8,0:0:0:0:
256,192,175808,1,8,0:0:0:0:
256,192,175915,1,8,0:0:0:0:
256,192,176022,1,0,0:0:0:0:
256,192,176236,1,0,0:0:0:0:
256,192,176450,1,8,0:0:0:0:
256,192,176665,1,8,0:0:0:0:
256,192,176772,1,0,0:0:0:0:
256,192,176879,1,8,0:0:0:0:
256,192,176986,1,8,0:0:0:0:
256,192,177093,1,0,0:0:0:0:
256,192,177308,1,8,0:0:0:0:
256,192,177379,1,8,0:0:0:0:
256,192,177450,1,8,0:0:0:0:
256,192,177522,1,0,0:0:0:0:
256,192,177629,1,8,0:0:0:0:
256,192,177736,1,0,0:0:0:0:
256,192,177950,1,8,0:0:0:0:
256,192,178058,1,0,0:0:0:0:
256,192,178165,1,8,0:0:0:0:
256,192,178272,1,8,0:0:0:0:
256,192,178379,1,4,0:0:0:0:
256,192,178808,1,0,0:0:0:0:
256,192,179022,1,0,0:0:0:0:
256,192,179236,1,8,0:0:0:0:
256,192,179343,1,8,0:0:0:0:
256,192,179450,1,0,0:0:0:0:
256,192,179558,1,0,0:0:0:0:
256,192,179665,1,8,0:0:0:0:
256,192,179879,1,0,0:0:0:0:
256,192,180093,1,8,0:0:0:0:
256,192,180308,1,0,0:0:0:0:
256,192,180415,1,0,0:0:0:0:
256,192,180522,1,8,0:0:0:0:
256,192,180736,1,0,0:0:0:0:
256,192,180843,1,8,0:0:0:0:
256,192,180950,1,0,0:0:0:0:
256,192,181058,1,8,0:0:0:0:
256,192,181165,1,0,0:0:0:0:
256,192,181379,1,8,0:0:0:0:
256,192,181808,1,8,0:0:0:0:
256,192,181915,1,8,0:0:0:0:
256,192,182022,1,8,0:0:0:0:
256,192,182129,1,0,0:0:0:0:
256,192,182236,1,8,0:0:0:0:
256,192,182450,1,8,0:0:0:0:
256,192,182665,1,0,0:0:0:0:
256,192,182879,1,8,0:0:0:0:
256,192,182986,1,8,0:0:0:0:
256,192,183093,1,0,0:0:0:0:
256,192,183308,1,0,0:0:0:0:
256,192,183522,1,8,0:0:0:0:
256,192,183629,1,8,0:0:0:0:
256,192,183736,1,0,0:0:0:0:
256,192,183843,1,8,0:0:0:0:
256,192,183950,1,0,0:0:0:0:
256,192,184165,1,0,0:0:0:0:
256,192,184236,1,0,0:0:0:0:
256,192,184308,1,0,0:0:0:0:
256,192,184379,1,8,0:0:0:0:
256,192,184486,1,8,0:0:0:0:
256,192,184593,1,0,0:0:0:0:
256,192,184700,1,0,0:0:0:0:
256,192,184808,1,8,0:0:0:0:
256,192,184915,1,8,0:0:0:0:
256,192,185022,1,0,0:0:0:0:
256,192,185129,1,0,0:0:0:0:
256,192,185236,5,12,0:0:0:0:
256,192,185665,1,8,0:0:0:0:
256,192,185879,1,0,0:0:0:0:
256,192,186093,1,8,0:0:0:0:
256,192,186200,1,8,0:0:0:0:
256,192,186308,1,8,0:0:0:0:
256,192,186415,1,8,0:0:0:0:
256,192,186522,1,0,0:0:0:0:
256,192,186736,1,8,0:0:0:0:
256,192,186950,1,0,0:0:0:0:
256,192,187165,1,0,0:0:0:0:
256,192,187272,1,0,0:0:0:0:
256,192,187379,1,8,0:0:0:0:
256,192,187593,1,0,0:0:0:0:
256,192,187700,1,8,0:0:0:0:
256,192,187808,1,0,0:0:0:0:
256,192,187915,1,8,0:0:0:0:
256,192,188022,1,0,0:0:0:0:
256,192,188236,1,8,0:0:0:0:
256,192,188665,1,0,0:0:0:0:
256,192,188879,1,8,0:0:0:0:
256,192,188986,1,8,0:0:0:0:
256,192,189093,1,0,0:0:0:0:
256,192,189308,1,8,0:0:0:0:
256,192,189522,1,8,0:0:0:0:
256,192,189629,1,0,0:0:0:0:
256,192,189736,1,0,0:0:0:0:
256,192,189950,1,0,0:0:0:0:
256,192,190165,1,8,0:0:0:0:
256,192,190379,1,0,0:0:0:0:
256,192,190486,1,0,0:0:0:0:
256,192,190593,1,8,0:0:0:0:
256,192,190700,1,8,0:0:0:0:
256,192,190808,1,0,0:0:0:0:
256,192,191022,1,0,0:0:0:0:
256,192,191093,1,0,0:0:0:0:
256,192,191165,1,0,0:0:0:0:
256,192,191236,1,8,0:0:0:0:
256,192,191343,1,8,0:0:0:0:
256,192,191450,1,0,0:0:0:0:
256,192,191558,1,0,0:0:0:0:
256,192,191665,1,8,0:0:0:0:
256,192,191772,1,8,0:0:0:0:
256,192,191879,1,8,0:0:0:0:
256,192,191986,1,8,0:0:0:0:
256,192,192093,1,4,0:0:0:0:
256,192,192522,1,8,0:0:0:0:
256,192,192736,1,0,0:0:0:0:
256,192,192950,1,8,0:0:0:0:
256,192,193058,1,8,0:0:0:0:
256,192,193165,1,0,0:0:0:0:
256,192,193272,1,0,0:0:0:0:
256,192,193379,1,8,0:0:0:0:
256,192,193593,1,8,0:0:0:0:
256,192,193808,1,0,0:0:0:0:
256,192,194022,1,8,0:0:0:0:
256,192,194129,1,0,0:0:0:0:
256,192,194236,1,8,0:0:0:0:
256,192,194450,1,0,0:0:0:0:
256,192,194558,1,8,0:0:0:0:
256,192,194665,1,0,0:0:0:0:
256,192,194772,1,8,0:0:0:0:
256,192,194879,1,0,0:0:0:0:
256,192,195093,1,8,0:0:0:0:
256,192,195522,1,8,0:0:0:0:
256,192,195629,1,8,0:0:0:0:
256,192,195736,1,8,0:0:0:0:
256,192,195843,1,0,0:0:0:0:
256,192,195950,1,8,0:0:0:0:
256,192,196165,1,8,0:0:0:0:
256,192,196379,1,0,0:0:0:0:
256,192,196593,1,8,0:0:0:0:
256,192,196700,1,8,0:0:0:0:
256,192,196808,1,0,0:0:0:0:
256,192,197022,1,0,0:0:0:0:
256,192,197236,1,8,0:0:0:0:
256,192,197343,1,8,0:0:0:0:
256,192,197450,1,8,0:0:0:0:
256,192,197665,1,0,0:0:0:0:
256,192,197879,1,8,0:0:0:0:
256,192,197986,1,8,0:0:0:0:
256,192,198093,1,0,0:0:0:0:
256,192,198200,1,8,0:0:0:0:
256,192,198308,1,0,0:0:0:0:
256,192,198522,1,8,0:0:0:0:
256,192,198629,1,0,0:0:0:0:
256,192,198736,1,8,0:0:0:0:
256,192,198843,1,8,0:0:0:0:
256,192,198950,1,4,0:0:0:0:
256,192,199379,1,8,0:0:0:0:
256,192,199593,1,8,0:0:0:0:
256,192,199700,1,8,0:0:0:0:
256,192,199808,1,0,0:0:0:0:
256,192,200022,1,8,0:0:0:0:
256,192,200236,1,0,0:0:0:0:
256,192,200343,1,8,0:0:0:0:
256,192,200450,1,0,0:0:0:0:
256,192,200665,1,12,0:0:0:0:
256,192,200879,1,4,0:0:0:0:
256,192,201308,1,12,0:0:0:0:
256,192,201522,1,4,0:0:0:0:
256,192,201736,1,0,0:0:0:0:
256,192,201808,1,0,0:0:0:0:
256,192,201879,1,0,0:0:0:0:
256,192,201950,1,12,0:0:0:0:
256,192,202379,5,12,0:0:0:0:
256,192,202593,1,0,0:0:0:0:
256,192,202808,1,8,0:0:0:0:
256,192,202915,1,0,0:0:0:0:
256,192,203129,1,0,0:0:0:0:
256,192,203236,1,0,0:0:0:0:
256,192,203343,1,0,0:0:0:0:
256,192,203450,1,8,0:0:0:0:
256,192,203665,1,8,0:0:0:0:
256,192,203879,1,0,0:0:0:0:
256,192,204093,1,0,0:0:0:0:
256,192,204308,1,8,0:0:0:0:
256,192,204522,1,8,0:0:0:0:
256,192,204629,1,0,0:0:0:0:
256,192,204843,1,8,0:0:0:0:
256,192,204950,1,0,0:0:0:0:
256,192,205058,1,0,0:0:0:0:
256,192,205165,1,12,0:0:0:0:
256,192,205379,1,12,0:0:0:0:
256,192,205808,1,0,0:0:0:0:
256,192,206022,1,8,0:0:0:0:
256,192,206236,1,8,0:0:0:0:
256,192,206343,1,0,0:0:0:0:
256,192,206558,1,8,0:0:0:0:
256,192,206665,1,8,0:0:0:0:
256,192,206772,1,0,0:0:0:0:
256,192,206879,1,8,0:0:0:0:
256,192,207093,1,8,0:0:0:0:
256,192,207308,1,8,0:0:0:0:
256,192,207522,1,4,0:0:0:0:
256,192,207736,1,8,0:0:0:0:
256,192,207843,1,0,0:0:0:0:
256,192,207950,1,0,0:0:0:0:
256,192,208058,1,8,0:0:0:0:
256,192,208165,1,8,0:0:0:0:
256,192,208272,1,4,0:0:0:0:
256,192,208486,1,8,0:0:0:0:
256,192,208593,1,0,0:0:0:0:
256,192,208700,1,0,0:0:0:0:
256,192,208808,1,12,0:0:0:0:
256,192,209022,1,8,0:0:0:0:
256,192,209129,1,8,0:0:0:0:
256,192,209236,1,4,0:0:0:0:
256,192,209450,1,0,0:0:0:0:
256,192,209665,1,8,0:0:0:0:
256,192,209772,1,0,0:0:0:0:
256,192,209986,1,0,0:0:0:0:
256,192,210093,1,0,0:0:0:0:
256,192,210200,1,0,0:0:0:0:
256,192,210308,1,8,0:0:0:0:
256,192,210522,1,8,0:0:0:0:
256,192,210736,1,0,0:0:0:0:
256,192,210950,1,0,0:0:0:0:
256,192,211165,1,8,0:0:0:0:
256,192,211379,1,8,0:0:0:0:
256,192,211486,1,0,0:0:0:0:
256,192,211700,1,8,0:0:0:0:
256,192,211808,1,0,0:0:0:0:
256,192,211915,1,0,0:0:0:0:
256,192,212022,1,12,0:0:0:0:
256,192,212236,1,12,0:0:0:0:
256,192,212665,1,0,0:0:0:0:
256,192,212879,1,8,0:0:0:0:
256,192,213093,1,8,0:0:0:0:
256,192,213200,1,0,0:0:0:0:
256,192,213415,1,8,0:0:0:0:
256,192,213522,1,8,0:0:0:0:
256,192,213629,1,0,0:0:0:0:
256,192,213736,1,8,0:0:0:0:
256,192,213950,1,12,0:0:0:0:
256,192,214165,1,0,0:0:0:0:
256,192,214379,1,4,0:0:0:0:
256,192,214593,1,0,0:0:0:0:
256,192,214700,1,0,0:0:0:0:
256,192,214808,1,8,0:0:0:0:
256,192,214915,1,0,0:0:0:0:
256,192,215022,1,0,0:0:0:0:
256,192,215129,1,12,0:0:0:0:
256,192,215343,1,8,0:0:0:0:
256,192,215450,1,0,0:0:0:0:
256,192,215558,1,0,0:0:0:0:
256,192,215665,1,8,0:0:0:0:
256,192,215772,1,8,0:0:0:0:
256,192,215879,1,8,0:0:0:0:
256,192,215986,1,8,0:0:0:0:
