osu file format v14

[General]
AudioFilename: audio.mp3
AudioLeadIn: 0
PreviewTime: 55920
Countdown: 0
SampleSet: Normal
StackLeniency: 0.7
Mode: 1
LetterboxInBreaks: 0
WidescreenStoryboard: 0

[Editor]
Bookmarks: 8670,15527,29241,42956,70384,87527,97813,138956,142384,149241,185241,216099
DistanceSpacing: 1.2
BeatDivisor: 4
GridSize: 32
TimelineZoom: 0.5999999

[Metadata]
Title:Moonlight at midday
TitleUnicode:真昼の月明かり
Artist:Tsukuyomi
ArtistUnicode:月詠み
Creator:Jaltzu
Version:Kantan
Source:
Tags:japanese pop jpop j-pop rock jrock j-rock ツクヨミ 2943 mahiru no tsukiakari female vocals 欠けた心象、世のよすが kaketa shinshou yo no yosuga 4th digital single ユリイ・カノン yurii yurry kanon canon epoch とうかさ toukasa mikoto 矢尾拓也 yao takuya 脇山"コジロウ"真幸 wakiyama "kojirou" masayuki daichigumi 松橋秀幸 matsuhashi hideyuki birdie house 山崎翼 yamazaki tsubasa flugel mastering
BeatmapID:4063815
BeatmapSetID:1959210

[Difficulty]
HPDrainRate:8
CircleSize:2
OverallDifficulty:3
ApproachRate:10
SliderMultiplier:1.4
SliderTickRate:1

[Events]
//Background and Video events
0,0,"aki.jpg",0,0
//Break Periods
//Storyboard Layer 0 (Background)
//Storyboard Layer 1 (Fail)
//Storyboard Layer 2 (Pass)
//Storyboard Layer 3 (Foreground)
//Storyboard Layer 4 (Overlay)
//Storyboard Sound Samples

[TimingPoints]
1808,428.571428571429,4,1,0,70,1,0
14665,-100,4,1,0,80,0,0
15415,-100,4,1,0,90,0,0
29343,-100,4,1,0,70,0,0
42843,-100,4,1,0,80,0,0
54897,-100,4,1,0,90,0,0
56558,-100,4,1,0,100,0,0
56665,-100,4,1,0,100,0,1
84093,-100,4,1,0,100,0,0
84200,-100,4,1,0,90,0,0
97915,-100,4,1,0,70,0,0
107986,-100,4,1,0,75,0,0
108843,-100,4,1,0,80,0,0
109700,-100,4,1,0,85,0,0
110558,-100,4,1,0,90,0,0
111415,-100,4,1,0,100,0,0
111522,-100,4,1,0,100,0,1
125022,-100,4,1,0,90,0,1
125236,-100,4,1,0,90,0,0
125343,-100,4,1,0,70,0,0
138843,-100,4,1,0,60,0,0
149129,-100,4,1,0,70,0,0
153361,-100,4,1,0,71,0,0
153468,-100,4,1,0,72,0,0
153575,-100,4,1,0,73,0,0
153683,-100,4,1,0,74,0,0
153790,-100,4,1,0,75,0,0
153897,-100,4,1,0,76,0,0
154004,-100,4,1,0,77,0,0
154111,-100,4,1,0,78,0,0
154218,-100,4,1,0,79,0,0
154325,-100,4,1,0,80,0,0
155236,-100,4,1,0,70,0,0
155986,-100,4,1,0,100,0,0
156093,-100,4,1,0,100,0,1
169593,-100,4,1,0,70,0,1
169808,-100,4,1,0,70,0,0
171415,-100,4,1,0,100,0,0
171522,-100,4,1,0,100,0,1
202379,-100,4,1,0,100,0,0
202486,-100,4,1,0,90,0,0

[HitObjects]
256,192,1808,5,8,0:0:0:0:
256,192,2665,1,8,0:0:0:0:
256,192,3522,1,0,0:0:0:0:
256,192,4165,1,8,0:0:0:0:
256,192,4808,1,8,0:0:0:0:
256,192,5236,1,0,0:0:0:0:
256,192,6093,1,8,0:0:0:0:
256,192,6950,1,8,0:0:0:0:
256,192,7379,1,0,0:0:0:0:
256,192,7808,1,8,0:0:0:0:
256,192,8665,1,4,0:0:0:0:
256,192,9522,1,8,0:0:0:0:
256,192,10379,1,0,0:0:0:0:
256,192,11022,1,8,0:0:0:0:
256,192,11665,1,0,0:0:0:0:
256,192,12093,1,12,0:0:0:0:
256,192,12950,1,0,0:0:0:0:
256,192,13379,1,8,0:0:0:0:
256,192,15093,5,12,0:0:0:0:
256,192,15522,1,4,0:0:0:0:
256,192,16272,1,0,0:0:0:0:
256,192,16808,1,0,0:0:0:0:
256,192,17236,1,8,0:0:0:0:
256,192,18308,1,8,0:0:0:0:
256,192,18950,1,0,0:0:0:0:
256,192,19700,1,0,0:0:0:0:
256,192,20236,1,8,0:0:0:0:
256,192,20665,1,4,0:0:0:0:
256,192,21415,1,12,0:0:0:0:
256,192,21950,1,8,0:0:0:0:
256,192,22379,1,4,0:0:0:0:
256,192,23129,1,0,0:0:0:0:
256,192,23665,1,8,0:0:0:0:
256,192,24093,1,8,0:0:0:0:
256,192,25165,1,8,0:0:0:0:
256,192,25808,1,0,0:0:0:0:
256,192,26558,1,0,0:0:0:0:
256,192,27093,1,8,0:0:0:0:
256,192,27522,1,4,0:0:0:0:
256,192,28272,1,4,0:0:0:0:
256,192,28808,1,8,0:0:0:0:
256,192,29236,5,4,0:0:0:0:
256,192,30093,1,8,0:0:0:0:
256,192,30950,1,0,0:0:0:0:
256,192,31593,1,8,0:0:0:0:
256,192,32665,1,0,0:0:0:0:
256,192,33522,1,8,0:0:0:0:
256,192,34379,1,8,0:0:0:0:
256,192,35022,1,0,0:0:0:0:
256,192,35665,1,8,0:0:0:0:
256,192,36522,1,0,0:0:0:0:
256,192,36950,1,8,0:0:0:0:
256,192,37808,1,0,0:0:0:0:
256,192,38450,1,0,0:0:0:0:
256,192,39522,1,0,0:0:0:0:
256,192,40379,1,8,0:0:0:0:
256,192,40808,1,8,0:0:0:0:
256,192,41236,1,0,0:0:0:0:
224,192,42950,5,12,0:0:0:0:
224,192,43808,1,8,0:0:0:0:
224,192,44236,1,8,0:0:0:0:
224,192,44665,1,0,0:0:0:0:
224,192,45093,1,0,0:0:0:0:
224,192,45522,1,8,0:0:0:0:
224,192,46379,1,8,0:0:0:0:
224,192,47236,1,8,0:0:0:0:
224,192,47665,1,0,0:0:0:0:
224,192,48093,1,0,0:0:0:0:
224,192,49808,1,12,0:0:0:0:
224,192,50665,1,8,0:0:0:0:
224,192,51093,1,8,0:0:0:0:
224,192,51522,1,0,0:0:0:0:
224,192,51950,1,8,0:0:0:0:
224,192,52379,1,0,0:0:0:0:
224,192,53236,1,12,0:0:0:0:
224,192,53986,1,4,0:0:0:0:
224,192,54950,1,12,0:0:0:0:
224,192,55593,1,12,0:0:0:0:
256,192,56665,5,12,0:0:0:0:
256,192,57522,1,8,0:0:0:0:
256,192,57950,1,0,0:0:0:0:
256,192,58379,1,8,0:0:0:0:
256,192,59022,1,8,0:0:0:0:
256,192,60093,1,0,0:0:0:0:
256,192,60950,1,8,0:0:0:0:
256,192,61808,1,8,0:0:0:0:
256,192,62236,1,8,0:0:0:0:
256,192,62665,1,0,0:0:0:0:
256,192,63093,1,8,0:0:0:0:
256,192,63522,1,4,0:0:0:0:
256,192,64379,1,8,0:0:0:0:
256,192,64808,1,0,0:0:0:0:
256,192,65236,1,0,0:0:0:0:
256,192,65879,1,8,0:0:0:0:
256,192,66950,1,12,0:0:0:0:
256,192,67808,1,0,0:0:0:0:
256,192,68236,1,0,0:0:0:0:
256,192,68665,1,12,0:0:0:0:
256,192,69308,1,12,0:0:0:0:
256,192,69950,1,0,0:0:0:0:
256,192,70379,5,12,0:0:0:0:
256,192,71236,1,8,0:0:0:0:
256,192,71665,1,8,0:0:0:0:
256,192,72093,1,0,0:0:0:0:
256,192,72736,1,8,0:0:0:0:
256,192,73808,1,0,0:0:0:0:
256,192,74665,1,8,0:0:0:0:
256,192,75522,1,8,0:0:0:0:
256,192,75950,1,0,0:0:0:0:
256,192,76379,1,0,0:0:0:0:
256,192,76808,1,8,0:0:0:0:
256,192,77236,1,4,0:0:0:0:
256,192,78093,1,8,0:0:0:0:
256,192,78522,1,0,0:0:0:0:
256,192,78950,1,0,0:0:0:0:
256,192,79593,1,8,0:0:0:0:
256,192,80665,1,12,0:0:0:0:
256,192,81522,1,0,0:0:0:0:
256,192,81950,1,0,0:0:0:0:
256,192,82379,1,8,0:0:0:0:
256,192,83022,1,8,0:0:0:0:
256,192,83665,1,12,0:0:0:0:
256,192,84093,5,4,0:0:0:0:
256,192,84843,1,0,0:0:0:0:
256,192,85379,1,0,0:0:0:0:
256,192,85808,1,8,0:0:0:0:
256,192,86879,1,8,0:0:0:0:
256,192,87522,1,0,0:0:0:0:
256,192,88272,1,0,0:0:0:0:
256,192,88808,1,8,0:0:0:0:
256,192,89236,1,4,0:0:0:0:
256,192,89986,1,12,0:0:0:0:
256,192,90522,1,8,0:0:0:0:
256,192,90950,1,4,0:0:0:0:
256,192,91700,1,0,0:0:0:0:
256,192,92236,1,8,0:0:0:0:
256,192,92665,1,8,0:0:0:0:
256,192,93736,1,8,0:0:0:0:
256,192,94379,1,0,0:0:0:0:
256,192,95129,1,0,0:0:0:0:
256,192,95665,1,8,0:0:0:0:
256,192,96093,1,4,0:0:0:0:
256,192,96843,1,4,0:0:0:0:
256,192,97379,1,8,0:0:0:0:
256,192,97808,5,4,0:0:0:0:
256,192,98665,1,8,0:0:0:0:
256,192,99522,1,8,0:0:0:0:
256,192,100165,1,0,0:0:0:0:
256,192,101236,1,0,0:0:0:0:
256,192,102093,1,8,0:0:0:0:
256,192,102522,1,0,0:0:0:0:
256,192,102950,1,8,0:0:0:0:
256,192,103593,1,8,0:0:0:0:
256,192,104236,1,0,0:0:0:0:
256,192,105093,1,0,0:0:0:0:
256,192,105522,1,8,0:0:0:0:
256,192,106379,1,0,0:0:0:0:
256,192,107022,1,8,0:0:0:0:
256,192,107665,1,0,0:0:0:0:
256,192,108093,1,12,0:0:0:0:
256,192,108950,1,0,0:0:0:0:
256,192,109808,1,8,0:0:0:0:
256,192,110236,1,8,0:0:0:0:
256,192,110665,1,0,0:0:0:0:
256,192,111093,1,0,0:0:0:0:
256,192,111522,5,12,0:0:0:0:
256,192,112808,1,8,0:0:0:0:
256,192,113236,1,0,0:0:0:0:
256,192,114093,1,8,0:0:0:0:
288,192,114522,1,8,0:0:0:0:
256,192,114950,1,0,0:0:0:0:
256,192,115808,1,0,0:0:0:0:
256,192,116236,1,8,0:0:0:0:
256,192,116665,1,0,0:0:0:0:
256,192,117093,1,0,0:0:0:0:
256,192,117522,1,8,0:0:0:0:
256,192,117950,1,8,0:0:0:0:
256,192,118379,1,4,0:0:0:0:
256,192,119236,1,8,0:0:0:0:
256,192,120093,1,0,0:0:0:0:
256,192,121379,1,0,0:0:0:0:
256,192,121808,1,8,0:0:0:0:
256,192,122236,1,8,0:0:0:0:
256,192,122665,1,0,0:0:0:0:
256,192,123093,1,8,0:0:0:0:
256,192,123522,1,0,0:0:0:0:
256,192,124379,1,8,0:0:0:0:
256,192,124808,1,8,0:0:0:0:
256,192,125236,5,4,0:0:0:0:
256,192,126093,1,8,0:0:0:0:
256,192,126950,1,8,0:0:0:0:
256,192,127808,1,0,0:0:0:0:
256,192,128236,1,8,0:0:0:0:
256,192,128665,1,0,0:0:0:0:
256,192,129522,1,0,0:0:0:0:
256,192,130379,1,0,0:0:0:0:
256,192,131236,1,8,0:0:0:0:
256,192,132093,1,8,0:0:0:0:
256,192,132950,1,0,0:0:0:0:
256,192,133808,1,8,0:0:0:0:
256,192,134665,1,0,0:0:0:0:
256,192,135093,1,8,0:0:0:0:
256,192,135522,1,0,0:0:0:0:
256,192,136379,1,0,0:0:0:0:
256,192,137236,1,0,0:0:0:0:
256,192,138093,1,8,0:0:0:0:
256,192,138950,1,0,0:0:0:0:
256,192,139808,1,0,0:0:0:0:
256,192,140665,1,0,0:0:0:0:
256,192,142379,5,0,0:0:0:0:
256,192,143236,1,8,0:0:0:0:
256,192,144093,1,0,0:0:0:0:
256,192,144736,1,8,0:0:0:0:
256,192,145808,1,0,0:0:0:0:
256,192,146665,1,0,0:0:0:0:
256,192,147522,1,8,0:0:0:0:
256,192,149236,1,0,0:0:0:0:
256,192,150093,1,8,0:0:0:0:
256,192,150950,1,0,0:0:0:0:
256,192,151593,1,8,0:0:0:0:
256,192,152236,1,0,0:0:0:0:
256,192,152665,1,8,0:0:0:0:
256,192,153093,1,8,0:0:0:0:
256,192,153522,1,0,0:0:0:0:
256,192,153950,1,0,0:0:0:0:
256,192,154379,1,12,0:0:0:0:
256,192,155022,1,12,0:0:0:0:
256,192,156093,5,4,0:0:0:0:
256,192,156950,1,8,0:0:0:0:
256,192,157379,1,0,0:0:0:0:
256,192,157808,1,0,0:0:0:0:
256,192,158450,1,8,0:0:0:0:
256,192,159522,1,0,0:0:0:0:
256,192,160379,1,8,0:0:0:0:
256,192,161236,1,8,0:0:0:0:
256,192,161665,1,8,0:0:0:0:
256,192,162093,1,0,0:0:0:0:
256,192,162522,1,8,0:0:0:0:
256,192,162950,1,4,0:0:0:0:
256,192,163808,1,8,0:0:0:0:
256,192,164236,1,8,0:0:0:0:
256,192,164665,1,0,0:0:0:0:
256,192,165308,1,8,0:0:0:0:
256,192,166379,1,8,0:0:0:0:
256,192,167236,1,0,0:0:0:0:
256,192,167665,1,0,0:0:0:0:
256,192,168093,1,8,0:0:0:0:
256,192,168736,1,8,0:0:0:0:
256,192,169379,1,12,0:0:0:0:
256,192,169808,1,4,0:0:0:0:
256,192,171522,5,12,0:0:0:0:
256,192,172379,1,0,0:0:0:0:
256,192,172808,1,8,0:0:0:0:
256,192,173236,1,0,0:0:0:0:
256,192,173879,1,8,0:0:0:0:
256,192,174950,1,0,0:0:0:0:
256,192,175379,1,0,0:0:0:0:
256,192,175808,1,8,0:0:0:0:
256,192,176665,1,8,0:0:0:0:
256,192,177093,1,8,0:0:0:0:
256,192,177522,1,0,0:0:0:0:
256,192,177950,1,8,0:0:0:0:
256,192,178379,1,4,0:0:0:0:
256,192,179236,1,8,0:0:0:0:
256,192,179665,1,0,0:0:0:0:
256,192,180093,1,0,0:0:0:0:
256,192,180736,1,8,0:0:0:0:
256,192,181808,1,8,0:0:0:0:
256,192,182236,1,0,0:0:0:0:
256,192,182665,1,8,0:0:0:0:
256,192,183093,1,8,0:0:0:0:
256,192,183522,1,0,0:0:0:0:
256,192,184165,1,8,0:0:0:0:
256,192,185236,5,4,0:0:0:0:
256,192,186093,1,8,0:0:0:0:
256,192,186522,1,8,0:0:0:0:
256,192,186950,1,0,0:0:0:0:
256,192,187593,1,8,0:0:0:0:
256,192,188665,1,0,0:0:0:0:
256,192,189093,1,0,0:0:0:0:
256,192,189522,1,8,0:0:0:0:
256,192,190379,1,0,0:0:0:0:
256,192,190808,1,8,0:0:0:0:
288,192,191236,1,8,0:0:0:0:
288,192,191665,1,8,0:0:0:0:
288,192,192093,1,4,0:0:0:0:
288,192,192950,1,8,0:0:0:0:
288,192,193379,1,0,0:0:0:0:
288,192,193808,1,0,0:0:0:0:
288,192,194450,1,8,0:0:0:0:
256,192,195522,1,8,0:0:0:0:
256,192,195950,1,8,0:0:0:0:
256,192,196379,1,0,0:0:0:0:
256,192,196808,1,0,0:0:0:0:
256,192,197236,1,8,0:0:0:0:
256,192,198093,1,0,0:0:0:0:
256,192,198522,1,8,0:0:0:0:
256,192,198950,1,4,0:0:0:0:
256,192,199808,1,0,0:0:0:0:
256,192,200236,1,0,0:0:0:0:
256,192,200665,1,8,0:0:0:0:
256,192,201308,1,8,0:0:0:0:
256,192,201950,1,12,0:0:0:0:
256,192,202379,5,4,0:0:0:0:
256,192,203129,1,0,0:0:0:0:
256,192,203665,1,8,0:0:0:0:
256,192,204093,1,8,0:0:0:0:
256,192,205165,1,8,0:0:0:0:
256,192,205808,1,0,0:0:0:0:
256,192,206558,1,0,0:0:0:0:
256,192,207093,1,8,0:0:0:0:
256,192,207522,1,4,0:0:0:0:
256,192,208272,1,4,0:0:0:0:
256,192,208808,1,8,0:0:0:0:
256,192,209236,1,4,0:0:0:0:
256,192,209986,1,0,0:0:0:0:
256,192,210522,1,0,0:0:0:0:
256,192,210950,1,8,0:0:0:0:
256,192,212022,1,8,0:0:0:0:
256,192,212665,1,0,0:0:0:0:
256,192,213415,1,0,0:0:0:0:
256,192,213950,1,0,0:0:0:0:
256,192,214379,1,12,0:0:0:0:
256,192,215129,1,4,0:0:0:0:
256,192,215665,1,8,0:0:0:0:
