osu file format v14

[General]
AudioFilename: audio.mp3
AudioLeadIn: 0
PreviewTime: 141648
Countdown: 0
SampleSet: Soft
StackLeniency: 0.7
Mode: 2
LetterboxInBreaks: 0
WidescreenStoryboard: 1

[Editor]
DistanceSpacing: 0.2
BeatDivisor: 4
GridSize: 32
TimelineZoom: 2.1

[Metadata]
Title:Moonlight at midday
TitleUnicode:真昼の月明かり
Artist:Tsukuyomi
ArtistUnicode:月詠み
Creator:Crowley
Version:Rain
Source:
Tags:Mahiru no Tsukiakari ユリイカノン ユリイ・カノン yurry cannon YurryCanon mikoto エポック epoch とうかさ toukasa japanese rock j-rock jrock j-pop jpop pop Mononymous
BeatmapID:3154744
BeatmapSetID:1539314

[Difficulty]
HPDrainRate:6
CircleSize:4
OverallDifficulty:8.8
ApproachRate:8.8
SliderMultiplier:2.25
SliderTickRate:2

[Events]
//Background and Video events
0,0,"bg.jpg",0,0
//Break Periods
//Storyboard Layer 0 (Background)
//Storyboard Layer 1 (Fail)
//Storyboard Layer 2 (Pass)
//Storyboard Layer 3 (Foreground)
//Storyboard Layer 4 (Overlay)
//Storyboard Sound Samples

[TimingPoints]
6,428.571428571429,4,2,1,50,1,0
1720,-100,4,2,1,60,0,0
4184,-100,4,2,2,60,0,0
4398,-100,4,2,1,60,0,0
11041,-100,4,2,2,60,0,0
11255,-100,4,2,1,60,0,0
13720,-100,4,2,1,55,0,0
15006,-100,4,2,1,75,0,0
15434,-100,4,2,1,80,0,1
15648,-100,4,2,1,80,0,0
18220,-100,4,2,1,80,0,0
18648,-100,4,2,1,80,0,0
25077,-100,4,2,1,80,0,0
25505,-100,4,2,1,80,0,0
29148,-100,4,2,1,60,0,0
31613,-100,4,2,2,60,0,0
31827,-100,4,2,1,60,0,0
32898,-100,4,2,2,60,0,0
33112,-100,4,2,1,60,0,0
38470,-100,4,2,2,60,0,0
38684,-100,4,2,1,60,0,0
42863,-100,4,2,1,65,0,0
53898,-100,4,2,1,65,0,0
54434,-100,4,2,1,65,0,0
54863,-100,4,2,1,65,0,0
55077,-100,4,2,1,65,0,0
55291,-100,4,2,1,65,0,0
56577,-100,4,2,1,85,0,1
68577,-100,4,2,1,85,0,1
68791,-100,4,2,1,85,0,1
69006,-100,4,2,1,85,0,1
69434,-100,4,2,1,85,0,1
82291,-100,4,2,1,75,0,0
83577,-100,4,2,1,85,0,0
84006,-100,4,2,1,80,0,1
84220,-100,4,2,1,80,0,0
86791,-100,4,2,1,80,0,0
87219,-100,4,2,1,80,0,0
93648,-100,4,2,1,80,0,0
94076,-100,4,2,1,80,0,0
97719,-100,4,2,1,65,0,0
107363,-100,4,2,1,70,0,0
108006,-100,4,2,1,75,0,0
109720,-100,4,2,1,80,0,0
111434,-100,4,2,23,80,0,1
111541,-100,4,2,1,80,0,1
111756,-100,4,2,1,80,0,1
111863,-100,4,2,23,80,0,1
111970,-100,4,2,22,80,0,1
112077,-100,4,2,20,80,0,1
112184,-100,4,2,14,80,0,1
112291,-100,4,2,15,80,0,1
112506,-100,4,2,1,80,0,1
112720,-100,4,2,16,80,0,1
112827,-100,4,2,17,80,0,1
112934,-100,4,2,15,80,0,1
113041,-100,4,2,18,80,0,1
113148,-100,4,2,19,80,0,1
113256,-100,4,2,1,80,0,1
113363,-100,4,2,20,80,0,1
113470,-100,4,2,1,80,0,1
113577,-100,4,2,21,80,0,1
113684,-100,4,2,1,80,0,1
113791,-100,4,2,22,80,0,1
113898,-100,4,2,1,80,0,1
114006,-100,4,2,14,80,0,1
114220,-100,4,2,1,80,0,1
114434,-100,4,2,17,80,0,1
114648,-100,4,2,1,80,0,1
114863,-100,4,2,22,80,0,1
114970,-100,4,2,1,80,0,1
115077,-100,4,2,23,80,0,1
115184,-100,4,2,1,80,0,1
115291,-100,4,2,20,80,0,1
115398,-100,4,2,23,80,0,1
115506,-100,4,2,20,80,0,1
115613,-100,4,2,18,80,0,1
115720,-100,4,2,19,80,0,1
115827,-100,4,2,1,80,0,1
115934,-100,4,2,17,80,0,1
116041,-100,4,2,1,80,0,1
116148,-100,4,2,14,80,0,1
116256,-100,4,2,15,80,0,1
116363,-100,4,2,19,80,0,1
116470,-100,4,2,25,80,0,1
116577,-100,4,2,23,80,0,1
116684,-100,4,2,22,80,0,1
116791,-100,4,2,19,80,0,1
116898,-100,4,2,14,80,0,1
117006,-100,4,2,22,80,0,1
117113,-100,4,2,20,80,0,1
117220,-100,4,2,14,80,0,1
117327,-100,4,2,26,80,0,1
117434,-100,4,2,22,80,0,1
117541,-100,4,2,14,80,0,1
117648,-100,4,2,26,80,0,1
117756,-100,4,2,27,80,0,1
117863,-100,4,2,16,80,0,1
117970,-100,4,2,17,80,0,1
118077,-100,4,2,15,80,0,1
118184,-100,4,2,1,80,0,1
118291,-100,4,2,14,80,0,1
118398,-100,4,2,1,80,0,1
118506,-100,4,2,19,80,0,1
118613,-100,4,2,15,80,0,1
118720,-100,4,2,14,80,0,1
118827,-100,4,2,1,80,0,1
118934,-100,4,2,26,80,0,1
119041,-100,4,2,1,80,0,1
119148,-100,4,2,16,80,0,1
119256,-100,4,2,1,80,0,1
119363,-100,4,2,17,80,0,1
119470,-100,4,2,16,80,0,1
119577,-100,4,2,17,80,0,1
119684,-100,4,2,1,80,0,1
119791,-100,4,2,14,80,0,1
119898,-100,4,2,1,80,0,1
120006,-100,4,2,21,80,0,1
120113,-100,4,2,1,80,0,1
120220,-100,4,2,14,80,0,1
120327,-100,4,2,1,80,0,1
120434,-100,4,2,17,80,0,1
120541,-100,4,2,1,80,0,1
120648,-100,4,2,26,80,0,1
120756,-100,4,2,2,80,0,1
120970,-100,4,2,1,80,0,1
121077,-100,4,2,16,80,0,1
121184,-100,4,2,1,80,0,1
121291,-100,4,2,17,80,0,1
121398,-100,4,2,1,80,0,1
121506,-100,4,2,26,80,0,1
121613,-100,4,2,1,80,0,1
121720,-100,4,2,27,80,0,1
121934,-100,4,2,16,80,0,1
122041,-100,4,2,27,80,0,1
122148,-100,4,2,26,80,0,1
122256,-100,4,2,1,80,0,1
122363,-100,4,2,17,80,0,1
122470,-100,4,2,26,80,0,1
122577,-100,4,2,17,80,0,1
122684,-100,4,2,1,80,0,1
122791,-100,4,2,14,80,0,1
122898,-100,4,2,17,80,0,1
123006,-100,4,2,15,80,0,1
123113,-100,4,2,1,80,0,1
123220,-100,4,2,19,80,0,1
123327,-100,4,2,15,80,0,1
123434,-100,4,2,14,80,0,1
123541,-100,4,2,1,80,0,1
123648,-100,4,2,19,80,0,1
123756,-100,4,2,22,70,0,1
123863,-100,4,2,17,80,0,1
123970,-100,4,2,1,80,0,1
124077,-100,4,2,19,80,0,1
124184,-100,4,2,22,70,0,1
124291,-100,4,2,26,80,0,1
124398,-100,4,2,1,80,0,1
124506,-100,4,2,19,80,0,1
124613,-100,4,2,22,70,0,1
124720,-100,4,2,16,80,0,1
124827,-100,4,2,1,80,0,1
124934,-100,4,2,20,75,0,1
125041,-100,4,2,1,80,0,1
125148,-100,4,2,1,55,0,0
125256,-100,4,2,3,55,0,0
125470,-100,4,2,1,55,0,0
126970,-100,4,2,3,55,0,0
127184,-100,4,2,1,55,0,0
132113,-100,4,2,3,55,0,0
132327,-100,4,2,1,55,0,0
133827,-100,4,2,3,55,0,0
134041,-100,4,2,1,55,0,0
138863,-100,4,2,1,45,0,0
142291,-100,4,2,1,30,0,0
148506,-100,4,2,1,40,0,0
149148,-100,4,2,1,55,0,0
151720,-100,4,2,1,40,0,0
152148,-100,4,2,1,42,0,0
152577,-100,4,2,1,44,0,0
153006,-100,4,2,1,46,0,0
153434,-100,4,2,1,48,0,0
153863,-100,4,2,1,50,0,0
154291,-100,4,2,1,65,0,0
154505,-100,4,2,1,65,0,0
154719,-100,4,2,1,65,0,0
155363,-100,4,2,1,70,0,0
156006,-100,4,2,1,85,0,1
169720,-100,4,2,1,70,0,0
171434,-100,4,2,1,85,0,1
183863,-100,4,2,1,85,0,1
184291,-100,4,2,1,85,0,1
197577,-100,4,2,1,85,0,1
198005,-100,4,2,1,85,0,1
200577,-100,4,2,1,70,0,0
201863,-100,4,2,1,85,0,0
202291,-100,4,2,1,80,0,1
202506,-100,4,2,1,80,0,0
205077,-100,4,2,1,80,0,0
205505,-100,4,2,1,80,0,0
211934,-100,4,2,1,80,0,0
212362,-100,4,2,1,80,0,0
216006,-100,4,2,1,5,0,0

[Colours]
Combo1 : 0,0,160
Combo2 : 128,128,64
Combo3 : 255,128,128
Combo4 : 128,255,128

[HitObjects]
121,202,1077,6,0,L|267:202,2,112.5,2|2|2,0:0|0:0|0:0,0:0:0:0:
319,344,1720,6,0,P|382:315|297:217,1,225,2|2,1:2|1:2,0:0:0:0:
188,208,2363,1,2,0:0:0:0:
390,132,2577,2,0,L|501:131,1,56.25,2|0,1:2|0:0,0:0:0:0:
390,132,2791,1,0,0:0:0:0:
247,136,3006,2,0,L|247:260,1,112.5,2|2,1:2|0:0,0:0:0:0:
444,310,3434,6,0,L|313:310,2,112.5,2|2|2,1:2|0:0|1:2,0:0:0:0:
250,375,4077,2,0,P|215:339|318:231,1,225,2|2,0:0|0:0,0:0:0:0:
96,223,4720,2,0,L|96:50,1,168.75,2|0,1:2|0:0,0:0:0:0:
236,53,5148,6,0,P|254:117|113:175,1,225,2|2,1:2|1:2,0:0:0:0:
253,187,5791,1,2,0:0:0:0:
106,319,6006,1,2,1:2:0:0:
162,319,6113,1,0,0:0:0:0:
218,319,6220,1,2,0:0:0:0:
101,307,6434,2,0,L|101:186,1,112.5,0|2,1:0|0:0,0:0:0:0:
158,194,6756,1,0,0:0:0:0:
296,195,6863,6,0,L|418:196,2,112.5,2|2|2,1:2|0:0|1:2,0:0:0:0:
127,197,7506,2,0,L|128:118,1,56.25,2|0,0:0|0:0,0:0:0:0:
200,128,7720,1,2,1:2:0:0:
143,127,7827,1,0,0:0:0:0:
87,127,7934,1,0,0:0:0:0:
289,58,8148,2,0,L|424:58,1,112.5,2|2,1:2|0:0,0:0:0:0:
129,364,8577,6,0,P|80:340|160:226,1,225,4|2,0:1|1:2,0:0:0:0:
244,222,9220,1,2,0:0:0:0:
41,214,9434,2,0,L|41:84,1,112.5,2|0,1:2|0:0,0:0:0:0:
188,98,9863,2,0,L|49:97,1,112.5,2|2,1:2|0:0,0:0:0:0:
279,246,10291,6,0,L|397:246,2,112.5,2|2|2,1:2|0:0|1:2,0:0:0:0:
148,244,10934,2,0,P|119:206|229:83,1,225,2|2,0:0|0:0,0:0:0:0:
404,84,11577,2,0,P|460:130|375:177,1,168.75,2|0,1:2|0:0,0:0:0:0:
224,365,12006,5,4,1:0:0:0:
155,296,12220,1,0,1:0:0:0:
151,200,12434,1,2,1:2:0:0:
211,126,12648,1,2,1:2:0:0:
306,111,12863,1,2,1:2:0:0:
479,109,13077,1,2,1:2:0:0:
205,111,13291,1,2,1:2:0:0:
30,103,13505,1,2,1:2:0:0:
217,247,14791,6,0,L|217:185,2,37.5,0|0|0,1:0|1:0|1:0,0:0:0:0:
393,348,15006,2,0,P|432:329|364:244,1,168.75,8|0,1:0|0:0,0:0:0:0:
189,239,15434,6,0,L|29:240,1,112.5,6|2,1:2|0:0,0:0:0:0:
241,169,15863,1,10,1:2:0:0:
71,170,15970,2,0,L|68:41,1,112.5,2|2,0:0|0:0,0:0:0:0:
182,55,16291,2,0,L|271:56,1,56.25,0|2,1:0|0:0,0:0:0:0:
182,55,16506,1,2,3:2:0:0:
387,175,16720,2,0,L|505:175,1,112.5,10|2,0:0|3:2,0:0:0:0:
216,342,17148,6,0,L|72:343,2,112.5,2|2|10,1:2|3:2|0:0,0:0:0:0:
50,288,17684,2,0,P|27:272|80:202,1,112.5,2|2,0:0|0:0,0:0:0:0:
143,202,18006,2,0,L|228:203,1,56.25,0|0,1:0|0:0,0:0:0:0:
22,109,18220,1,8,3:0:0:0:
22,109,18434,1,8,1:3:0:0:
164,113,18648,2,0,L|83:113,1,56.25,0|0,3:0|0:0,0:0:0:0:
296,224,18863,6,0,L|424:224,1,112.5,2|2,1:2|3:2,0:0:0:0:
273,149,19291,1,10,0:0:0:0:
456,148,19398,2,0,P|486:196|416:226,1,112.5,2|2,0:0|0:0,0:0:0:0:
365,237,19720,1,0,1:0:0:0:
421,237,19827,1,0,0:0:0:0:
477,237,19934,1,2,3:2:0:0:
203,358,20148,2,0,L|69:358,1,112.5,14|2,0:0|3:2,0:0:0:0:
152,356,20470,1,0,0:0:0:0:
361,337,20577,6,0,P|393:316|347:258,1,112.5,6|10,1:2|0:0,0:0:0:0:
305,258,20898,1,2,0:0:0:0:
131,254,21006,2,0,L|20:254,1,56.25,2|0,1:2|0:0,0:0:0:0:
131,254,21220,1,2,0:0:0:0:
320,186,21327,2,0,L|144:186,1,168.75,6|2,0:0|1:2,0:0:0:0:
433,51,21863,2,0,L|432:171,1,112.5,14|10,1:2|0:0,0:0:0:0:
364,169,22184,1,8,0:0:0:0:
189,254,22291,6,0,L|321:254,2,112.5,6|2|10,1:2|0:0|0:0,0:0:0:0:
370,192,22827,2,0,P|398:162|360:93,1,112.5,2|2,0:0|0:0,0:0:0:0:
298,99,23148,2,0,L|226:98,1,56.25,0|2,1:0|0:0,0:0:0:0:
298,99,23363,1,2,3:2:0:0:
94,198,23577,2,0,L|94:71,1,112.5,10|2,0:0|3:2,0:0:0:0:
367,345,24006,6,0,L|515:346,2,112.5,2|2|10,1:2|3:2|0:0,0:0:0:0:
196,324,24541,2,0,L|356:325,1,112.5,2|2,0:0|0:0,0:0:0:0:
381,328,24863,2,0,L|307:328,1,56.25,0|0,1:0|0:0,0:0:0:0:
146,281,25077,1,8,3:0:0:0:
146,281,25291,1,8,1:3:0:0:
294,279,25506,2,0,L|205:279,1,56.25,0|0,3:0|0:0,0:0:0:0:
29,360,25720,6,0,L|189:360,2,112.5,2|2|10,1:2|3:2|0:0,0:0:0:0:
194,288,26256,2,0,L|333:289,1,112.5,2|2,0:0|0:0,0:0:0:0:
218,275,26577,2,0,L|147:274,1,56.25,0|2,1:0|0:0,0:0:0:0:
218,275,26791,1,2,3:2:0:0:
491,279,27006,2,0,L|501:144,1,112.5,14|2,0:0|3:2,0:0:0:0:
429,156,27327,1,0,0:0:0:0:
228,158,27434,6,0,L|86:157,1,112.5,6|2,1:2|1:2,0:0:0:0:
170,148,27756,1,2,0:0:0:0:
364,117,27863,2,0,L|452:117,1,56.25,10|0,0:0|0:0,0:0:0:0:
364,117,28077,1,2,1:2:0:0:
175,215,28184,2,0,L|325:215,1,112.5,6|0,1:2|1:0,0:0:0:0:
344,215,28506,1,2,1:2:0:0:
181,335,28720,2,0,L|99:335,1,56.25,14|8,0:0|0:0,0:0:0:0:
305,242,28934,2,0,L|387:242,1,56.25,10|8,0:0|0:0,0:0:0:0:
163,177,29148,5,4,1:0:0:0:
29,175,29363,2,0,L|24:55,2,112.5,2|2|2,0:0|1:2|0:0,0:0:0:0:
232,288,30006,2,0,P|264:239|162:137,1,225,2|10,1:2|1:2,0:0:0:0:
37,136,30648,1,2,0:0:0:0:
242,136,30863,6,0,L|406:135,2,112.5,2|2|2,1:2|0:0|1:2,0:0:0:0:
97,233,31506,2,0,L|336:232,1,225,2|2,0:2|0:0,0:0:0:0:
261,226,32041,1,8,0:0:0:0:
89,337,32148,2,0,L|92:214,1,112.5,10|2,1:2|0:0,0:0:0:0:
294,225,32577,5,2,1:2:0:0:
150,223,32791,2,0,P|117:189|217:69,1,225,2|2,0:0|0:0,0:0:0:0:
363,69,33434,2,0,L|371:182,1,112.5,2|0,1:2|0:0,0:0:0:0:
210,207,33863,2,0,L|339:207,1,112.5,10|2,1:2|0:0,0:0:0:0:
124,345,34291,6,0,L|-8:345,2,112.5,2|2|2,1:2|0:0|1:2,0:0:0:0:
244,346,34934,1,2,0:0:0:0:
122,346,35148,2,0,L|107:221,1,112.5,0|2,1:0|0:0,0:0:0:0:
182,225,35470,1,8,0:0:0:0:
350,212,35577,2,0,L|466:213,1,112.5,10|10,1:2|0:0,0:0:0:0:
186,118,36006,5,0,1:0:0:0:
62,116,36220,2,0,L|55:3,2,112.5,2|2|2,0:0|1:2|0:0,0:0:0:0:
221,116,36863,2,0,P|250:174|117:262,1,225,2|10,1:2|1:2,0:0:0:0:
293,275,37506,1,2,0:0:0:0:
85,363,37720,6,0,L|63:230,1,112.5,2|2,1:2|0:0,0:0:0:0:
185,222,38148,1,2,1:2:0:0:
392,193,38363,2,0,L|116:178,1,225,2|2,0:0|0:0,0:0:0:0:
99,176,38898,1,8,0:0:0:0:
287,119,39006,2,0,L|411:109,1,112.5,10|2,0:0|0:0,0:0:0:0:
196,40,39434,5,2,1:2:0:0:
67,81,39648,1,2,0:0:0:0:
27,211,39862,1,2,1:2:0:0:
109,318,40076,1,2,0:0:0:0:
244,313,40291,2,0,P|303:269|227:158,1,225,2|10,1:2|0:0,0:0:0:0:
75,163,40934,2,0,L|167:158,1,56.25,2|0,0:0|0:0,0:0:0:0:
303,143,41148,5,8,1:2:0:0:
489,137,41470,1,0,1:0:0:0:
303,143,41791,1,0,1:0:0:0:
21,349,42006,1,8,1:2:0:0:
21,349,42220,2,0,L|110:349,1,56.25
176,353,42434,2,0,L|176:177,1,168.75,2|0,3:2|0:0,0:0:0:0:
375,182,42863,5,4,0:1:0:0:
375,182,43077,2,0,L|309:182,1,56.25,2|2,0:0|0:0,0:0:0:0:
148,292,43291,2,0,L|67:292,1,56.25,10|0,0:0|0:0,0:0:0:0:
148,292,43506,1,2,3:2:0:0:
325,349,43613,1,2,0:0:0:0:
381,348,43720,1,0,1:0:0:0:
437,348,43827,1,2,0:0:0:0:
279,277,44041,1,2,0:0:0:0:
205,276,44148,2,0,L|69:276,1,112.5,10|2,0:0|3:2,0:0:0:0:
368,180,44577,5,2,1:2:0:0:
493,186,44791,2,0,L|500:104,1,56.25,2|2,3:2|0:0,0:0:0:0:
503,61,45006,2,0,L|375:43,1,112.5,10|2,0:0|3:2,0:0:0:0:
188,182,45434,2,0,L|318:174,2,112.5,2|0|8,1:2|3:0|0:0,0:0:0:0:
40,197,46077,1,2,3:2:0:0:
320,310,46291,5,2,1:2:0:0:
455,311,46506,2,0,L|372:309,1,56.25,2|0,3:2|0:0,0:0:0:0:
227,365,46720,2,0,L|144:365,1,56.25,10|2,0:0|0:0,0:0:0:0:
268,292,46934,2,0,L|267:209,1,56.25,2|2,3:2|0:0,0:0:0:0:
67,229,47148,1,2,1:2:0:0:
67,229,47363,1,2,3:2:0:0:
141,230,47470,1,2,0:0:0:0:
67,229,47577,2,0,L|67:94,1,112.5,10|2,0:0|3:2,0:0:0:0:
246,107,48006,6,0,L|115:107,2,112.5,2|2|2,1:2|3:2|1:2,0:0:0:0:
391,108,48648,1,10,3:2:0:0:
186,230,48863,2,0,L|279:229,1,56.25,2|8,1:2|0:0,0:0:0:0:
446,226,49077,1,0,3:0:0:0:
322,372,49291,1,8,0:0:0:0:
298,322,49398,1,8,0:0:0:0:
315,270,49505,1,0,3:0:0:0:
364,244,49612,1,0,0:0:0:0:
175,248,49720,5,4,1:0:0:0:
175,248,49934,1,2,3:2:0:0:
261,248,50041,1,2,0:0:0:0:
347,248,50148,1,10,0:0:0:0:
347,248,50363,1,2,3:2:0:0:
261,248,50470,1,2,0:0:0:0:
175,248,50577,1,2,1:2:0:0:
361,173,50684,2,0,L|494:174,1,112.5,0|2,0:0|0:0,0:0:0:0:
301,98,51006,2,0,L|301:-30,1,112.5,10|2,0:0|3:2,0:0:0:0:
29,196,51434,6,0,L|167:196,1,112.5,0|0,1:0|3:0,0:0:0:0:
221,199,51756,1,0,0:0:0:0:
141,196,51863,2,0,L|29:196,1,112.5,10|2,0:0|3:2,0:0:0:0:
230,108,52291,1,2,1:2:0:0:
173,107,52398,1,0,0:0:0:0:
117,106,52505,1,0,3:0:0:0:
309,29,52720,1,10,0:0:0:0:
326,99,52827,1,8,0:0:0:0:
286,160,52934,1,0,3:0:0:0:
214,173,53041,1,0,0:0:0:0:
400,231,53148,6,0,L|418:89,1,112.5,4|2,0:1|1:2,0:0:0:0:
344,104,53470,1,0,1:0:0:0:
278,95,53577,2,0,L|423:85,1,112.5,10|2,1:2|1:2,0:0:0:0:
163,333,53898,2,0,P|121:310|188:219,1,168.75,4|2,1:0|1:2,0:0:0:0:
228,203,54327,1,0,1:0:0:0:
392,195,54434,2,0,L|455:184,1,56.25,10|8,0:0|0:0,0:0:0:0:
353,269,54648,2,0,L|279:258,1,56.25,10|8,0:0|0:0,0:0:0:0:
481,206,54863,6,0,L|499:82,1,112.5,4|10,0:1|0:0,0:0:0:0:
180,366,55291,2,0,L|162:242,1,112.5,10|10,0:0|0:0,0:0:0:0:
163,254,55934,5,2,0:0:0:0:
163,254,56148,1,2,0:0:0:0:
163,254,56362,1,2,0:0:0:0:
471,258,56577,6,0,P|498:195|421:140,1,168.75,6|0,0:0|0:0,0:0:0:0:
339,136,57006,2,0,L|480:136,1,112.5,10|2,0:0|3:2,0:0:0:0:
175,238,57434,2,0,L|70:237,1,56.25,2|0,1:2|0:0,0:0:0:0:
175,238,57648,1,0,3:0:0:0:
313,235,57863,1,10,0:0:0:0:
175,238,58077,1,2,3:2:0:0:
460,322,58291,6,0,L|300:320,2,112.5,2|2|10,1:2|3:2|0:0,0:0:0:0:
258,373,58934,2,0,L|251:297,1,56.25,2|8,3:2|0:0,0:0:0:0:
328,295,59148,2,0,L|321:219,1,56.25,0|8,1:0|0:0,0:0:0:0:
244,222,59363,1,2,3:2:0:0:
443,201,59577,2,0,P|482:155|399:83,1,168.75,10|0,0:0|0:0,0:0:0:0:
210,62,60006,6,0,L|391:64,1,168.75,2|2,1:2|0:0,0:0:0:0:
182,180,60434,2,0,L|54:180,1,112.5,10|2,0:0|3:2,0:0:0:0:
254,271,60863,2,0,L|327:271,1,56.25,2|0,1:2|0:0,0:0:0:0:
254,271,61077,1,2,3:2:0:0:
108,272,61291,2,0,L|100:148,1,112.5,8|2,0:0|3:2,0:0:0:0:
385,128,61720,6,0,L|261:127,2,112.5,2|2|10,1:2|3:2|0:0,0:0:0:0:
273,222,62363,2,0,L|198:223,1,56.25,2|8,3:2|0:0,0:0:0:0:
387,164,62577,2,0,L|451:163,1,56.25,2|8,1:2|0:0,0:0:0:0:
384,169,62791,1,0,3:0:0:0:
209,308,63006,2,0,L|273:308,1,56.25,10|8,0:0|0:0,0:0:0:0:
364,358,63220,2,0,L|292:358,1,56.25,2|0,3:2|0:0,0:0:0:0:
88,366,63434,6,0,P|56:349|105:240,1,168.75,6|0,0:0|0:0,0:0:0:0:
183,235,63863,2,0,L|38:226,1,112.5,10|2,0:0|3:2,0:0:0:0:
351,64,64291,2,0,L|426:63,1,56.25,2|0,1:2|0:0,0:0:0:0:
351,64,64506,1,0,3:0:0:0:
189,192,64720,1,10,0:0:0:0:
320,191,64934,1,2,3:2:0:0:
33,373,65148,6,0,L|31:251,1,112.5,2|2,1:2|3:2,0:0:0:0:
90,250,65470,1,0,0:0:0:0:
149,243,65577,1,10,0:0:0:0:
351,200,65791,2,0,L|258:199,1,56.25,2|8,3:2|0:0,0:0:0:0:
199,269,66006,2,0,L|106:268,1,56.25,0|8,1:0|0:0,0:0:0:0:
203,272,66220,1,2,0:0:0:0:
484,358,66434,2,0,L|491:161,1,168.75,10|0,0:0|0:0,0:0:0:0:
320,184,66863,6,0,P|293:219|363:301,1,168.75,4|0,0:1|0:0,0:0:0:0:
439,306,67291,2,0,L|285:304,1,112.5,10|2,0:0|3:2,0:0:0:0:
146,359,67720,2,0,L|296:358,2,112.5,2|2|10,1:2|3:2|0:0,0:0:0:0:
319,297,68363,1,2,3:2:0:0:
45,295,68577,6,0,L|30:169,1,112.5,10|10,1:2|3:2,0:0:0:0:
326,178,69006,2,0,L|337:56,1,112.5,10|10,1:2|3:2,0:0:0:0:
56,150,69434,1,0,1:0:0:0:
50,94,69541,1,8,0:0:0:0:
45,38,69648,1,10,0:0:0:0:
108,31,69756,1,0,0:0:0:0:
314,126,69863,2,0,L|381:126,1,56.25,2|8,1:2|0:0,0:0:0:0:
314,126,70077,1,2,3:2:0:0:
41,131,70291,6,0,L|239:131,1,168.75,6|0,0:0|0:0,0:0:0:0:
106,142,70720,2,0,P|74:186|127:235,1,112.5,10|2,0:0|3:2,0:0:0:0:
375,260,71148,1,2,1:2:0:0:
318,259,71255,1,0,0:0:0:0:
262,258,71362,1,0,3:0:0:0:
439,173,71577,2,0,L|440:317,1,112.5,10|2,0:0|3:2,0:0:0:0:
166,354,72006,6,0,L|325:353,2,112.5,2|2|10,1:2|3:2|0:0,0:0:0:0:
368,296,72648,2,0,L|375:211,1,56.25,2|8,3:2|0:0,0:0:0:0:
298,225,72863,2,0,L|305:140,1,56.25,0|8,1:0|0:0,0:0:0:0:
385,142,73077,1,2,3:2:0:0:
206,142,73291,2,0,P|148:173|192:273,1,168.75,10|0,0:0|0:0,0:0:0:0:
380,299,73720,6,0,L|172:298,1,168.75,2|2,1:2|0:0,0:0:0:0:
417,232,74148,2,0,L|425:113,1,112.5,10|2,0:0|3:2,0:0:0:0:
257,110,74577,1,2,1:2:0:0:
313,110,74684,1,0,0:0:0:0:
369,110,74791,1,2,3:2:0:0:
220,203,75006,2,0,L|88:205,1,112.5,8|2,0:0|3:2,0:0:0:0:
380,353,75434,6,0,L|388:230,1,112.5,2|2,1:2|3:2,0:0:0:0:
317,231,75756,1,0,0:0:0:0:
208,217,75863,2,0,L|89:206,1,112.5,10|2,0:0|3:2,0:0:0:0:
170,207,76184,1,8,0:0:0:0:
387,187,76291,2,0,L|459:188,1,56.25,0|8,1:0|0:0,0:0:0:0:
387,187,76506,1,0,3:0:0:0:
228,293,76720,2,0,L|302:292,1,56.25,10|8,0:0|0:0,0:0:0:0:
376,343,76934,2,0,L|293:343,1,56.25,10|8,0:0|0:0,0:0:0:0:
112,366,77148,6,0,P|81:346|161:245,1,168.75,6|0,0:0|0:0,0:0:0:0:
191,224,77577,2,0,L|44:227,1,112.5,10|2,0:0|3:2,0:0:0:0:
358,109,78006,1,2,1:2:0:0:
301,109,78113,1,0,0:0:0:0:
245,109,78220,1,0,3:0:0:0:
447,247,78434,1,10,0:0:0:0:
447,247,78648,1,2,3:2:0:0:
175,351,78863,6,0,L|44:352,2,112.5,2|2|10,1:2|3:2|0:0,0:0:0:0:
360,296,79506,2,0,L|273:294,1,56.25,2|8,3:2|0:0,0:0:0:0:
175,351,79720,2,0,L|111:354,1,56.25,0|8,1:0|0:0,0:0:0:0:
175,351,79934,1,2,3:2:0:0:
452,354,80148,2,0,P|494:305|434:235,1,168.75,8|0,0:0|0:0,0:0:0:0:
238,212,80577,6,0,L|412:213,1,168.75,4|0,0:1|0:0,0:0:0:0:
330,197,81006,2,0,L|205:197,1,112.5,10|2,0:0|3:2,0:0:0:0:
419,138,81434,2,0,L|423:16,1,112.5,2|2,1:2|3:2,0:0:0:0:
128,298,81863,2,0,L|41:297,1,56.25,8|8,0:0|0:0,0:0:0:0:
128,298,82077,1,0,3:0:0:0:
400,297,82291,5,10,1:2:0:0:
128,298,82506,1,10,1:2:0:0:
128,298,82934,5,10,1:2:0:0:
400,301,83149,1,10,1:2:0:0:
246,299,83363,2,0,L|178:297,1,56.25,0|0,1:0|1:0,0:0:0:0:
395,233,83577,2,0,P|434:192|361:118,1,168.75,8|0,1:0|0:0,0:0:0:0:
180,116,84006,6,0,L|41:116,2,112.5,6|2|10,0:0|0:0|0:0,0:0:0:0:
360,117,84541,2,0,P|394:152|333:186,1,112.5,2|2,0:0|0:0,0:0:0:0:
256,194,84863,2,0,L|192:194,1,56.25,0|2,1:0|0:0,0:0:0:0:
256,194,85077,1,2,3:2:0:0:
56,296,85291,2,0,L|55:171,1,112.5,10|2,0:0|3:2,0:0:0:0:
329,177,85720,6,0,L|445:178,2,112.5,2|2|10,1:2|3:2|0:0,0:0:0:0:
160,177,86256,2,0,L|286:177,1,112.5,2|2,0:0|0:0,0:0:0:0:
375,111,86577,2,0,L|293:111,1,56.25,0|0,1:0|0:0,0:0:0:0:
132,164,86791,1,8,3:0:0:0:
132,164,87006,1,8,1:3:0:0:
251,168,87220,2,0,L|190:168,1,56.25,0|0,3:0|0:0,0:0:0:0:
376,306,87434,6,0,L|523:306,1,112.5,2|2,1:2|3:2,0:0:0:0:
351,223,87863,1,10,0:0:0:0:
170,219,87970,2,0,P|155:188|221:138,1,112.5,2|2,0:0|0:0,0:0:0:0:
284,137,88291,2,0,L|371:137,1,56.25,0|2,1:0|0:0,0:0:0:0:
284,137,88506,1,2,3:2:0:0:
11,138,88720,2,0,L|26:281,1,112.5,14|2,0:0|3:2,0:0:0:0:
79,249,89041,1,0,0:0:0:0:
272,335,89148,6,0,L|152:335,1,112.5,6|10,1:2|0:0,0:0:0:0:
110,334,89470,1,2,0:0:0:0:
299,262,89577,2,0,L|303:198,1,56.25,10|0,0:0|0:0,0:0:0:0:
245,202,89791,1,2,1:2:0:0:
454,149,89898,2,0,P|454:209|355:244,1,168.75,4|2,1:2|1:2,0:0:0:0:
79,270,90434,2,0,L|207:270,1,112.5,14|10,0:0|0:0,0:0:0:0:
254,271,90756,1,8,1:2:0:0:
63,367,90863,6,0,P|32:340|76:293,1,112.5,6|2,0:0|3:2,0:0:0:0:
208,291,91291,1,10,0:0:0:0:
399,297,91398,2,0,L|241:297,1,112.5,2|2,0:0|0:0,0:0:0:0:
382,284,91720,2,0,L|455:284,1,56.25,0|2,1:0|0:0,0:0:0:0:
382,284,91934,1,2,3:2:0:0:
177,283,92148,2,0,L|178:144,1,112.5,10|2,0:0|3:2,0:0:0:0:
483,159,92577,6,0,L|361:159,2,112.5,2|2|10,1:2|3:2|0:0,0:0:0:0:
294,92,93113,2,0,L|151:94,1,112.5,2|2,0:0|0:0,0:0:0:0:
271,118,93434,2,0,L|271:190,1,56.25,0|0,1:0|0:0,0:0:0:0:
83,203,93648,1,8,3:0:0:0:
83,203,93863,1,8,1:3:0:0:
248,205,94077,2,0,L|164:205,1,56.25,0|0,3:0|0:0,0:0:0:0:
18,296,94291,6,0,L|158:295,2,112.5,2|2|10,1:2|3:2|0:0,0:0:0:0:
185,369,94827,2,0,P|221:334|166:300,1,112.5,2|2,0:0|0:0,0:0:0:0:
80,296,95148,2,0,L|9:297,1,56.25,0|0,1:0|0:0,0:0:0:0:
80,296,95363,1,2,3:2:0:0:
353,218,95577,2,0,L|201:219,1,112.5,14|2,0:0|3:2,0:0:0:0:
185,218,95898,1,0,0:0:0:0:
376,317,96006,6,0,P|409:286|352:242,1,112.5,6|10,1:2|3:2,0:0:0:0:
315,238,96327,1,2,0:0:0:0:
139,327,96434,2,0,L|137:254,1,56.25,10|0,0:0|0:0,0:0:0:0:
193,264,96648,1,2,1:2:0:0:
396,263,96756,2,0,L|257:264,1,112.5,6|0,1:2|1:0,0:0:0:0:
215,262,97077,1,2,0:0:0:0:
368,153,97291,2,0,L|468:153,1,56.25,14|8,0:0|0:0,0:0:0:0:
252,335,97506,2,0,L|177:334,1,56.25,10|8,0:0|0:0,0:0:0:0:
369,255,97720,5,4,0:1:0:0:
479,257,97934,2,0,L|489:122,2,112.5,2|10|2,0:0|0:0|0:0,0:0:0:0:
276,362,98577,2,0,P|249:326|365:215,1,225,2|10,1:2|0:0,0:0:0:0:
460,211,99220,1,2,0:0:0:0:
258,331,99434,6,0,L|113:330,2,112.5,2|2|10,1:2|0:0|0:0,0:0:0:0:
88,257,100077,2,0,L|80:199,1,56.25,2|0,0:0|0:0,0:0:0:0:
72,124,100291,2,0,L|206:95,1,112.5,0|2,1:0|3:2,0:0:0:0:
329,240,100720,2,0,L|195:211,1,112.5,10|2,0:0|0:0,0:0:0:0:
492,133,101148,6,0,L|354:133,2,112.5,2|2|10,1:2|0:0|0:0,0:0:0:0:
492,133,101791,1,2,0:0:0:0:
414,133,101898,1,0,0:0:0:0:
336,133,102006,1,2,1:2:0:0:
94,229,102434,1,8,0:0:0:0:
243,229,102648,1,2,0:0:0:0:
40,330,102863,6,0,L|40:198,1,112.5,2|2,1:2|3:2,0:0:0:0:
161,209,103291,1,10,0:0:0:0:
31,189,103506,2,0,L|122:179,1,56.25,2|0,1:2|3:0,0:0:0:0:
162,180,103720,2,0,L|170:100,1,56.25,2|0,1:2|0:0,0:0:0:0:
164,186,103934,1,2,3:2:0:0:
326,299,104148,2,0,L|173:300,1,112.5,10|2,0:0|3:2,0:0:0:0:
488,233,104577,5,0,1:0:0:0:
365,229,104791,2,0,L|350:100,2,112.5,2|10|2,0:0|0:0|0:0,0:0:0:0:
162,92,105434,2,0,L|421:91,1,225,2|10,1:2|0:0,0:0:0:0:
501,93,106077,1,2,0:0:0:0:
298,215,106291,6,0,L|163:215,2,112.5,0|2|10,1:0|0:0|0:0,0:0:0:0:
151,339,106934,2,0,L|65:338,1,56.25,2|0,0:0|0:0,0:0:0:0:
175,268,107148,2,0,L|303:268,1,112.5,0|2,1:0|3:2,0:0:0:0:
12,205,107577,2,0,L|13:83,1,112.5,10|2,1:2|3:2,0:0:0:0:
298,73,108006,6,0,P|330:126|208:202,1,225,4|8,1:0|0:0,0:0:0:0:
363,209,108648,1,2,0:0:0:0:
199,331,108863,2,0,L|51:332,1,112.5,2|0,1:2|0:0,0:0:0:0:
144,324,109184,1,0,0:0:0:0:
330,278,109291,2,0,L|459:277,1,112.5,12|2,0:0|0:0,0:0:0:0:
149,221,109720,6,0,L|66:221,1,56.25,2|8,1:2|1:2,0:0:0:0:
191,149,109934,1,0,3:0:0:0:
341,148,110148,2,0,L|405:148,1,56.25,10|8,1:2|0:0,0:0:0:0:
296,83,110363,2,0,L|209:83,1,56.25,10|8,3:2|0:0,0:0:0:0:
453,20,110577,1,4,0:1:0:0:
469,72,110684,1,0,0:0:0:0:
443,120,110791,1,8,0:0:0:0:
390,135,110898,1,8,0:0:0:0:
219,220,111006,2,0,L|349:220,1,112.5,10|0,1:2|1:0,0:0:0:0:
394,222,111327,1,0,1:0:0:0:
192,363,111434,6,0,P|144:333|197:229,1,168.75,6|0,0:0|0:0,0:0:0:0:
235,207,111863,2,0,L|312:197,1,56.25,10|2,0:0|0:0,0:0:0:0:
211,178,112077,2,0,L|122:171,1,56.25,2|2,3:2|0:0,0:0:0:0:
343,97,112291,2,0,L|488:85,1,112.5,2|2,1:2|0:0,0:0:0:0:
299,35,112720,2,0,L|217:34,1,56.25,10|2,0:0|0:0,0:0:0:0:
421,160,112934,2,0,L|508:158,1,56.25,2|2,3:2|0:0,0:0:0:0:
284,311,113148,6,0,P|254:288|314:234,1,112.5,2|2,1:2|3:2,0:0:0:0:
337,227,113470,1,0,0:0:0:0:
457,230,113577,2,0,L|459:108,1,112.5,10|2,0:0|0:0,0:0:0:0:
379,112,113898,1,0,3:0:0:0:
210,187,114006,2,0,L|61:172,1,112.5,2|0,1:2|3:0,0:0:0:0:
297,105,114434,2,0,L|448:83,1,112.5,10|0,0:0|3:0,0:0:0:0:
346,87,114756,1,0,0:0:0:0:
164,84,114863,6,0,L|172:220,1,112.5,2|2,1:2|3:2,0:0:0:0:
317,208,115291,1,10,0:0:0:0:
280,272,115398,1,2,0:0:0:0:
214,306,115505,1,2,0:0:0:0:
140,299,115612,1,2,3:2:0:0:
309,340,115720,2,0,L|451:339,1,112.5,2|2,1:2|3:2,0:0:0:0:
219,261,116148,2,0,L|298:261,1,56.25,10|2,0:0|0:0,0:0:0:0:
448,171,116363,2,0,L|353:171,1,56.25,2|2,3:2|0:0,0:0:0:0:
196,360,116577,5,2,1:2:0:0:
160,297,116684,1,2,0:0:0:0:
192,232,116791,1,2,3:2:0:0:
263,222,116898,1,2,0:0:0:0:
70,208,117006,2,0,L|3:209,2,56.25,10|2|2,0:0|0:0|0:0,0:0:0:0:
126,208,117327,1,2,0:0:0:0:
291,209,117434,2,0,L|304:129,1,56.25,10|10,0:0|0:0,0:0:0:0:
190,146,117648,2,0,L|177:66,1,56.25,2|2,3:2|0:0,0:0:0:0:
373,47,117863,2,0,L|445:46,1,56.25,10|10,0:0|0:0,0:0:0:0:
259,194,118077,2,0,L|166:194,1,56.25,2|0,3:2|0:0,0:0:0:0:
376,349,118291,5,6,0:0:0:0:
490,334,118506,2,0,L|397:334,1,56.25,2|2,0:0|0:0,0:0:0:0:
224,374,118720,2,0,L|85:375,2,112.5,10|2|2,0:0|3:2|1:2,0:0:0:0:
23,300,119363,2,0,L|105:301,1,56.25,2|2,3:2|0:0,0:0:0:0:
250,234,119577,2,0,L|127:234,1,112.5,10|2,0:0|3:2,0:0:0:0:
421,149,120006,6,0,L|432:33,1,112.5,2|2,1:2|3:2,0:0:0:0:
312,22,120434,1,10,0:0:0:0:
110,14,120648,2,0,P|81:72|200:158,1,225,2|2,3:2|3:2,0:0:0:0:
457,158,121291,2,0,L|465:317,1,112.5,10|2,0:0|3:2,0:0:0:0:
186,355,121720,6,0,L|60:372,1,112.5,2|2,1:2|3:2,0:0:0:0:
157,347,122041,1,2,0:0:0:0:
325,323,122148,2,0,P|352:283|302:227,1,112.5,10|2,0:0|3:2,0:0:0:0:
247,230,122470,1,2,0:0:0:0:
148,225,122577,2,0,P|121:185|171:129,1,112.5,2|2,1:2|3:2,0:0:0:0:
202,127,122899,1,2,0:0:0:0:
397,118,123006,1,14,0:0:0:0:
302,115,123220,2,0,L|377:115,1,56.25,2|2,0:0|0:0,0:0:0:0:
146,294,123434,5,10,1:2:0:0:
110,230,123541,1,8,0:0:0:0:
141,165,123648,1,2,3:2:0:0:
212,152,123755,1,2,0:0:0:0:
399,204,123863,2,0,L|260:203,1,112.5,14|2,3:2|1:2,0:0:0:0:
117,330,124184,2,0,L|277:331,1,112.5,14|8,0:0|0:0,0:0:0:0:
305,329,124506,2,0,L|305:254,1,56.25,10|2,0:0|0:0,0:0:0:0:
127,223,124720,2,0,L|62:222,1,56.25,10|0,0:0|1:0,0:0:0:0:
287,124,124934,2,0,L|352:123,1,56.25,2|0,1:2|1:0,0:0:0:0:
90,315,125148,6,0,P|65:284|175:168,1,225,4|0,1:0|1:0,0:0:0:0:
34,160,125791,1,2,0:0:0:0:
186,251,126006,2,0,L|317:250,2,112.5,2|0|0,1:2|0:0|1:0,0:0:0:0:
320,170,126648,2,0,L|395:169,1,56.25,2|0,0:0|0:0,0:0:0:0:
223,76,126863,6,0,P|162:102|228:213,1,225,2|2,1:2|1:2,0:0:0:0:
330,217,127506,1,0,0:0:0:0:
179,363,127720,2,0,L|180:241,1,112.5,2|0,1:2|0:0,0:0:0:0:
314,245,128148,1,2,1:2:0:0:
180,242,128363,1,2,0:0:0:0:
468,54,128577,6,0,L|321:53,3,112.5,2|0|2|2,1:2|0:0|1:2|0:0,0:0:0:0:
165,212,129434,2,0,L|312:211,3,112.5,2|0|2|2,1:2|0:0|1:2|0:2,0:0:0:0:
458,200,130291,5,2,1:2:0:0:
504,122,130505,1,0,0:0:0:0:
472,37,130719,1,2,1:2:0:0:
385,11,130933,1,2,0:2:0:0:
194,185,131148,2,0,L|330:184,1,112.5,0|0,1:0|0:0,0:0:0:0:
439,288,131577,2,0,L|303:287,1,112.5,0|0,1:0|0:0,0:0:0:0:
51,288,132006,6,0,P|15:250|130:143,1,225,2|0,1:2|1:0,0:0:0:0:
213,129,132648,1,2,0:0:0:0:
83,124,132863,2,0,L|73:55,1,56.25,2|0,1:2|0:0,0:0:0:0:
83,124,133077,1,0,0:0:0:0:
230,211,133291,2,0,L|77:209,1,112.5,0|2,1:0|0:0,0:0:0:0:
306,331,133720,6,0,P|374:302|292:198,1,225,2|2,1:2|1:2,0:0:0:0:
209,188,134363,1,0,0:0:0:0:
395,151,134577,2,0,L|396:282,1,112.5,2|0,1:2|0:0,0:0:0:0:
243,323,135006,2,0,L|394:323,1,112.5,2|2,1:2|0:0,0:0:0:0:
83,376,135434,5,2,1:2:0:0:
9,296,135648,1,0,0:0:0:0:
39,193,135862,1,2,1:2:0:0:
143,165,136076,1,2,0:0:0:0:
334,375,136291,5,2,1:2:0:0:
407,295,136505,1,0,0:0:0:0:
377,192,136719,1,2,1:2:0:0:
273,164,136933,1,2,0:0:0:0:
63,112,137148,6,0,L|183:108,1,112.5,2|0,1:2|0:0,0:0:0:0:
291,231,137577,2,0,L|171:227,1,112.5,2|2,1:2|0:0,0:0:0:0:
369,170,138006,6,0,L|374:52,1,112.5,0|0,1:0|0:0,0:0:0:0:
168,338,138434,2,0,L|163:220,1,112.5,0|0,1:0|0:0,0:0:0:0:
458,360,138863,6,0,L|517:223,3,112.5,2|2|2|2,0:0|0:0|0:0|0:0,0:0:0:0:
331,215,139720,6,0,L|353:64,3,112.5,2|2|2|2,0:0|0:0|0:0|0:0,0:0:0:0:
181,215,140577,6,0,L|159:64,3,112.5,2|2|2|2,0:0|0:0|0:0|0:0,0:0:0:0:
54,360,141434,5,2,0:0:0:0:
303,64,142291,5,2,0:0:0:0:
105,63,143148,1,2,0:0:0:0:
303,64,144006,1,2,0:0:0:0:
303,64,144648,1,2,0:0:0:0:
303,64,145291,1,2,0:0:0:0:
109,195,145720,5,2,0:0:0:0:
307,194,146577,1,2,0:0:0:0:
109,195,147435,1,2,0:0:0:0:
109,195,148506,5,0,0:0:0:0:
243,195,148720,2,0,L|72:195,1,168.75,2|0,3:2|0:0,0:0:0:0:
208,38,149148,5,2,0:0:0:0:
333,91,149362,1,0,0:0:0:0:
370,221,149576,1,2,0:0:0:0:
291,332,149790,1,0,0:0:0:0:
119,350,150006,2,0,L|96:206,1,112.5,2|0,0:0|0:0,0:0:0:0:
257,235,150434,2,0,L|280:91,1,112.5,2|2,0:0|0:0,0:0:0:0:
81,122,150863,6,0,L|208:122,2,112.5,2|2|2,0:0|0:0|0:0,0:0:0:0:
196,117,151506,1,2,0:0:0:0:
363,118,151720,1,8,0:0:0:0:
419,157,151827,1,8,0:0:0:0:
429,224,151934,1,10,0:0:0:0:
386,278,152041,1,8,0:0:0:0:
312,285,152148,2,0,L|245:296,1,56.25,10|8,0:0|0:0,0:0:0:0:
325,359,152363,2,0,L|396:379,1,56.25,8|8,0:0|0:0,0:0:0:0:
190,367,152577,5,10,0:0:0:0:
141,318,152684,1,8,0:0:0:0:
135,249,152791,1,8,0:0:0:0:
176,193,152898,1,8,0:0:0:0:
250,178,153006,2,0,L|309:174,1,56.25,10|8,0:0|0:0,0:0:0:0:
306,174,153220,2,0,L|250:178,1,56.25,10|8,0:0|0:0,0:0:0:0:
74,119,153434,5,10,0:0:0:0:
37,182,153541,1,8,0:0:0:0:
60,251,153648,1,10,0:0:0:0:
127,280,153755,1,8,0:0:0:0:
342,201,153863,1,10,0:0:0:0:
378,265,153970,1,0,0:0:0:0:
355,334,154077,1,2,1:2:0:0:
288,363,154184,1,0,1:0:0:0:
83,376,154291,6,0,L|70:258,1,112.5,10|10,1:2|1:2,0:0:0:0:
354,246,154720,2,0,L|367:128,1,112.5,10|10,1:2|1:2,0:0:0:0:
79,121,155363,5,4,0:1:0:0:
360,120,155577,2,0,L|433:120,1,56.25,8|8,0:0|0:0,0:0:0:0:
248,248,155791,2,0,L|175:248,1,56.25,8|8,0:0|0:0,0:0:0:0:
414,361,156006,6,0,P|455:320|368:243,1,168.75,6|0,1:2|0:0,0:0:0:0:
327,234,156434,2,0,L|461:234,1,112.5,10|2,0:0|3:2,0:0:0:0:
164,158,156863,2,0,L|162:73,1,56.25,2|0,1:2|0:0,0:0:0:0:
226,96,157077,1,0,3:0:0:0:
23,64,157291,2,0,L|18:205,1,112.5,10|2,0:0|3:2,0:0:0:0:
312,319,157720,5,2,1:2:0:0:
199,319,157934,1,2,3:2:0:0:
312,319,158148,1,10,0:0:0:0:
109,368,158363,2,0,L|117:285,1,56.25,2|8,3:2|0:0,0:0:0:0:
198,302,158577,2,0,L|206:219,1,56.25,0|8,1:0|0:0,0:0:0:0:
117,217,158791,1,2,3:2:0:0:
326,220,159006,2,0,P|366:177|296:100,1,168.75,10|0,0:0|0:0,0:0:0:0:
131,109,159434,6,0,P|97:153|217:249,1,225,2|10,1:2|0:0,0:0:0:0:
319,261,160077,1,2,3:2:0:0:
116,347,160291,2,0,L|33:348,1,56.25,2|0,1:2|0:0,0:0:0:0:
116,347,160506,1,2,3:2:0:0:
248,349,160720,2,0,L|246:222,1,112.5,8|2,0:0|3:2,0:0:0:0:
192,236,161041,1,0,0:0:0:0:
376,164,161148,6,0,L|495:164,1,112.5,2|2,1:2|3:2,0:0:0:0:
210,71,161577,2,0,L|70:72,1,112.5,14|2,0:0|3:2,0:0:0:0:
156,89,161898,1,8,0:0:0:0:
336,131,162006,2,0,L|411:133,2,56.25,8|8|0,1:2|0:0|3:0,0:0:0:0:
169,204,162434,2,0,L|253:203,1,56.25,10|8,0:0|0:0,0:0:0:0:
306,264,162648,2,0,L|370:264,1,56.25,2|0,3:2|1:0,0:0:0:0:
140,376,162863,6,0,P|101:354|149:254,1,168.75,6|0,0:0|0:0,0:0:0:0:
235,251,163291,2,0,L|370:252,1,112.5,10|2,0:0|3:2,0:0:0:0:
70,73,163720,2,0,L|1:73,1,56.25,2|0,1:2|0:0,0:0:0:0:
70,73,163934,1,0,3:0:0:0:
215,73,164148,1,10,0:0:0:0:
70,73,164363,1,2,3:2:0:0:
345,196,164577,6,0,L|197:195,2,112.5,2|2|10,1:2|3:2|0:0,0:0:0:0:
188,113,165220,2,0,L|259:113,1,56.25,2|8,3:2|0:0,0:0:0:0:
343,113,165434,2,0,L|420:113,1,56.25,0|8,1:0|0:0,0:0:0:0:
343,113,165648,1,2,3:2:0:0:
66,361,165863,2,0,P|29:333|98:231,1,168.75,10|0,0:0|0:0,0:0:0:0:
266,228,166291,6,0,L|28:230,1,225,2|10,1:2|0:0,0:0:0:0:
175,209,166934,1,2,3:2:0:0:
447,208,167148,2,0,L|459:135,1,56.25,2|0,1:2|0:0,0:0:0:0:
447,208,167363,1,0,3:0:0:0:
173,342,167577,2,0,L|320:342,1,112.5,14|2,0:0|3:2,0:0:0:0:
344,341,167898,1,0,0:0:0:0:
121,253,168006,6,0,L|107:117,1,112.5,8|8,0:0|0:0,0:0:0:0:
247,128,168434,2,0,L|254:52,1,56.25,0|0,1:0|1:0,0:0:0:0:
79,62,168648,2,0,L|65:-57,1,112.5,8|8,0:0|0:0,0:0:0:0:
237,195,169077,2,0,L|130:196,1,56.25,0|0,0:0|1:0,0:0:0:0:
377,335,169291,2,0,P|427:309|347:238,1,168.75,12|0,0:0|0:0,0:0:0:0:
203,231,169720,5,4,1:0:0:0:
128,231,169827,2,0,L|122:182,2,28.125,0|0|8,1:0|1:0|1:2,0:0:0:0:
203,231,170041,1,8,0:0:0:0:
386,233,170148,2,0,L|443:233,1,56.25,8|8,0:0|0:0,0:0:0:0:
280,352,170470,1,8,0:0:0:0:
471,357,170577,2,0,L|358:357,1,75,8|0,0:0|1:0,0:0:0:0:
471,357,170863,1,0,1:0:0:0:
264,278,171006,2,0,P|230:251|295:153,1,168.75,14|0,0:0|0:0,0:0:0:0:
466,149,171434,6,0,L|470:331,1,168.75,4|0,0:3|0:0,0:0:0:0:
388,351,171863,2,0,L|508:351,1,112.5,10|2,0:0|3:2,0:0:0:0:
436,342,172184,1,0,0:0:0:0:
237,318,172291,2,0,L|130:319,1,56.25,2|0,1:2|0:0,0:0:0:0:
237,318,172506,1,0,3:0:0:0:
370,319,172720,1,10,0:0:0:0:
200,373,172934,1,2,3:2:0:0:
491,233,173148,6,0,L|344:234,2,112.5,2|2|10,1:2|3:2|0:0,0:0:0:0:
292,326,173791,2,0,L|363:327,1,56.25,2|8,3:2|0:0,0:0:0:0:
456,329,174006,2,0,L|471:253,1,56.25,0|8,1:0|0:0,0:0:0:0:
456,329,174220,1,2,3:2:0:0:
253,375,174434,2,0,L|454:373,1,168.75,10|0,0:0|0:0,0:0:0:0:
248,299,174863,6,0,P|226:249|308:175,1,168.75,2|0,1:2|0:0,0:0:0:0:
389,170,175291,2,0,L|404:34,1,112.5,10|2,0:0|3:2,0:0:0:0:
220,80,175720,2,0,L|203:21,1,56.25,2|0,1:2|0:0,0:0:0:0:
263,16,175934,1,2,3:2:0:0:
316,7,176041,1,0,0:0:0:0:
212,206,176148,2,0,L|91:198,1,112.5,8|2,0:0|3:2,0:0:0:0:
158,188,176470,1,0,0:0:0:0:
327,185,176577,6,0,L|449:181,1,112.5,2|2,1:2|3:2,0:0:0:0:
148,371,177006,2,0,L|140:243,1,112.5,14|10,0:0|0:0,0:0:0:0:
198,246,177327,1,0,0:0:0:0:
383,225,177434,2,0,L|438:217,1,56.25,2|8,1:2|0:0,0:0:0:0:
383,225,177648,1,0,3:0:0:0:
198,246,177863,1,10,0:0:0:0:
363,339,178077,2,0,L|287:334,1,56.25,10|8,1:2|0:0,0:0:0:0:
103,363,178291,6,0,P|61:333|126:238,1,168.75,6|0,0:0|0:0,0:0:0:0:
185,235,178720,2,0,L|37:236,1,112.5,10|2,0:0|3:2,0:0:0:0:
133,229,179041,1,0,0:0:0:0:
301,228,179148,2,0,L|311:151,1,56.25,2|0,1:2|0:0,0:0:0:0:
257,159,179363,1,0,3:0:0:0:
461,133,179577,2,0,L|466:269,1,112.5,10|2,0:0|3:2,0:0:0:0:
187,360,180006,6,0,L|321:360,2,112.5,2|2|10,1:2|3:2|0:0,0:0:0:0:
366,289,180648,2,0,L|291:290,1,56.25,2|8,3:2|0:0,0:0:0:0:
195,360,180862,2,0,L|115:357,1,56.25,0|8,1:0|0:0,0:0:0:0:
195,360,181076,1,2,3:2:0:0:
471,361,181291,2,0,L|477:168,1,168.75,10|0,0:0|0:0,0:0:0:0:
266,198,181720,6,0,P|221:170|286:84,1,168.75,2|0,1:2|0:0,0:0:0:0:
450,77,182148,2,0,L|457:-38,1,112.5,10|2,0:0|3:2,0:0:0:0:
248,318,182577,2,0,L|127:317,2,112.5,2|2|8,1:2|3:2|0:0,0:0:0:0:
399,319,183220,1,2,3:2:0:0:
125,362,183434,6,0,L|-3:362,1,112.5,2|2,1:2|3:2,0:0:0:0:
308,273,183863,2,0,L|310:141,1,112.5,14|2,0:0|0:0,0:0:0:0:
244,157,184184,1,0,1:0:0:0:
66,161,184291,2,0,L|-13:161,1,56.25,8|8,0:0|0:0,0:0:0:0:
66,161,184506,1,2,3:2:0:0:
272,262,184720,1,8,0:0:0:0:
302,196,184827,1,0,1:2:0:0:
268,133,184934,1,0,1:2:0:0:
196,123,185041,1,0,1:2:0:0:
385,97,185148,6,0,P|419:124|349:211,1,168.75,6|0,0:0|0:0,0:0:0:0:
289,215,185577,2,0,L|169:223,1,112.5,10|2,0:0|3:2,0:0:0:0:
246,206,185898,1,0,0:0:0:0:
419,187,186006,2,0,L|494:177,2,56.25,2|0|0,1:2|0:0|3:0,0:0:0:0:
280,281,186434,2,0,L|423:281,1,112.5,10|2,0:0|3:2,0:0:0:0:
114,368,186863,6,0,L|-27:368,2,112.5,2|2|10,1:2|3:2|0:0,0:0:0:0:
317,330,187506,2,0,L|308:259,1,56.25,2|8,3:2|0:0,0:0:0:0:
235,279,187720,2,0,L|226:208,1,56.25,0|8,1:0|0:0,0:0:0:0:
306,188,187934,1,2,3:2:0:0:
105,186,188148,2,0,L|284:188,1,168.75,8|0,0:0|0:0,0:0:0:0:
101,345,188577,6,0,P|64:317|153:208,1,225,2|10,1:2|0:0,0:0:0:0:
265,205,189220,1,2,3:2:0:0:
63,176,189434,1,2,1:2:0:0:
59,119,189541,1,2,0:0:0:0:
55,63,189648,1,2,3:2:0:0:
110,58,189756,1,0,0:0:0:0:
172,53,189863,1,8,0:0:0:0:
30,204,190077,2,0,L|105:198,1,56.25,2|0,3:2|0:0,0:0:0:0:
276,300,190291,6,0,L|403:300,2,112.5,2|2|12,1:2|3:2|0:0,0:0:0:0:
419,204,190934,2,0,L|343:203,1,56.25,2|0,0:0|0:0,0:0:0:0:
176,357,191148,2,0,L|96:358,1,56.25,8|8,0:0|0:0,0:0:0:0:
176,357,191363,1,0,3:0:0:0:
354,271,191577,2,0,L|277:271,1,56.25,10|8,1:2|0:0,0:0:0:0:
203,334,191791,2,0,L|282:335,1,56.25,10|8,3:2|0:0,0:0:0:0:
463,366,192006,6,0,P|505:321|419:238,1,168.75,6|0,0:0|0:0,0:0:0:0:
366,231,192434,2,0,L|478:231,1,112.5,10|2,0:0|3:2,0:0:0:0:
410,223,192756,1,0,0:0:0:0:
214,335,192863,2,0,L|117:336,1,56.25,2|0,1:2|0:0,0:0:0:0:
235,262,193077,1,0,3:0:0:0:
436,264,193291,2,0,L|444:137,1,112.5,10|2,0:0|3:2,0:0:0:0:
168,146,193720,6,0,L|32:142,2,112.5,2|2|10,1:2|3:2|0:0,0:0:0:0:
370,211,194363,2,0,L|262:212,1,56.25,0|8,3:0|0:0,0:0:0:0:
220,291,194577,2,0,L|145:291,1,56.25,0|8,1:0|0:0,0:0:0:0:
220,291,194791,1,2,3:2:0:0:
494,367,195006,2,0,L|496:173,1,168.75,10|0,0:0|0:0,0:0:0:0:
269,198,195434,6,0,P|239:246|327:308,1,168.75,2|0,1:2|0:0,0:0:0:0:
477,317,195863,2,0,L|481:196,1,112.5,10|2,0:0|3:2,0:0:0:0:
283,206,196291,2,0,L|412:206,2,112.5,2|2|10,1:2|3:2|0:0,0:0:0:0:
128,210,196934,1,2,3:2:0:0:
439,360,197148,6,0,L|446:232,1,112.5,2|2,1:2|3:2,0:0:0:0:
161,251,197577,2,0,L|146:140,1,112.5,12|2,0:0|0:0,0:0:0:0:
208,129,197898,1,8,0:0:0:0:
390,130,198006,1,8,1:2:0:0:
333,131,198113,1,8,0:0:0:0:
277,132,198220,1,0,3:2:0:0:
125,211,198434,2,0,L|201:212,1,56.25,8|0,0:0|0:0,0:0:0:0:
261,285,198648,2,0,L|341:284,1,56.25,8|8,0:0|0:0,0:0:0:0:
125,365,198863,6,0,P|88:344|146:242,1,168.75,4|0,0:1|0:0,0:0:0:0:
214,238,199291,2,0,L|339:235,1,112.5,10|2,0:0|3:2,0:0:0:0:
259,226,199613,1,0,0:0:0:0:
55,218,199720,2,0,L|43:102,1,112.5,2|2,1:2|3:2,0:0:0:0:
323,84,200148,2,0,L|384:77,1,56.25,10|8,0:0|0:0,0:0:0:0:
205,203,200363,2,0,L|117:194,1,56.25,2|0,3:2|0:0,0:0:0:0:
390,338,200577,6,0,L|508:324,1,112.5,10|10,0:0|0:0,0:0:0:0:
207,256,201220,2,0,L|89:242,1,112.5,10|10,0:0|0:0,0:0:0:0:
297,180,201648,2,0,L|375:169,1,56.25,0|0,1:0|1:0,0:0:0:0:
147,352,201863,2,0,P|101:320|172:243,1,168.75,8|0,1:0|0:0,0:0:0:0:
349,241,202291,6,0,L|497:240,2,112.5,6|2|10,0:0|0:0|0:0,0:0:0:0:
167,342,202827,2,0,P|135:314|200:272,1,112.5,2|2,0:0|0:0,0:0:0:0:
255,251,203148,1,0,1:0:0:0:
198,251,203255,1,2,0:0:0:0:
142,251,203362,1,2,3:2:0:0:
347,178,203577,2,0,L|508:179,1,112.5,10|2,0:0|3:2,0:0:0:0:
395,172,203898,1,0,0:0:0:0:
181,80,204006,6,0,L|26:80,2,112.5,2|2|10,1:2|3:2|0:0,0:0:0:0:
345,79,204541,2,0,L|344:222,1,112.5,2|2,0:0|0:0,0:0:0:0:
272,227,204863,2,0,L|189:227,1,56.25,0|0,1:0|0:0,0:0:0:0:
401,342,205077,1,8,3:0:0:0:
401,342,205291,1,8,1:3:0:0:
285,347,205506,2,0,L|364:346,1,56.25,0|0,3:0|0:0,0:0:0:0:
142,280,205720,6,0,L|-3:282,2,112.5,2|2|10,1:2|3:2|0:0,0:0:0:0:
331,287,206256,2,0,L|169:288,1,112.5,2|2,0:0|0:0,0:0:0:0:
335,241,206577,2,0,L|400:240,1,56.25,0|2,1:0|0:0,0:0:0:0:
335,241,206791,1,2,3:2:0:0:
57,365,207006,2,0,L|57:250,1,112.5,14|2,0:0|0:0,0:0:0:0:
113,246,207327,1,0,0:0:0:0:
306,242,207434,6,0,L|432:242,1,112.5,6|10,1:2|0:0,0:0:0:0:
366,237,207756,1,2,0:0:0:0:
186,184,207863,2,0,L|186:117,1,56.25,10|8,0:0|0:0,0:0:0:0:
243,120,208077,1,2,1:2:0:0:
72,95,208184,2,0,P|34:128|90:176,1,112.5,6|2,1:2|1:2,0:0:0:0:
117,178,208506,1,2,1:2:0:0:
173,178,208613,1,2,1:2:0:0:
259,188,208720,2,0,L|157:188,1,56.25,14|0,0:0|0:0,0:0:0:0:
39,315,208934,2,0,L|137:316,1,56.25,10|8,1:2|0:0,0:0:0:0:
290,355,209148,6,0,L|421:356,2,112.5,6|2|10,0:0|3:2|0:0,0:0:0:0:
457,297,209684,2,0,P|488:262|423:212,1,112.5,2|2,0:0|0:0,0:0:0:0:
358,205,210006,2,0,L|254:205,1,56.25,0|2,1:0|0:0,0:0:0:0:
358,205,210220,1,2,3:2:0:0:
154,129,210434,2,0,L|-11:128,1,112.5,10|2,0:0|3:2,0:0:0:0:
102,122,210756,1,0,0:0:0:0:
312,55,210863,6,0,L|444:56,2,112.5,2|2|10,1:2|3:2|0:0,0:0:0:0:
136,201,211398,2,0,L|277:202,1,112.5,2|2,0:0|0:0,0:0:0:0:
130,171,211720,2,0,L|55:171,1,56.25,0|0,1:0|0:0,0:0:0:0:
248,102,211934,1,8,3:0:0:0:
248,102,212148,1,8,1:3:0:0:
401,167,212363,2,0,L|312:167,1,56.25,0|0,3:0|0:0,0:0:0:0:
167,293,212577,6,0,L|301:295,2,112.5,2|2|10,1:2|3:2|0:0,0:0:0:0:
341,222,213113,2,0,P|374:193|315:142,1,112.5,2|2,0:0|0:0,0:0:0:0:
217,139,213434,2,0,L|134:139,1,56.25,0|2,1:0|0:0,0:0:0:0:
217,139,213648,1,2,3:2:0:0:
496,144,213863,2,0,L|348:144,1,112.5,14|2,0:0|3:2,0:0:0:0:
328,143,214184,1,0,0:0:0:0:
150,286,214291,6,0,L|310:286,1,112.5,6|2,1:2|1:2,0:0:0:0:
209,284,214613,1,2,1:2:0:0:
25,261,214720,2,0,L|16:185,1,56.25,10|0,0:0|1:0,0:0:0:0:
71,188,214934,1,2,1:2:0:0:
293,195,215041,2,0,L|306:80,1,112.5,6|0,1:2|1:0,0:0:0:0:
247,73,215363,1,2,0:0:0:0:
188,64,215470,1,0,1:0:0:0:
310,67,215577,6,0,L|389:57,1,56.25,10|8,0:0|0:0,0:0:0:0:
162,261,215791,2,0,L|70:246,1,56.25,10|8,0:0|1:2,0:0:0:0:
