osu file format v14

[General]
AudioFilename: audio.mp3
AudioLeadIn: 0
PreviewTime: 141648
Countdown: 0
SampleSet: Soft
StackLeniency: 0.7
Mode: 2
LetterboxInBreaks: 0
WidescreenStoryboard: 1

[Editor]
DistanceSpacing: 0.2
BeatDivisor: 4
GridSize: 32
TimelineZoom: 2.1

[Metadata]
Title:Moonlight at midday
TitleUnicode:真昼の月明かり
Artist:Tsukuyomi
ArtistUnicode:月詠み
Creator:Crowley
Version:Platter
Source:
Tags:Mahiru no Tsukiakari ユリイカノン ユリイ・カノン yurry cannon YurryCanon mikoto エポック epoch とうかさ toukasa japanese rock j-rock jrock j-pop jpop pop Mononymous
BeatmapID:3153991
BeatmapSetID:1539314

[Difficulty]
HPDrainRate:5
CircleSize:4
OverallDifficulty:8
ApproachRate:8
SliderMultiplier:2
SliderTickRate:2

[Events]
//Background and Video events
0,0,"bg.jpg",0,0
//Break Periods
//Storyboard Layer 0 (Background)
//Storyboard Layer 1 (Fail)
//Storyboard Layer 2 (Pass)
//Storyboard Layer 3 (Foreground)
//Storyboard Layer 4 (Overlay)
//Storyboard Sound Samples

[TimingPoints]
6,428.571428571429,4,2,1,50,1,0
1720,-100,4,2,1,60,0,0
4184,-100,4,2,2,60,0,0
4398,-100,4,2,1,60,0,0
11041,-100,4,2,2,60,0,0
11255,-100,4,2,1,60,0,0
13720,-100,4,2,1,55,0,0
15006,-100,4,2,1,75,0,0
15434,-100,4,2,1,80,0,1
15648,-100,4,2,1,80,0,0
18220,-100,4,2,1,80,0,0
18648,-100,4,2,1,80,0,0
25077,-100,4,2,1,80,0,0
25505,-100,4,2,1,80,0,0
29148,-100,4,2,1,60,0,0
31613,-100,4,2,2,60,0,0
31827,-100,4,2,1,60,0,0
32898,-100,4,2,2,60,0,0
33112,-100,4,2,1,60,0,0
35041,-100,4,2,2,60,0,0
35255,-100,4,2,1,60,0,0
38470,-100,4,2,2,60,0,0
38684,-100,4,2,1,60,0,0
42863,-100,4,2,1,65,0,0
53898,-100,4,2,1,65,0,0
54434,-100,4,2,1,65,0,0
54863,-100,4,2,1,65,0,0
55077,-100,4,2,1,65,0,0
55291,-100,4,2,1,65,0,0
56577,-100,4,2,1,85,0,1
68577,-100,4,2,1,85,0,1
68791,-100,4,2,1,85,0,1
69006,-100,4,2,1,85,0,1
69434,-100,4,2,1,85,0,1
82291,-100,4,2,1,75,0,0
83577,-100,4,2,1,85,0,0
84006,-100,4,2,1,80,0,1
84220,-100,4,2,1,80,0,0
86791,-100,4,2,1,80,0,0
87219,-100,4,2,1,80,0,0
93648,-100,4,2,1,80,0,0
94076,-100,4,2,1,80,0,0
97719,-100,4,2,1,65,0,0
107363,-100,4,2,1,70,0,0
108006,-100,4,2,1,75,0,0
109720,-100,4,2,1,80,0,0
111434,-100,4,2,23,80,0,1
111541,-100,4,2,1,80,0,1
111756,-100,4,2,1,80,0,1
111863,-100,4,2,23,80,0,1
111970,-100,4,2,22,80,0,1
112077,-100,4,2,20,80,0,1
112184,-100,4,2,14,80,0,1
112291,-100,4,2,15,80,0,1
112506,-100,4,2,1,80,0,1
112613,-100,4,2,1,80,0,1
112720,-100,4,2,16,80,0,1
112827,-100,4,2,17,80,0,1
112934,-100,4,2,15,80,0,1
113041,-100,4,2,18,80,0,1
113148,-100,4,2,19,80,0,1
113256,-100,4,2,1,80,0,1
113363,-100,4,2,20,80,0,1
113470,-100,4,2,1,80,0,1
113577,-100,4,2,21,80,0,1
113684,-100,4,2,1,80,0,1
113791,-100,4,2,22,80,0,1
113898,-100,4,2,1,80,0,1
114006,-100,4,2,14,80,0,1
114220,-100,4,2,1,80,0,1
114434,-100,4,2,17,80,0,1
114648,-100,4,2,1,80,0,1
114863,-100,4,2,22,80,0,1
114970,-100,4,2,1,80,0,1
115077,-100,4,2,23,80,0,1
115184,-100,4,2,1,80,0,1
115291,-100,4,2,20,80,0,1
115398,-100,4,2,23,80,0,1
115506,-100,4,2,20,80,0,1
115613,-100,4,2,18,80,0,1
115720,-100,4,2,19,80,0,1
115827,-100,4,2,1,80,0,1
115934,-100,4,2,17,80,0,1
116041,-100,4,2,1,80,0,1
116148,-100,4,2,14,80,0,1
116256,-100,4,2,15,80,0,1
116363,-100,4,2,19,80,0,1
116470,-100,4,2,25,80,0,1
116577,-100,4,2,23,80,0,1
116684,-100,4,2,22,80,0,1
116791,-100,4,2,19,80,0,1
116898,-100,4,2,14,80,0,1
117006,-100,4,2,22,80,0,1
117113,-100,4,2,20,80,0,1
117220,-100,4,2,14,80,0,1
117327,-100,4,2,26,80,0,1
117434,-100,4,2,22,80,0,1
117541,-100,4,2,14,80,0,1
117648,-100,4,2,26,80,0,1
117756,-100,4,2,27,80,0,1
117863,-100,4,2,16,80,0,1
117970,-100,4,2,17,80,0,1
118077,-100,4,2,15,80,0,1
118184,-100,4,2,1,80,0,1
118291,-100,4,2,14,80,0,1
118398,-100,4,2,1,80,0,1
118506,-100,4,2,19,80,0,1
118613,-100,4,2,15,80,0,1
118720,-100,4,2,14,80,0,1
118827,-100,4,2,1,80,0,1
118934,-100,4,2,26,80,0,1
119041,-100,4,2,1,80,0,1
119148,-100,4,2,16,80,0,1
119256,-100,4,2,1,80,0,1
119363,-100,4,2,17,80,0,1
119470,-100,4,2,16,80,0,1
119577,-100,4,2,17,80,0,1
119684,-100,4,2,1,80,0,1
119791,-100,4,2,14,80,0,1
119898,-100,4,2,1,80,0,1
120006,-100,4,2,21,80,0,1
120113,-100,4,2,1,80,0,1
120220,-100,4,2,14,80,0,1
120327,-100,4,2,1,80,0,1
120434,-100,4,2,17,80,0,1
120541,-100,4,2,1,80,0,1
120648,-100,4,2,26,80,0,1
120756,-100,4,2,2,80,0,1
120970,-100,4,2,1,80,0,1
121077,-100,4,2,16,80,0,1
121184,-100,4,2,1,80,0,1
121291,-100,4,2,17,80,0,1
121398,-100,4,2,1,80,0,1
121506,-100,4,2,26,80,0,1
121613,-100,4,2,1,80,0,1
121720,-100,4,2,27,80,0,1
121934,-100,4,2,16,80,0,1
122041,-100,4,2,27,80,0,1
122148,-100,4,2,26,80,0,1
122256,-100,4,2,1,80,0,1
122363,-100,4,2,17,80,0,1
122470,-100,4,2,26,80,0,1
122577,-100,4,2,17,80,0,1
122684,-100,4,2,1,80,0,1
122791,-100,4,2,14,80,0,1
122898,-100,4,2,17,80,0,1
123006,-100,4,2,15,80,0,1
123113,-100,4,2,1,80,0,1
123220,-100,4,2,19,80,0,1
123327,-100,4,2,15,80,0,1
123434,-100,4,2,14,80,0,1
123541,-100,4,2,1,80,0,1
123648,-100,4,2,19,80,0,1
123756,-100,4,2,22,70,0,1
123863,-100,4,2,17,80,0,1
123970,-100,4,2,1,80,0,1
124077,-100,4,2,19,80,0,1
124184,-100,4,2,22,70,0,1
124291,-100,4,2,26,80,0,1
124398,-100,4,2,1,80,0,1
124506,-100,4,2,19,80,0,1
124613,-100,4,2,22,70,0,1
124720,-100,4,2,16,80,0,1
124827,-100,4,2,1,80,0,1
124934,-100,4,2,20,75,0,1
125041,-100,4,2,1,80,0,1
125148,-100,4,2,1,55,0,0
125256,-100,4,2,3,55,0,0
125470,-100,4,2,1,55,0,0
126113,-100,4,2,3,55,0,0
126327,-100,4,2,1,55,0,0
126970,-100,4,2,3,55,0,0
127184,-100,4,2,1,55,0,0
127398,-100,4,2,3,55,0,0
127612,-100,4,2,1,55,0,0
132113,-100,4,2,3,55,0,0
132327,-100,4,2,1,55,0,0
132970,-100,4,2,3,55,0,0
133184,-100,4,2,1,55,0,0
134684,-100,4,2,3,55,0,0
134898,-100,4,2,1,55,0,0
138863,-100,4,2,1,45,0,0
142291,-100,4,2,1,30,0,0
148506,-100,4,2,1,40,0,0
149148,-100,4,2,1,55,0,0
151720,-100,4,2,1,40,0,0
152148,-100,4,2,1,42,0,0
152577,-100,4,2,1,44,0,0
153006,-100,4,2,1,46,0,0
153434,-100,4,2,1,48,0,0
153863,-100,4,2,1,50,0,0
154291,-100,4,2,1,65,0,0
154505,-100,4,2,1,65,0,0
154719,-100,4,2,1,65,0,0
155363,-100,4,2,1,70,0,0
156006,-100,4,2,1,85,0,1
169720,-100,4,2,1,70,0,0
171434,-100,4,2,1,85,0,1
183863,-100,4,2,1,85,0,1
184291,-100,4,2,1,85,0,1
197577,-100,4,2,1,85,0,1
198005,-100,4,2,1,85,0,1
200577,-100,4,2,1,70,0,0
201863,-100,4,2,1,85,0,0
202291,-100,4,2,1,80,0,1
202506,-100,4,2,1,80,0,0
205077,-100,4,2,1,80,0,0
205505,-100,4,2,1,80,0,0
211934,-100,4,2,1,80,0,0
212362,-100,4,2,1,80,0,0
216006,-100,4,2,1,5,0,0

[Colours]
Combo1 : 0,0,160
Combo2 : 128,128,64
Combo3 : 255,128,128
Combo4 : 128,255,128

[HitObjects]
101,251,1077,6,0,L|226:252,2,100,2|2|2,0:0|0:0|0:0,0:0:0:0:
302,312,1720,6,0,P|346:269|249:191,1,200,2|2,1:2|1:2,0:0:0:0:
152,184,2363,1,2,0:0:0:0:
32,183,2577,2,0,L|254:184,1,200,2|2,1:2|1:2,0:0:0:0:
352,186,3220,1,2,0:0:0:0:
154,292,3434,6,0,L|27:291,2,100,2|2|2,1:2|0:0|1:2,0:0:0:0:
354,348,4077,2,0,P|379:304|268:227,1,200,2|2,0:0|0:0,0:0:0:0:
165,213,4720,1,2,1:2:0:0:
484,358,5148,6,0,L|499:144,1,200,2|2,1:2|1:2,0:0:0:0:
388,140,5791,1,2,0:0:0:0:
278,121,6006,2,0,L|262:-6,1,100,2|2,1:2|0:0,0:0:0:0:
462,13,6648,1,2,0:0:0:0:
259,252,6863,6,0,L|144:252,2,100,2|2|2,1:2|0:0|1:2,0:0:0:0:
370,255,7506,1,2,0:0:0:0:
168,346,7720,2,0,L|158:284,1,50,2|0,1:2|0:0,0:0:0:0:
168,346,7934,1,0,0:0:0:0:
371,263,8148,2,0,L|381:157,1,100,2|2,1:2|0:0,0:0:0:0:
101,151,8577,6,0,P|76:124|177:30,1,200,4|2,0:1|1:2,0:0:0:0:
35,19,9220,1,2,0:0:0:0:
155,24,9434,2,0,P|219:62|130:127,1,200,2|2,1:2|1:2,0:0:0:0:
54,137,10077,1,2,0:0:0:0:
260,218,10291,6,0,L|379:218,2,100,2|2|2,1:2|0:0|1:2,0:0:0:0:
59,311,10934,2,0,L|264:311,1,200,2|2,0:0|0:0,0:0:0:0:
368,313,11577,1,2,1:2:0:0:
53,361,12006,5,4,1:0:0:0:
8,288,12220,1,0,1:0:0:0:
37,186,12434,1,2,1:2:0:0:
146,156,12648,1,2,1:2:0:0:
347,156,12863,2,0,L|244:156,1,100,2|2,1:2|1:2,0:0:0:0:
48,251,13291,2,0,L|151:251,1,100,2|2,1:2|1:2,0:0:0:0:
395,371,14791,5,0,1:0:0:0:
194,368,15006,2,0,L|194:260,1,100,8|0,1:0|0:0,0:0:0:0:
468,250,15434,6,0,L|475:114,1,100,6|2,1:2|0:0,0:0:0:0:
364,141,15863,2,0,L|356:66,1,50,10|2,1:2|0:0,0:0:0:0:
484,82,16184,2,0,L|294:82,1,150,2|2,0:0|3:2,0:0:0:0:
464,166,16720,2,0,L|344:165,1,100,10|2,0:0|3:2,0:0:0:0:
93,227,17148,6,0,L|216:227,2,100,2|2|10,1:2|3:2|0:0,0:0:0:0:
46,228,17684,1,2,0:0:0:0:
165,308,17898,1,2,0:0:0:0:
217,310,18006,2,0,L|226:246,1,50,0|0,1:0|0:0,0:0:0:0:
217,310,18220,1,8,3:0:0:0:
87,363,18434,2,0,L|197:362,1,100,8|0,1:3|3:0,0:0:0:0:
459,183,18863,6,0,L|463:65,1,100,2|2,1:2|3:2,0:0:0:0:
339,75,19291,2,0,L|335:9,1,50,10|2,0:0|0:0,0:0:0:0:
466,15,19613,2,0,P|485:61|386:98,1,150,2|2,0:0|3:2,0:0:0:0:
218,129,20148,2,0,L|100:129,1,100,14|2,0:0|3:2,0:0:0:0:
393,120,20577,5,6,1:2:0:0:
490,120,20791,2,0,L|496:60,1,50,10|2,0:0|0:0,0:0:0:0:
490,120,21006,1,2,1:2:0:0:
290,192,21220,1,2,0:0:0:0:
234,191,21327,2,0,L|395:191,1,150,6|2,0:0|1:2,0:0:0:0:
181,326,21863,2,0,L|57:327,1,100,14|10,1:2|0:0,0:0:0:0:
352,249,22291,6,0,L|478:249,2,100,6|2|10,1:2|0:0|0:0,0:0:0:0:
298,248,22827,1,2,0:0:0:0:
169,261,23041,2,0,L|348:262,1,150,2|2,0:0|3:2,0:0:0:0:
189,355,23577,2,0,L|190:238,1,100,10|2,0:0|3:2,0:0:0:0:
463,235,24006,6,0,L|335:236,2,100,2|2|10,1:2|3:2|0:0,0:0:0:0:
463,235,24541,1,2,0:0:0:0:
346,322,24756,1,2,0:0:0:0:
291,321,24863,2,0,L|276:242,1,50,0|0,1:0|0:0,0:0:0:0:
346,322,25077,1,8,3:0:0:0:
476,360,25291,2,0,L|376:360,1,100,8|0,1:3|3:0,0:0:0:0:
100,362,25720,6,0,L|-28:362,2,100,2|2|10,1:2|3:2|0:0,0:0:0:0:
152,363,26256,1,2,0:0:0:0:
276,364,26470,2,0,P|301:331|219:258,1,150,2|2,0:0|3:2,0:0:0:0:
47,244,27006,2,0,L|47:142,1,100,14|2,0:0|3:2,0:0:0:0:
325,135,27434,5,6,1:2:0:0:
425,138,27648,1,2,1:2:0:0:
375,136,27755,1,2,0:0:0:0:
325,135,27862,1,10,0:0:0:0:
124,211,28077,1,2,1:2:0:0:
69,210,28184,2,0,L|190:209,1,100,6|0,1:2|1:0,0:0:0:0:
223,208,28506,1,2,1:2:0:0:
423,293,28720,2,0,L|499:293,1,50,14|8,0:0|0:0,0:0:0:0:
423,293,28934,1,10,0:0:0:0:
129,371,29148,5,4,1:0:0:0:
233,373,29363,2,0,L|238:262,2,100,2|2|2,0:0|1:2|0:0,0:0:0:0:
121,260,30006,2,0,L|349:260,1,200,2|10,1:2|1:2,0:0:0:0:
408,260,30648,1,2,0:0:0:0:
206,184,30863,6,0,L|74:185,2,100,2|2|2,1:2|0:0|1:2,0:0:0:0:
322,183,31506,2,0,P|354:142|268:43,1,200,2|2,0:2|0:0,0:0:0:0:
224,41,32041,1,8,0:0:0:0:
278,41,32148,1,10,1:2:0:0:
392,44,32363,1,2,0:0:0:0:
193,253,32577,5,2,1:2:0:0:
74,252,32791,2,0,P|52:208|178:128,1,200,2|2,0:0|0:0,0:0:0:0:
263,115,33434,2,0,P|328:168|234:224,1,200,2|10,1:2|1:2,0:0:0:0:
150,232,34077,1,2,0:0:0:0:
357,329,34291,6,0,L|464:329,2,100,2|2|2,1:2|0:0|1:2,0:0:0:0:
236,326,34934,2,0,P|208:290|311:198,1,200,2|2,0:0|0:0,0:0:0:0:
339,193,35470,1,8,0:0:0:0:
393,195,35577,1,10,1:2:0:0:
288,191,35791,1,10,0:0:0:0:
14,189,36006,5,0,1:0:0:0:
115,187,36220,2,0,L|125:67,2,100,2|2|2,0:0|1:2|0:0,0:0:0:0:
238,82,36863,2,0,L|-9:82,1,200,2|10,1:2|1:2,0:0:0:0:
167,68,37506,1,2,0:0:0:0:
368,70,37720,6,0,L|477:70,2,100,2|2|2,1:2|0:0|1:2,0:0:0:0:
245,72,38363,2,0,L|483:72,1,200,2|2,0:0|0:0,0:0:0:0:
502,73,38898,1,8,0:0:0:0:
445,72,39006,1,10,0:0:0:0:
319,72,39220,1,2,0:0:0:0:
119,73,39434,6,0,L|227:73,1,100,2|2,1:2|0:0,0:0:0:0:
339,211,39863,2,0,L|240:213,1,100,2|2,1:2|0:0,0:0:0:0:
119,304,40291,2,0,L|333:304,1,200,2|10,1:2|0:0,0:0:0:0:
449,234,40934,1,2,0:0:0:0:
177,175,41148,6,0,L|15:176,2,150,8|0|0,1:2|1:0|1:0,0:0:0:0:
453,180,42006,1,8,1:2:0:0:
464,181,42434,2,0,L|474:70,1,100,2|0,3:2|0:0,0:0:0:0:
177,274,42863,5,4,0:1:0:0:
65,275,43077,2,0,L|58:209,1,50,2|2,0:0|0:0,0:0:0:0:
110,215,43291,1,10,0:0:0:0:
235,204,43506,1,2,3:2:0:0:
100,205,43613,1,2,0:0:0:0:
50,205,43720,1,0,1:0:0:0:
0,205,43827,2,0,L|121:205,1,100,2|0,0:0|0:0,0:0:0:0:
161,204,44148,2,0,L|49:204,1,100,10|2,0:0|3:2,0:0:0:0:
262,102,44577,5,2,1:2:0:0:
156,104,44791,2,0,L|89:104,1,50,2|2,3:2|0:0,0:0:0:0:
156,104,45006,1,10,0:0:0:0:
262,102,45220,1,2,3:2:0:0:
62,198,45434,2,0,L|188:197,2,100,2|0|8,1:2|3:0|0:0,0:0:0:0:
62,198,46077,1,2,3:2:0:0:
346,345,46291,6,0,L|467:345,1,100,2|2,1:2|3:2,0:0:0:0:
320,286,46720,1,10,0:0:0:0:
274,268,46827,1,2,0:0:0:0:
249,227,46934,1,2,3:2:0:0:
255,178,47041,1,2,0:0:0:0:
292,146,47148,1,2,1:2:0:0:
493,137,47363,2,0,L|504:57,1,50,2|2,3:2|0:0,0:0:0:0:
493,137,47577,1,10,0:0:0:0:
378,135,47791,1,2,3:2:0:0:
177,175,48006,6,0,L|56:174,2,100,2|2|2,1:2|3:2|1:2,0:0:0:0:
304,176,48648,1,10,3:2:0:0:
177,175,48863,2,0,L|168:103,1,50,2|8,1:2|0:0,0:0:0:0:
177,175,49077,1,0,3:0:0:0:
378,344,49291,2,0,L|387:272,1,50,8|8,0:0|0:0,0:0:0:0:
378,344,49505,1,0,3:0:0:0:
106,346,49720,5,4,1:0:0:0:
98,251,49934,1,2,3:2:0:0:
156,246,50041,1,2,0:0:0:0:
214,241,50148,1,10,0:0:0:0:
338,197,50363,1,2,3:2:0:0:
280,192,50470,1,2,0:0:0:0:
222,187,50577,1,2,1:2:0:0:
84,172,50684,2,0,L|77:62,1,100,2|2,0:0|0:0,0:0:0:0:
132,65,51006,2,0,L|253:55,1,100,10|2,0:0|3:2,0:0:0:0:
33,112,51434,5,0,1:0:0:0:
142,113,51648,2,0,L|149:62,1,50,0|0,3:0|0:0,0:0:0:0:
142,113,51863,1,10,0:0:0:0:
33,112,52077,1,2,3:2:0:0:
233,224,52291,2,0,L|358:223,1,100,2|0,1:2|3:0,0:0:0:0:
131,338,52720,2,0,L|59:338,1,50,10|8,0:0|0:0,0:0:0:0:
131,338,52934,1,0,3:0:0:0:
408,367,53148,6,0,L|532:367,2,100,4|2|10,0:1|1:2|1:2,0:0:0:0:
206,365,53791,1,2,1:2:0:0:
140,364,53898,2,0,P|116:315|206:266,1,150,4|2,1:0|1:2,0:0:0:0:
378,254,54434,2,0,L|450:254,1,50,10|8,0:0|0:0,0:0:0:0:
378,254,54648,1,10,0:0:0:0:
106,197,54863,6,0,L|-9:197,2,100,4|10|10,0:1|0:0|0:0,0:0:0:0:
384,187,55506,1,10,0:0:0:0:
384,187,55934,1,2,0:0:0:0:
384,187,56148,1,2,0:0:0:0:
384,187,56363,1,2,0:0:0:0:
85,180,56577,6,0,L|281:181,1,150,6|0,0:0|0:0,0:0:0:0:
296,180,57006,2,0,L|183:180,1,100,10|2,0:0|3:2,0:0:0:0:
399,66,57434,2,0,P|452:111|365:204,1,200,2|10,1:2|0:0,0:0:0:0:
271,207,58077,1,2,3:2:0:0:
472,329,58291,6,0,L|480:223,2,100,2|2|10,1:2|3:2|0:0,0:0:0:0:
270,368,58934,1,2,3:2:0:0:
320,368,59041,1,8,0:0:0:0:
370,368,59148,1,0,1:0:0:0:
420,368,59255,1,8,0:0:0:0:
470,368,59362,1,2,3:2:0:0:
371,357,59577,2,0,L|483:357,1,100,10|0,0:0|0:0,0:0:0:0:
197,297,60006,6,0,P|157:270|222:199,1,150,2|2,1:2|0:0,0:0:0:0:
251,197,60434,2,0,L|379:198,1,100,10|2,0:0|3:2,0:0:0:0:
230,105,60863,2,0,L|112:103,2,100,2|2|8,1:2|3:2|0:0,0:0:0:0:
350,109,61506,1,2,3:2:0:0:
139,272,61720,6,0,L|127:158,1,100,2|2,1:2|3:2,0:0:0:0:
258,167,62148,2,0,L|272:53,1,100,10|2,0:0|3:2,0:0:0:0:
221,60,62470,1,8,0:0:0:0:
85,51,62577,2,0,L|15:49,1,50,2|8,1:2|0:0,0:0:0:0:
85,51,62791,1,0,3:0:0:0:
294,203,63006,1,10,0:0:0:0:
244,203,63113,1,8,0:0:0:0:
194,203,63220,1,2,3:2:0:0:
465,346,63434,6,0,P|490:295|397:238,1,150,6|0,0:0|0:0,0:0:0:0:
377,228,63863,2,0,L|487:229,1,100,10|2,0:0|3:2,0:0:0:0:
280,169,64291,2,0,P|261:139|366:39,1,200,2|10,1:2|0:0,0:0:0:0:
465,37,64934,1,2,3:2:0:0:
264,248,65148,6,0,L|138:249,2,100,2|2|10,1:2|3:2|0:0,0:0:0:0:
464,246,65791,1,2,3:2:0:0:
487,202,65898,1,8,0:0:0:0:
483,153,66005,1,0,1:0:0:0:
451,116,66112,1,8,0:0:0:0:
404,102,66219,1,2,0:0:0:0:
204,100,66434,2,0,L|198:-1,1,100,10|0,0:0|0:0,0:0:0:0:
475,11,66863,6,0,P|486:73|390:115,1,150,4|0,0:1|0:0,0:0:0:0:
354,131,67291,2,0,L|458:130,1,100,10|2,0:0|3:2,0:0:0:0:
329,253,67720,2,0,L|211:253,2,100,2|2|10,1:2|3:2|0:0,0:0:0:0:
452,256,68363,1,2,3:2:0:0:
181,358,68577,6,0,L|64:357,1,100,10|10,1:2|3:2,0:0:0:0:
290,282,69006,2,0,L|408:283,1,100,10|10,1:2|3:2,0:0:0:0:
104,220,69434,2,0,L|45:220,2,50,0|8|10,1:0|0:0|0:0,0:0:0:0:
157,220,69756,1,0,0:0:0:0:
293,215,69863,2,0,L|303:144,1,50,2|8,1:2|0:0,0:0:0:0:
293,215,70077,1,2,3:2:0:0:
21,354,70291,6,0,L|23:192,1,150,6|0,0:0|0:0,0:0:0:0:
78,201,70720,2,0,L|190:184,1,100,10|2,0:0|3:2,0:0:0:0:
379,273,71148,2,0,L|161:249,1,200,2|10,1:2|0:0,0:0:0:0:
66,234,71791,1,2,3:2:0:0:
268,177,72006,6,0,L|383:159,2,100,2|2|10,1:2|3:2|0:0,0:0:0:0:
60,171,72648,1,2,3:2:0:0:
10,206,72755,1,8,0:0:0:0:
0,266,72862,1,0,1:0:0:0:
36,316,72969,1,8,0:0:0:0:
96,326,73076,1,2,3:2:0:0:
216,326,73291,2,0,L|85:327,1,100,10|0,0:0|0:0,0:0:0:0:
414,266,73720,6,0,P|457:234|402:167,1,150,2|2,1:2|0:0,0:0:0:0:
358,167,74148,1,10,0:0:0:0:
236,166,74363,1,2,3:2:0:0:
365,256,74577,2,0,L|374:135,1,100,2|2,1:2|3:2,0:0:0:0:
248,151,75006,1,8,0:0:0:0:
381,151,75220,1,2,3:2:0:0:
182,290,75434,6,0,L|56:290,2,100,2|2|10,1:2|3:2|0:0,0:0:0:0:
304,290,76077,1,2,3:2:0:0:
104,365,76291,1,0,1:0:0:0:
96,315,76398,1,8,0:0:0:0:
89,266,76505,1,0,3:0:0:0:
296,253,76720,1,10,0:0:0:0:
303,203,76827,1,8,0:0:0:0:
310,154,76934,1,10,0:0:0:0:
38,147,77148,6,0,P|9:195|80:255,1,150,6|0,0:0|0:0,0:0:0:0:
136,260,77577,2,0,L|18:260,1,100,10|2,0:0|3:2,0:0:0:0:
244,192,78006,2,0,P|287:155|203:66,1,200,2|10,1:2|0:0,0:0:0:0:
100,63,78648,1,2,3:2:0:0:
316,195,78863,6,0,L|444:195,2,100,2|2|10,1:2|3:2|0:0,0:0:0:0:
113,315,79506,1,2,3:2:0:0:
162,314,79613,1,8,0:0:0:0:
212,314,79720,1,0,1:0:0:0:
262,313,79827,1,8,0:0:0:0:
312,313,79934,1,2,3:2:0:0:
112,292,80148,2,0,L|112:172,1,100,8|0,0:0|0:0,0:0:0:0:
384,191,80577,6,0,P|410:143|322:89,1,150,4|0,0:1|0:0,0:0:0:0:
296,81,81006,2,0,L|169:81,1,100,10|2,0:0|3:2,0:0:0:0:
320,203,81434,2,0,L|443:205,2,100,2|2|8,1:2|3:2|0:0,0:0:0:0:
264,202,81970,1,8,0:0:0:0:
209,202,82077,1,0,3:0:0:0:
492,364,82291,6,0,L|497:250,1,100,10|10,1:2|1:2,0:0:0:0:
276,245,82934,2,0,L|271:131,1,100,10|10,1:2|1:2,0:0:0:0:
397,140,83363,1,0,1:0:0:0:
107,374,83577,2,0,L|102:260,1,100,8|0,1:0|0:0,0:0:0:0:
384,264,84006,6,0,L|495:265,2,100,6|2|10,0:0|0:0|0:0,0:0:0:0:
325,263,84541,1,2,0:0:0:0:
197,261,84756,2,0,P|176:228|270:157,1,150,2|2,0:0|3:2,0:0:0:0:
358,139,85291,2,0,L|365:26,1,100,10|2,0:0|3:2,0:0:0:0:
85,31,85720,6,0,L|200:31,2,100,2|2|10,1:2|3:2|0:0,0:0:0:0:
38,31,86256,1,2,0:0:0:0:
172,168,86470,1,2,0:0:0:0:
231,169,86577,2,0,L|236:91,1,50,0|0,1:0|0:0,0:0:0:0:
172,168,86791,1,8,3:0:0:0:
41,153,87006,2,0,L|27:42,1,100,8|0,1:3|3:0,0:0:0:0:
310,49,87434,6,0,L|443:49,2,100,2|2|10,1:2|3:2|0:0,0:0:0:0:
266,49,87970,1,2,0:0:0:0:
397,125,88184,2,0,P|418:162|330:216,1,150,2|2,0:0|3:2,0:0:0:0:
149,221,88720,2,0,L|7:221,1,100,14|2,0:0|3:2,0:0:0:0:
321,374,89148,5,6,1:2:0:0:
440,377,89363,2,0,L|532:379,1,50,10|2,0:0|0:0,0:0:0:0:
440,377,89577,1,10,0:0:0:0:
239,304,89791,1,2,1:2:0:0:
170,302,89898,2,0,L|334:302,1,150,4|2,1:2|1:2,0:0:0:0:
115,246,90434,2,0,L|112:136,1,100,14|10,0:0|0:0,0:0:0:0:
405,137,90863,6,0,L|264:136,1,100,6|2,0:0|3:2,0:0:0:0:
425,69,91291,2,0,L|428:-6,1,50,10|2,0:0|0:0,0:0:0:0:
297,23,91613,2,0,L|477:22,1,150,2|2,0:0|3:2,0:0:0:0:
331,130,92148,2,0,L|442:129,1,100,10|2,0:0|3:2,0:0:0:0:
157,292,92577,6,0,L|9:290,2,100,2|2|10,1:2|3:2|0:0,0:0:0:0:
213,293,93113,1,2,0:0:0:0:
88,251,93327,1,2,0:0:0:0:
35,253,93434,2,0,L|16:171,1,50,0|0,1:0|0:0,0:0:0:0:
35,253,93648,1,8,3:0:0:0:
160,265,93863,2,0,L|14:265,1,100,8|0,1:3|3:0,0:0:0:0:
331,358,94291,6,0,L|473:358,2,100,2|2|10,1:2|3:2|0:0,0:0:0:0:
285,358,94827,1,2,0:0:0:0:
415,339,95041,2,0,L|438:174,1,150,2|2,0:0|3:2,0:0:0:0:
235,188,95577,2,0,L|219:71,1,100,14|2,0:0|3:2,0:0:0:0:
494,82,96006,5,6,1:2:0:0:
383,78,96220,1,10,3:2:0:0:
381,102,96327,1,2,0:0:0:0:
379,127,96434,1,10,0:0:0:0:
179,187,96648,1,2,1:2:0:0:
102,188,96756,2,0,L|101:64,1,100,6|0,1:2|1:0,0:0:0:0:
165,89,97077,1,2,0:0:0:0:
367,80,97291,2,0,L|369:159,1,50,14|8,0:0|0:0,0:0:0:0:
323,145,97506,1,10,0:0:0:0:
52,207,97720,5,4,0:1:0:0:
152,207,97934,2,0,L|159:100,2,100,2|10|2,0:0|0:0|0:0,0:0:0:0:
52,207,98577,1,2,1:2:0:0:
262,306,99006,1,10,0:0:0:0:
137,304,99220,1,2,0:0:0:0:
337,233,99434,6,0,L|466:233,2,100,2|2|10,1:2|0:0|0:0,0:0:0:0:
221,233,100077,2,0,L|206:154,1,50,2|0,0:0|0:0,0:0:0:0:
221,233,100291,1,0,1:0:0:0:
332,236,100506,1,2,3:2:0:0:
213,240,100720,2,0,L|188:108,1,100,10|2,0:0|0:0,0:0:0:0:
394,115,101148,6,0,L|261:115,2,100,2|2|10,1:2|0:0|0:0,0:0:0:0:
394,115,101791,1,2,0:0:0:0:
194,203,102006,1,2,1:2:0:0:
410,201,102434,2,0,L|298:201,1,100,8|2,0:0|0:0,0:0:0:0:
109,347,102863,6,0,L|246:348,2,100,2|2|10,1:2|3:2|0:0,0:0:0:0:
228,274,103506,2,0,L|297:274,1,50,2|0,1:2|3:0,0:0:0:0:
228,274,103720,1,2,1:2:0:0:
107,274,103934,1,2,3:2:0:0:
207,274,104148,2,0,L|103:274,1,100,10|2,0:0|3:2,0:0:0:0:
384,191,104577,5,0,1:0:0:0:
494,191,104791,2,0,L|503:68,2,100,2|10|2,0:0|0:0|0:0,0:0:0:0:
384,191,105434,1,2,1:2:0:0:
174,311,105863,1,10,0:0:0:0:
302,311,106077,1,2,0:0:0:0:
100,242,106291,6,0,L|-14:241,2,100,0|2|10,1:0|0:0|0:0,0:0:0:0:
225,242,106934,2,0,L|230:165,1,50,2|0,0:0|0:0,0:0:0:0:
225,242,107148,1,0,1:0:0:0:
118,242,107363,1,2,3:2:0:0:
319,336,107577,2,0,L|446:338,1,100,10|2,1:2|3:2,0:0:0:0:
145,377,108006,6,0,P|112:352|209:281,1,200,4|8,1:0|0:0,0:0:0:0:
296,266,108648,1,2,0:0:0:0:
94,238,108863,2,0,L|69:128,2,100,2|0|12,1:2|0:0|0:0,0:0:0:0:
214,240,109506,1,2,0:0:0:0:
486,325,109720,5,2,1:2:0:0:
494,280,109827,2,0,L|373:265,1,100,8|0,1:2|0:0,0:0:0:0:
325,258,110148,1,10,1:2:0:0:
253,248,110256,2,0,L|374:233,1,100,8|8,0:0|0:0,0:0:0:0:
487,225,110577,2,0,L|496:117,1,100,4|8,0:1|0:0,0:0:0:0:
435,117,110898,1,8,0:0:0:0:
296,168,111006,2,0,L|182:166,1,100,10|0,1:2|1:0,0:0:0:0:
467,55,111434,6,0,P|502:112|396:178,1,200,6|10,0:0|0:0,0:0:0:0:
360,208,111970,1,2,0:0:0:0:
336,264,112077,1,2,3:2:0:0:
359,321,112184,1,2,0:0:0:0:
413,346,112291,2,0,L|525:345,1,100,2|2,1:2|0:0,0:0:0:0:
226,232,112720,2,0,L|166:233,1,50,10|2,0:0|0:0,0:0:0:0:
176,232,112934,2,0,L|226:232,1,50,2|2,3:2|0:0,0:0:0:0:
361,233,113148,5,2,1:2:0:0:
369,148,113363,1,2,3:2:0:0:
319,141,113470,1,0,0:0:0:0:
269,135,113577,1,10,0:0:0:0:
369,148,113791,1,2,0:0:0:0:
164,334,114006,2,0,L|86:333,2,50,2|0|0,1:2|0:0|3:0,0:0:0:0:
294,336,114434,2,0,L|294:222,1,100,10|0,0:0|3:0,0:0:0:0:
13,225,114863,6,0,L|144:226,2,100,2|2|10,1:2|3:2|0:0,0:0:0:0:
143,158,115506,2,0,L|214:158,1,50,2|2,0:0|3:2,0:0:0:0:
141,144,115720,2,0,L|21:142,1,100,2|2,1:2|3:2,0:0:0:0:
247,57,116148,1,10,0:0:0:0:
271,99,116255,1,2,0:0:0:0:
263,147,116362,1,2,3:2:0:0:
226,179,116469,1,2,0:0:0:0:
88,183,116577,6,0,L|25:183,2,50,2|2|2,1:2|0:0|3:2,0:0:0:0:
138,184,116898,1,2,0:0:0:0:
195,186,117006,2,0,L|196:126,1,50,10|2,0:0|0:0,0:0:0:0:
138,184,117220,1,2,0:0:0:0:
339,309,117434,2,0,L|393:309,2,50,10|10|2,0:0|0:0|3:2,0:0:0:0:
283,309,117756,1,2,0:0:0:0:
145,356,117863,2,0,L|69:357,2,50,10|10|2,0:0|0:0|3:2,0:0:0:0:
423,363,118291,6,0,L|439:251,1,100,6|2,0:0|0:0,0:0:0:0:
380,255,118613,1,2,0:0:0:0:
322,250,118720,2,0,L|438:251,1,100,10|2,0:0|3:2,0:0:0:0:
220,172,119148,1,2,1:2:0:0:
108,175,119363,1,2,3:2:0:0:
158,175,119470,1,2,0:0:0:0:
208,175,119577,1,10,0:0:0:0:
332,177,119791,1,2,3:2:0:0:
50,310,120006,6,0,L|45:200,1,100,2|2,1:2|3:2,0:0:0:0:
159,201,120434,1,10,0:0:0:0:
359,201,120648,2,0,P|388:169|301:73,1,200,2|2,3:2|3:2,0:0:0:0:
436,76,121291,2,0,L|435:185,1,100,10|2,0:0|3:2,0:0:0:0:
161,313,121720,6,0,L|58:314,1,100,2|2,1:2|3:2,0:0:0:0:
118,309,122041,1,2,0:0:0:0:
184,304,122148,1,10,0:0:0:0:
57,280,122363,2,0,L|44:222,1,50,2|2,3:2|0:0,0:0:0:0:
57,280,122577,1,2,1:2:0:0:
258,366,122791,2,0,L|271:308,1,50,2|2,3:2|0:0,0:0:0:0:
258,366,123005,1,14,0:0:0:0:
142,364,123220,1,2,0:0:0:0:
413,275,123434,5,10,1:2:0:0:
445,219,123541,1,8,0:0:0:0:
421,159,123648,1,2,3:2:0:0:
360,140,123755,1,2,0:0:0:0:
223,140,123863,2,0,L|78:139,1,100,14|2,3:2|1:2,0:0:0:0:
188,141,124184,2,0,L|374:143,1,150,14|10,0:0|0:0,0:0:0:0:
56,330,124720,2,0,L|34:264,1,50,10|0,0:0|1:0,0:0:0:0:
91,266,124934,1,2,1:2:0:0:
382,241,125148,6,0,P|412:203|308:102,1,200,4|0,1:0|1:0,0:0:0:0:
213,94,125791,1,2,0:0:0:0:
339,96,126006,2,0,P|390:133|313:228,1,200,2|0,1:2|1:0,0:0:0:0:
219,228,126648,1,2,0:0:0:0:
28,335,126863,6,0,L|249:334,2,200,2|2|2,1:2|1:2|1:2,0:0:0:0:
225,278,128148,2,0,L|225:160,1,100,2|2,1:2|0:0,0:0:0:0:
417,181,128577,6,0,L|301:180,2,100,2|0|2,1:2|0:0|1:2,0:0:0:0:
417,181,129220,1,2,0:0:0:0:
227,220,129434,1,2,1:2:0:0:
191,148,129648,1,0,0:0:0:0:
231,78,129862,1,2,1:2:0:0:
310,71,130076,1,2,0:2:0:0:
118,180,130291,6,0,L|248:179,2,100,2|0|2,1:2|0:0|1:2,0:0:0:0:
118,180,130934,1,2,0:2:0:0:
307,344,131148,1,0,1:0:0:0:
343,272,131362,1,0,0:0:0:0:
303,202,131576,1,0,1:0:0:0:
221,195,131790,1,0,0:0:0:0:
496,145,132006,6,0,P|501:208|377:250,1,200,2|0,1:2|1:0,0:0:0:0:
285,262,132648,1,2,0:0:0:0:
170,260,132863,2,0,L|399:262,1,200,2|0,1:2|1:0,0:0:0:0:
479,262,133506,1,2,0:0:0:0:
289,361,133720,6,0,L|218:363,1,50,2|0,1:2|0:0,0:0:0:0:
289,361,133934,1,0,0:0:0:0:
410,363,134148,2,0,L|410:237,1,100,2|0,1:2|0:0,0:0:0:0:
283,262,134577,2,0,P|263:233|367:128,1,200,2|2,1:2|1:2,0:0:0:0:
447,124,135220,1,2,0:0:0:0:
260,257,135434,6,0,L|145:257,1,100,2|0,1:2|0:0,0:0:0:0:
290,188,135863,2,0,L|289:80,1,100,2|2,1:2|0:0,0:0:0:0:
99,83,136291,1,2,1:2:0:0:
53,167,136505,1,0,0:0:0:0:
92,255,136719,1,2,1:2:0:0:
185,278,136933,1,2,0:0:0:0:
376,346,137148,6,0,L|261:346,1,100,2|0,1:2|0:0,0:0:0:0:
406,277,137577,2,0,L|405:169,1,100,2|2,1:2|0:0,0:0:0:0:
214,171,138006,2,0,L|69:170,1,100,0|0,1:0|0:0,0:0:0:0:
234,61,138434,2,0,L|379:60,1,100,0|0,1:0|0:0,0:0:0:0:
256,192,138863,12,2,141434,0:0:0:0:
128,200,142291,5,2,0:0:0:0:
292,201,143148,1,2,0:0:0:0:
456,202,144006,1,2,0:0:0:0:
292,201,144648,1,2,0:0:0:0:
456,202,145291,1,2,0:0:0:0:
456,202,145720,5,2,0:0:0:0:
292,203,146577,1,2,0:0:0:0:
128,204,147435,1,2,0:0:0:0:
128,204,148506,5,0,0:0:0:0:
228,204,148720,2,0,L|120:204,1,100,2|0,3:2|0:0,0:0:0:0:
341,91,149148,6,0,P|365:128|250:209,1,200,2|2,0:0|0:0,0:0:0:0:
174,220,149791,1,2,0:0:0:0:
277,223,150006,2,0,P|327:192|263:87,1,200,2|2,0:0|0:0,0:0:0:0:
173,85,150648,1,2,0:0:0:0:
63,81,150863,6,0,L|169:81,2,100,2|2|2,0:0|0:0|0:0,0:0:0:0:
185,22,151506,2,0,P|206:81|76:144,1,200,2|10,0:0|0:0,0:0:0:0:
53,162,152041,1,8,0:0:0:0:
22,213,152148,1,10,0:0:0:0:
48,267,152255,1,8,0:0:0:0:
107,276,152362,1,8,0:0:0:0:
171,278,152470,1,8,0:0:0:0:
306,279,152577,5,10,0:0:0:0:
350,258,152684,1,8,0:0:0:0:
368,212,152791,1,8,0:0:0:0:
350,167,152898,1,8,0:0:0:0:
306,146,153005,1,10,0:0:0:0:
197,144,153220,1,10,0:0:0:0:
388,55,153434,5,10,0:0:0:0:
421,90,153541,1,8,0:0:0:0:
423,139,153648,1,10,0:0:0:0:
393,178,153755,1,8,0:0:0:0:
349,191,153863,1,10,0:0:0:0:
315,226,153970,1,0,0:0:0:0:
313,275,154077,1,2,1:2:0:0:
343,314,154184,1,0,1:0:0:0:
480,341,154291,6,0,L|495:222,1,100,10|10,1:2|1:2,0:0:0:0:
191,228,154720,2,0,L|176:109,1,100,10|10,1:2|1:2,0:0:0:0:
380,128,155363,1,4,0:1:0:0:
109,240,155577,2,0,L|30:239,1,50,8|8,0:0|0:0,0:0:0:0:
109,240,155791,1,8,0:0:0:0:
413,239,156006,6,0,L|242:239,1,150,6|0,1:2|0:0,0:0:0:0:
202,238,156434,2,0,L|336:236,1,100,10|2,0:0|3:2,0:0:0:0:
100,170,156863,2,0,P|72:144|157:37,1,200,2|10,1:2|0:0,0:0:0:0:
263,40,157506,1,2,3:2:0:0:
463,124,157720,6,0,L|325:124,2,100,2|2|10,1:2|3:2|0:0,0:0:0:0:
263,242,158363,1,2,3:2:0:0:
313,242,158470,1,8,0:0:0:0:
363,242,158577,1,0,1:0:0:0:
413,242,158684,1,8,0:0:0:0:
463,242,158791,1,2,3:2:0:0:
347,320,159006,2,0,L|469:319,1,100,10|0,0:0|0:0,0:0:0:0:
176,379,159434,6,0,P|130:350|214:250,1,200,2|10,1:2|0:0,0:0:0:0:
292,245,160077,1,2,3:2:0:0:
182,232,160291,2,0,L|103:232,1,50,2|0,1:2|0:0,0:0:0:0:
182,232,160506,1,2,3:2:0:0:
306,229,160720,2,0,L|306:118,1,100,8|2,0:0|3:2,0:0:0:0:
107,132,161148,6,0,L|-6:131,1,100,2|2,1:2|3:2,0:0:0:0:
280,269,161577,2,0,P|324:231|247:142,1,200,14|8,0:0|1:2,0:0:0:0:
199,140,162113,1,8,0:0:0:0:
252,140,162220,1,0,3:0:0:0:
455,211,162434,2,0,L|519:212,1,50,10|8,0:0|0:0,0:0:0:0:
455,211,162648,1,2,3:2:0:0:
176,376,162863,6,0,P|132:351|198:287,1,150,6|0,0:0|0:0,0:0:0:0:
224,278,163291,2,0,L|353:280,1,100,10|2,0:0|3:2,0:0:0:0:
119,212,163720,2,0,P|100:158|231:103,1,200,2|10,1:2|0:0,0:0:0:0:
87,86,164363,1,2,3:2:0:0:
286,223,164577,6,0,L|390:222,2,100,2|2|10,1:2|3:2|0:0,0:0:0:0:
76,342,165220,1,2,3:2:0:0:
44,289,165327,1,8,0:0:0:0:
55,228,165434,1,0,1:0:0:0:
101,189,165541,1,8,0:0:0:0:
163,188,165648,1,2,3:2:0:0:
366,193,165863,2,0,L|366:74,1,100,10|0,0:0|0:0,0:0:0:0:
91,84,166291,6,0,L|328:84,1,200,2|10,1:2|0:0,0:0:0:0:
394,84,166934,1,2,3:2:0:0:
192,193,167148,2,0,L|90:193,1,100,2|0,1:2|3:0,0:0:0:0:
366,350,167577,2,0,L|365:243,1,100,14|2,0:0|3:2,0:0:0:0:
92,262,168006,6,0,L|217:262,2,100,8|8|0,0:0|0:0|1:0,0:0:0:0:
144,262,168541,1,0,1:0:0:0:
276,335,168648,2,0,L|389:335,1,100,8|8,0:0|0:0,0:0:0:0:
256,263,169077,2,0,L|189:261,1,50,0|0,1:0|1:0,0:0:0:0:
273,189,169291,2,0,L|392:189,1,100,12|0,0:0|0:0,0:0:0:0:
82,69,169720,6,0,L|11:69,1,50,4|0,1:0|1:0,0:0:0:0:
82,69,169934,1,8,1:2:0:0:
137,69,170041,1,8,0:0:0:0:
274,73,170148,2,0,L|361:74,1,50,8|8,0:0|0:0,0:0:0:0:
205,191,170470,1,8,0:0:0:0:
339,193,170577,2,0,L|464:192,2,66.6666666666667,8|0|0,0:0|1:0|1:0,0:0:0:0:
123,341,171006,2,0,L|123:223,1,100,14|0,0:0|0:0,0:0:0:0:
415,238,171434,6,0,P|462:193|398:128,1,150,4|0,0:3|0:0,0:0:0:0:
356,128,171863,2,0,L|469:129,1,100,10|2,0:0|3:2,0:0:0:0:
255,302,172291,2,0,P|209:277|280:183,1,200,2|10,1:2|0:0,0:0:0:0:
376,184,172934,1,2,3:2:0:0:
102,361,173148,6,0,L|-7:361,2,100,2|2|10,1:2|3:2|0:0,0:0:0:0:
310,366,173791,1,2,3:2:0:0:
312,316,173898,1,8,0:0:0:0:
314,266,174005,1,0,1:0:0:0:
257,261,174113,1,8,0:0:0:0:
197,257,174220,1,2,3:2:0:0:
316,193,174434,2,0,L|439:193,1,100,10|0,0:0|0:0,0:0:0:0:
143,94,174863,6,0,P|105:127|180:225,1,200,2|10,1:2|0:0,0:0:0:0:
278,228,175506,1,2,3:2:0:0:
166,227,175720,2,0,L|167:342,1,100,2|2,1:2|3:2,0:0:0:0:
219,335,176041,1,0,0:0:0:0:
275,342,176148,1,8,0:0:0:0:
168,363,176363,1,2,3:2:0:0:
368,293,176577,6,0,L|489:293,1,100,2|2,1:2|3:2,0:0:0:0:
195,233,177006,2,0,P|152:209|229:109,1,200,14|2,0:0|1:2,0:0:0:0:
269,105,177541,1,8,0:0:0:0:
332,108,177648,1,0,3:0:0:0:
205,188,177863,2,0,L|316:189,1,100,10|10,0:0|1:2,0:0:0:0:
33,370,178291,6,0,L|28:208,1,150,6|0,0:0|0:0,0:0:0:0:
82,215,178720,2,0,L|201:202,1,100,10|2,0:0|3:2,0:0:0:0:
382,199,179148,2,0,L|161:176,1,200,2|10,1:2|0:0,0:0:0:0:
75,158,179791,1,2,3:2:0:0:
347,97,180006,6,0,L|461:96,2,100,2|2|10,1:2|3:2|0:0,0:0:0:0:
147,202,180648,1,2,3:2:0:0:
196,201,180755,1,8,0:0:0:0:
246,200,180862,1,0,1:0:0:0:
296,199,180969,1,8,0:0:0:0:
346,198,181076,1,2,3:2:0:0:
145,354,181291,2,0,L|145:245,1,100,10|0,0:0|0:0,0:0:0:0:
423,252,181720,6,0,P|455:213|374:149,1,150,2|0,1:2|0:0,0:0:0:0:
342,142,182148,2,0,L|211:143,1,100,10|2,0:0|3:2,0:0:0:0:
444,54,182577,2,0,L|451:178,1,100,2|2,1:2|3:2,0:0:0:0:
325,218,183006,2,0,L|441:217,1,100,8|2,0:0|3:2,0:0:0:0:
153,362,183434,6,0,L|30:363,2,100,2|2|14,1:2|3:2|0:0,0:0:0:0:
356,368,184077,2,0,L|359:298,1,50,2|0,0:0|1:0,0:0:0:0:
286,308,184291,2,0,L|222:307,1,50,8|8,0:0|0:0,0:0:0:0:
286,308,184506,1,2,3:2:0:0:
488,307,184720,1,8,0:0:0:0:
490,257,184827,1,0,1:2:0:0:
492,207,184934,1,0,1:2:0:0:
215,187,185148,6,0,P|172:164|239:104,1,150,6|0,0:0|0:0,0:0:0:0:
270,94,185577,2,0,L|395:95,1,100,10|2,0:0|3:2,0:0:0:0:
167,237,186006,2,0,L|394:237,1,200,2|10,1:2|0:0,0:0:0:0:
479,237,186648,1,2,3:2:0:0:
197,355,186863,6,0,L|65:353,2,100,2|2|10,1:2|3:2|0:0,0:0:0:0:
403,357,187506,1,2,3:2:0:0:
427,300,187613,1,8,0:0:0:0:
414,240,187720,1,0,1:0:0:0:
367,201,187827,1,8,0:0:0:0:
306,197,187934,1,2,3:2:0:0:
431,193,188148,2,0,L|433:60,1,100,8|0,0:0|0:0,0:0:0:0:
157,78,188577,6,0,L|372:79,1,200,2|10,1:2|0:0,0:0:0:0:
241,63,189220,1,2,3:2:0:0:
41,49,189434,2,0,L|33:111,1,50,2|0,1:2|0:0,0:0:0:0:
41,49,189648,1,2,3:2:0:0:
155,184,189863,2,0,L|24:182,1,100,8|2,0:0|3:2,0:0:0:0:
260,304,190291,6,0,L|393:303,1,100,2|2,1:2|3:2,0:0:0:0:
88,379,190720,2,0,P|46:355|108:243,1,200,12|8,0:0|0:0,0:0:0:0:
146,245,191256,1,8,0:0:0:0:
199,247,191363,1,0,3:0:0:0:
399,252,191577,2,0,L|404:194,1,50,10|8,1:2|0:0,0:0:0:0:
356,196,191791,1,10,3:2:0:0:
84,131,192006,6,0,P|36:165|118:209,1,150,6|0,0:0|0:0,0:0:0:0:
136,231,192434,2,0,L|1:238,1,100,10|2,0:0|3:2,0:0:0:0:
237,366,192863,2,0,P|294:346|244:231,1,200,2|10,1:2|0:0,0:0:0:0:
153,225,193506,1,2,3:2:0:0:
425,184,193720,6,0,L|443:69,1,100,2|2,1:2|3:2,0:0:0:0:
335,66,194148,1,10,0:0:0:0:
134,55,194363,2,0,L|126:132,1,50,0|8,3:0|0:0,0:0:0:0:
120,176,194577,1,0,1:0:0:0:
175,184,194684,1,8,0:0:0:0:
230,193,194791,1,2,3:2:0:0:
23,323,195006,2,0,L|17:209,1,100,10|0,0:0|0:0,0:0:0:0:
291,356,195434,6,0,L|356:354,1,50,2|0,1:2|0:0,0:0:0:0:
291,356,195648,1,2,3:2:0:0:
87,356,195863,2,0,L|81:248,1,100,10|2,0:0|3:2,0:0:0:0:
206,242,196291,2,0,L|70:240,2,100,2|2|10,1:2|3:2|0:0,0:0:0:0:
314,242,196934,1,2,3:2:0:0:
40,150,197148,6,0,L|30:51,1,100,2|2,1:2|3:2,0:0:0:0:
228,315,197577,2,0,L|238:216,1,100,12|2,0:0|0:0,0:0:0:0:
179,205,197898,1,8,0:0:0:0:
43,194,198006,2,0,L|35:135,1,50,8|8,1:2|0:0,0:0:0:0:
83,134,198220,1,0,3:2:0:0:
283,137,198434,2,0,L|154:137,1,100,8|8,0:0|0:0,0:0:0:0:
459,32,198863,6,0,P|501:79|417:157,1,200,4|10,0:1|0:0,0:0:0:0:
317,157,199506,1,2,3:2:0:0:
113,155,199720,2,0,L|103:265,1,100,2|2,1:2|3:2,0:0:0:0:
396,357,200148,2,0,L|459:355,2,50,10|8|2,0:0|0:0|3:2,0:0:0:0:
110,362,200577,6,0,L|5:363,1,100,10|10,0:0|0:0,0:0:0:0:
241,234,201220,2,0,L|346:235,1,100,10|10,0:0|0:0,0:0:0:0:
213,160,201648,1,0,1:0:0:0:
492,138,201863,2,0,L|493:249,1,100,8|0,1:0|0:0,0:0:0:0:
187,352,202291,6,0,L|80:351,2,100,6|2|10,0:0|0:0|0:0,0:0:0:0:
243,353,202827,1,2,0:0:0:0:
115,266,203041,1,2,0:0:0:0:
59,264,203148,2,0,L|45:205,1,50,0|2,1:0|0:0,0:0:0:0:
115,266,203363,1,2,3:2:0:0:
240,266,203577,2,0,L|104:266,1,100,10|2,0:0|3:2,0:0:0:0:
415,177,204006,6,0,L|504:177,1,50,2|0,1:2|0:0,0:0:0:0:
415,177,204220,1,2,3:2:0:0:
259,175,204434,1,10,0:0:0:0:
203,178,204541,2,0,L|345:177,1,100,2|2,0:0|0:0,0:0:0:0:
359,178,204863,2,0,L|358:109,1,50,0|0,1:0|0:0,0:0:0:0:
221,105,205077,2,0,L|86:107,2,100,8|8|0,3:0|1:3|3:0,0:0:0:0:
494,111,205720,6,0,L|491:228,1,100,2|2,1:2|3:2,0:0:0:0:
366,258,206148,2,0,L|357:189,1,50,10|2,0:0|0:0,0:0:0:0:
222,195,206470,1,2,0:0:0:0:
166,191,206577,2,0,L|157:131,1,50,0|2,1:0|0:0,0:0:0:0:
166,191,206791,1,2,3:2:0:0:
369,117,207006,2,0,L|494:118,1,100,14|2,0:0|0:0,0:0:0:0:
191,328,207434,6,0,L|50:328,1,100,6|10,1:2|0:0,0:0:0:0:
145,317,207756,1,2,0:0:0:0:
282,311,207863,2,0,L|393:310,1,100,10|2,0:0|1:2,0:0:0:0:
324,303,208184,2,0,L|190:302,1,100,6|2,1:2|1:2,0:0:0:0:
160,301,208506,1,2,1:2:0:0:
435,215,208720,2,0,L|444:159,1,50,14|0,0:0|0:0,0:0:0:0:
435,215,208934,1,10,1:2:0:0:
146,200,209148,6,0,L|23:200,2,100,6|2|10,0:0|3:2|0:0,0:0:0:0:
200,200,209684,1,2,0:0:0:0:
320,200,209898,1,2,0:0:0:0:
376,201,210006,2,0,L|387:129,1,50,0|2,1:0|0:0,0:0:0:0:
320,200,210220,1,2,3:2:0:0:
192,248,210434,2,0,L|66:246,1,100,10|2,0:0|3:2,0:0:0:0:
365,240,210863,6,0,L|440:239,1,50,2|0,1:2|0:0,0:0:0:0:
365,240,211077,1,2,3:2:0:0:
240,238,211291,1,10,0:0:0:0:
182,238,211398,2,0,L|177:113,1,100,2|2,0:0|0:0,0:0:0:0:
249,131,211720,2,0,L|320:123,1,50,0|0,1:0|0:0,0:0:0:0:
164,61,211934,2,0,L|22:63,2,100,8|8|0,3:0|1:3|3:0,0:0:0:0:
437,240,212577,6,0,L|313:238,2,100,2|2|10,1:2|3:2|0:0,0:0:0:0:
492,242,213113,1,2,0:0:0:0:
370,357,213327,1,2,0:0:0:0:
356,310,213434,1,0,1:0:0:0:
379,267,213541,1,2,0:0:0:0:
426,254,213648,1,2,3:2:0:0:
221,250,213863,2,0,L|114:249,1,100,14|2,0:0|3:2,0:0:0:0:
433,159,214291,6,0,L|444:51,1,100,6|2,1:2|1:2,0:0:0:0:
387,54,214613,1,2,1:2:0:0:
253,49,214720,2,0,L|110:75,1,100,10|2,0:0|1:2,0:0:0:0:
223,89,215041,2,0,L|335:115,1,100,6|0,1:2|1:0,0:0:0:0:
374,124,215363,1,2,0:0:0:0:
93,317,215577,5,10,0:0:0:0:
58,244,215684,1,8,0:0:0:0:
95,173,215791,1,10,0:0:0:0:
174,160,215898,1,8,1:2:0:0:
