osu file format v14

[General]
AudioFilename: audio.mp3
AudioLeadIn: 0
PreviewTime: 141648
Countdown: 0
SampleSet: Soft
StackLeniency: 0.7
Mode: 2
LetterboxInBreaks: 0
WidescreenStoryboard: 1

[Editor]
DistanceSpacing: 0.2
BeatDivisor: 4
GridSize: 32
TimelineZoom: 2.1

[Metadata]
Title:Moonlight at midday
TitleUnicode:真昼の月明かり
Artist:Tsukuyomi
ArtistUnicode:月詠み
Creator:Crowley
Version:Indigo goodbyes
Source:
Tags:Mahiru no Tsukiakari ユリイカノン ユリイ・カノン yurry cannon YurryCanon mikoto エポック epoch とうかさ toukasa japanese rock j-rock jrock j-pop jpop pop Mononymous
BeatmapID:3152662
BeatmapSetID:1539314

[Difficulty]
HPDrainRate:6
CircleSize:4.2
OverallDifficulty:9
ApproachRate:9
SliderMultiplier:2.5
SliderTickRate:2

[Events]
//Background and Video events
0,0,"bg.jpg",0,0
//Break Periods
//Storyboard Layer 0 (Background)
//Storyboard Layer 1 (Fail)
//Storyboard Layer 2 (Pass)
//Storyboard Layer 3 (Foreground)
//Storyboard Layer 4 (Overlay)
//Storyboard Sound Samples

[TimingPoints]
6,428.571428571429,4,2,1,50,1,0
1720,-100,4,2,1,60,0,0
4184,-100,4,2,2,60,0,0
4398,-100,4,2,1,60,0,0
13720,-100,4,2,1,55,0,0
15006,-83.3333333333333,4,2,1,75,0,0
15434,-83.3333333333333,4,2,1,80,0,1
15648,-83.3333333333333,4,2,1,80,0,0
18220,-40,4,2,1,80,0,0
18648,-83.3333333333333,4,2,1,80,0,0
25077,-40,4,2,1,80,0,0
25505,-83.3333333333333,4,2,1,80,0,0
29148,-100,4,2,1,60,0,0
32898,-100,4,2,2,60,0,0
33112,-100,4,2,1,60,0,0
42863,-100,4,2,1,65,0,0
53898,-66.6666666666667,4,2,1,65,0,0
54434,-90.9090909090909,4,2,1,65,0,0
54863,-41.6666666666667,4,2,1,65,0,0
55050,-41.6666666666667,4,2,1,5,0,0
55077,-62.5,4,2,1,65,0,0
55264,-41.6666666666667,4,2,1,5,0,0
55291,-34.4827586206897,4,2,1,65,0,0
55452,-41.6666666666667,4,2,1,35,0,0
55506,-34.4827586206897,4,2,1,65,0,0
56577,-76.9230769230769,4,2,1,85,0,1
68577,-41.6666666666667,4,2,1,85,0,1
68764,-41.6666666666667,4,2,1,5,0,1
68791,-62.5,4,2,1,85,0,1
68979,-41.6666666666667,4,2,1,5,0,1
69006,-41.6666666666667,4,2,1,85,0,1
69166,-41.6666666666667,4,2,1,45,0,1
69220,-41.6666666666667,4,2,1,85,0,1
69434,-76.9230769230769,4,2,1,85,0,1
82291,-76.9230769230769,4,2,1,75,0,0
83577,-66.6666666666667,4,2,1,85,0,0
84006,-83.3333333333333,4,2,1,80,0,1
84220,-83.3333333333333,4,2,1,80,0,0
86791,-40,4,2,1,80,0,0
87219,-83.3333333333333,4,2,1,80,0,0
93648,-40,4,2,1,80,0,0
94076,-83.3333333333333,4,2,1,80,0,0
97719,-100,4,2,1,65,0,0
107363,-100,4,2,1,70,0,0
108006,-100,4,2,1,75,0,0
109720,-100,4,2,1,80,0,0
111434,-83.3333333333333,4,2,23,80,0,1
111541,-83.3333333333333,4,2,1,80,0,1
111648,-83.3333333333333,4,2,22,80,0,1
111756,-83.3333333333333,4,2,1,80,0,1
111863,-83.3333333333333,4,2,23,80,0,1
111970,-83.3333333333333,4,2,22,80,0,1
112077,-83.3333333333333,4,2,20,80,0,1
112184,-83.3333333333333,4,2,14,80,0,1
112291,-83.3333333333333,4,2,15,80,0,1
112506,-83.3333333333333,4,2,1,80,0,1
112720,-83.3333333333333,4,2,16,80,0,1
112827,-83.3333333333333,4,2,17,80,0,1
112934,-83.3333333333333,4,2,15,80,0,1
113041,-83.3333333333333,4,2,18,80,0,1
113148,-83.3333333333333,4,2,19,80,0,1
113256,-83.3333333333333,4,2,1,80,0,1
113363,-83.3333333333333,4,2,20,80,0,1
113470,-83.3333333333333,4,2,1,80,0,1
113577,-83.3333333333333,4,2,21,80,0,1
113684,-83.3333333333333,4,2,1,80,0,1
113791,-83.3333333333333,4,2,22,80,0,1
113898,-83.3333333333333,4,2,1,80,0,1
114006,-83.3333333333333,4,2,14,80,0,1
114220,-83.3333333333333,4,2,1,80,0,1
114434,-83.3333333333333,4,2,17,80,0,1
114648,-83.3333333333333,4,2,1,80,0,1
114863,-83.3333333333333,4,2,22,80,0,1
114970,-83.3333333333333,4,2,1,80,0,1
115077,-83.3333333333333,4,2,23,80,0,1
115184,-83.3333333333333,4,2,1,80,0,1
115291,-83.3333333333333,4,2,20,80,0,1
115398,-83.3333333333333,4,2,23,80,0,1
115506,-83.3333333333333,4,2,20,80,0,1
115613,-83.3333333333333,4,2,18,80,0,1
115720,-83.3333333333333,4,2,19,80,0,1
115827,-83.3333333333333,4,2,1,80,0,1
115934,-83.3333333333333,4,2,17,80,0,1
116041,-83.3333333333333,4,2,1,80,0,1
116148,-83.3333333333333,4,2,14,80,0,1
116256,-83.3333333333333,4,2,15,80,0,1
116363,-83.3333333333333,4,2,19,80,0,1
116470,-83.3333333333333,4,2,25,80,0,1
116577,-83.3333333333333,4,2,23,80,0,1
116684,-83.3333333333333,4,2,22,80,0,1
116791,-83.3333333333333,4,2,19,80,0,1
116898,-83.3333333333333,4,2,14,80,0,1
117006,-83.3333333333333,4,2,22,80,0,1
117113,-83.3333333333333,4,2,20,80,0,1
117220,-83.3333333333333,4,2,14,80,0,1
117327,-83.3333333333333,4,2,26,80,0,1
117434,-83.3333333333333,4,2,22,80,0,1
117541,-83.3333333333333,4,2,14,80,0,1
117648,-83.3333333333333,4,2,26,80,0,1
117756,-83.3333333333333,4,2,27,80,0,1
117863,-83.3333333333333,4,2,16,80,0,1
117970,-83.3333333333333,4,2,17,80,0,1
118077,-83.3333333333333,4,2,15,80,0,1
118184,-83.3333333333333,4,2,1,80,0,1
118291,-83.3333333333333,4,2,14,80,0,1
118398,-83.3333333333333,4,2,1,80,0,1
118506,-83.3333333333333,4,2,19,80,0,1
118613,-83.3333333333333,4,2,15,80,0,1
118720,-83.3333333333333,4,2,14,80,0,1
118827,-83.3333333333333,4,2,1,80,0,1
118934,-83.3333333333333,4,2,26,80,0,1
119041,-83.3333333333333,4,2,1,80,0,1
119148,-83.3333333333333,4,2,16,80,0,1
119256,-83.3333333333333,4,2,1,80,0,1
119363,-83.3333333333333,4,2,17,80,0,1
119470,-83.3333333333333,4,2,16,80,0,1
119577,-83.3333333333333,4,2,17,80,0,1
119684,-83.3333333333333,4,2,1,80,0,1
119791,-83.3333333333333,4,2,14,80,0,1
119898,-83.3333333333333,4,2,1,80,0,1
120006,-83.3333333333333,4,2,21,80,0,1
120113,-83.3333333333333,4,2,1,80,0,1
120220,-83.3333333333333,4,2,14,80,0,1
120327,-83.3333333333333,4,2,1,80,0,1
120434,-83.3333333333333,4,2,17,80,0,1
120541,-83.3333333333333,4,2,1,80,0,1
120648,-83.3333333333333,4,2,26,80,0,1
120863,-83.3333333333333,4,2,19,65,0,1
120970,-83.3333333333333,4,2,1,80,0,1
121077,-83.3333333333333,4,2,16,80,0,1
121184,-83.3333333333333,4,2,1,80,0,1
121291,-83.3333333333333,4,2,17,80,0,1
121398,-83.3333333333333,4,2,1,80,0,1
121506,-83.3333333333333,4,2,26,80,0,1
121613,-83.3333333333333,4,2,1,80,0,1
121720,-83.3333333333333,4,2,27,80,0,1
121934,-83.3333333333333,4,2,16,80,0,1
122041,-83.3333333333333,4,2,27,80,0,1
122148,-83.3333333333333,4,2,26,80,0,1
122256,-83.3333333333333,4,2,1,80,0,1
122363,-83.3333333333333,4,2,17,80,0,1
122470,-83.3333333333333,4,2,26,80,0,1
122577,-83.3333333333333,4,2,17,80,0,1
122684,-83.3333333333333,4,2,1,80,0,1
122791,-83.3333333333333,4,2,14,80,0,1
122898,-83.3333333333333,4,2,17,80,0,1
123006,-83.3333333333333,4,2,15,80,0,1
123113,-83.3333333333333,4,2,1,80,0,1
123220,-83.3333333333333,4,2,19,80,0,1
123327,-83.3333333333333,4,2,15,80,0,1
123434,-83.3333333333333,4,2,14,80,0,1
123541,-83.3333333333333,4,2,1,80,0,1
123648,-83.3333333333333,4,2,19,80,0,1
123756,-83.3333333333333,4,2,22,70,0,1
123863,-83.3333333333333,4,2,17,80,0,1
123970,-83.3333333333333,4,2,1,80,0,1
124077,-83.3333333333333,4,2,19,80,0,1
124184,-83.3333333333333,4,2,22,70,0,1
124291,-83.3333333333333,4,2,26,80,0,1
124398,-83.3333333333333,4,2,1,80,0,1
124506,-83.3333333333333,4,2,19,80,0,1
124613,-83.3333333333333,4,2,22,70,0,1
124720,-83.3333333333333,4,2,16,80,0,1
124827,-83.3333333333333,4,2,1,80,0,1
124934,-83.3333333333333,4,2,20,75,0,1
125041,-83.3333333333333,4,2,1,80,0,1
125148,-100,4,2,1,55,0,0
138863,-100,4,2,1,45,0,0
142291,-100,4,2,1,30,0,0
148506,-100,4,2,1,40,0,0
149148,-100,4,2,1,55,0,0
151291,-100,4,2,1,30,0,0
151720,-100,4,2,1,40,0,0
152148,-100,4,2,1,42,0,0
152577,-100,4,2,1,44,0,0
153006,-100,4,2,1,46,0,0
153434,-100,4,2,1,48,0,0
153863,-100,4,2,1,50,0,0
154291,-41.6666666666667,4,2,1,65,0,0
154479,-41.6666666666667,4,2,1,5,0,0
154505,-62.5,4,2,1,65,0,0
154693,-41.6666666666667,4,2,1,5,0,0
154719,-34.4827586206897,4,2,1,65,0,0
154881,-41.6666666666667,4,2,1,35,0,0
154934,-41.6666666666667,4,2,1,65,0,0
155363,-100,4,2,1,70,0,0
156006,-76.9230769230769,4,2,1,85,0,1
169720,-76.9230769230769,4,2,1,70,0,0
171434,-74.0740740740741,4,2,1,85,0,1
183863,-62.5,4,2,1,85,0,1
184291,-74.0740740740741,4,2,1,85,0,1
197577,-41.6666666666667,4,2,1,85,0,1
198005,-74.0740740740741,4,2,1,85,0,1
200577,-76.9230769230769,4,2,1,70,0,0
201863,-55.5555555555556,4,2,1,85,0,0
202291,-76.9230769230769,4,2,1,80,0,1
202506,-76.9230769230769,4,2,1,80,0,0
205077,-40,4,2,1,80,0,0
205505,-76.9230769230769,4,2,1,80,0,0
211934,-40,4,2,1,80,0,0
212362,-76.9230769230769,4,2,1,80,0,0
216006,-100,4,2,1,5,0,0

[Colours]
Combo1 : 0,0,160
Combo2 : 128,128,64
Combo3 : 255,128,128
Combo4 : 128,255,128

[HitObjects]
147,362,1077,6,0,L|271:362,2,125,2|2|2,0:0|0:0|0:0,0:0:0:0:
325,358,1720,6,0,L|473:360,1,125,2|0,1:2|0:0,0:0:0:0:
461,289,2041,1,0,0:0:0:0:
472,217,2148,1,2,1:2:0:0:
259,202,2363,1,2,0:0:0:0:
338,200,2470,1,0,0:0:0:0:
413,239,2577,5,2,1:2:0:0:
350,239,2684,1,0,0:0:0:0:
288,240,2791,1,0,0:0:0:0:
266,98,3005,1,2,1:2:0:0:
421,104,3220,2,0,L|324:103,1,62.5,2|0,0:0|0:0,0:0:0:0:
238,63,3434,6,0,L|366:64,1,125,2|2,1:2|0:0,0:0:0:0:
435,66,3756,1,0,0:0:0:0:
362,63,3863,1,2,1:2:0:0:
138,197,4077,2,0,L|395:197,1,250,2|2,0:0|0:0,0:0:0:0:
210,359,4720,2,0,P|172:334|233:230,1,187.5,2|0,1:2|0:0,0:0:0:0:
365,232,5148,6,0,L|366:89,1,125,2|0,1:2|0:0,0:0:0:0:
289,108,5470,1,0,0:0:0:0:
209,110,5577,1,2,1:2:0:0:
363,112,5791,2,0,L|290:112,1,62.5,2|0,0:0|0:0,0:0:0:0:
171,177,6006,1,2,1:2:0:0:
251,175,6113,1,0,0:0:0:0:
330,173,6220,1,2,0:0:0:0:
486,173,6434,1,0,1:0:0:0:
486,173,6648,1,2,0:0:0:0:
423,173,6756,1,0,0:0:0:0:
278,211,6863,6,0,L|411:212,2,125,2|2|2,1:2|0:0|1:2,0:0:0:0:
450,102,7506,2,0,L|359:102,1,62.5,2|0,0:0|0:0,0:0:0:0:
267,164,7720,2,0,L|252:96,2,62.5,2|0|0,1:2|0:0|0:0,0:0:0:0:
450,96,8148,2,0,L|452:255,1,125,2|2,1:2|0:0,0:0:0:0:
117,300,8577,6,0,P|86:245|213:154,1,250,4|2,0:1|1:2,0:0:0:0:
50,144,9220,1,2,0:0:0:0:
227,222,9434,1,2,1:2:0:0:
167,213,9541,1,0,0:0:0:0:
134,162,9648,1,0,0:0:0:0:
319,108,9863,2,0,L|236:109,1,62.5,2|0,1:2|0:0,0:0:0:0:
343,180,10077,2,0,L|436:182,1,62.5,2|0,0:0|0:0,0:0:0:0:
208,349,10291,6,0,L|65:349,1,125,2|2,1:2|0:0,0:0:0:0:
167,324,10613,1,0,0:0:0:0:
83,349,10720,1,2,1:2:0:0:
276,275,10934,1,2,0:0:0:0:
307,223,11041,1,0,0:0:0:0:
289,165,11148,1,0,1:2:0:0:
233,141,11255,1,0,0:0:0:0:
125,192,11363,2,0,L|213:191,1,62.5,2|0,0:0|0:0,0:0:0:0:
392,89,11577,2,0,L|392:289,1,187.5,2|0,1:2|0:0,0:0:0:0:
179,347,12006,5,4,1:0:0:0:
37,346,12220,1,0,1:0:0:0:
237,251,12434,5,2,1:2:0:0:
62,248,12648,1,2,1:2:0:0:
285,162,12863,5,2,1:2:0:0:
44,165,13077,1,2,1:2:0:0:
407,52,13291,5,2,1:2:0:0:
20,57,13506,1,2,1:2:0:0:
321,101,14791,5,0,1:0:0:0:
258,101,14862,1,0,1:0:0:0:
195,101,14933,1,0,1:0:0:0:
403,31,15006,6,0,P|450:93|326:146,1,224.999993133545,8|0,1:0|0:0,0:0:0:0:
158,206,15434,6,0,L|349:206,2,149.999995422363,6|2|10,1:2|0:0|1:2,0:0:0:0:
330,340,15970,2,0,L|330:259,1,74.9999977111817,2|0,0:0|3:0,0:0:0:0:
144,256,16184,1,2,0:0:0:0:
311,223,16291,1,0,1:0:0:0:
387,222,16398,1,2,0:0:0:0:
311,223,16505,1,2,3:2:0:0:
78,161,16720,2,0,L|240:161,1,149.999995422363,10|2,0:0|3:2,0:0:0:0:
307,161,17041,1,0,0:0:0:0:
84,353,17148,6,0,P|45:326|111:254,1,149.999995422363,2|2,1:2|3:2,0:0:0:0:
291,246,17577,1,10,0:0:0:0:
107,249,17684,2,0,L|205:249,1,74.9999977111817,2|0,0:0|3:0,0:0:0:0:
361,347,17898,1,2,0:0:0:0:
274,346,18006,2,0,L|274:245,1,74.9999977111817,0|0,1:0|0:0,0:0:0:0:
92,259,18220,2,0,L|455:258,1,312.5,8|8,3:0|1:3,0:0:0:0:
258,239,18648,2,0,L|346:238,1,74.9999977111817,0|0,3:0|0:0,0:0:0:0:
112,175,18863,6,0,P|72:146|127:78,1,149.999995422363,2|2,1:2|3:2,0:0:0:0:
308,80,19291,1,10,0:0:0:0:
117,77,19398,2,0,L|-17:77,1,74.9999977111817,2|0,0:0|3:0,0:0:0:0:
218,20,19613,1,2,0:0:0:0:
52,17,19720,2,0,L|52:135,1,74.9999977111817,0|0,1:0|0:0,0:0:0:0:
128,106,19934,1,2,3:2:0:0:
472,106,20148,1,14,0:0:0:0:
304,195,20363,2,0,L|423:195,1,74.9999977111817,2|0,3:2|0:0,0:0:0:0:
113,351,20577,5,6,1:2:0:0:
253,286,20791,2,0,L|137:284,1,74.9999977111817,10|2,0:0|0:0,0:0:0:0:
370,226,21006,2,0,L|370:131,1,74.9999977111817,2|0,1:2|0:0,0:0:0:0:
195,148,21220,1,2,0:0:0:0:
368,121,21327,2,0,L|181:118,1,149.999995422363,6|0,0:0|1:0,0:0:0:0:
387,52,21648,2,0,L|276:49,1,74.9999977111817,2|2,1:2|1:2,0:0:0:0:
83,52,21863,1,14,1:2:0:0:
254,186,22077,1,10,0:0:0:0:
85,188,22184,1,8,0:0:0:0:
254,186,22291,6,0,L|414:186,2,149.999995422363,6|2|10,1:2|0:0|0:0,0:0:0:0:
79,178,22827,2,0,L|192:178,1,74.9999977111817,2|0,0:0|3:0,0:0:0:0:
357,180,23041,1,2,0:0:0:0:
177,303,23148,2,0,L|84:305,1,74.9999977111817,0|2,1:0|0:0,0:0:0:0:
177,303,23363,1,2,3:2:0:0:
383,311,23577,2,0,P|422:264|365:202,1,149.999995422363,10|2,0:0|3:2,0:0:0:0:
303,204,23898,1,0,0:0:0:0:
112,356,24006,6,0,L|269:356,2,149.999995422363,2|2|10,1:2|3:2|0:0,0:0:0:0:
276,270,24541,2,0,L|362:270,1,74.9999977111817,2|0,0:0|3:0,0:0:0:0:
166,212,24756,1,2,0:0:0:0:
241,210,24863,2,0,L|240:118,1,74.9999977111817,0|0,1:0|0:0,0:0:0:0:
428,114,25077,2,0,L|92:110,1,312.5,8|8,3:0|1:3,0:0:0:0:
244,76,25506,2,0,L|144:74,1,74.9999977111817,0|0,3:0|0:0,0:0:0:0:
346,22,25720,6,0,P|391:60|316:106,1,149.999995422363,2|2,1:2|3:2,0:0:0:0:
137,112,26148,1,10,0:0:0:0:
312,115,26256,2,0,L|202:114,1,74.9999977111817,2|0,0:0|3:0,0:0:0:0:
54,199,26470,1,2,0:0:0:0:
217,199,26577,1,0,1:0:0:0:
279,200,26684,1,2,0:0:0:0:
217,199,26791,1,2,3:2:0:0:
493,201,27006,1,14,0:0:0:0:
337,268,27220,2,0,L|446:269,1,74.9999977111817,2|0,3:2|0:0,0:0:0:0:
174,369,27434,6,0,L|44:369,1,74.9999977111817,6|0,1:2|0:0,0:0:0:0:
209,295,27648,1,2,1:2:0:0:
373,296,27756,1,2,0:0:0:0:
170,211,27863,2,0,L|348:212,1,149.999995422363,10|2,0:0|1:2,0:0:0:0:
87,102,28184,2,0,P|44:148|114:210,1,149.999995422363,6|0,1:2|1:0,0:0:0:0:
159,212,28506,1,2,1:2:0:0:
86,210,28613,1,2,1:2:0:0:
287,286,28720,5,14,0:0:0:0:
454,288,28827,1,8,0:0:0:0:
239,367,28934,1,10,0:0:0:0:
71,368,29041,1,8,0:0:0:0:
300,269,29148,5,4,1:0:0:0:
448,270,29363,2,0,L|460:121,2,125,2|2|2,0:0|1:2|0:0,0:0:0:0:
305,375,30006,2,0,P|280:325|423:231,1,250,2|10,1:2|1:2,0:0:0:0:
255,218,30648,1,2,0:0:0:0:
449,160,30863,6,0,L|295:159,2,125,2|2|2,1:2|0:0|1:2,0:0:0:0:
274,167,31506,2,0,L|274:32,1,125,2|0,0:2|1:0,0:0:0:0:
277,35,31934,1,2,0:0:0:0:
451,34,32041,1,8,0:0:0:0:
277,35,32148,1,10,1:2:0:0:
80,33,32363,1,2,0:0:0:0:
299,188,32577,5,2,1:2:0:0:
113,179,32791,2,0,P|80:224|213:327,1,250,2|2,0:0|0:0,0:0:0:0:
28,371,33434,2,0,L|21:177,1,187.5,2|0,1:2|0:0,0:0:0:0:
225,168,33863,2,0,L|391:142,1,125,10|2,1:2|0:0,0:0:0:0:
138,70,34291,6,0,L|308:44,2,125,2|2|2,1:2|0:0|1:2,0:0:0:0:
327,4,34934,2,0,L|324:167,1,125,2|0,0:0|1:0,0:0:0:0:
324,128,35363,1,2,0:0:0:0:
145,128,35470,1,8,0:0:0:0:
324,128,35577,1,10,1:2:0:0:
499,132,35791,1,10,0:0:0:0:
148,350,36006,5,0,1:0:0:0:
319,353,36220,2,0,L|465:353,2,125,2|2|2,0:0|1:2|0:0,0:0:0:0:
135,352,36863,2,0,P|105:308|246:221,1,250,2|10,1:2|1:2,0:0:0:0:
74,200,37506,1,2,0:0:0:0:
273,153,37720,6,0,L|113:151,2,125,2|2|2,1:2|0:0|1:2,0:0:0:0:
83,22,38363,2,0,L|82:164,1,125,2|0,0:0|1:0,0:0:0:0:
82,146,38791,1,2,0:0:0:0:
255,146,38898,1,8,0:0:0:0:
82,146,39006,1,10,0:0:0:0:
255,146,39220,1,2,0:0:0:0:
461,375,39434,5,2,1:2:0:0:
298,341,39648,1,2,0:0:0:0:
226,192,39862,1,2,1:2:0:0:
301,44,40076,1,2,0:0:0:0:
464,15,40291,2,0,L|465:184,1,125,2|0,1:2|0:0,0:0:0:0:
165,202,40720,1,10,0:0:0:0:
368,205,40934,1,2,0:0:0:0:
388,159,40987,1,0,0:0:0:0:
364,115,41041,1,0,0:0:0:0:
314,110,41094,1,0,0:0:0:0:
189,108,41148,5,8,1:2:0:0:
15,104,41470,1,0,1:0:0:0:
303,205,41791,1,0,1:0:0:0:
27,200,42006,1,8,1:2:0:0:
27,200,42220,2,0,L|109:201,1,62.5
223,204,42434,2,0,P|137:180|87:73,1,187.5,2|0,3:2|0:0,0:0:0:0:
305,87,42863,5,4,0:1:0:0:
305,87,43077,1,2,0:0:0:0:
195,87,43184,1,2,0:0:0:0:
305,87,43291,2,0,L|305:-7,1,62.5,10|0,0:0|0:0,0:0:0:0:
248,24,43506,1,2,3:2:0:0:
85,25,43613,1,2,0:0:0:0:
159,25,43720,1,0,1:2:0:0:
85,25,43827,2,0,P|47:60|89:109,1,125,2|0,0:0|0:0,0:0:0:0:
258,322,44148,2,0,L|257:181,1,125,10|2,0:0|3:2,0:0:0:0:
74,193,44577,5,2,1:2:0:0:
74,193,44791,1,2,3:2:0:0:
188,191,44898,1,2,0:0:0:0:
303,189,45006,1,10,0:0:0:0:
303,189,45220,2,0,L|194:190,1,62.5,2|0,3:2|0:0,0:0:0:0:
109,115,45434,2,0,L|247:116,2,125,2|0|8,1:2|3:0|0:0,0:0:0:0:
109,115,46077,1,2,3:2:0:0:
405,191,46291,6,0,L|226:191,1,125,2|2,1:2|3:2,0:0:0:0:
168,192,46613,1,0,0:0:0:0:
283,304,46720,1,10,0:0:0:0:
309,249,46827,1,2,0:0:0:0:
283,195,46934,1,2,3:2:0:0:
224,181,47041,1,2,0:0:0:0:
421,183,47148,1,2,1:2:0:0:
421,183,47363,1,2,3:2:0:0:
312,180,47470,1,2,0:0:0:0:
203,177,47577,1,10,0:0:0:0:
388,180,47791,1,2,3:2:0:0:
191,306,48006,6,0,L|190:149,1,125,2|2,1:2|3:2,0:0:0:0:
269,175,48327,1,0,0:0:0:0:
191,107,48434,1,2,1:2:0:0:
378,105,48648,1,10,3:2:0:0:
105,201,48863,2,0,L|192:200,1,62.5,2|8,1:2|0:0,0:0:0:0:
61,137,49077,1,0,3:0:0:0:
254,293,49291,2,0,L|161:292,1,62.5,8|8,0:0|0:0,0:0:0:0:
308,203,49506,2,0,L|396:202,1,62.5,0|0,3:0|0:0,0:0:0:0:
184,142,49720,5,4,1:0:0:0:
184,142,49934,1,2,3:2:0:0:
294,143,50041,1,2,0:0:0:0:
184,142,50148,1,10,0:0:0:0:
184,142,50363,1,2,3:2:0:0:
75,143,50470,1,2,0:0:0:0:
291,233,50577,1,2,1:2:0:0:
384,231,50684,2,0,L|242:233,1,125,0|2,0:0|0:0,0:0:0:0:
82,159,51006,2,0,P|42:197|83:235,1,125,10|2,0:0|3:2,0:0:0:0:
296,232,51434,5,0,1:0:0:0:
296,232,51648,1,0,3:0:0:0:
193,231,51756,1,0,0:0:0:0:
91,231,51863,2,0,L|91:87,1,125,10|2,0:0|3:2,0:0:0:0:
175,104,52184,1,8,0:0:0:0:
385,103,52291,1,2,1:2:0:0:
407,159,52398,1,0,0:0:0:0:
379,212,52505,1,0,3:0:0:0:
315,217,52612,1,0,0:0:0:0:
118,218,52720,1,10,0:0:0:0:
299,309,52827,2,0,L|375:307,2,62.5,8|0|0,0:0|3:0|0:0,0:0:0:0:
125,360,53148,6,0,L|279:361,1,125,4|2,0:1|1:2,0:0:0:0:
424,364,53470,1,0,1:0:0:0:
249,360,53577,1,10,1:2:0:0:
249,360,53791,1,2,1:2:0:0:
50,355,53898,2,0,P|132:347|277:177,1,281.250010728836,4|2,1:0|1:2,0:0:0:0:
201,193,54327,1,0,1:0:0:0:
28,142,54434,2,0,L|96:115,1,68.7500020980836,10|8,0:0|0:0,0:0:0:0:
259,193,54648,2,0,L|288:125,1,68.7500020980836,10|8,0:0|0:0,0:0:0:0:
492,74,54863,6,0,L|202:75,1,262.499991989136,4|0,0:1|0:0,0:0:0:0:
229,74,55077,2,0,L|426:75,1,175,10|0,0:0|0:0,0:0:0:0:
403,74,55291,2,0,L|62:75,1,271.875008296967,10|0,0:0|0:0,0:0:0:0:
17,75,55506,5,10,0:0:0:0:
17,75,55934,5,2,0:0:0:0:
17,75,56148,1,2,0:0:0:0:
17,75,56363,1,2,0:0:0:0:
370,334,56577,6,0,P|431:297|358:176,1,243.749988842011,6|0,0:0|0:0,0:0:0:0:
184,180,57006,2,0,L|359:180,1,162.499992561341,10|2,0:0|3:2,0:0:0:0:
422,181,57327,1,0,0:0:0:0:
211,340,57434,2,0,L|193:250,1,81.2499962806703,2|0,1:2|0:0,0:0:0:0:
211,340,57648,1,0,3:0:0:0:
393,337,57863,2,0,L|286:337,1,81.2499962806703,10|0,0:0|0:0,0:0:0:0:
402,258,58077,2,0,L|499:258,1,81.2499962806703,2|0,3:2|0:0,0:0:0:0:
297,205,58291,6,0,P|258:172|319:93,1,162.499992561341,2|2,1:2|3:2,0:0:0:0:
386,92,58613,1,0,0:0:0:0:
217,30,58720,2,0,L|98:31,1,81.2499962806703,10|0,0:0|0:0,0:0:0:0:
334,197,58934,2,0,L|239:197,1,81.2499962806703,2|8,3:2|0:0,0:0:0:0:
334,197,59148,2,0,L|239:197,1,81.2499962806703,0|8,1:0|0:0,0:0:0:0:
60,193,59363,1,2,3:2:0:0:
60,193,59577,2,0,P|104:117|290:70,1,243.749988842011,10|0,0:0|0:0,0:0:0:0:
446,143,60006,6,0,L|252:143,1,162.499992561341,2|0,1:2|3:0,0:0:0:0:
370,132,60327,1,2,0:0:0:0:
166,55,60434,1,10,0:0:0:0:
9,55,60648,1,2,3:2:0:0:
290,247,60863,2,0,L|390:246,1,81.2499962806703,2|0,1:2|0:0,0:0:0:0:
263,176,61077,1,2,3:2:0:0:
424,174,61291,2,0,L|404:271,1,81.2499962806703,8|0,0:0|0:0,0:0:0:0:
303,264,61506,2,0,L|171:292,1,81.2499962806703,2|0,3:2|0:0,0:0:0:0:
395,375,61720,6,0,P|441:344|372:271,1,162.499992561341,2|2,1:2|3:2,0:0:0:0:
318,267,62041,1,0,0:0:0:0:
488,266,62148,2,0,L|488:180,1,81.2499962806703,10|0,0:0|0:0,0:0:0:0:
312,179,62363,2,0,L|416:178,1,81.2499962806703,2|8,3:2|0:0,0:0:0:0:
312,179,62577,2,0,L|416:178,1,81.2499962806703,2|8,1:2|0:0,0:0:0:0:
218,71,62791,1,0,3:0:0:0:
218,71,63006,2,0,L|317:71,1,81.2499962806703,10|8,0:0|0:0,0:0:0:0:
94,220,63220,2,0,L|1:220,1,81.2499962806703,2|0,3:2|0:0,0:0:0:0:
248,372,63434,6,0,P|214:286|46:244,1,243.749988842011,6|0,0:0|0:0,0:0:0:0:
265,222,63863,2,0,L|436:223,1,162.499992561341,10|2,0:0|3:2,0:0:0:0:
503,223,64184,1,0,0:0:0:0:
317,357,64291,2,0,L|308:260,1,81.2499962806703,2|0,1:2|0:0,0:0:0:0:
317,357,64506,1,0,3:0:0:0:
117,197,64720,2,0,L|247:196,1,81.2499962806703,10|0,0:0|0:0,0:0:0:0:
283,110,64934,2,0,L|201:110,1,81.2499962806703,2|0,3:2|0:0,0:0:0:0:
17,114,65148,6,0,P|25:65|137:30,1,162.499992561341,2|2,1:2|3:2,0:0:0:0:
43,22,65470,1,0,0:0:0:0:
212,164,65577,2,0,L|316:164,1,81.2499962806703,10|0,0:0|0:0,0:0:0:0:
94,298,65791,2,0,L|198:298,1,81.2499962806703,2|8,3:2|0:0,0:0:0:0:
94,298,66006,2,0,L|198:298,1,81.2499962806703,0|8,1:0|0:0,0:0:0:0:
379,302,66220,1,2,0:0:0:0:
45,360,66434,2,0,P|147:355|232:214,1,243.749988842011,10|0,0:0|0:0,0:0:0:0:
39,248,66863,6,0,P|19:212|108:138,1,162.499992561341,4|0,0:1|3:0,0:0:0:0:
167,134,67184,1,0,0:0:0:0:
350,134,67291,1,10,0:0:0:0:
167,135,67506,1,2,3:2:0:0:
370,213,67720,5,2,1:2:0:0:
401,141,67827,1,0,0:0:0:0:
362,73,67934,1,2,3:2:0:0:
284,65,68041,1,0,0:0:0:0:
488,36,68148,2,0,L|488:127,1,81.2499962806703,10|0,0:0|0:0,0:0:0:0:
321,196,68363,2,0,L|228:196,1,81.2499962806703,2|0,3:2|0:0,0:0:0:0:
55,276,68577,6,0,L|337:276,1,262.499991989136,10|0,1:2|0:0,0:0:0:0:
317,276,68791,2,0,L|498:277,1,175,10|0,3:2|0:0,0:0:0:0:
491,276,69006,2,0,L|207:278,1,224.999993133545,10|0,1:2|0:0,0:0:0:0:
119,274,69220,1,10,3:2:0:0:
119,274,69434,5,0,1:0:0:0:
81,205,69541,1,8,0:0:0:0:
117,136,69648,1,10,0:0:0:0:
194,127,69755,1,0,0:0:0:0:
451,207,69863,2,0,L|363:205,1,81.2499962806703,2|8,1:2|0:0,0:0:0:0:
181,200,70077,1,2,3:2:0:0:
495,359,70291,6,0,P|461:286|300:229,1,243.749988842011,6|0,0:0|0:0,0:0:0:0:
485,226,70720,2,0,L|487:56,1,162.499992561341,10|2,0:0|3:2,0:0:0:0:
399,60,71041,1,0,0:0:0:0:
209,118,71148,1,2,1:2:0:0:
296,118,71256,1,0,0:0:0:0:
382,119,71363,1,0,3:0:0:0:
209,204,71577,2,0,L|303:203,1,81.2499962806703,10|0,0:0|0:0,0:0:0:0:
385,268,71791,2,0,L|274:267,1,81.2499962806703,2|0,3:2|0:0,0:0:0:0:
115,366,72006,6,0,P|73:337|136:259,1,162.499992561341,2|2,1:2|3:2,0:0:0:0:
200,257,72327,1,0,0:0:0:0:
37,250,72434,2,0,L|37:150,1,81.2499962806703,10|0,0:0|0:0,0:0:0:0:
232,126,72648,2,0,L|129:126,1,81.2499962806703,2|8,3:2|0:0,0:0:0:0:
232,126,72863,2,0,L|129:126,1,81.2499962806703,0|8,1:0|0:0,0:0:0:0:
368,55,73077,1,2,3:2:0:0:
368,55,73291,2,0,P|342:149|177:192,1,243.749988842011,10|0,0:0|0:0,0:0:0:0:
437,211,73720,6,0,L|268:211,1,162.499992561341,2|0,1:2|3:0,0:0:0:0:
367,206,74041,1,2,0:0:0:0:
186,296,74148,1,10,0:0:0:0:
4,294,74363,1,2,3:2:0:0:
287,368,74577,2,0,L|151:367,1,81.2499962806703,2|0,1:2|0:0,0:0:0:0:
311,309,74791,1,2,3:2:0:0:
159,313,75006,2,0,L|172:227,1,81.2499962806703,8|0,0:0|0:0,0:0:0:0:
289,219,75220,2,0,L|397:201,1,81.2499962806703,2|0,3:2|0:0,0:0:0:0:
178,127,75434,6,0,L|1:152,1,162.499992561341,2|2,1:2|3:2,0:0:0:0:
102,120,75756,1,0,0:0:0:0:
309,91,75863,2,0,L|315:-4,1,81.2499962806703,10|0,0:0|0:0,0:0:0:0:
127,200,76077,2,0,L|226:200,1,81.2499962806703,2|8,3:2|0:0,0:0:0:0:
127,200,76291,2,0,L|226:200,1,81.2499962806703,0|8,1:0|0:0,0:0:0:0:
392,203,76506,1,0,3:0:0:0:
392,203,76720,2,0,L|481:203,1,81.2499962806703,10|8,0:0|0:0,0:0:0:0:
281,363,76934,2,0,L|178:361,1,81.2499962806703,10|8,0:0|0:0,0:0:0:0:
385,301,77148,6,0,P|452:258|364:150,1,243.749988842011,6|0,0:0|0:0,0:0:0:0:
156,120,77577,2,0,L|359:121,1,162.499992561341,10|2,0:0|3:2,0:0:0:0:
396,125,77898,1,0,0:0:0:0:
187,257,78006,2,0,L|165:145,1,81.2499962806703,2|0,1:2|0:0,0:0:0:0:
187,257,78220,1,0,3:0:0:0:
384,328,78434,2,0,L|265:328,1,81.2499962806703,10|0,0:0|0:0,0:0:0:0:
399,244,78648,2,0,L|480:244,1,81.2499962806703,2|0,3:2|0:0,0:0:0:0:
275,184,78863,6,0,P|223:127|322:115,1,162.499992561341,2|2,1:2|3:2,0:0:0:0:
188,81,79184,1,0,0:0:0:0:
377,158,79291,2,0,L|377:51,1,81.2499962806703,10|0,0:0|0:0,0:0:0:0:
210,236,79506,2,0,L|305:236,1,81.2499962806703,2|8,3:2|0:0,0:0:0:0:
210,236,79720,2,0,L|305:236,1,81.2499962806703,0|8,1:0|0:0,0:0:0:0:
474,235,79934,1,2,3:2:0:0:
185,376,80148,2,0,P|269:360|382:220,1,243.749988842011,8|0,0:0|0:0,0:0:0:0:
187,236,80577,6,0,L|379:236,1,162.499992561341,4|0,0:1|3:0,0:0:0:0:
271,224,80898,1,0,0:0:0:0:
75,221,81006,1,10,0:0:0:0:
262,221,81220,1,2,3:2:0:0:
77,216,81434,2,0,L|77:110,1,81.2499962806703,2|0,1:2|0:0,0:0:0:0:
182,117,81648,2,0,L|71:117,1,81.2499962806703,2|0,3:2|0:0,0:0:0:0:
325,55,81863,2,0,L|406:52,1,81.2499962806703,8|8,0:0|0:0,0:0:0:0:
207,188,82077,1,0,3:0:0:0:
398,189,82291,5,10,1:2:0:0:
105,320,82506,1,10,1:2:0:0:
421,196,82934,5,10,1:2:0:0:
89,347,83149,1,10,1:2:0:0:
262,367,83363,2,0,L|263:260,1,81.2499962806703,0|0,1:0|1:0,0:0:0:0:
220,285,83523,1,0,1:0:0:0:
71,282,83577,2,0,P|122:206|325:146,1,281.250010728836,8|0,1:0|0:0,0:0:0:0:
67,142,84006,6,0,P|25:120|87:60,1,149.999995422363,6|2,0:0|0:0,0:0:0:0:
247,57,84434,1,10,0:0:0:0:
70,53,84541,2,0,L|68:173,1,74.9999977111817,2|0,0:0|3:0,0:0:0:0:
248,133,84756,1,2,0:0:0:0:
72,222,84863,1,0,1:0:0:0:
106,157,84970,1,2,0:0:0:0:
175,132,85077,1,2,3:2:0:0:
343,132,85291,1,10,0:0:0:0:
175,132,85506,1,2,3:2:0:0:
248,133,85613,1,0,0:0:0:0:
432,309,85720,6,0,L|244:311,2,149.999995422363,2|2|10,1:2|3:2|0:0,0:0:0:0:
268,368,86256,2,0,L|268:273,1,74.9999977111817,2|0,0:0|3:0,0:0:0:0:
457,290,86470,1,2,0:0:0:0:
381,290,86577,2,0,L|380:202,1,74.9999977111817,0|0,1:0|0:0,0:0:0:0:
194,188,86791,2,0,L|521:188,1,312.5,8|8,3:0|1:3,0:0:0:0:
372,163,87220,2,0,L|492:162,1,74.9999977111817,0|0,3:0|0:0,0:0:0:0:
255,304,87434,6,0,P|213:270|268:198,1,149.999995422363,2|2,1:2|3:2,0:0:0:0:
422,194,87863,1,10,0:0:0:0:
254,200,87970,2,0,L|147:200,1,74.9999977111817,2|0,0:0|3:0,0:0:0:0:
357,130,88184,1,2,0:0:0:0:
183,126,88291,2,0,L|95:126,1,74.9999977111817,0|2,1:0|0:0,0:0:0:0:
183,126,88506,1,2,3:2:0:0:
481,186,88720,1,14,0:0:0:0:
345,230,88934,2,0,L|450:229,1,74.9999977111817,2|0,3:2|0:0,0:0:0:0:
155,365,89148,5,6,1:2:0:0:
24,341,89363,2,0,L|116:341,1,74.9999977111817,10|2,0:0|0:0,0:0:0:0:
296,340,89577,2,0,L|210:340,1,74.9999977111817,10|0,0:0|0:0,0:0:0:0:
387,290,89791,1,2,1:2:0:0:
207,283,89898,2,0,P|157:246|225:205,1,149.999995422363,4|0,1:2|1:0,0:0:0:0:
394,202,90220,1,2,1:2:0:0:
315,202,90327,1,2,1:2:0:0:
112,202,90434,1,14,0:0:0:0:
296,202,90648,1,10,0:0:0:0:
112,202,90756,1,8,1:2:0:0:
296,202,90863,6,0,L|468:203,2,149.999995422363,6|2|10,0:0|3:2|0:0,0:0:0:0:
127,355,91398,2,0,L|127:246,1,74.9999977111817,2|0,0:0|3:0,0:0:0:0:
296,273,91613,1,2,0:0:0:0:
126,272,91720,2,0,L|14:270,1,74.9999977111817,0|2,1:0|0:0,0:0:0:0:
126,272,91934,1,2,3:2:0:0:
342,342,92148,2,0,L|177:343,1,149.999995422363,10|2,0:0|3:2,0:0:0:0:
113,342,92470,1,0,0:0:0:0:
343,286,92577,6,0,P|387:241|331:176,1,149.999995422363,2|2,1:2|3:2,0:0:0:0:
152,182,93006,1,10,0:0:0:0:
345,177,93113,2,0,L|469:177,1,74.9999977111817,2|0,0:0|3:0,0:0:0:0:
237,111,93327,1,2,0:0:0:0:
318,112,93434,2,0,L|317:11,1,74.9999977111817,0|0,1:0|0:0,0:0:0:0:
130,193,93648,2,0,L|465:194,1,312.5,8|8,3:0|1:3,0:0:0:0:
284,245,94077,2,0,L|390:245,1,74.9999977111817,0|0,3:0|0:0,0:0:0:0:
172,377,94291,6,0,P|126:345|202:297,1,149.999995422363,2|2,1:2|3:2,0:0:0:0:
366,283,94720,1,10,0:0:0:0:
191,290,94827,2,0,L|266:290,1,74.9999977111817,2|0,0:0|3:0,0:0:0:0:
489,284,95041,1,2,0:0:0:0:
307,281,95148,2,0,L|201:280,1,74.9999977111817,0|0,1:0|0:0,0:0:0:0:
307,281,95363,1,2,3:2:0:0:
24,284,95577,1,14,0:0:0:0:
177,368,95791,2,0,L|63:369,1,74.9999977111817,2|0,3:2|0:0,0:0:0:0:
293,321,96006,6,0,L|402:321,1,74.9999977111817,6|0,1:2|0:0,0:0:0:0:
280,248,96220,1,10,3:2:0:0:
94,247,96327,1,2,0:0:0:0:
272,187,96434,2,0,L|95:187,1,149.999995422363,10|2,0:0|1:2,0:0:0:0:
322,114,96756,2,0,L|511:113,1,149.999995422363,6|0,1:2|1:0,0:0:0:0:
395,115,97077,2,0,L|488:115,1,74.9999977111817,2|0,0:0|1:0,0:0:0:0:
234,241,97291,5,14,0:0:0:0:
63,242,97398,1,8,0:0:0:0:
295,344,97506,1,10,0:0:0:0:
470,346,97613,1,8,0:0:0:0:
234,241,97720,5,4,0:1:0:0:
108,240,97934,2,0,L|98:90,2,125,2|10|2,0:0|0:0|0:0,0:0:0:0:
311,346,98577,2,0,P|345:287|209:178,1,250,2|10,1:2|0:0,0:0:0:0:
388,173,99220,1,2,0:0:0:0:
107,65,99434,6,0,L|266:65,2,125,2|2|10,1:2|0:0|0:0,0:0:0:0:
105,163,100077,1,2,0:0:0:0:
217,165,100184,1,0,0:0:0:0:
329,167,100291,1,0,1:0:0:0:
163,164,100506,1,2,3:2:0:0:
329,269,100720,1,10,0:0:0:0:
495,266,100935,1,2,0:0:0:0:
215,372,101148,5,2,1:2:0:0:
361,339,101362,1,2,0:0:0:0:
422,201,101576,1,10,0:0:0:0:
347,70,101790,1,2,0:0:0:0:
247,61,101898,1,0,0:0:0:0:
147,51,102005,1,2,1:2:0:0:
347,70,102434,1,8,0:0:0:0:
147,51,102648,1,2,0:0:0:0:
443,201,102863,6,0,L|285:200,2,125,2|2|10,1:2|3:2|0:0,0:0:0:0:
270,313,103506,2,0,L|358:312,1,62.5,2|0,1:2|3:0,0:0:0:0:
438,313,103720,2,0,L|445:231,1,62.5,2|0,1:2|0:0,0:0:0:0:
438,313,103934,1,2,3:2:0:0:
260,366,104148,1,10,0:0:0:0:
431,365,104363,1,2,3:2:0:0:
102,298,104577,5,0,1:0:0:0:
230,298,104791,2,0,L|241:165,2,125,2|10|2,0:0|0:0|0:0,0:0:0:0:
451,161,105434,2,0,L|173:162,1,250,2|10,1:2|0:0,0:0:0:0:
66,161,106077,1,2,0:0:0:0:
358,66,106291,6,0,L|203:65,2,125,0|2|10,1:0|0:0|0:0,0:0:0:0:
358,66,106934,1,2,0:0:0:0:
252,69,107041,1,0,0:0:0:0:
146,66,107148,1,0,1:0:0:0:
306,64,107363,1,2,3:2:0:0:
471,179,107577,1,10,1:2:0:0:
311,177,107792,1,2,3:2:0:0:
32,360,108006,6,0,P|4:307|159:211,1,250,4|8,1:0|0:0,0:0:0:0:
258,197,108648,1,2,0:0:0:0:
57,184,108863,2,0,L|192:184,1,125,2|0,1:2|0:0,0:0:0:0:
272,184,109184,1,0,0:0:0:0:
30,25,109291,1,12,0:0:0:0:
201,26,109506,1,2,0:0:0:0:
493,196,109720,6,0,L|441:263,1,62.5,2|8,1:2|1:2,0:0:0:0:
255,312,109934,1,0,3:0:0:0:
387,318,110148,2,0,L|318:342,1,62.5,10|8,1:2|0:0,0:0:0:0:
142,366,110363,1,10,3:2:0:0:
312,364,110470,1,8,0:0:0:0:
137,335,110577,2,0,L|250:326,1,62.5,4|0,0:1|0:0,0:0:0:0:
379,241,110791,2,0,L|455:182,1,62.5,8|8,0:0|0:0,0:0:0:0:
225,250,111006,2,0,L|225:104,1,125,10|0,1:2|1:0,0:0:0:0:
409,122,111327,1,0,1:0:0:0:
225,112,111434,6,0,L|374:97,1,149.999995422363,6|2,0:0|3:2,0:0:0:0:
295,88,111756,1,0,0:0:0:0:
466,61,111863,2,0,L|441:145,1,74.9999977111817,10|2,0:0|0:0,0:0:0:0:
274,193,112077,2,0,L|192:267,1,74.9999977111817,2|2,3:2|0:0,0:0:0:0:
30,335,112291,2,0,L|12:247,1,74.9999977111817,2|0,1:2|0:0,0:0:0:0:
30,335,112506,1,2,0:0:0:0:
196,336,112720,1,10,0:0:0:0:
30,335,112827,1,2,0:0:0:0:
199,300,112934,2,0,L|296:300,1,74.9999977111817,2|2,3:2|0:0,0:0:0:0:
30,211,113148,5,2,1:2:0:0:
146,213,113363,2,0,L|40:213,1,74.9999977111817,2|0,3:2|0:0,0:0:0:0:
248,114,113577,1,10,0:0:0:0:
352,113,113791,1,2,0:0:0:0:
189,113,113898,1,0,3:0:0:0:
413,89,114006,2,0,L|422:15,1,74.9999977111817,2|0,1:2|0:0,0:0:0:0:
413,89,114220,1,0,3:0:0:0:
127,203,114434,2,0,L|283:204,1,149.999995422363,10|0,0:0|3:0,0:0:0:0:
457,207,114756,1,0,0:0:0:0:
287,300,114863,6,0,L|309:203,1,74.9999977111817,2|0,1:2|0:0,0:0:0:0:
416,233,115077,2,0,L|439:139,1,74.9999977111817,2|0,3:2|0:0,0:0:0:0:
245,122,115291,2,0,L|343:122,1,74.9999977111817,10|2,0:0|0:0,0:0:0:0:
222,202,115506,1,2,0:0:0:0:
49,207,115613,1,2,3:2:0:0:
240,285,115720,6,0,L|49:285,1,149.999995422363,2|2,1:2|3:2,0:0:0:0:
179,276,116041,1,0,0:0:0:0:
385,338,116148,1,10,0:0:0:0:
205,337,116256,1,2,0:0:0:0:
113,337,116363,1,2,3:2:0:0:
38,336,116470,1,2,0:0:0:0:
216,271,116577,6,0,L|223:183,1,74.9999977111817,2|2,1:2|0:0,0:0:0:0:
137,182,116791,1,2,3:2:0:0:
223,169,116898,1,2,0:0:0:0:
404,195,117006,2,0,L|397:107,1,74.9999977111817,10|2,0:0|0:0,0:0:0:0:
483,106,117220,1,2,0:0:0:0:
397,93,117327,1,2,0:0:0:0:
212,71,117434,6,0,L|327:71,1,74.9999977111817,10|10,0:0|0:0,0:0:0:0:
95,184,117648,2,0,L|20:184,1,74.9999977111817,2|2,3:2|0:0,0:0:0:0:
249,284,117863,1,10,0:0:0:0:
431,287,117970,1,10,0:0:0:0:
249,359,118077,2,0,L|250:266,1,74.9999977111817,2|0,3:2|0:0,0:0:0:0:
26,284,118291,5,6,0:0:0:0:
26,284,118506,1,2,0:0:0:0:
189,283,118613,1,2,0:0:0:0:
352,284,118720,2,0,L|361:196,1,74.9999977111817,10|0,0:0|0:0,0:0:0:0:
250,200,118934,2,0,L|259:112,1,74.9999977111817,2|0,3:2|0:0,0:0:0:0:
470,124,119148,5,2,1:2:0:0:
297,119,119363,1,2,3:2:0:0:
470,124,119470,1,2,0:0:0:0:
297,119,119577,2,0,L|175:122,1,74.9999977111817,10|0,0:0|0:0,0:0:0:0:
314,197,119791,2,0,L|436:200,1,74.9999977111817,2|0,3:2|0:0,0:0:0:0:
177,341,120006,2,0,L|154:253,1,74.9999977111817,2|0,1:2|0:0,0:0:0:0:
177,341,120220,5,2,3:2:0:0:
351,341,120434,1,10,0:0:0:0:
79,369,120648,2,0,L|186:368,1,74.9999977111817,2|0,3:2|0:0,0:0:0:0:
249,326,120863,2,0,L|147:325,1,74.9999977111817,2|0,1:2|0:0,0:0:0:0:
371,250,121077,1,2,3:2:0:0:
219,229,121291,2,0,L|317:206,1,74.9999977111817,10|0,0:0|0:0,0:0:0:0:
478,195,121506,2,0,L|505:113,1,74.9999977111817,2|0,3:2|0:0,0:0:0:0:
299,117,121720,5,2,1:2:0:0:
130,116,121934,1,2,3:2:0:0:
299,117,122041,1,2,0:0:0:0:
130,116,122148,1,10,0:0:0:0:
258,188,122363,2,0,L|143:189,1,74.9999977111817,2|2,3:2|0:0,0:0:0:0:
374,198,122577,1,2,1:2:0:0:
405,132,122684,1,0,0:0:0:0:
374,66,122791,1,2,3:2:0:0:
193,65,122898,1,2,0:0:0:0:
363,65,123006,2,0,L|200:65,1,149.999995422363,14|2,0:0|0:0,0:0:0:0:
26,66,123327,1,2,0:0:0:0:
223,211,123434,6,0,L|112:212,1,74.9999977111817,10|8,1:2|0:0,0:0:0:0:
343,304,123648,2,0,L|468:304,1,74.9999977111817,2|2,3:2|0:0,0:0:0:0:
199,376,123863,2,0,L|384:372,1,149.999995422363,14|2,3:2|1:2,0:0:0:0:
123,304,124184,2,0,L|122:216,1,74.9999977111817,14|2,0:0|1:2,0:0:0:0:
204,218,124398,1,8,0:0:0:0:
10,167,124506,2,0,L|100:166,1,74.9999977111817,10|2,0:0|0:0,0:0:0:0:
250,124,124720,2,0,L|134:124,1,74.9999977111817,10|0,0:0|1:0,0:0:0:0:
340,102,124934,1,0,1:2:0:0:
505,103,125041,1,0,1:2:0:0:
203,301,125148,6,0,L|180:143,2,125,4|0|0,1:0|0:0|1:0,0:0:0:0:
324,303,125791,1,2,0:0:0:0:
156,338,126006,2,0,L|133:180,2,125,2|0|0,1:2|0:0|1:0,0:0:0:0:
356,340,126648,2,0,L|360:267,1,62.5,2|0,0:0|0:0,0:0:0:0:
154,290,126863,6,0,L|63:290,1,62.5,2|0,1:2|0:0,0:0:0:0:
154,290,127077,1,0,0:0:0:0:
366,289,127291,2,0,L|457:289,1,62.5,2|0,1:2|0:0,0:0:0:0:
366,289,127506,1,0,0:0:0:0:
166,286,127720,2,0,P|130:250|195:194,1,125,2|0,1:2|0:0,0:0:0:0:
341,191,128148,1,2,1:2:0:0:
175,192,128363,1,2,0:0:0:0:
451,32,128577,5,2,1:2:0:0:
318,54,128791,1,0,0:0:0:0:
255,174,129005,1,2,1:2:0:0:
315,296,129219,1,2,0:0:0:0:
448,322,129434,5,2,1:2:0:0:
296,323,129648,1,0,0:0:0:0:
448,322,129863,1,2,1:2:0:0:
372,321,129970,1,0,0:0:0:0:
296,323,130077,1,2,0:2:0:0:
296,323,130291,5,2,1:2:0:0:
372,321,130398,1,0,0:0:0:0:
448,323,130505,1,0,0:0:0:0:
315,296,130720,1,2,1:2:0:0:
255,174,130934,1,2,0:2:0:0:
318,54,131148,5,0,1:0:0:0:
473,28,131362,1,0,0:0:0:0:
195,101,131577,1,0,1:0:0:0:
39,74,131791,1,0,0:0:0:0:
319,240,132006,5,2,1:2:0:0:
257,240,132113,1,0,0:0:0:0:
194,240,132220,1,0,0:0:0:0:
319,240,132434,1,0,1:0:0:0:
257,240,132541,1,0,0:0:0:0:
194,240,132648,1,2,0:0:0:0:
349,371,132863,1,2,1:2:0:0:
349,308,132970,1,0,0:0:0:0:
349,246,133077,1,0,0:0:0:0:
193,226,133291,1,0,1:0:0:0:
334,222,133506,1,2,0:0:0:0:
38,54,133720,6,0,L|39:203,1,125,2|0,1:2|0:0,0:0:0:0:
196,274,134148,2,0,L|40:273,1,125,2|0,1:2|0:0,0:0:0:0:
240,124,134577,2,0,L|239:273,1,125,2|0,1:2|0:0,0:0:0:0:
21,330,135005,2,0,L|177:329,1,125,2|2,1:2|0:0,0:0:0:0:
417,342,135434,5,2,1:2:0:0:
292,319,135648,1,0,0:0:0:0:
94,342,135863,1,2,1:2:0:0:
219,319,136077,1,2,0:0:0:0:
415,309,136291,5,2,1:2:0:0:
295,352,136505,1,0,0:0:0:0:
97,309,136720,1,2,1:2:0:0:
217,352,136934,1,0,0:0:0:0:
395,283,137148,5,2,1:2:0:0:
303,366,137362,1,0,0:0:0:0:
111,281,137577,1,2,1:2:0:0:
209,366,137791,1,2,0:0:0:0:
374,270,138006,5,0,1:0:0:0:
328,387,138220,1,0,0:0:0:0:
136,266,138434,1,0,1:0:0:0:
183,387,138648,1,0,0:0:0:0:
458,360,138863,6,0,L|517:223,3,125,2|2|2|2,0:0|0:0|0:0|0:0,0:0:0:0:
331,215,139720,6,0,L|353:64,3,125,2|2|2|2,0:0|0:0|0:0|0:0,0:0:0:0:
181,215,140577,6,0,L|159:64,3,125,2|2|2|2,0:0|0:0|0:0|0:0,0:0:0:0:
54,360,141434,5,2,0:0:0:0:
433,193,142291,5,2,0:0:0:0:
186,192,143148,1,2,0:0:0:0:
433,193,144006,1,2,0:0:0:0:
433,193,144648,1,2,0:0:0:0:
433,193,145291,1,2,0:0:0:0:
191,357,145720,5,2,0:0:0:0:
438,356,146577,1,2,0:0:0:0:
191,357,147435,1,2,0:0:0:0:
191,357,148506,5,0,0:0:0:0:
377,358,148720,2,0,L|377:153,1,187.5,2|0,3:2|0:0,0:0:0:0:
243,153,149148,5,2,0:0:0:0:
136,144,149363,1,0,0:0:0:0:
268,153,149577,1,2,0:0:0:0:
375,144,149792,1,2,0:0:0:0:
242,154,150006,1,2,0:0:0:0:
95,140,150221,1,0,0:0:0:0:
270,154,150434,1,2,0:0:0:0:
417,140,150649,1,2,0:0:0:0:
187,67,150863,5,2,0:0:0:0:
329,66,151077,1,2,0:0:0:0:
144,203,151291,2,8,L|237:202,1,62.5,10|8,0:0|0:0,0:0:0:0:
306,202,151506,2,8,L|399:201,1,62.5,10|8,0:0|0:0,0:0:0:0:
255,320,151720,2,0,L|141:320,1,62.5,8|8,0:0|0:0,0:0:0:0:
75,368,151934,2,0,L|-4:369,1,62.5,10|8,0:0|0:0,0:0:0:0:
199,241,152148,2,0,L|313:241,1,62.5,10|8,0:0|0:0,0:0:0:0:
379,289,152362,2,0,L|458:290,1,62.5,8|8,0:0|0:0,0:0:0:0:
223,368,152577,5,10,0:0:0:0:
189,318,152684,1,8,0:0:0:0:
209,261,152791,1,8,0:0:0:0:
294,250,152898,1,8,0:0:0:0:
380,240,153006,1,10,0:0:0:0:
413,190,153113,1,8,0:0:0:0:
393,133,153220,1,10,0:0:0:0:
335,116,153327,1,8,0:0:0:0:
159,122,153434,6,0,L|237:122,1,62.5,10|8,0:0|0:0,0:0:0:0:
308,192,153648,2,0,L|214:191,1,62.5,10|8,0:0|0:0,0:0:0:0:
68,252,153863,2,0,L|111:188,1,62.5,10|0,0:0|0:0,0:0:0:0:
274,362,154077,2,0,L|240:293,1,62.5,2|0,1:2|1:0,0:0:0:0:
17,286,154291,6,0,L|307:287,1,262.499991989136,10|0,1:2|0:0,0:0:0:0:
280,286,154505,2,0,L|83:287,1,175,10|0,1:2|0:0,0:0:0:0:
106,286,154720,2,0,L|447:287,1,271.875008296967,10|0,1:2|0:0,0:0:0:0:
498,287,154934,5,10,1:2:0:0:
498,287,155363,1,4,0:1:0:0:
498,287,155577,1,8,0:0:0:0:
332,285,155684,1,8,0:0:0:0:
165,283,155791,1,8,0:0:0:0:
0,282,155898,1,8,0:0:0:0:
253,357,156006,6,0,P|284:278|133:215,1,243.749988842011,6|0,1:2|0:0,0:0:0:0:
366,204,156434,2,0,P|416:167|352:100,1,162.499992561341,10|2,0:0|3:2,0:0:0:0:
293,99,156756,1,0,0:0:0:0:
125,91,156863,1,2,1:2:0:0:
206,91,156970,1,0,0:0:0:0:
287,91,157077,1,0,3:0:0:0:
134,210,157291,2,0,L|241:210,1,81.2499962806703,10|0,0:0|0:0,0:0:0:0:
314,257,157506,2,0,L|210:257,1,81.2499962806703,2|0,3:2|0:0,0:0:0:0:
48,372,157720,6,0,L|252:371,1,162.499992561341,2|2,1:2|3:2,0:0:0:0:
299,372,158041,1,0,0:0:0:0:
119,338,158148,2,0,L|120:245,1,81.2499962806703,10|0,0:0|0:0,0:0:0:0:
315,224,158363,2,0,L|216:224,1,81.2499962806703,2|8,3:2|0:0,0:0:0:0:
315,224,158577,2,0,L|216:224,1,81.2499962806703,0|8,1:0|0:0,0:0:0:0:
41,220,158791,1,2,3:2:0:0:
41,220,159006,2,0,P|72:137|240:91,1,243.749988842011,10|0,0:0|0:0,0:0:0:0:
407,88,159434,6,0,L|419:5,1,81.2499962806703,2|0,1:2|0:0,0:0:0:0:
407,88,159648,1,0,3:0:0:0:
228,193,159863,1,10,0:0:0:0:
410,194,160077,1,2,3:2:0:0:
134,309,160291,2,0,L|243:308,1,81.2499962806703,2|0,1:2|0:0,0:0:0:0:
110,245,160506,1,2,3:2:0:0:
270,236,160720,2,0,L|254:338,1,81.2499962806703,8|0,0:0|0:0,0:0:0:0:
177,356,160934,2,0,L|73:380,1,81.2499962806703,2|0,3:2|0:0,0:0:0:0:
277,302,161148,6,0,P|323:261|248:188,1,162.499992561341,2|2,1:2|3:2,0:0:0:0:
368,188,161470,1,0,0:0:0:0:
181,113,161577,1,14,0:0:0:0:
181,113,161791,2,0,L|78:113,1,81.2499962806703,2|8,3:2|0:0,0:0:0:0:
296,48,162006,1,8,1:2:0:0:
465,46,162113,1,8,0:0:0:0:
296,48,162220,1,0,3:0:0:0:
296,48,162434,1,10,0:0:0:0:
127,46,162541,1,8,0:0:0:0:
296,48,162648,2,0,L|296:151,1,81.2499962806703,2|0,3:2|1:0,0:0:0:0:
124,222,162863,6,0,L|375:221,1,243.749988842011,6|0,0:0|0:0,0:0:0:0:
191,338,163291,2,0,P|147:302|205:229,1,162.499992561341,10|2,0:0|3:2,0:0:0:0:
277,230,163613,1,0,0:0:0:0:
95,154,163720,2,0,L|86:68,1,81.2499962806703,2|0,1:2|0:0,0:0:0:0:
95,154,163934,1,0,3:0:0:0:
265,153,164148,2,0,L|150:151,1,81.2499962806703,10|0,0:0|0:0,0:0:0:0:
281,234,164363,2,0,L|394:237,1,81.2499962806703,2|0,3:2|0:0,0:0:0:0:
183,352,164577,6,0,L|-3:352,1,162.499992561341,2|2,1:2|3:2,0:0:0:0:
112,341,164898,1,0,0:0:0:0:
289,334,165006,2,0,L|289:245,1,81.2499962806703,10|0,0:0|0:0,0:0:0:0:
97,206,165220,2,0,L|198:206,1,81.2499962806703,2|8,3:2|0:0,0:0:0:0:
97,206,165434,2,0,L|198:206,1,81.2499962806703,0|8,1:0|0:0,0:0:0:0:
393,210,165648,1,2,3:2:0:0:
85,312,165863,2,0,P|120:220|253:187,1,243.749988842011,10|0,0:0|0:0,0:0:0:0:
65,177,166291,6,0,L|256:177,1,162.499992561341,2|0,1:2|3:0,0:0:0:0:
318,180,166613,1,0,0:0:0:0:
90,330,166720,2,0,P|46:306|109:240,1,162.499992561341,10|2,0:0|3:2,0:0:0:0:
375,225,167148,1,2,1:2:0:0:
339,296,167255,1,0,0:0:0:0:
271,339,167362,1,0,3:0:0:0:
191,341,167469,1,0,0:0:0:0:
359,362,167577,2,0,L|479:362,1,81.2499962806703,14|0,0:0|0:0,0:0:0:0:
255,264,167791,2,0,L|126:264,1,81.2499962806703,2|0,3:2|0:0,0:0:0:0:
393,169,168006,5,8,0:0:0:0:
106,169,168220,1,8,0:0:0:0:
106,169,168434,2,0,L|200:169,1,81.2499962806703,0|0,1:0|1:0,1:0:0:0:
393,169,168648,5,8,0:0:0:0:
106,169,168862,1,8,0:0:0:0:
106,169,169077,1,0,1:0:0:0:
187,169,169184,1,0,1:0:0:0:
450,327,169291,2,0,P|488:255|359:153,1,243.749988842011,12|0,0:0|0:0,0:0:0:0:
101,70,169720,5,4,1:0:0:0:
19,73,169827,2,0,L|79:72,1,40.6249981403352,0|0,1:0|1:0,0:0:0:0:
99,75,169934,1,8,1:2:0:0:
297,75,170041,1,8,0:0:0:0:
104,75,170148,2,0,L|8:75,1,81.2499962806703,8|8,0:0|0:0,0:0:0:0:
391,150,170470,1,8,0:0:0:0:
222,229,170577,1,8,0:0:0:0:
307,230,170720,1,0,1:0:0:0:
104,357,170863,1,0,1:0:0:0:
346,356,171006,2,0,P|414:310|333:206,1,243.749988842011,14|0,0:0|0:0,0:0:0:0:
128,197,171434,6,0,L|407:197,1,253.125000965595,4|0,0:3|0:0,0:0:0:0:
186,351,171863,2,0,L|201:241,1,84.3750003218651,10|0,0:0|0:0,0:0:0:0:
314,271,172077,2,0,L|325:175,1,84.3750003218651,2|0,3:2|0:0,0:0:0:0:
132,176,172291,2,0,L|1:176,1,84.3750003218651,2|0,1:2|0:0,0:0:0:0:
164,108,172506,1,0,3:0:0:0:
23,106,172720,2,0,L|39:195,1,84.3750003218651,10|0,0:0|0:0,0:0:0:0:
148,233,172934,2,0,L|247:244,1,84.3750003218651,2|0,3:2|0:0,0:0:0:0:
44,360,173148,6,0,L|252:357,1,168.75000064373,2|2,1:2|3:2,0:0:0:0:
298,353,173470,1,0,0:0:0:0:
122,333,173577,2,0,L|122:234,1,84.3750003218651,10|0,0:0|0:0,0:0:0:0:
299,239,173791,1,2,3:2:0:0:
123,219,173898,2,0,L|230:219,1,84.3750003218651,8|0,0:0|1:0,0:0:0:0:
123,219,174113,1,8,0:0:0:0:
297,154,174220,1,2,3:2:0:0:
297,154,174434,2,0,P|276:240|119:276,1,253.125000965595,10|0,0:0|0:0,0:0:0:0:
314,375,174863,6,0,P|370:331|296:271,1,168.75000064373,2|0,1:2|3:0,0:0:0:0:
248,264,175184,1,0,0:0:0:0:
448,253,175291,2,0,P|488:206|401:138,1,168.75000064373,10|2,0:0|3:2,0:0:0:0:
241,127,175720,2,0,L|340:127,1,84.3750003218651,2|0,1:2|0:0,0:0:0:0:
214,58,175934,1,2,3:2:0:0:
386,68,176148,2,0,L|188:64,1,168.75000064373,8|2,0:0|3:2,0:0:0:0:
138,62,176470,1,0,0:0:0:0:
390,360,176577,6,0,P|442:318|361:248,1,168.75000064373,2|2,1:2|3:2,0:0:0:0:
322,239,176898,1,0,0:0:0:0:
111,242,177006,1,14,0:0:0:0:
111,242,177220,1,10,0:0:0:0:
202,243,177327,1,0,1:0:0:0:
30,167,177434,6,0,L|55:60,1,84.3750003218651,2|8,1:2|0:0,0:0:0:0:
279,48,177648,1,0,3:0:0:0:
150,37,177863,2,0,L|251:20,1,84.3750003218651,10|0,0:0|0:0,0:0:0:0:
473,139,178077,1,10,1:2:0:0:
303,114,178184,1,8,0:0:0:0:
136,93,178291,6,0,P|187:158|363:177,1,253.125000965595,6|0,0:0|0:0,0:0:0:0:
177,222,178720,2,0,L|195:326,1,84.3750003218651,10|0,0:0|0:0,0:0:0:0:
302,305,178934,2,0,L|317:401,1,84.3750003218651,2|0,3:2|0:0,0:0:0:0:
117,374,179148,2,0,L|99:280,1,84.3750003218651,2|0,1:2|0:0,0:0:0:0:
190,262,179363,1,0,3:0:0:0:
63,204,179577,2,0,L|175:216,1,84.3750003218651,10|0,0:0|0:0,0:0:0:0:
251,297,179791,2,0,L|378:310,1,84.3750003218651,2|0,3:2|0:0,0:0:0:0:
137,371,180006,6,0,P|104:337|172:258,1,168.75000064373,2|2,1:2|3:2,0:0:0:0:
72,250,180327,1,0,0:0:0:0:
258,191,180434,2,0,L|357:191,1,84.3750003218651,10|0,0:0|0:0,0:0:0:0:
168,133,180648,1,2,3:2:0:0:
364,117,180756,2,0,L|266:114,1,84.3750003218651,8|0,0:0|1:0,0:0:0:0:
364,117,180970,1,8,0:0:0:0:
178,37,181077,1,2,3:2:0:0:
455,42,181291,2,0,P|412:168|260:186,1,253.125000965595,10|0,0:0|0:0,0:0:0:0:
473,293,181720,6,0,L|242:292,1,168.75000064373,2|0,1:2|3:0,0:0:0:0:
401,286,182041,1,0,0:0:0:0:
198,364,182148,2,0,L|81:366,1,84.3750003218651,10|0,0:0|0:0,0:0:0:0:
235,290,182363,1,2,3:2:0:0:
77,293,182577,2,0,L|99:178,1,84.3750003218651,2|0,1:2|0:0,0:0:0:0:
197,206,182791,2,0,L|215:108,1,84.3750003218651,2|0,3:2|0:0,0:0:0:0:
15,53,183006,2,0,L|68:170,1,84.3750003218651,8|0,0:0|0:0,0:0:0:0:
219,203,183220,2,0,L|318:185,1,84.3750003218651,2|0,3:2|0:0,0:0:0:0:
82,368,183434,6,0,P|45:329|126:250,1,168.75000064373,2|2,1:2|3:2,0:0:0:0:
195,247,183756,1,0,0:0:0:0:
455,340,183863,2,0,L|157:341,1,200,14|2,0:0|0:0,0:0:0:0:
157,340,184184,1,0,1:0:0:0:
425,235,184291,1,8,0:0:0:0:
247,236,184398,1,8,0:0:0:0:
69,237,184506,2,0,L|52:145,1,84.3750003218651,2|0,3:2|0:0,0:0:0:0:
271,123,184720,2,0,L|154:123,1,84.3750003218651,8|0,0:0|1:2,0:0:0:0:
292,190,184934,2,0,L|409:191,1,84.3750003218651,0|0,1:2|1:2,0:0:0:0:
155,370,185148,6,0,P|97:331|189:227,1,253.125000965595,6|0,0:0|0:0,0:0:0:0:
369,239,185577,2,0,L|347:106,1,84.3750003218651,10|0,0:0|0:0,0:0:0:0:
235,155,185791,2,0,L|216:50,1,84.3750003218651,2|0,3:2|0:0,0:0:0:0:
455,53,186006,2,0,L|272:53,2,168.75000064373,2|0|10,1:2|3:0|0:0,0:0:0:0:
382,77,186541,1,0,0:0:0:0:
297,93,186648,2,0,L|281:207,1,84.3750003218651,2|0,3:2|0:0,0:0:0:0:
484,326,186863,6,0,L|498:153,1,168.75000064373,2|2,1:2|3:2,0:0:0:0:
418,140,187184,1,0,0:0:0:0:
235,203,187291,2,0,L|328:196,1,84.3750003218651,10|0,0:0|0:0,0:0:0:0:
484,188,187506,1,2,3:2:0:0:
318,309,187613,2,0,L|421:299,1,84.3750003218651,8|0,0:0|1:0,0:0:0:0:
318,309,187827,1,8,0:0:0:0:
484,188,187934,1,2,3:2:0:0:
484,188,188148,2,0,P|444:279|285:310,1,253.125000965595,8|0,0:0|0:0,0:0:0:0:
91,316,188577,6,0,P|51:271|127:191,1,168.75000064373,2|0,1:2|3:0,0:0:0:0:
172,186,188898,1,0,0:0:0:0:
342,185,189006,2,0,L|213:178,1,84.3750003218651,10|0,0:0|0:0,0:0:0:0:
161,255,189220,2,0,L|257:241,1,84.3750003218651,2|0,3:2|0:0,0:0:0:0:
458,355,189434,2,0,L|486:252,1,84.3750003218651,2|0,1:2|0:0,0:0:0:0:
458,355,189648,1,2,3:2:0:0:
254,338,189863,2,0,L|446:338,1,168.75000064373,8|2,0:0|3:2,0:0:0:0:
331,325,190184,1,0,0:0:0:0:
153,323,190291,6,0,P|95:284|171:240,1,168.75000064373,2|2,1:2|3:2,0:0:0:0:
222,225,190613,1,0,0:0:0:0:
31,225,190720,1,12,0:0:0:0:
124,211,190934,1,2,0:0:0:0:
46,212,191041,1,0,1:0:0:0:
221,141,191148,6,0,L|253:39,1,84.3750003218651,8|8,0:0|0:0,0:0:0:0:
39,50,191363,1,0,3:0:0:0:
185,268,191577,2,0,L|287:238,1,84.3750003218651,10|8,1:2|0:0,0:0:0:0:
496,222,191791,1,10,3:2:0:0:
327,199,191898,1,8,0:0:0:0:
156,183,192006,6,0,P|135:258|287:347,1,253.125000965595,6|0,0:0|0:0,0:0:0:0:
423,358,192434,2,0,L|398:275,1,84.3750003218651,10|0,0:0|0:0,0:0:0:0:
285,282,192648,2,0,L|259:189,1,84.3750003218651,2|0,3:2|0:0,0:0:0:0:
487,195,192863,2,0,L|508:108,1,84.3750003218651,2|0,1:2|0:0,0:0:0:0:
414,77,193077,1,0,3:0:0:0:
236,111,193291,2,0,L|386:130,1,84.3750003218651,10|0,0:0|0:0,0:0:0:0:
227,197,193506,2,0,L|77:216,1,84.3750003218651,2|0,3:2|0:0,0:0:0:0:
324,327,193720,6,0,L|509:356,1,168.75000064373,2|2,1:2|3:2,0:0:0:0:
389,366,194041,1,0,0:0:0:0:
210,358,194148,2,0,L|306:358,1,84.3750003218651,10|0,0:0|0:0,0:0:0:0:
122,293,194363,1,0,3:0:0:0:
292,275,194470,2,0,L|182:275,1,84.3750003218651,8|0,0:0|1:0,0:0:0:0:
292,275,194684,1,8,0:0:0:0:
122,293,194791,1,2,3:2:0:0:
407,273,195006,2,0,P|364:200|214:139,1,253.125000965595,10|0,0:0|0:0,0:0:0:0:
440,104,195434,6,0,L|233:104,1,168.75000064373,2|2,1:2|3:2,0:0:0:0:
185,106,195756,1,0,0:0:0:0:
381,298,195863,2,0,L|358:189,1,84.3750003218651,10|0,0:0|0:0,0:0:0:0:
251,235,196077,2,0,L|231:138,1,84.3750003218651,2|0,3:2|0:0,0:0:0:0:
412,117,196291,2,0,L|206:116,1,168.75000064373,2|2,1:2|3:2,0:0:0:0:
146,114,196613,1,0,0:0:0:0:
320,380,196720,2,0,L|339:239,1,84.3750003218651,10|0,0:0|0:0,0:0:0:0:
212,295,196934,2,0,L|127:295,1,84.3750003218651,2|0,3:2|0:0,0:0:0:0:
324,197,197148,6,0,L|510:197,1,168.75000064373,2|2,1:2|3:2,0:0:0:0:
394,170,197470,1,0,0:0:0:0:
153,132,197577,2,0,L|509:131,1,299.999990844727,12|2,0:0|0:0,0:0:0:0:
341,120,197898,1,8,0:0:0:0:
118,157,198006,1,8,1:2:0:0:
296,159,198113,1,8,0:0:0:0:
474,160,198221,2,0,L|491:68,1,84.3750003218651,0|0,3:2|0:0,0:0:0:0:
254,53,198434,1,8,0:0:0:0:
301,129,198541,1,0,0:0:0:0:
387,169,198648,1,8,0:0:0:0:
210,191,198756,1,8,0:0:0:0:
33,213,198863,6,0,P|77:268|261:300,1,253.125000965595,4|0,0:1|0:0,0:0:0:0:
81,368,199291,2,0,L|102:268,1,84.3750003218651,10|0,0:0|0:0,0:0:0:0:
212,289,199506,2,0,L|234:182,1,84.3750003218651,2|0,3:2|0:0,0:0:0:0:
41,196,199720,2,0,L|23:92,1,84.3750003218651,2|0,1:2|0:0,0:0:0:0:
115,88,199934,2,0,L|10:63,1,84.3750003218651,2|0,3:2|0:0,0:0:0:0:
237,50,200148,1,10,0:0:0:0:
417,39,200256,1,8,0:0:0:0:
234,55,200363,2,0,L|225:160,1,84.3750003218651,2|0,3:2|0:0,0:0:0:0:
425,169,200577,5,10,0:0:0:0:
109,248,200791,1,10,0:0:0:0:
440,196,201220,5,10,0:0:0:0:
106,277,201434,1,10,0:0:0:0:
289,373,201648,2,0,L|290:266,1,81.2499962806703,0|0,1:0|1:0,0:0:0:0:
247,291,201808,1,0,1:0:0:0:
71,280,201863,2,0,P|121:190|376:136,1,337.499989700318,8|0,1:0|0:0,0:0:0:0:
126,50,202291,6,0,L|12:49,1,81.2499962806703,6|0,0:0|0:0,0:0:0:0:
147,170,202506,2,0,L|265:170,1,81.2499962806703,2|0,0:0|0:0,0:0:0:0:
54,337,202720,1,10,0:0:0:0:
223,340,202827,2,0,L|223:234,1,81.2499962806703,2|0,0:0|3:0,0:0:0:0:
57,250,203041,1,2,0:0:0:0:
224,246,203148,1,0,1:0:0:0:
142,246,203255,1,2,0:0:0:0:
61,246,203362,1,2,3:2:0:0:
366,164,203577,6,0,L|158:164,1,162.499992561341,10|2,0:0|3:2,0:0:0:0:
120,162,203898,1,0,0:0:0:0:
321,260,204006,2,0,L|209:258,1,81.2499962806703,2|0,1:2|0:0,0:0:0:0:
154,333,204220,2,0,L|243:333,1,81.2499962806703,2|0,3:2|0:0,0:0:0:0:
411,334,204434,1,10,0:0:0:0:
230,371,204541,2,0,L|232:280,1,81.2499962806703,2|0,0:0|3:0,0:0:0:0:
406,285,204756,1,2,0:0:0:0:
323,287,204863,2,0,L|323:195,1,81.2499962806703,0|0,1:0|0:0,0:0:0:0:
144,179,205077,2,0,L|489:180,1,312.5,8|8,3:0|1:3,0:0:0:0:
305,147,205506,2,0,L|417:148,1,81.2499962806703,0|0,3:0|0:0,0:0:0:0:
211,334,205720,6,0,L|210:234,1,81.2499962806703,2|0,1:2|0:0,0:0:0:0:
293,237,205934,2,0,L|196:236,1,81.2499962806703,2|0,3:2|0:0,0:0:0:0:
37,233,206148,1,10,0:0:0:0:
214,228,206256,2,0,L|314:226,1,81.2499962806703,2|0,0:0|3:0,0:0:0:0:
117,180,206470,1,2,0:0:0:0:
299,177,206577,2,0,L|315:83,1,81.2499962806703,0|2,1:0|0:0,0:0:0:0:
299,177,206791,1,2,3:2:0:0:
27,309,207006,1,14,0:0:0:0:
210,367,207220,2,0,L|88:366,1,81.2499962806703,2|0,0:0|0:0,0:0:0:0:
408,290,207434,5,6,1:2:0:0:
286,289,207648,1,10,0:0:0:0:
479,288,207756,1,2,0:0:0:0:
286,289,207863,2,0,L|161:289,1,81.2499962806703,10|8,0:0|0:0,0:0:0:0:
401,222,208077,1,2,1:2:0:0:
210,168,208184,2,0,L|401:168,1,162.499992561341,6|2,1:2|1:2,0:0:0:0:
194,88,208506,2,0,L|194:200,1,81.2499962806703,2|2,1:2|1:2,0:0:0:0:
385,256,208720,2,0,L|270:255,1,81.2499962806703,14|0,0:0|0:0,0:0:0:0:
111,358,208934,1,10,1:2:0:0:
304,357,209041,1,8,0:0:0:0:
111,346,209148,6,0,L|124:258,1,81.2499962806703,6|0,0:0|0:0,0:0:0:0:
241,274,209363,2,0,L|254:179,1,81.2499962806703,2|0,3:2|0:0,0:0:0:0:
57,188,209577,1,10,0:0:0:0:
239,188,209684,2,0,L|252:93,1,81.2499962806703,2|0,0:0|0:0,0:0:0:0:
47,98,209898,1,2,0:0:0:0:
222,103,210006,2,0,L|336:104,1,81.2499962806703,0|2,1:0|0:0,0:0:0:0:
222,103,210220,1,2,3:2:0:0:
496,183,210434,2,0,L|303:183,1,162.499992561341,10|2,0:0|3:2,0:0:0:0:
241,183,210756,1,0,0:0:0:0:
454,301,210863,6,0,L|337:300,1,81.2499962806703,2|0,1:2|0:0,0:0:0:0:
282,360,211077,2,0,L|388:360,1,81.2499962806703,2|0,3:2|0:0,0:0:0:0:
166,309,211291,1,10,0:0:0:0:
329,311,211398,2,0,L|427:311,1,81.2499962806703,2|0,0:0|3:0,0:0:0:0:
223,246,211613,1,2,0:0:0:0:
307,246,211720,2,0,L|307:152,1,81.2499962806703,0|0,1:0|0:0,0:0:0:0:
499,146,211934,2,0,L|147:145,1,312.5,8|8,3:0|1:3,0:0:0:0:
304,106,212363,2,0,L|172:105,1,81.2499962806703,0|0,3:0|0:0,0:0:0:0:
423,35,212577,6,0,L|404:147,1,81.2499962806703,2|0,1:2|0:0,0:0:0:0:
294,137,212791,2,0,L|276:235,1,81.2499962806703,2|0,3:2|0:0,0:0:0:0:
452,262,213006,1,10,0:0:0:0:
267,325,213113,2,0,L|148:324,1,81.2499962806703,2|0,0:0|3:0,0:0:0:0:
372,253,213327,1,2,0:0:0:0:
198,366,213434,1,0,1:0:0:0:
279,366,213541,1,2,0:0:0:0:
360,366,213648,1,2,3:2:0:0:
67,246,213863,2,0,L|277:246,1,162.499992561341,14|2,0:0|3:2,0:0:0:0:
413,249,214184,1,0,0:0:0:0:
204,354,214291,6,0,L|67:353,1,81.2499962806703,6|0,1:2|0:0,0:0:0:0:
300,300,214506,1,2,1:2:0:0:
496,299,214613,1,2,1:2:0:0:
265,207,214720,2,0,L|396:207,1,81.2499962806703,10|0,0:0|1:0,0:0:0:0:
253,205,214934,1,2,1:2:0:0:
448,136,215041,2,0,L|253:136,1,162.499992561341,6|0,1:2|1:0,0:0:0:0:
87,89,215363,2,0,L|199:89,1,81.2499962806703,2|0,0:0|1:0,0:0:0:0:
355,95,215577,5,10,0:0:0:0:
144,93,215684,1,8,0:0:0:0:
325,172,215791,5,10,0:0:0:0:
114,170,215898,1,8,1:2:0:0:
