osu file format v14

[General]
AudioFilename: audio.mp3
AudioLeadIn: 0
PreviewTime: 45207
Countdown: 0
SampleSet: Normal
StackLeniency: 0.7
Mode: 1
LetterboxInBreaks: 0
WidescreenStoryboard: 1

[Editor]
Bookmarks: 1254,12416,23579,34742,45905,57067,72416,89160,105905,117067,132416,149160,160323,186835
DistanceSpacing: 0.1
BeatDivisor: 4
GridSize: 8
TimelineZoom: 1.6

[Metadata]
Title:Mayday
TitleUnicode:メデ
Artist:Tsukuyomi
ArtistUnicode:月詠み
Creator:gaston_2199
Version:Kantan
Source:
Tags:月が満ちる Tsuki ga Michiru Sing The Moon ツクヨミ 2943 ユリイカノン ユリイ・カノン yurry cannon canon YurryCanon Yue エポック epoch なおk Naok とうかさ toukasa japanese rock j-rock jrock j-pop jpop pop
BeatmapID:4036484
BeatmapSetID:1939696

[Difficulty]
HPDrainRate:8
CircleSize:2
OverallDifficulty:3
ApproachRate:10
SliderMultiplier:1.4
SliderTickRate:1

[Events]
//Background and Video events
0,0,"BG.jpg",0,0
//Break Periods
//Storyboard Layer 0 (Background)
//Storyboard Layer 1 (Fail)
//Storyboard Layer 2 (Pass)
//Storyboard Layer 3 (Foreground)
//Storyboard Layer 4 (Overlay)
//Storyboard Sound Samples

[TimingPoints]
1254,348.837209302326,4,1,0,70,1,0
1254,-100,4,1,0,70,0,0
11021,-100,4,1,0,80,0,0
45905,-100,4,1,0,90,0,1
56370,-100,4,1,0,90,0,0
57067,-100,4,1,0,90,0,1
68928,-100,4,1,0,90,0,0
69277,-100,4,1,0,80,0,0
69626,-100,4,1,0,90,0,1
72416,-100,4,1,0,80,0,0
89157,-100,4,1,0,70,0,0
93347,-100,4,1,0,80,0,0
105905,-100,4,1,0,90,0,1
116370,-100,4,1,0,90,0,0
117067,-100,4,1,0,90,0,1
128928,-100,4,1,0,90,0,0
129277,-100,4,1,0,80,0,0
129626,-100,4,1,0,90,0,1
132416,-100,4,1,0,80,0,0
132591,-100,4,1,0,70,0,0
136774,-100,4,1,0,80,0,0
149160,-100,4,1,0,90,0,1
159626,-100,4,1,0,90,0,0
160498,-100,4,1,0,90,0,1
172184,-100,4,1,0,90,0,0
172533,-100,4,1,0,80,0,0
172881,-100,4,1,0,90,0,1
175672,-100,4,1,0,80,0,0
187009,-100,4,1,0,70,0,0
196602,-100,4,1,0,80,0,0

[HitObjects]
256,192,1254,5,0,0:0:0:0:
243,172,1951,1,0,0:0:0:0:
256,192,2300,1,8,0:0:0:0:
256,192,2649,1,0,0:0:0:0:
256,192,3695,1,8,0:0:0:0:
256,192,4044,1,0,0:0:0:0:
256,192,4742,1,8,0:0:0:0:
256,192,5440,1,0,0:0:0:0:
256,192,6486,1,8,0:0:0:0:
256,192,6835,1,0,0:0:0:0:
256,192,7533,1,8,0:0:0:0:
256,160,8230,1,0,0:0:0:0:
256,192,8579,1,0,0:0:0:0:
256,192,8928,1,8,0:0:0:0:
224,192,9626,1,0,0:0:0:0:
256,192,9974,1,8,0:0:0:0:
256,192,10323,1,0,0:0:0:0:
256,192,11021,1,8,0:0:0:0:
224,192,11544,1,8,0:0:0:0:
256,192,12067,1,8,0:0:0:0:
256,192,12416,1,4,0:0:0:0:
224,192,13114,1,8,0:0:0:0:
224,192,13812,1,0,0:0:0:0:
224,192,14160,1,8,0:0:0:0:
224,192,14858,1,8,0:0:0:0:
224,192,15207,1,0,0:0:0:0:
224,192,15905,1,8,0:0:0:0:
224,192,16602,1,0,0:0:0:0:
256,192,17998,1,4,0:0:0:0:
224,192,18695,1,8,0:0:0:0:
224,192,19393,1,0,0:0:0:0:
224,192,19742,1,8,0:0:0:0:
224,192,20440,1,8,0:0:0:0:
224,192,20788,1,0,0:0:0:0:
224,192,21486,1,8,0:0:0:0:
224,192,22184,1,0,0:0:0:0:
232,160,23230,1,8,0:0:0:0:
224,192,23579,1,4,0:0:0:0:
216,49,24277,1,0,0:0:0:0:
240,176,24626,1,8,0:0:0:0:
240,176,24974,1,0,0:0:0:0:
232,152,26021,1,8,0:0:0:0:
232,152,26370,1,0,0:0:0:0:
232,144,27067,1,8,0:0:0:0:
232,144,27416,1,8,0:0:0:0:
232,144,27765,1,0,0:0:0:0:
240,152,28812,1,8,0:0:0:0:
240,152,29160,1,0,0:0:0:0:
240,176,29858,1,0,0:0:0:0:
240,176,30207,1,8,0:0:0:0:
240,176,30556,1,0,0:0:0:0:
232,152,31602,1,8,0:0:0:0:
232,152,31951,1,0,0:0:0:0:
232,144,32649,1,8,0:0:0:0:
232,144,32998,1,8,0:0:0:0:
232,144,33347,1,8,0:0:0:0:
240,152,34044,1,8,0:0:0:0:
240,152,34742,1,4,0:0:0:0:
256,152,35440,1,0,0:0:0:0:
247,150,35788,1,8,0:0:0:0:
256,152,36137,1,0,0:0:0:0:
240,152,37533,1,4,0:0:0:0:
256,152,38230,1,8,0:0:0:0:
256,152,38579,1,8,0:0:0:0:
256,152,38928,1,0,0:0:0:0:
256,152,40323,1,4,0:0:0:0:
256,152,41021,1,0,0:0:0:0:
256,152,41370,1,8,0:0:0:0:
256,152,41719,1,0,0:0:0:0:
256,152,43114,1,4,0:0:0:0:
248,152,43812,1,8,0:0:0:0:
248,144,44160,1,0,0:0:0:0:
248,144,44509,1,4,0:0:0:0:
248,152,45905,1,4,0:0:0:0:
248,152,46602,1,0,0:0:0:0:
248,152,46951,1,8,0:0:0:0:
248,152,47300,1,0,0:0:0:0:
248,152,47998,1,8,0:0:0:0:
248,152,49044,1,8,0:0:0:0:
248,152,49393,1,0,0:0:0:0:
248,152,50091,1,0,0:0:0:0:
224,144,50440,1,8,0:0:0:0:
248,152,50788,1,0,0:0:0:0:
248,152,51486,1,4,0:0:0:0:
248,152,52184,1,8,0:0:0:0:
248,152,52533,1,0,0:0:0:0:
248,152,52881,1,8,0:0:0:0:
248,152,53579,1,0,0:0:0:0:
248,152,54626,1,8,0:0:0:0:
248,152,54974,1,0,0:0:0:0:
248,152,55672,1,8,0:0:0:0:
248,152,56021,1,0,0:0:0:0:
248,152,56370,1,8,0:0:0:0:
248,152,56719,1,8,0:0:0:0:
248,152,57067,1,4,0:0:0:0:
248,152,57765,1,0,0:0:0:0:
248,152,58114,1,8,0:0:0:0:
248,152,58463,1,0,0:0:0:0:
248,152,59160,1,8,0:0:0:0:
248,152,60207,1,8,0:0:0:0:
248,152,60556,1,0,0:0:0:0:
248,152,61254,1,8,0:0:0:0:
224,144,61602,1,8,0:0:0:0:
248,152,61951,1,0,0:0:0:0:
248,152,62649,1,4,0:0:0:0:
248,152,63347,1,8,0:0:0:0:
248,152,63695,1,0,0:0:0:0:
248,152,64044,1,8,0:0:0:0:
248,152,64742,1,0,0:0:0:0:
248,152,65788,1,8,0:0:0:0:
248,152,66137,1,0,0:0:0:0:
248,152,66835,1,8,0:0:0:0:
211,85,67184,1,0,0:0:0:0:
248,152,67533,1,8,0:0:0:0:
204,120,67881,1,0,0:0:0:0:
248,152,68230,1,8,0:0:0:0:
248,152,68579,1,0,0:0:0:0:
248,160,68928,1,8,0:0:0:0:
256,136,69626,1,12,0:0:0:0:
248,144,70323,1,0,0:0:0:0:
248,144,70672,1,8,0:0:0:0:
248,144,71021,1,0,0:0:0:0:
248,144,71719,1,8,0:0:0:0:
248,144,72067,1,8,0:0:0:0:
256,192,72416,1,4,0:0:0:0:
224,192,73114,1,8,0:0:0:0:
224,192,73812,1,0,0:0:0:0:
224,192,74160,1,8,0:0:0:0:
224,192,74858,1,8,0:0:0:0:
224,192,75207,1,0,0:0:0:0:
224,192,75905,1,8,0:0:0:0:
224,192,76602,1,0,0:0:0:0:
256,192,77998,1,4,0:0:0:0:
224,192,78695,1,8,0:0:0:0:
224,192,79393,1,0,0:0:0:0:
224,192,79742,1,8,0:0:0:0:
224,192,80440,1,8,0:0:0:0:
224,192,80788,1,0,0:0:0:0:
224,192,81486,1,8,0:0:0:0:
224,192,82184,1,0,0:0:0:0:
224,192,82533,1,8,0:0:0:0:
224,192,83579,1,4,0:0:0:0:
232,176,84277,1,8,0:0:0:0:
248,192,84974,1,0,0:0:0:0:
232,184,86370,1,0,0:0:0:0:
234,209,86719,1,0,0:0:0:0:
234,209,87067,1,0,0:0:0:0:
234,209,87416,1,0,0:0:0:0:
232,184,87765,1,12,0:0:0:0:
232,184,88812,1,8,0:0:0:0:
232,184,89160,1,4,0:0:0:0:
215,47,89858,1,0,0:0:0:0:
240,176,90207,1,8,0:0:0:0:
240,176,90905,1,8,0:0:0:0:
232,192,91254,1,0,0:0:0:0:
232,192,91951,1,0,0:0:0:0:
240,192,92300,1,8,0:0:0:0:
207,153,92649,1,0,0:0:0:0:
240,192,93347,1,12,0:0:0:0:
240,152,94742,1,4,0:0:0:0:
256,152,95440,1,0,0:0:0:0:
256,152,95788,1,8,0:0:0:0:
256,152,96137,1,0,0:0:0:0:
240,152,97533,1,4,0:0:0:0:
256,152,98230,1,8,0:0:0:0:
256,152,98579,1,8,0:0:0:0:
256,152,98928,1,0,0:0:0:0:
256,152,100323,1,4,0:0:0:0:
208,17,101021,1,0,0:0:0:0:
256,152,101370,1,8,0:0:0:0:
256,152,101719,1,0,0:0:0:0:
256,152,103114,1,4,0:0:0:0:
248,152,103812,1,8,0:0:0:0:
248,144,104160,1,0,0:0:0:0:
248,144,104509,1,12,0:0:0:0:
240,120,105207,1,4,0:0:0:0:
248,152,105905,1,4,0:0:0:0:
248,152,106602,1,0,0:0:0:0:
248,152,106951,1,8,0:0:0:0:
248,152,107300,1,0,0:0:0:0:
248,152,107998,1,8,0:0:0:0:
248,152,109044,1,8,0:0:0:0:
248,152,109393,1,0,0:0:0:0:
248,152,110091,1,0,0:0:0:0:
224,144,110440,1,8,0:0:0:0:
248,152,110788,1,0,0:0:0:0:
248,152,111486,1,4,0:0:0:0:
248,152,112184,1,8,0:0:0:0:
248,152,112533,1,0,0:0:0:0:
248,152,112881,1,8,0:0:0:0:
248,152,113579,1,0,0:0:0:0:
248,152,114626,1,8,0:0:0:0:
248,152,114974,1,0,0:0:0:0:
248,152,115672,1,8,0:0:0:0:
248,152,116021,1,0,0:0:0:0:
248,152,116370,1,8,0:0:0:0:
248,152,116719,1,8,0:0:0:0:
248,152,117067,1,4,0:0:0:0:
248,152,117765,1,0,0:0:0:0:
248,152,118114,1,8,0:0:0:0:
248,152,118463,1,0,0:0:0:0:
248,152,119160,1,8,0:0:0:0:
248,152,120207,1,8,0:0:0:0:
248,152,120556,1,0,0:0:0:0:
248,152,121254,1,8,0:0:0:0:
224,144,121602,1,8,0:0:0:0:
248,152,121951,1,0,0:0:0:0:
248,152,122649,1,4,0:0:0:0:
248,152,123347,1,8,0:0:0:0:
248,152,123695,1,0,0:0:0:0:
248,152,124044,1,8,0:0:0:0:
248,152,124742,1,0,0:0:0:0:
248,152,125788,1,8,0:0:0:0:
248,152,126137,1,0,0:0:0:0:
248,152,126835,1,8,0:0:0:0:
248,152,127184,1,0,0:0:0:0:
248,152,127533,1,8,0:0:0:0:
251,141,127881,1,0,0:0:0:0:
248,152,128230,1,8,0:0:0:0:
248,152,128579,1,0,0:0:0:0:
248,160,128928,1,8,0:0:0:0:
256,136,129626,1,12,0:0:0:0:
248,144,130323,1,0,0:0:0:0:
248,144,130672,1,8,0:0:0:0:
248,144,131021,1,0,0:0:0:0:
248,144,131719,1,8,0:0:0:0:
248,144,132067,1,8,0:0:0:0:
256,192,132416,1,4,0:0:0:0:
240,176,133812,1,0,0:0:0:0:
240,176,135207,1,8,0:0:0:0:
256,160,136602,1,12,0:0:0:0:
236,153,137300,1,0,0:0:0:0:
272,160,137649,1,8,0:0:0:0:
272,160,137998,1,4,0:0:0:0:
256,144,138695,1,8,0:0:0:0:
256,144,139044,1,8,0:0:0:0:
256,144,139393,1,0,0:0:0:0:
248,152,140091,1,8,0:0:0:0:
248,152,140788,1,8,0:0:0:0:
248,152,141137,1,0,0:0:0:0:
240,152,141486,1,8,0:0:0:0:
240,152,142184,1,0,0:0:0:0:
236,159,143230,1,8,0:0:0:0:
240,160,143579,1,4,0:0:0:0:
240,176,144277,1,0,0:0:0:0:
240,176,144626,1,8,0:0:0:0:
240,176,144974,1,0,0:0:0:0:
240,176,145672,1,8,0:0:0:0:
248,184,146370,1,8,0:0:0:0:
220,185,146719,1,8,0:0:0:0:
220,185,147067,1,8,0:0:0:0:
220,185,147416,1,8,0:0:0:0:
248,184,147765,1,0,0:0:0:0:
248,184,148463,1,8,0:0:0:0:
248,152,149160,1,4,0:0:0:0:
248,152,149858,1,0,0:0:0:0:
248,152,150207,1,8,0:0:0:0:
248,152,150556,1,0,0:0:0:0:
248,152,151254,1,8,0:0:0:0:
248,152,152300,1,8,0:0:0:0:
248,152,152649,1,0,0:0:0:0:
248,152,153347,1,0,0:0:0:0:
224,144,153695,1,8,0:0:0:0:
248,152,154044,1,0,0:0:0:0:
248,152,154742,1,4,0:0:0:0:
248,152,155440,1,8,0:0:0:0:
248,152,155788,1,0,0:0:0:0:
248,152,156137,1,8,0:0:0:0:
248,152,156835,1,0,0:0:0:0:
248,152,157881,1,8,0:0:0:0:
248,152,158230,1,0,0:0:0:0:
248,152,158928,1,8,0:0:0:0:
224,144,159277,1,0,0:0:0:0:
248,152,159626,1,8,0:0:0:0:
248,152,159974,1,8,0:0:0:0:
248,152,160323,1,4,0:0:0:0:
248,152,161021,1,0,0:0:0:0:
248,152,161370,1,8,0:0:0:0:
248,152,161719,1,0,0:0:0:0:
248,152,162416,1,8,0:0:0:0:
248,152,163463,1,8,0:0:0:0:
248,152,163812,1,0,0:0:0:0:
248,152,164509,1,0,0:0:0:0:
224,144,164858,1,8,0:0:0:0:
248,152,165207,1,0,0:0:0:0:
248,152,165905,1,4,0:0:0:0:
248,152,166602,1,8,0:0:0:0:
248,152,166951,1,0,0:0:0:0:
248,152,167300,1,8,0:0:0:0:
248,152,167998,1,0,0:0:0:0:
248,152,169044,1,8,0:0:0:0:
248,152,169393,1,0,0:0:0:0:
248,152,170091,1,8,0:0:0:0:
248,152,170440,1,0,0:0:0:0:
248,152,170788,1,8,0:0:0:0:
248,152,171137,1,0,0:0:0:0:
248,152,171486,1,8,0:0:0:0:
248,152,171835,1,0,0:0:0:0:
248,160,172184,1,8,0:0:0:0:
256,136,172881,1,12,0:0:0:0:
248,144,173579,1,0,0:0:0:0:
248,144,173928,1,8,0:0:0:0:
248,144,174277,1,0,0:0:0:0:
248,144,174974,1,8,0:0:0:0:
248,144,175323,1,8,0:0:0:0:
256,192,175672,5,4,0:0:0:0:
224,192,176370,1,8,0:0:0:0:
224,192,177067,1,0,0:0:0:0:
224,192,177416,1,8,0:0:0:0:
224,192,177765,1,0,0:0:0:0:
224,192,178114,1,8,0:0:0:0:
224,192,178463,1,0,0:0:0:0:
224,192,179160,1,8,0:0:0:0:
224,192,179858,1,0,0:0:0:0:
256,192,181254,1,4,0:0:0:0:
224,192,181951,1,8,0:0:0:0:
224,192,182649,1,0,0:0:0:0:
224,192,182998,1,8,0:0:0:0:
224,192,183347,1,0,0:0:0:0:
224,192,183695,1,8,0:0:0:0:
224,192,184044,1,0,0:0:0:0:
224,192,184742,1,8,0:0:0:0:
224,192,185440,1,0,0:0:0:0:
232,160,186486,1,8,0:0:0:0:
222,185,186835,1,4,0:0:0:0:
248,184,187881,1,8,0:0:0:0:
248,184,188230,1,0,0:0:0:0:
248,184,189626,1,0,0:0:0:0:
248,184,189974,1,8,0:0:0:0:
248,184,190323,1,0,0:0:0:0:
248,184,191021,1,8,0:0:0:0:
248,184,192067,1,8,0:0:0:0:
248,184,192416,1,0,0:0:0:0:
248,184,193463,1,8,0:0:0:0:
248,184,193812,1,0,0:0:0:0:
248,184,195207,1,0,0:0:0:0:
248,184,195556,1,8,0:0:0:0:
248,184,195905,1,0,0:0:0:0:
248,184,196602,1,8,0:0:0:0:
248,184,197126,1,8,0:0:0:0:
248,184,197823,1,0,0:0:0:0:
