osu file format v14

[General]
AudioFilename: audio.mp3
AudioLeadIn: 0
PreviewTime: 45207
Countdown: 0
SampleSet: Normal
StackLeniency: 0.7
Mode: 1
LetterboxInBreaks: 0
WidescreenStoryboard: 0

[Editor]
Bookmarks: 1254,12416,23579,34742,45905,57067,72416,89160,105905,117067,132416,149160,160323,186835
DistanceSpacing: 0.1
BeatDivisor: 4
GridSize: 8
TimelineZoom: 2.5

[Metadata]
Title:Mayday
TitleUnicode:メデ
Artist:Tsukuyomi
ArtistUnicode:月詠み
Creator:gaston_2199
Version:Inner Oni
Source:
Tags:月が満ちる Tsuki ga Michiru Sing The Moon ツクヨミ 2943 ユリイカノン ユリイ・カノン yurry cannon canon YurryCanon Yue エポック epoch なおk Naok とうかさ toukasa japanese rock j-rock jrock j-pop jpop pop
BeatmapID:4010408
BeatmapSetID:1939696

[Difficulty]
HPDrainRate:6
CircleSize:2
OverallDifficulty:6.5
ApproachRate:10
SliderMultiplier:1.4
SliderTickRate:1

[Events]
//Background and Video events
0,0,"BG.jpg",0,0
//Break Periods
//Storyboard Layer 0 (Background)
//Storyboard Layer 1 (Fail)
//Storyboard Layer 2 (Pass)
//Storyboard Layer 3 (Foreground)
//Storyboard Layer 4 (Overlay)
//Storyboard Sound Samples

[TimingPoints]
1254,348.837209302326,4,1,0,70,1,0
1254,-111.111111111111,4,1,0,70,0,0
11021,-90.9090909090909,4,1,0,80,0,0
12591,-90.9090909090909,4,1,0,80,0,0
17297,-76.9230769230769,4,1,0,80,0,0
17559,-81.6374269005848,4,1,0,80,0,0
17820,-86.9456900847035,4,1,0,80,0,0
17995,-90.9090909090909,4,1,0,80,0,0
23754,-100,4,1,0,80,0,0
33347,-90.9090909090909,4,1,0,80,0,0
34739,-83.3333333333333,4,1,0,80,0,0
34913,-85.1024890190337,4,1,0,80,0,0
34971,-85.7090194150897,4,1,0,80,0,0
35030,-86.3349424433717,4,1,0,80,0,0
35088,-86.9592320159581,4,1,0,80,0,0
35262,-88.8874729195871,4,1,0,80,0,0
35349,-89.8840206185567,4,1,0,80,0,0
35437,-90.915015641293,4,1,0,80,0,0
35611,-93.0248066150974,4,1,0,80,0,0
35669,-93.75,4,1,0,80,0,0
35727,-94.4865890002709,4,1,0,80,0,0
35785,-95.2348443473512,4,1,0,80,0,0
35960,-97.5660931598825,4,1,0,80,0,0
36047,-98.768054375531,4,1,0,80,0,0
36134,-100,4,1,0,80,0,0
37530,-83.3333333333333,4,1,0,80,0,0
37704,-85.1024890190337,4,1,0,80,0,0
37762,-85.7090194150897,4,1,0,80,0,0
37820,-86.3242574257426,4,1,0,80,0,0
37878,-86.9483919222139,4,1,0,80,0,0
38053,-88.8874729195871,4,1,0,80,0,0
38140,-89.8840206185567,4,1,0,80,0,0
38227,-90.9031669490421,4,1,0,80,0,0
38402,-93.0248066150974,4,1,0,80,0,0
38460,-93.75,4,1,0,80,0,0
38518,-94.4865890002709,4,1,0,80,0,0
38576,-95.2348443473512,4,1,0,80,0,0
38751,-97.5660931598825,4,1,0,80,0,0
38838,-98.768054375531,4,1,0,80,0,0
38925,-100,4,1,0,80,0,0
40320,-83.3333333333333,4,1,0,80,0,0
40495,-85.1115717595415,4,1,0,80,0,0
40553,-85.7177944246592,4,1,0,80,0,0
40611,-86.3327149041435,4,1,0,80,0,0
40669,-86.9565217391304,4,1,0,80,0,0
40844,-88.8945491594498,4,1,0,80,0,0
40931,-89.8905344494527,4,1,0,80,0,0
41018,-90.9090909090909,4,1,0,80,0,0
41192,-93.0170575692964,4,1,0,80,0,0
41251,-93.7541974479517,4,1,0,80,0,0
41309,-94.4903208338974,4,1,0,80,0,0
41367,-95.2380952380952,4,1,0,80,0,0
41541,-97.5541579315164,4,1,0,80,0,0
41628,-98.7549518958687,4,1,0,80,0,0
41716,-100,4,1,0,80,0,0
43111,-83.3333333333333,4,1,0,80,0,0
43198,-84.2086200651938,4,1,0,80,0,0
43285,-85.1024890190337,4,1,0,80,0,0
43373,-86.0261470152935,4,1,0,80,0,0
43460,-86.9592320159581,4,1,0,80,0,0
43634,-88.8874729195871,4,1,0,80,0,0
43721,-89.8840206185567,4,1,0,80,0,0
43809,-90.915015641293,4,1,0,80,0,0
43983,-93.0248066150974,4,1,0,80,0,0
44070,-94.1168533261368,4,1,0,80,0,0
44157,-95.2348443473512,4,1,0,80,0,0
44332,-97.5660931598825,4,1,0,80,0,0
44419,-98.768054375531,4,1,0,80,0,0
44506,-100,4,1,0,80,0,0
45905,-90.9090909090909,4,1,0,90,0,1
56370,-90.9090909090909,4,1,0,90,0,0
57067,-90.9090909090909,4,1,0,90,0,1
66832,-88.4279475982533,4,1,0,90,0,1
67006,-86.0917096872153,4,1,0,90,0,1
67181,-83.863333826357,4,1,0,90,0,1
67355,-81.7591925018024,4,1,0,90,0,1
67530,-79.746835443038,4,1,0,90,0,1
67704,-77.841845140033,4,1,0,90,0,1
67878,-76.0257441673371,4,1,0,90,0,1
68053,-74.2827197694222,4,1,0,90,0,1
68227,-72.6271294991674,4,1,0,90,0,1
68402,-71.0348283638186,4,1,0,90,0,1
68576,-69.5193722412947,4,1,0,90,0,1
68751,-68.05905653583,4,1,0,90,0,1
68928,-66.6666666666667,4,1,0,90,0,0
69277,-100,4,1,0,80,0,0
69626,-90.9090909090909,4,1,0,90,0,1
72416,-90.9090909090909,4,1,0,80,0,0
77297,-76.9230769230769,4,1,0,80,0,0
77559,-81.6374269005848,4,1,0,80,0,0
77820,-86.9456900847035,4,1,0,80,0,0
77995,-90.9090909090909,4,1,0,80,0,0
83754,-100,4,1,0,80,0,0
86370,-83.3333333333333,4,1,0,80,0,0
87762,-83.3333333333333,4,1,0,80,0,0
87937,-85.1128737034777,4,1,0,80,0,0
88024,-86.0261470152935,4,1,0,80,0,0
88111,-86.9592320159581,4,1,0,80,0,0
88198,-87.9127804386186,4,1,0,80,0,0
88285,-88.8874729195871,4,1,0,80,0,0
88373,-89.8956051037505,4,1,0,80,0,0
88460,-90.915015641293,4,1,0,80,0,0
88547,-91.9578114700066,4,1,0,80,0,0
88634,-93.0248066150974,4,1,0,80,0,0
88721,-94.1168533261368,4,1,0,80,0,0
88809,-95.2478492421139,4,1,0,80,0,0
88896,-96.3930348258707,4,1,0,80,0,0
88983,-97.5660931598825,4,1,0,80,0,0
89070,-98.768054375531,4,1,0,80,0,0
89157,-100,4,1,0,70,0,0
93347,-90.9090909090909,4,1,0,80,0,0
94739,-83.3333333333333,4,1,0,80,0,0
94913,-85.1024890190337,4,1,0,80,0,0
94971,-85.7090194150897,4,1,0,80,0,0
95030,-86.3349424433717,4,1,0,80,0,0
95088,-86.9592320159581,4,1,0,80,0,0
95262,-88.8874729195871,4,1,0,80,0,0
95349,-89.8840206185567,4,1,0,80,0,0
95437,-90.915015641293,4,1,0,80,0,0
95611,-93.0248066150974,4,1,0,80,0,0
95669,-93.75,4,1,0,80,0,0
95727,-94.4865890002709,4,1,0,80,0,0
95785,-95.2348443473512,4,1,0,80,0,0
95960,-97.5660931598825,4,1,0,80,0,0
96047,-98.768054375531,4,1,0,80,0,0
96134,-100,4,1,0,80,0,0
97530,-83.3333333333333,4,1,0,80,0,0
97704,-85.1024890190337,4,1,0,80,0,0
97762,-85.7090194150897,4,1,0,80,0,0
97820,-86.3242574257426,4,1,0,80,0,0
97878,-86.9483919222139,4,1,0,80,0,0
98053,-88.8874729195871,4,1,0,80,0,0
98140,-89.8840206185567,4,1,0,80,0,0
98227,-90.9031669490421,4,1,0,80,0,0
98402,-93.0248066150974,4,1,0,80,0,0
98460,-93.75,4,1,0,80,0,0
98518,-94.4865890002709,4,1,0,80,0,0
98576,-95.2348443473512,4,1,0,80,0,0
98751,-97.5660931598825,4,1,0,80,0,0
98838,-98.768054375531,4,1,0,80,0,0
98925,-100,4,1,0,80,0,0
100320,-83.3333333333333,4,1,0,80,0,0
100495,-85.1115717595415,4,1,0,80,0,0
100553,-85.7177944246592,4,1,0,80,0,0
100611,-86.3327149041435,4,1,0,80,0,0
100669,-86.9565217391304,4,1,0,80,0,0
100844,-88.8945491594498,4,1,0,80,0,0
100931,-89.8905344494527,4,1,0,80,0,0
101018,-90.9090909090909,4,1,0,80,0,0
101192,-93.0170575692964,4,1,0,80,0,0
101251,-93.7541974479517,4,1,0,80,0,0
101309,-94.4903208338974,4,1,0,80,0,0
101367,-95.2380952380952,4,1,0,80,0,0
101541,-97.5541579315164,4,1,0,80,0,0
101628,-98.7549518958687,4,1,0,80,0,0
101716,-100,4,1,0,80,0,0
103111,-83.3333333333333,4,1,0,80,0,0
103198,-84.2086200651938,4,1,0,80,0,0
103285,-85.1024890190337,4,1,0,80,0,0
103373,-86.0261470152935,4,1,0,80,0,0
103460,-86.9592320159581,4,1,0,80,0,0
103634,-88.8874729195871,4,1,0,80,0,0
103721,-89.8840206185567,4,1,0,80,0,0
103809,-90.915015641293,4,1,0,80,0,0
103983,-93.0248066150974,4,1,0,80,0,0
104070,-94.1168533261368,4,1,0,80,0,0
104157,-95.2348443473512,4,1,0,80,0,0
104332,-97.5660931598825,4,1,0,80,0,0
104419,-98.768054375531,4,1,0,80,0,0
104506,-100,4,1,0,80,0,0
105378,-97.5677942409841,4,1,0,80,0,0
105466,-96.3822148577741,4,1,0,80,0,0
105553,-95.2380952380952,4,1,0,80,0,0
105640,-94.1208198489752,4,1,0,80,0,0
105727,-93.0294548847128,4,1,0,80,0,0
105814,-91.9631093544137,4,1,0,80,0,0
105905,-90.9090909090909,4,1,0,90,0,1
116370,-90.9090909090909,4,1,0,90,0,0
117067,-90.9090909090909,4,1,0,90,0,1
126829,-90.9090909090909,4,1,0,90,0,1
126832,-88.4279475982533,4,1,0,90,0,1
127006,-86.0917096872153,4,1,0,90,0,1
127181,-83.863333826357,4,1,0,90,0,1
127355,-81.7591925018024,4,1,0,90,0,1
127530,-79.746835443038,4,1,0,90,0,1
127704,-77.841845140033,4,1,0,90,0,1
127878,-76.0257441673371,4,1,0,90,0,1
128053,-74.2827197694222,4,1,0,90,0,1
128227,-72.6271294991674,4,1,0,90,0,1
128402,-71.0348283638186,4,1,0,90,0,1
128576,-69.5193722412947,4,1,0,90,0,1
128751,-68.05905653583,4,1,0,90,0,1
128928,-66.6666666666667,4,1,0,90,0,0
129277,-100,4,1,0,80,0,0
129626,-90.9090909090909,4,1,0,90,0,1
132416,-90.9090909090909,4,1,0,80,0,0
132591,-100,4,1,0,70,0,0
136774,-98.7619384506544,4,1,0,80,0,0
136861,-98.1577837153705,4,1,0,80,0,0
136948,-97.5609756097561,4,1,0,80,0,0
137035,-96.9713809391498,4,1,0,80,0,0
137123,-96.3822148577741,4,1,0,80,0,0
137210,-95.8067394139043,4,1,0,80,0,0
137297,-95.2380952380952,4,1,0,80,0,0
137384,-94.6761614106477,4,1,0,80,0,0
137471,-94.1208198489752,4,1,0,80,0,0
137559,-93.5656836461126,4,1,0,80,0,0
137646,-93.0232558139535,4,1,0,80,0,0
137733,-92.4870809593216,4,1,0,80,0,0
137820,-91.9570515776299,4,1,0,80,0,0
137907,-91.4330626146188,4,1,0,80,0,0
137995,-90.9090909090909,4,1,0,80,0,0
143056,-76.9230769230769,4,1,0,80,0,0
143754,-90.9090909090909,4,1,0,80,0,0
149160,-90.9090909090909,4,1,0,90,0,1
158925,-89.1122848866927,4,1,0,90,0,1
159099,-87.3851294903925,4,1,0,90,0,1
159187,-86.5368705531961,4,1,0,90,0,1
159274,-85.7142857142856,4,1,0,90,0,1
159448,-84.1151557390231,4,1,0,90,0,1
159535,-83.3377596005735,4,1,0,90,0,1
159626,-82.5659106456874,4,1,0,90,0,0
159797,-81.081081081081,4,1,0,90,0,0
159884,-80.3585147247118,4,1,0,90,0,0
159971,-79.6487131326462,4,1,0,90,0,0
160059,-78.943396226415,4,1,0,90,0,0
160146,-78.258267245249,4,1,0,90,0,0
160233,-77.5849280522177,4,1,0,90,0,0
160320,-76.9230769230768,4,1,0,90,0,0
160498,-83.3333333333333,4,1,0,90,0,1
170088,-81.2437311935806,4,1,0,90,0,1
170262,-79.2674402348664,4,1,0,90,0,1
170437,-77.3744541484715,4,1,0,90,0,1
170611,-75.5798453745667,4,1,0,90,0,1
170785,-73.8665971860343,4,1,0,90,0,1
170960,-72.2200993504011,4,1,0,90,0,1
171134,-70.6542056074765,4,1,0,90,0,1
171309,-69.1463414634145,4,1,0,90,0,1
171483,-67.7095772629567,4,1,0,90,0,1
171657,-66.331305568554,4,1,0,90,0,1
171832,-65.0005731972944,4,1,0,90,0,1
172006,-63.729346970889,4,1,0,90,0,1
172184,-62.4999999999999,4,1,0,90,0,0
172533,-90.9090909090909,4,1,0,80,0,0
172881,-83.3333333333333,4,1,0,90,0,1
175672,-83.3333333333333,4,1,0,80,0,0
175847,-90.9090909090909,4,1,0,80,0,0
180552,-76.9230769230769,4,1,0,80,0,0
180814,-81.6374269005848,4,1,0,80,0,0
181075,-86.9456900847035,4,1,0,80,0,0
181250,-90.9090909090909,4,1,0,80,0,0
187009,-111.111111111111,4,1,0,70,0,0
196602,-90.9090909090908,4,1,0,80,0,0

[HitObjects]
256,192,1254,5,0,0:0:0:0:
256,192,1602,1,8,0:0:0:0:
256,192,1777,1,0,0:0:0:0:
242,198,2126,1,8,0:0:0:0:
256,192,2300,1,0,0:0:0:0:
242,198,2474,1,8,0:0:0:0:
256,192,2649,1,0,0:0:0:0:
224,160,2823,1,0,0:0:0:0:
256,192,2998,1,0,0:0:0:0:
248,104,3172,1,8,0:0:0:0:
256,192,3521,1,0,0:0:0:0:
256,192,3695,1,8,0:0:0:0:
259,182,3870,1,8,0:0:0:0:
256,192,4044,1,0,0:0:0:0:
256,192,4219,1,8,0:0:0:0:
256,192,4393,1,0,0:0:0:0:
256,192,4567,1,8,0:0:0:0:
256,192,4742,1,0,0:0:0:0:
256,192,4916,1,8,0:0:0:0:
256,192,5091,1,0,0:0:0:0:
256,192,5265,1,8,0:0:0:0:
256,192,5440,1,0,0:0:0:0:
256,192,5614,1,0,0:0:0:0:
256,192,5788,1,8,0:0:0:0:
256,192,5963,1,0,0:0:0:0:
229,141,6312,1,8,0:0:0:0:
256,192,6486,1,8,0:0:0:0:
229,141,6660,1,8,0:0:0:0:
256,192,6835,1,0,0:0:0:0:
229,141,7184,1,8,0:0:0:0:
256,192,7358,1,0,0:0:0:0:
256,192,7533,1,8,0:0:0:0:
256,160,7794,1,8,0:0:0:0:
256,192,7881,1,0,0:0:0:0:
256,160,8056,1,8,0:0:0:0:
256,192,8230,1,0,0:0:0:0:
256,192,8405,1,8,0:0:0:0:
256,192,8579,1,0,0:0:0:0:
256,192,8754,1,0,0:0:0:0:
256,192,8928,1,8,0:0:0:0:
224,192,9190,1,8,0:0:0:0:
256,192,9277,1,0,0:0:0:0:
224,192,9451,1,8,0:0:0:0:
224,192,9626,1,0,0:0:0:0:
224,192,9800,1,8,0:0:0:0:
256,192,9974,1,0,0:0:0:0:
224,192,10149,1,8,0:0:0:0:
256,192,10323,1,0,0:0:0:0:
224,192,10498,1,8,0:0:0:0:
256,192,10672,1,8,0:0:0:0:
256,192,11021,1,8,0:0:0:0:
256,160,11108,1,8,0:0:0:0:
256,160,11195,1,8,0:0:0:0:
224,192,11283,1,8,0:0:0:0:
224,192,11370,1,0,0:0:0:0:
224,192,11544,1,8,0:0:0:0:
256,192,11631,1,0,0:0:0:0:
224,192,11719,1,8,0:0:0:0:
256,192,11806,1,8,0:0:0:0:
256,192,12067,1,8,0:0:0:0:
256,192,12155,1,8,0:0:0:0:
256,192,12242,1,8,0:0:0:0:
256,192,12329,1,8,0:0:0:0:
256,192,12416,1,4,0:0:0:0:
224,192,12765,1,8,0:0:0:0:
224,192,12940,1,8,0:0:0:0:
224,192,13114,1,0,0:0:0:0:
224,192,13201,1,0,0:0:0:0:
224,192,13288,1,8,0:0:0:0:
224,192,13463,1,0,0:0:0:0:
224,192,13637,1,8,0:0:0:0:
224,192,13812,1,0,0:0:0:0:
224,224,13986,1,0,0:0:0:0:
256,160,14073,1,0,0:0:0:0:
224,192,14160,1,8,0:0:0:0:
224,192,14248,1,0,0:0:0:0:
224,224,14335,1,8,0:0:0:0:
224,192,14509,1,0,0:0:0:0:
224,192,14684,1,0,0:0:0:0:
240,128,14771,1,0,0:0:0:0:
224,192,14858,1,8,0:0:0:0:
224,128,14945,1,0,0:0:0:0:
224,192,15033,1,8,0:0:0:0:
224,128,15120,1,8,0:0:0:0:
224,192,15207,1,0,0:0:0:0:
224,192,15381,1,0,0:0:0:0:
224,192,15556,1,8,0:0:0:0:
224,192,15730,1,8,0:0:0:0:
224,192,15905,1,0,0:0:0:0:
224,192,15992,1,0,0:0:0:0:
224,192,16079,1,8,0:0:0:0:
224,192,16254,1,0,0:0:0:0:
224,192,16428,1,8,0:0:0:0:
224,192,16602,1,0,0:0:0:0:
224,192,16777,1,0,0:0:0:0:
224,128,16864,1,0,0:0:0:0:
224,192,16951,1,8,0:0:0:0:
224,192,17126,1,0,0:0:0:0:
224,192,17300,1,12,0:0:0:0:
224,192,17562,1,12,0:0:0:0:
224,192,17823,1,12,0:0:0:0:
256,192,17998,1,4,0:0:0:0:
224,192,18347,1,8,0:0:0:0:
224,192,18521,1,8,0:0:0:0:
224,192,18695,1,0,0:0:0:0:
224,192,18783,1,0,0:0:0:0:
224,192,18870,1,8,0:0:0:0:
224,192,19044,1,0,0:0:0:0:
224,192,19219,1,8,0:0:0:0:
224,192,19393,1,0,0:0:0:0:
224,224,19567,1,0,0:0:0:0:
256,160,19655,1,0,0:0:0:0:
224,192,19742,1,8,0:0:0:0:
224,192,19829,1,0,0:0:0:0:
224,224,19916,1,8,0:0:0:0:
224,192,20091,1,0,0:0:0:0:
224,192,20265,1,0,0:0:0:0:
240,128,20352,1,0,0:0:0:0:
224,192,20440,1,8,0:0:0:0:
224,128,20527,1,0,0:0:0:0:
224,192,20614,1,8,0:0:0:0:
224,128,20701,1,8,0:0:0:0:
224,192,20788,1,0,0:0:0:0:
224,192,20963,1,0,0:0:0:0:
224,192,21137,1,8,0:0:0:0:
224,192,21312,1,8,0:0:0:0:
224,192,21486,1,0,0:0:0:0:
224,192,21573,1,0,0:0:0:0:
224,192,21660,1,8,0:0:0:0:
224,192,21835,1,0,0:0:0:0:
224,192,22009,1,8,0:0:0:0:
224,192,22184,1,0,0:0:0:0:
224,192,22358,1,0,0:0:0:0:
224,128,22445,1,0,0:0:0:0:
224,192,22533,1,8,0:0:0:0:
224,192,22707,1,0,0:0:0:0:
224,192,22881,1,8,0:0:0:0:
232,160,22969,1,8,0:0:0:0:
224,192,23056,1,0,0:0:0:0:
232,160,23143,1,0,0:0:0:0:
232,160,23230,1,8,0:0:0:0:
232,160,23317,1,8,0:0:0:0:
224,192,23405,1,8,0:0:0:0:
232,160,23492,1,8,0:0:0:0:
224,192,23579,1,4,0:0:0:0:
240,176,23928,1,8,0:0:0:0:
240,176,24102,1,8,0:0:0:0:
240,176,24190,1,8,0:0:0:0:
240,176,24277,1,0,0:0:0:0:
240,176,24364,1,0,0:0:0:0:
240,176,24451,1,0,0:0:0:0:
240,176,24626,1,8,0:0:0:0:
240,176,24800,1,0,0:0:0:0:
240,176,24887,1,8,0:0:0:0:
240,176,24974,1,0,0:0:0:0:
240,176,25062,1,8,0:0:0:0:
240,176,25149,1,0,0:0:0:0:
232,144,25236,1,0,0:0:0:0:
240,176,25323,1,8,0:0:0:0:
240,176,25498,1,8,0:0:0:0:
240,176,25585,1,8,0:0:0:0:
240,176,25672,1,0,0:0:0:0:
232,152,25847,1,0,0:0:0:0:
232,152,26021,1,8,0:0:0:0:
232,152,26195,1,0,0:0:0:0:
232,152,26283,1,0,0:0:0:0:
232,152,26370,1,8,0:0:0:0:
232,152,26457,1,8,0:0:0:0:
232,152,26544,1,0,0:0:0:0:
232,152,26719,1,8,0:0:0:0:
232,144,26893,1,8,0:0:0:0:
232,144,26980,1,8,0:0:0:0:
232,144,27067,1,0,0:0:0:0:
232,144,27155,1,8,0:0:0:0:
232,144,27242,1,0,0:0:0:0:
232,144,27329,1,0,0:0:0:0:
232,144,27416,1,8,0:0:0:0:
240,144,27591,1,0,0:0:0:0:
232,144,27765,1,8,0:0:0:0:
232,144,27852,1,0,0:0:0:0:
232,144,27940,1,8,0:0:0:0:
232,144,28027,1,0,0:0:0:0:
232,144,28114,1,8,0:0:0:0:
232,144,28288,1,0,0:0:0:0:
240,152,28463,1,8,0:0:0:0:
240,152,28637,1,0,0:0:0:0:
240,152,28724,1,0,0:0:0:0:
240,152,28812,1,8,0:0:0:0:
240,152,28899,1,0,0:0:0:0:
240,152,28986,1,8,0:0:0:0:
232,96,29073,1,8,0:0:0:0:
240,152,29160,1,0,0:0:0:0:
240,144,29335,1,0,0:0:0:0:
240,176,29509,1,8,0:0:0:0:
240,176,29684,1,8,0:0:0:0:
240,176,29771,1,8,0:0:0:0:
240,176,29858,1,0,0:0:0:0:
240,176,29945,1,0,0:0:0:0:
240,176,30033,1,0,0:0:0:0:
240,176,30207,1,8,0:0:0:0:
240,176,30381,1,0,0:0:0:0:
240,176,30469,1,8,0:0:0:0:
240,176,30556,1,0,0:0:0:0:
240,176,30643,1,8,0:0:0:0:
240,176,30730,1,0,0:0:0:0:
232,144,30817,1,0,0:0:0:0:
240,176,30905,1,8,0:0:0:0:
240,176,31079,1,8,0:0:0:0:
240,176,31166,1,8,0:0:0:0:
240,176,31254,1,0,0:0:0:0:
232,152,31428,1,0,0:0:0:0:
232,152,31602,1,8,0:0:0:0:
232,152,31777,1,0,0:0:0:0:
232,152,31864,1,0,0:0:0:0:
232,152,31951,1,8,0:0:0:0:
232,152,32038,1,8,0:0:0:0:
232,152,32126,1,0,0:0:0:0:
232,152,32300,1,8,0:0:0:0:
232,144,32474,1,8,0:0:0:0:
232,144,32562,1,8,0:0:0:0:
232,144,32649,1,0,0:0:0:0:
232,144,32736,1,8,0:0:0:0:
232,144,32823,1,0,0:0:0:0:
232,144,32910,1,0,0:0:0:0:
232,144,32998,1,8,0:0:0:0:
240,144,33172,1,0,0:0:0:0:
232,144,33347,1,8,0:0:0:0:
232,144,33434,1,8,0:0:0:0:
232,144,33521,1,8,0:0:0:0:
232,144,33608,1,8,0:0:0:0:
232,144,33695,1,0,0:0:0:0:
232,144,33870,1,8,0:0:0:0:
216,136,33957,1,0,0:0:0:0:
240,152,34044,1,8,0:0:0:0:
240,152,34131,1,8,0:0:0:0:
240,152,34393,1,0,0:0:0:0:
240,152,34742,1,4,0:0:0:0:
256,152,34916,1,8,0:0:0:0:
256,152,34974,1,8,0:0:0:0:
256,152,35033,1,8,0:0:0:0:
256,152,35091,1,0,0:0:0:0:
256,152,35265,1,8,0:0:0:0:
256,152,35352,1,0,0:0:0:0:
256,152,35440,1,8,0:0:0:0:
256,152,35614,1,0,0:0:0:0:
256,152,35672,1,0,0:0:0:0:
256,152,35730,1,0,0:0:0:0:
256,152,35788,1,8,0:0:0:0:
256,152,35963,1,0,0:0:0:0:
256,152,36050,1,8,0:0:0:0:
256,152,36137,1,0,0:0:0:0:
256,152,36312,1,8,0:0:0:0:
256,152,36486,1,0,0:0:0:0:
256,152,36660,1,8,0:0:0:0:
256,152,36835,1,0,0:0:0:0:
256,152,37009,1,8,0:0:0:0:
256,152,37184,1,0,0:0:0:0:
256,152,37358,1,8,0:0:0:0:
240,152,37533,1,4,0:0:0:0:
256,152,37707,1,8,0:0:0:0:
256,152,37765,1,8,0:0:0:0:
256,152,37823,1,8,0:0:0:0:
256,152,37881,1,0,0:0:0:0:
256,152,38056,1,8,0:0:0:0:
256,152,38143,1,0,0:0:0:0:
256,152,38230,1,8,0:0:0:0:
256,152,38405,1,0,0:0:0:0:
256,152,38463,1,0,0:0:0:0:
256,152,38521,1,0,0:0:0:0:
256,152,38579,1,8,0:0:0:0:
256,152,38754,1,0,0:0:0:0:
256,152,38841,1,8,0:0:0:0:
256,152,38928,1,0,0:0:0:0:
256,152,39102,1,8,0:0:0:0:
256,152,39277,1,0,0:0:0:0:
256,152,39451,1,8,0:0:0:0:
256,152,39626,1,0,0:0:0:0:
256,152,39800,1,8,0:0:0:0:
256,152,39974,1,0,0:0:0:0:
256,152,40149,1,8,0:0:0:0:
256,152,40323,1,4,0:0:0:0:
256,152,40498,1,8,0:0:0:0:
256,152,40556,1,8,0:0:0:0:
256,152,40614,1,8,0:0:0:0:
256,152,40672,1,0,0:0:0:0:
256,152,40847,1,8,0:0:0:0:
256,152,40934,1,0,0:0:0:0:
256,152,41021,1,8,0:0:0:0:
256,152,41195,1,0,0:0:0:0:
256,152,41254,1,0,0:0:0:0:
256,152,41312,1,0,0:0:0:0:
256,152,41370,1,8,0:0:0:0:
256,152,41544,1,0,0:0:0:0:
256,152,41631,1,8,0:0:0:0:
256,152,41719,1,0,0:0:0:0:
256,152,41893,1,8,0:0:0:0:
256,152,42067,1,0,0:0:0:0:
256,152,42242,1,8,0:0:0:0:
256,152,42416,1,0,0:0:0:0:
256,152,42591,1,8,0:0:0:0:
256,152,42765,1,0,0:0:0:0:
256,152,42940,1,8,0:0:0:0:
256,152,43114,1,0,0:0:0:0:
248,168,43201,1,8,0:0:0:0:
248,168,43288,1,8,0:0:0:0:
248,168,43376,1,8,0:0:0:0:
248,168,43463,1,0,0:0:0:0:
248,152,43637,1,8,0:0:0:0:
248,144,43724,1,0,0:0:0:0:
248,152,43812,1,8,0:0:0:0:
248,144,43986,1,0,0:0:0:0:
248,144,44073,1,0,0:0:0:0:
248,144,44160,1,8,0:0:0:0:
248,144,44335,1,0,0:0:0:0:
248,144,44422,1,8,0:0:0:0:
248,144,44509,1,0,0:0:0:0:
248,152,45905,1,4,0:0:0:0:
248,152,46254,1,8,0:0:0:0:
248,152,46428,1,0,0:0:0:0:
248,152,46515,1,0,0:0:0:0:
248,152,46602,1,8,0:0:0:0:
248,152,46777,1,0,0:0:0:0:
248,152,46864,1,8,0:0:0:0:
248,152,46951,1,0,0:0:0:0:
248,152,47126,1,8,0:0:0:0:
248,152,47300,1,0,0:0:0:0:
248,152,47387,1,0,0:0:0:0:
248,152,47474,1,0,0:0:0:0:
248,152,47562,1,0,0:0:0:0:
248,152,47649,1,8,0:0:0:0:
248,152,47823,1,0,0:0:0:0:
248,152,47998,1,8,0:0:0:0:
248,152,48085,1,0,0:0:0:0:
248,152,48172,1,8,0:0:0:0:
248,152,48347,1,0,0:0:0:0:
232,112,48434,1,0,0:0:0:0:
248,152,48521,1,8,0:0:0:0:
248,152,48608,1,8,0:0:0:0:
240,144,48695,1,0,0:0:0:0:
248,152,48870,1,0,0:0:0:0:
248,152,49044,1,8,0:0:0:0:
248,152,49131,1,0,0:0:0:0:
248,152,49219,1,8,0:0:0:0:
248,152,49393,1,0,0:0:0:0:
248,152,49567,1,0,0:0:0:0:
240,144,49655,1,0,0:0:0:0:
248,152,49742,1,8,0:0:0:0:
248,152,49916,1,0,0:0:0:0:
248,152,50091,1,8,0:0:0:0:
224,144,50178,1,0,0:0:0:0:
224,144,50265,1,8,0:0:0:0:
224,144,50352,1,0,0:0:0:0:
224,144,50440,1,8,0:0:0:0:
224,144,50527,1,8,0:0:0:0:
248,152,50614,1,0,0:0:0:0:
224,144,50701,1,0,0:0:0:0:
248,152,50788,1,8,0:0:0:0:
248,152,50963,1,0,0:0:0:0:
248,152,51137,1,12,0:0:0:0:
248,152,51312,1,8,0:0:0:0:
248,152,51399,1,8,0:0:0:0:
248,152,51486,1,4,0:0:0:0:
248,152,51835,1,8,0:0:0:0:
248,152,52009,1,0,0:0:0:0:
248,152,52097,1,0,0:0:0:0:
248,152,52184,1,8,0:0:0:0:
248,152,52358,1,0,0:0:0:0:
248,152,52533,1,8,0:0:0:0:
248,152,52620,1,8,0:0:0:0:
248,152,52707,1,0,0:0:0:0:
248,152,52794,1,0,0:0:0:0:
248,152,52881,1,8,0:0:0:0:
248,152,52969,1,0,0:0:0:0:
248,152,53056,1,0,0:0:0:0:
248,152,53230,1,8,0:0:0:0:
248,152,53405,1,8,0:0:0:0:
248,152,53492,1,8,0:0:0:0:
248,152,53579,1,0,0:0:0:0:
248,152,53666,1,8,0:0:0:0:
248,152,53754,1,0,0:0:0:0:
232,120,53841,1,0,0:0:0:0:
248,152,53928,1,8,0:0:0:0:
232,112,54015,1,0,0:0:0:0:
248,152,54102,1,8,0:0:0:0:
240,144,54277,1,0,0:0:0:0:
248,152,54451,1,0,0:0:0:0:
240,120,54538,1,0,0:0:0:0:
248,152,54626,1,8,0:0:0:0:
248,152,54800,1,8,0:0:0:0:
240,128,54887,1,0,0:0:0:0:
248,152,54974,1,8,0:0:0:0:
248,152,55149,1,0,0:0:0:0:
240,144,55236,1,0,0:0:0:0:
248,152,55323,1,8,0:0:0:0:
248,152,55498,1,0,0:0:0:0:
248,152,55672,1,8,0:0:0:0:
224,144,55847,1,0,0:0:0:0:
224,144,55934,1,0,0:0:0:0:
224,144,56021,1,8,0:0:0:0:
248,152,56195,1,0,0:0:0:0:
232,136,56283,1,0,0:0:0:0:
248,152,56370,1,8,0:0:0:0:
248,152,56544,1,8,0:0:0:0:
256,136,56631,1,8,0:0:0:0:
248,152,56719,1,8,0:0:0:0:
256,136,56806,1,8,0:0:0:0:
248,152,56893,1,8,0:0:0:0:
248,152,56980,1,8,0:0:0:0:
248,152,57067,1,4,0:0:0:0:
248,152,57416,1,8,0:0:0:0:
248,152,57591,1,0,0:0:0:0:
248,152,57678,1,0,0:0:0:0:
248,152,57765,1,8,0:0:0:0:
248,152,57940,1,0,0:0:0:0:
248,152,58027,1,8,0:0:0:0:
248,152,58114,1,0,0:0:0:0:
248,152,58201,1,0,0:0:0:0:
248,152,58288,1,8,0:0:0:0:
248,152,58463,1,0,0:0:0:0:
248,152,58637,1,8,0:0:0:0:
248,152,58724,1,8,0:0:0:0:
248,152,58812,1,0,0:0:0:0:
248,152,58986,1,8,0:0:0:0:
248,152,59160,1,8,0:0:0:0:
248,152,59248,1,0,0:0:0:0:
248,152,59335,1,8,0:0:0:0:
224,120,59422,1,0,0:0:0:0:
248,152,59509,1,0,0:0:0:0:
240,136,59597,1,0,0:0:0:0:
248,152,59684,1,8,0:0:0:0:
240,144,59858,1,0,0:0:0:0:
248,152,60033,1,8,0:0:0:0:
232,128,60120,1,8,0:0:0:0:
248,152,60207,1,8,0:0:0:0:
248,152,60381,1,0,0:0:0:0:
248,152,60556,1,8,0:0:0:0:
248,152,60730,1,0,0:0:0:0:
240,144,60817,1,0,0:0:0:0:
248,152,60905,1,8,0:0:0:0:
248,152,61079,1,0,0:0:0:0:
248,152,61254,1,8,0:0:0:0:
224,144,61341,1,8,0:0:0:0:
224,144,61428,1,0,0:0:0:0:
224,144,61515,1,0,0:0:0:0:
224,144,61602,1,8,0:0:0:0:
224,144,61690,1,0,0:0:0:0:
248,152,61777,1,0,0:0:0:0:
224,144,61864,1,0,0:0:0:0:
248,152,61951,1,8,0:0:0:0:
248,152,62126,1,0,0:0:0:0:
248,152,62300,1,12,0:0:0:0:
248,152,62474,1,8,0:0:0:0:
248,152,62562,1,8,0:0:0:0:
248,152,62649,1,4,0:0:0:0:
248,152,62998,1,8,0:0:0:0:
248,152,63172,1,0,0:0:0:0:
248,152,63259,1,0,0:0:0:0:
248,152,63347,1,8,0:0:0:0:
248,152,63521,1,0,0:0:0:0:
248,152,63695,1,8,0:0:0:0:
248,152,63783,1,0,0:0:0:0:
248,152,63870,1,0,0:0:0:0:
248,152,63957,1,0,0:0:0:0:
248,152,64044,1,8,0:0:0:0:
248,152,64131,1,8,0:0:0:0:
248,152,64219,1,0,0:0:0:0:
248,152,64393,1,8,0:0:0:0:
248,152,64567,1,8,0:0:0:0:
248,152,64655,1,0,0:0:0:0:
248,152,64742,1,8,0:0:0:0:
248,152,64829,1,8,0:0:0:0:
248,152,64916,1,0,0:0:0:0:
232,120,65004,1,0,0:0:0:0:
248,152,65091,1,8,0:0:0:0:
232,112,65178,1,0,0:0:0:0:
248,152,65265,1,8,0:0:0:0:
240,144,65440,1,0,0:0:0:0:
248,152,65614,1,0,0:0:0:0:
216,128,65701,1,0,0:0:0:0:
248,152,65788,1,8,0:0:0:0:
248,152,65963,1,8,0:0:0:0:
240,128,66050,1,0,0:0:0:0:
248,152,66137,1,8,0:0:0:0:
248,152,66312,1,0,0:0:0:0:
240,144,66399,1,0,0:0:0:0:
248,152,66486,1,8,0:0:0:0:
248,152,66660,1,0,0:0:0:0:
248,152,66835,1,12,0:0:0:0:
248,152,67009,1,4,0:0:0:0:
248,152,67184,1,12,0:0:0:0:
248,152,67358,1,12,0:0:0:0:
248,152,67533,1,4,0:0:0:0:
248,152,67707,1,4,0:0:0:0:
248,152,67881,1,12,0:0:0:0:
248,152,68056,1,4,0:0:0:0:
248,152,68230,1,12,0:0:0:0:
248,152,68405,1,12,0:0:0:0:
248,152,68579,1,4,0:0:0:0:
248,152,68754,1,4,0:0:0:0:
248,160,68928,1,12,0:0:0:0:
256,136,69277,1,0,0:0:0:0:
256,136,69626,1,12,0:0:0:0:
248,144,69800,1,0,0:0:0:0:
248,144,69887,1,0,0:0:0:0:
248,144,69974,1,8,0:0:0:0:
248,144,70149,1,0,0:0:0:0:
208,88,70236,1,0,0:0:0:0:
248,144,70323,1,8,0:0:0:0:
248,144,70498,1,0,0:0:0:0:
248,144,70585,1,0,0:0:0:0:
248,144,70672,1,8,0:0:0:0:
216,88,70759,1,8,0:0:0:0:
248,144,70847,1,0,0:0:0:0:
248,144,70934,1,0,0:0:0:0:
248,144,71021,1,8,0:0:0:0:
248,144,71195,1,0,0:0:0:0:
248,144,71283,1,0,0:0:0:0:
248,144,71370,1,8,0:0:0:0:
248,144,71544,1,8,0:0:0:0:
248,144,71631,1,0,0:0:0:0:
248,144,71719,1,8,0:0:0:0:
248,144,71893,1,0,0:0:0:0:
248,144,71980,1,0,0:0:0:0:
248,144,72067,1,8,0:0:0:0:
248,144,72155,1,8,0:0:0:0:
248,144,72242,1,8,0:0:0:0:
248,144,72329,1,8,0:0:0:0:
256,192,72416,1,4,0:0:0:0:
224,192,72765,1,8,0:0:0:0:
224,192,72940,1,8,0:0:0:0:
224,192,73114,1,0,0:0:0:0:
224,192,73201,1,0,0:0:0:0:
224,192,73288,1,8,0:0:0:0:
224,192,73463,1,0,0:0:0:0:
224,192,73637,1,8,0:0:0:0:
224,192,73812,1,0,0:0:0:0:
224,224,73986,1,0,0:0:0:0:
256,160,74073,1,0,0:0:0:0:
224,192,74160,1,8,0:0:0:0:
224,192,74248,1,0,0:0:0:0:
224,224,74335,1,8,0:0:0:0:
224,192,74509,1,0,0:0:0:0:
224,192,74684,1,0,0:0:0:0:
240,128,74771,1,0,0:0:0:0:
224,192,74858,1,8,0:0:0:0:
224,128,74945,1,0,0:0:0:0:
224,192,75033,1,8,0:0:0:0:
224,128,75120,1,8,0:0:0:0:
224,192,75207,1,0,0:0:0:0:
224,192,75381,1,0,0:0:0:0:
224,192,75556,1,8,0:0:0:0:
224,192,75730,1,8,0:0:0:0:
224,192,75905,1,0,0:0:0:0:
224,192,75992,1,0,0:0:0:0:
224,192,76079,1,8,0:0:0:0:
224,192,76254,1,0,0:0:0:0:
224,192,76428,1,8,0:0:0:0:
224,192,76602,1,0,0:0:0:0:
224,192,76777,1,0,0:0:0:0:
224,128,76864,1,0,0:0:0:0:
224,192,76951,1,8,0:0:0:0:
224,192,77126,1,0,0:0:0:0:
224,192,77300,1,12,0:0:0:0:
224,192,77562,1,12,0:0:0:0:
224,192,77823,1,12,0:0:0:0:
256,192,77998,1,4,0:0:0:0:
224,192,78347,1,8,0:0:0:0:
224,192,78521,1,8,0:0:0:0:
224,192,78695,1,0,0:0:0:0:
224,192,78783,1,0,0:0:0:0:
224,192,78870,1,8,0:0:0:0:
224,192,79044,1,0,0:0:0:0:
224,192,79219,1,8,0:0:0:0:
224,192,79393,1,0,0:0:0:0:
224,224,79567,1,0,0:0:0:0:
256,160,79655,1,0,0:0:0:0:
224,192,79742,1,8,0:0:0:0:
224,192,79829,1,0,0:0:0:0:
224,224,79916,1,8,0:0:0:0:
224,192,80091,1,0,0:0:0:0:
224,192,80265,1,0,0:0:0:0:
240,128,80352,1,0,0:0:0:0:
224,192,80440,1,8,0:0:0:0:
224,128,80527,1,0,0:0:0:0:
224,192,80614,1,8,0:0:0:0:
224,128,80701,1,8,0:0:0:0:
224,192,80788,1,0,0:0:0:0:
224,192,80963,1,0,0:0:0:0:
224,192,81137,1,8,0:0:0:0:
224,192,81312,1,8,0:0:0:0:
224,192,81486,1,0,0:0:0:0:
224,192,81573,1,0,0:0:0:0:
224,192,81660,1,8,0:0:0:0:
224,192,81835,1,0,0:0:0:0:
224,192,82009,1,8,0:0:0:0:
224,192,82184,1,0,0:0:0:0:
224,192,82358,1,0,0:0:0:0:
224,128,82445,1,0,0:0:0:0:
224,192,82533,1,8,0:0:0:0:
224,192,82707,1,0,0:0:0:0:
224,192,82881,1,8,0:0:0:0:
232,160,82969,1,8,0:0:0:0:
224,192,83056,1,0,0:0:0:0:
232,160,83143,1,0,0:0:0:0:
232,160,83230,1,8,0:0:0:0:
232,160,83317,1,8,0:0:0:0:
224,192,83405,1,8,0:0:0:0:
232,160,83492,1,8,0:0:0:0:
224,192,83579,1,4,0:0:0:0:
232,176,83928,1,0,0:0:0:0:
232,176,84015,1,0,0:0:0:0:
232,176,84102,1,0,0:0:0:0:
232,176,84190,1,0,0:0:0:0:
232,176,84277,1,8,0:0:0:0:
232,176,84451,1,0,0:0:0:0:
232,176,84800,1,8,0:0:0:0:
232,176,84887,1,8,0:0:0:0:
248,192,84974,1,0,0:0:0:0:
232,176,85149,1,8,0:0:0:0:
232,184,85498,1,0,0:0:0:0:
232,184,85672,1,8,0:0:0:0:
224,184,85847,1,0,0:0:0:0:
224,184,86021,1,8,0:0:0:0:
232,184,86370,1,4,0:0:0:0:
232,184,86719,1,4,0:0:0:0:
232,184,87067,1,4,0:0:0:0:
232,184,87416,1,4,0:0:0:0:
232,184,87765,1,12,0:0:0:0:
232,184,87940,1,8,0:0:0:0:
232,184,88027,1,8,0:0:0:0:
232,184,88114,1,8,0:0:0:0:
232,184,88201,1,8,0:0:0:0:
232,184,88288,1,0,0:0:0:0:
232,184,88376,1,0,0:0:0:0:
232,184,88463,1,8,0:0:0:0:
232,184,88550,1,0,0:0:0:0:
232,184,88637,1,0,0:0:0:0:
232,184,88724,1,0,0:0:0:0:
232,184,88812,1,8,0:0:0:0:
232,184,88899,1,8,0:0:0:0:
232,184,88986,1,8,0:0:0:0:
232,184,89073,1,8,0:0:0:0:
232,184,89160,1,4,0:0:0:0:
200,32,89335,1,0,0:0:0:0:
240,176,89509,1,8,0:0:0:0:
240,176,89684,1,8,0:0:0:0:
240,176,89771,1,8,0:0:0:0:
240,176,89858,1,0,0:0:0:0:
240,176,90033,1,0,0:0:0:0:
240,176,90207,1,8,0:0:0:0:
240,176,90381,1,0,0:0:0:0:
216,144,90469,1,8,0:0:0:0:
240,176,90556,1,0,0:0:0:0:
248,144,90730,1,0,0:0:0:0:
240,176,90905,1,8,0:0:0:0:
232,192,91079,1,8,0:0:0:0:
232,192,91166,1,8,0:0:0:0:
232,192,91254,1,0,0:0:0:0:
240,176,91341,1,8,0:0:0:0:
232,192,91428,1,0,0:0:0:0:
232,192,91602,1,8,0:0:0:0:
232,192,91777,1,0,0:0:0:0:
232,192,91864,1,0,0:0:0:0:
232,192,91951,1,8,0:0:0:0:
240,192,92126,1,0,0:0:0:0:
240,192,92300,1,8,0:0:0:0:
240,192,92474,1,0,0:0:0:0:
248,168,92562,1,8,0:0:0:0:
240,192,92649,1,0,0:0:0:0:
240,192,92823,1,0,0:0:0:0:
240,192,92910,1,0,0:0:0:0:
240,192,92998,1,8,0:0:0:0:
240,192,93172,1,0,0:0:0:0:
240,192,93347,1,12,0:0:0:0:
240,192,93521,1,8,0:0:0:0:
240,192,93608,1,8,0:0:0:0:
240,192,93695,1,0,0:0:0:0:
232,200,93870,1,8,0:0:0:0:
232,200,93957,1,0,0:0:0:0:
232,200,94044,1,8,0:0:0:0:
232,200,94131,1,8,0:0:0:0:
232,200,94219,1,0,0:0:0:0:
232,200,94393,1,0,0:0:0:0:
240,152,94742,1,4,0:0:0:0:
256,152,94916,1,8,0:0:0:0:
256,152,94974,1,8,0:0:0:0:
256,152,95033,1,8,0:0:0:0:
256,152,95091,1,0,0:0:0:0:
256,152,95265,1,8,0:0:0:0:
256,152,95352,1,0,0:0:0:0:
256,152,95440,1,8,0:0:0:0:
256,152,95614,1,0,0:0:0:0:
256,152,95672,1,0,0:0:0:0:
256,152,95730,1,0,0:0:0:0:
256,152,95788,1,8,0:0:0:0:
256,152,95963,1,0,0:0:0:0:
256,152,96050,1,8,0:0:0:0:
256,152,96137,1,0,0:0:0:0:
256,152,96312,1,8,0:0:0:0:
256,152,96486,1,0,0:0:0:0:
256,152,96660,1,8,0:0:0:0:
256,152,96835,1,0,0:0:0:0:
256,152,97009,1,8,0:0:0:0:
256,152,97184,1,0,0:0:0:0:
256,152,97358,1,8,0:0:0:0:
240,152,97533,1,4,0:0:0:0:
256,152,97707,1,8,0:0:0:0:
256,152,97765,1,8,0:0:0:0:
256,152,97823,1,8,0:0:0:0:
256,152,97881,1,0,0:0:0:0:
256,152,98056,1,8,0:0:0:0:
256,152,98143,1,0,0:0:0:0:
256,152,98230,1,8,0:0:0:0:
256,152,98405,1,0,0:0:0:0:
256,152,98463,1,0,0:0:0:0:
256,152,98521,1,0,0:0:0:0:
256,152,98579,1,8,0:0:0:0:
256,152,98754,1,0,0:0:0:0:
256,152,98841,1,8,0:0:0:0:
256,152,98928,1,0,0:0:0:0:
256,152,99102,1,8,0:0:0:0:
256,152,99277,1,0,0:0:0:0:
256,152,99451,1,8,0:0:0:0:
256,152,99626,1,0,0:0:0:0:
256,152,99800,1,8,0:0:0:0:
256,152,99974,1,0,0:0:0:0:
256,152,100149,1,8,0:0:0:0:
256,152,100323,1,4,0:0:0:0:
256,152,100498,1,8,0:0:0:0:
256,152,100556,1,8,0:0:0:0:
256,152,100614,1,8,0:0:0:0:
256,152,100672,1,0,0:0:0:0:
256,152,100847,1,8,0:0:0:0:
256,152,100934,1,0,0:0:0:0:
256,152,101021,1,8,0:0:0:0:
256,152,101195,1,0,0:0:0:0:
256,152,101254,1,0,0:0:0:0:
256,152,101312,1,0,0:0:0:0:
256,152,101370,1,8,0:0:0:0:
256,152,101544,1,0,0:0:0:0:
256,152,101631,1,8,0:0:0:0:
256,152,101719,1,0,0:0:0:0:
256,152,101893,1,8,0:0:0:0:
256,152,102067,1,0,0:0:0:0:
256,152,102242,1,8,0:0:0:0:
256,152,102416,1,0,0:0:0:0:
256,152,102591,1,8,0:0:0:0:
256,152,102765,1,0,0:0:0:0:
256,152,102940,1,8,0:0:0:0:
256,152,103114,1,0,0:0:0:0:
248,168,103201,1,8,0:0:0:0:
248,168,103288,1,8,0:0:0:0:
248,168,103376,1,8,0:0:0:0:
248,168,103463,1,0,0:0:0:0:
248,152,103637,1,8,0:0:0:0:
248,144,103724,1,0,0:0:0:0:
248,152,103812,1,8,0:0:0:0:
248,144,103986,1,0,0:0:0:0:
248,144,104073,1,0,0:0:0:0:
248,144,104160,1,8,0:0:0:0:
248,144,104335,1,0,0:0:0:0:
248,144,104422,1,8,0:0:0:0:
248,144,104509,1,0,0:0:0:0:
232,40,104597,1,8,0:0:0:0:
240,128,104771,1,8,0:0:0:0:
240,128,104858,1,0,0:0:0:0:
240,120,104945,1,0,0:0:0:0:
240,128,105033,1,0,0:0:0:0:
240,120,105120,1,0,0:0:0:0:
240,120,105207,1,12,0:0:0:0:
240,112,105381,1,0,0:0:0:0:
240,112,105469,1,0,0:0:0:0:
240,112,105556,1,8,0:0:0:0:
240,112,105643,1,8,0:0:0:0:
240,112,105730,1,8,0:0:0:0:
240,112,105817,1,8,0:0:0:0:
248,152,105905,1,4,0:0:0:0:
248,152,106254,1,8,0:0:0:0:
248,152,106428,1,0,0:0:0:0:
248,152,106515,1,0,0:0:0:0:
248,152,106602,1,8,0:0:0:0:
248,152,106777,1,0,0:0:0:0:
248,152,106864,1,8,0:0:0:0:
248,152,106951,1,0,0:0:0:0:
264,128,107038,1,0,0:0:0:0:
248,152,107126,1,8,0:0:0:0:
248,152,107300,1,0,0:0:0:0:
248,152,107474,1,8,0:0:0:0:
248,152,107562,1,8,0:0:0:0:
248,152,107649,1,0,0:0:0:0:
248,152,107823,1,8,0:0:0:0:
248,152,107998,1,8,0:0:0:0:
240,104,108085,1,0,0:0:0:0:
248,152,108172,1,8,0:0:0:0:
240,104,108259,1,0,0:0:0:0:
248,152,108347,1,0,0:0:0:0:
232,112,108434,1,0,0:0:0:0:
248,152,108521,1,8,0:0:0:0:
240,144,108695,1,0,0:0:0:0:
248,152,108870,1,8,0:0:0:0:
232,104,108957,1,0,0:0:0:0:
248,152,109044,1,8,0:0:0:0:
248,152,109219,1,0,0:0:0:0:
248,152,109393,1,8,0:0:0:0:
248,152,109567,1,0,0:0:0:0:
240,144,109655,1,0,0:0:0:0:
248,152,109742,1,8,0:0:0:0:
248,152,109916,1,0,0:0:0:0:
248,152,110091,1,8,0:0:0:0:
224,144,110178,1,8,0:0:0:0:
224,144,110265,1,0,0:0:0:0:
224,144,110352,1,0,0:0:0:0:
224,144,110440,1,8,0:0:0:0:
224,144,110527,1,0,0:0:0:0:
248,152,110614,1,0,0:0:0:0:
224,144,110701,1,0,0:0:0:0:
248,152,110788,1,8,0:0:0:0:
248,152,110963,1,0,0:0:0:0:
248,152,111137,1,12,0:0:0:0:
248,152,111312,1,8,0:0:0:0:
248,152,111399,1,8,0:0:0:0:
248,152,111486,1,4,0:0:0:0:
248,152,111835,1,8,0:0:0:0:
248,152,112009,1,0,0:0:0:0:
248,152,112097,1,0,0:0:0:0:
248,152,112184,1,8,0:0:0:0:
248,152,112358,1,0,0:0:0:0:
248,152,112533,1,8,0:0:0:0:
248,152,112620,1,0,0:0:0:0:
248,152,112707,1,0,0:0:0:0:
248,152,112794,1,0,0:0:0:0:
248,152,112881,1,8,0:0:0:0:
248,152,112969,1,8,0:0:0:0:
248,152,113056,1,0,0:0:0:0:
248,152,113230,1,8,0:0:0:0:
248,152,113405,1,8,0:0:0:0:
248,152,113492,1,0,0:0:0:0:
248,152,113579,1,8,0:0:0:0:
248,152,113666,1,8,0:0:0:0:
248,152,113754,1,0,0:0:0:0:
232,120,113841,1,0,0:0:0:0:
248,152,113928,1,8,0:0:0:0:
232,112,114015,1,0,0:0:0:0:
248,152,114102,1,8,0:0:0:0:
240,144,114277,1,0,0:0:0:0:
248,152,114451,1,0,0:0:0:0:
240,120,114538,1,0,0:0:0:0:
248,152,114626,1,8,0:0:0:0:
248,152,114800,1,8,0:0:0:0:
240,128,114887,1,0,0:0:0:0:
248,152,114974,1,8,0:0:0:0:
248,152,115149,1,0,0:0:0:0:
240,144,115236,1,0,0:0:0:0:
248,152,115323,1,8,0:0:0:0:
248,152,115498,1,0,0:0:0:0:
248,152,115672,1,8,0:0:0:0:
224,144,115847,1,0,0:0:0:0:
224,144,115934,1,0,0:0:0:0:
224,144,116021,1,8,0:0:0:0:
248,152,116195,1,0,0:0:0:0:
232,136,116283,1,0,0:0:0:0:
248,152,116370,1,8,0:0:0:0:
248,152,116544,1,8,0:0:0:0:
256,136,116631,1,8,0:0:0:0:
248,152,116719,1,8,0:0:0:0:
256,136,116806,1,8,0:0:0:0:
248,152,116893,1,8,0:0:0:0:
248,152,116980,1,8,0:0:0:0:
248,152,117067,1,4,0:0:0:0:
248,152,117416,1,8,0:0:0:0:
248,152,117591,1,0,0:0:0:0:
248,152,117678,1,0,0:0:0:0:
248,152,117765,1,8,0:0:0:0:
248,152,117940,1,0,0:0:0:0:
248,152,118027,1,8,0:0:0:0:
248,152,118114,1,0,0:0:0:0:
248,152,118288,1,8,0:0:0:0:
248,152,118463,1,0,0:0:0:0:
248,152,118550,1,0,0:0:0:0:
248,152,118637,1,0,0:0:0:0:
248,152,118724,1,0,0:0:0:0:
248,152,118812,1,8,0:0:0:0:
248,152,118986,1,0,0:0:0:0:
248,152,119160,1,8,0:0:0:0:
248,152,119248,1,0,0:0:0:0:
192,144,119335,1,8,0:0:0:0:
248,152,119509,1,0,0:0:0:0:
240,128,119597,1,0,0:0:0:0:
248,152,119684,1,8,0:0:0:0:
240,136,119771,1,8,0:0:0:0:
240,144,119858,1,0,0:0:0:0:
248,152,120033,1,0,0:0:0:0:
248,152,120207,1,8,0:0:0:0:
216,136,120294,1,0,0:0:0:0:
248,152,120381,1,8,0:0:0:0:
248,152,120556,1,0,0:0:0:0:
248,152,120730,1,0,0:0:0:0:
240,144,120817,1,0,0:0:0:0:
248,152,120905,1,8,0:0:0:0:
248,152,121079,1,0,0:0:0:0:
248,152,121254,1,8,0:0:0:0:
224,144,121341,1,8,0:0:0:0:
224,144,121428,1,0,0:0:0:0:
224,144,121515,1,0,0:0:0:0:
224,144,121602,1,8,0:0:0:0:
224,144,121690,1,0,0:0:0:0:
248,152,121777,1,8,0:0:0:0:
224,144,121864,1,0,0:0:0:0:
248,152,121951,1,8,0:0:0:0:
248,152,122126,1,0,0:0:0:0:
248,152,122300,1,12,0:0:0:0:
248,152,122474,1,8,0:0:0:0:
248,152,122562,1,8,0:0:0:0:
248,152,122649,1,4,0:0:0:0:
248,152,122998,1,8,0:0:0:0:
248,152,123172,1,0,0:0:0:0:
248,152,123259,1,0,0:0:0:0:
248,152,123347,1,8,0:0:0:0:
248,152,123521,1,0,0:0:0:0:
248,152,123695,1,8,0:0:0:0:
248,152,123783,1,8,0:0:0:0:
248,152,123870,1,0,0:0:0:0:
248,152,123957,1,0,0:0:0:0:
248,152,124044,1,8,0:0:0:0:
248,152,124131,1,0,0:0:0:0:
248,152,124219,1,0,0:0:0:0:
248,152,124393,1,8,0:0:0:0:
248,152,124567,1,0,0:0:0:0:
248,152,124655,1,0,0:0:0:0:
248,152,124742,1,8,0:0:0:0:
248,152,124829,1,0,0:0:0:0:
248,152,124916,1,8,0:0:0:0:
232,120,125004,1,8,0:0:0:0:
248,152,125091,1,0,0:0:0:0:
232,112,125178,1,0,0:0:0:0:
248,152,125265,1,8,0:0:0:0:
240,144,125440,1,0,0:0:0:0:
248,152,125614,1,0,0:0:0:0:
216,128,125701,1,0,0:0:0:0:
248,152,125788,1,8,0:0:0:0:
248,152,125963,1,8,0:0:0:0:
240,128,126050,1,0,0:0:0:0:
248,152,126137,1,8,0:0:0:0:
248,152,126312,1,0,0:0:0:0:
240,144,126399,1,0,0:0:0:0:
248,152,126486,1,8,0:0:0:0:
248,152,126660,1,0,0:0:0:0:
248,152,126835,1,12,0:0:0:0:
248,152,127009,1,4,0:0:0:0:
248,152,127184,1,12,0:0:0:0:
248,152,127358,1,12,0:0:0:0:
248,152,127533,1,4,0:0:0:0:
248,152,127707,1,4,0:0:0:0:
248,152,127881,1,12,0:0:0:0:
248,152,128056,1,4,0:0:0:0:
248,152,128230,1,12,0:0:0:0:
248,152,128405,1,12,0:0:0:0:
248,152,128579,1,4,0:0:0:0:
248,152,128754,1,4,0:0:0:0:
248,160,128928,1,12,0:0:0:0:
256,136,129277,1,0,0:0:0:0:
256,136,129626,1,12,0:0:0:0:
248,144,129800,1,0,0:0:0:0:
248,144,129887,1,0,0:0:0:0:
248,144,129974,1,8,0:0:0:0:
248,144,130149,1,0,0:0:0:0:
208,88,130236,1,0,0:0:0:0:
248,144,130323,1,8,0:0:0:0:
248,144,130498,1,0,0:0:0:0:
248,144,130585,1,0,0:0:0:0:
248,144,130672,1,8,0:0:0:0:
216,88,130759,1,8,0:0:0:0:
248,144,130847,1,0,0:0:0:0:
248,144,130934,1,0,0:0:0:0:
248,144,131021,1,8,0:0:0:0:
248,144,131195,1,0,0:0:0:0:
248,144,131283,1,0,0:0:0:0:
248,144,131370,1,8,0:0:0:0:
248,144,131544,1,8,0:0:0:0:
248,144,131631,1,0,0:0:0:0:
248,144,131719,1,8,0:0:0:0:
248,144,131893,1,0,0:0:0:0:
248,144,131980,1,0,0:0:0:0:
248,144,132067,1,8,0:0:0:0:
248,144,132155,1,8,0:0:0:0:
248,144,132242,1,8,0:0:0:0:
248,144,132329,1,8,0:0:0:0:
256,192,132416,1,4,0:0:0:0:
240,176,132765,1,0,0:0:0:0:
240,176,133114,1,0,0:0:0:0:
240,176,133463,1,0,0:0:0:0:
240,176,133812,1,0,0:0:0:0:
240,176,134160,1,0,0:0:0:0:
240,176,134509,1,0,0:0:0:0:
240,176,134858,1,0,0:0:0:0:
240,176,135207,1,8,0:0:0:0:
240,176,135556,1,8,0:0:0:0:
240,176,135905,1,8,0:0:0:0:
256,160,136254,1,8,0:0:0:0:
256,160,136602,1,12,0:0:0:0:
248,168,136777,1,0,0:0:0:0:
248,168,136864,1,0,0:0:0:0:
248,168,136951,1,8,0:0:0:0:
232,96,137038,1,0,0:0:0:0:
248,168,137126,1,0,0:0:0:0:
256,168,137213,1,0,0:0:0:0:
248,168,137300,1,8,0:0:0:0:
272,160,137387,1,8,0:0:0:0:
272,160,137474,1,0,0:0:0:0:
272,160,137562,1,0,0:0:0:0:
272,160,137649,1,8,0:0:0:0:
272,160,137736,1,8,0:0:0:0:
272,160,137823,1,8,0:0:0:0:
272,160,137910,1,8,0:0:0:0:
272,160,137998,1,4,0:0:0:0:
267,168,138172,1,0,0:0:0:0:
256,144,138259,1,0,0:0:0:0:
256,144,138347,1,8,0:0:0:0:
256,144,138521,1,0,0:0:0:0:
272,175,138608,1,8,0:0:0:0:
256,144,138695,1,0,0:0:0:0:
263,143,138783,1,0,0:0:0:0:
256,144,138870,1,8,0:0:0:0:
256,144,138957,1,0,0:0:0:0:
256,144,139044,1,8,0:0:0:0:
256,144,139219,1,0,0:0:0:0:
256,144,139393,1,8,0:0:0:0:
256,144,139567,1,0,0:0:0:0:
248,152,139655,1,0,0:0:0:0:
256,144,139742,1,8,0:0:0:0:
248,152,139916,1,0,0:0:0:0:
248,152,140004,1,8,0:0:0:0:
248,152,140091,1,0,0:0:0:0:
248,152,140265,1,8,0:0:0:0:
268,109,140323,1,0,0:0:0:0:
248,152,140381,1,0,0:0:0:0:
248,152,140440,1,8,0:0:0:0:
248,152,140614,1,0,0:0:0:0:
265,125,140701,1,0,0:0:0:0:
248,152,140788,1,8,0:0:0:0:
248,152,140876,1,8,0:0:0:0:
248,152,140963,1,0,0:0:0:0:
218,144,141021,1,0,0:0:0:0:
248,152,141079,1,0,0:0:0:0:
248,152,141137,1,8,0:0:0:0:
224,144,141312,1,0,0:0:0:0:
240,152,141486,1,8,0:0:0:0:
240,152,141660,1,0,0:0:0:0:
240,152,141719,1,0,0:0:0:0:
240,152,141777,1,0,0:0:0:0:
240,152,141835,1,8,0:0:0:0:
240,152,142009,1,0,0:0:0:0:
249,180,142097,1,0,0:0:0:0:
240,152,142184,1,8,0:0:0:0:
240,160,142271,1,0,0:0:0:0:
240,152,142358,1,8,0:0:0:0:
230,150,142416,1,0,0:0:0:0:
240,160,142474,1,0,0:0:0:0:
240,152,142533,1,8,0:0:0:0:
240,160,142707,1,8,0:0:0:0:
240,160,142881,1,0,0:0:0:0:
240,160,143056,1,12,0:0:0:0:
236,159,143230,1,12,0:0:0:0:
240,160,143405,1,12,0:0:0:0:
240,160,143579,1,4,0:0:0:0:
240,176,143928,1,8,0:0:0:0:
240,176,144102,1,8,0:0:0:0:
240,176,144277,1,0,0:0:0:0:
240,176,144451,1,8,0:0:0:0:
240,176,144538,1,0,0:0:0:0:
240,176,144626,1,8,0:0:0:0:
240,176,144800,1,0,0:0:0:0:
240,176,144974,1,8,0:0:0:0:
240,176,145149,1,0,0:0:0:0:
245,100,145236,1,0,0:0:0:0:
240,176,145323,1,8,0:0:0:0:
240,176,145498,1,0,0:0:0:0:
240,176,145672,1,8,0:0:0:0:
240,176,145847,1,0,0:0:0:0:
240,176,145905,1,0,0:0:0:0:
248,184,145963,1,0,0:0:0:0:
240,176,146021,1,8,0:0:0:0:
248,184,146195,1,0,0:0:0:0:
248,184,146370,1,8,0:0:0:0:
248,184,146544,1,0,0:0:0:0:
248,184,146631,1,0,0:0:0:0:
248,184,146719,1,8,0:0:0:0:
248,184,146893,1,0,0:0:0:0:
248,184,146980,1,0,0:0:0:0:
248,184,147067,1,8,0:0:0:0:
248,184,147242,1,0,0:0:0:0:
248,184,147329,1,0,0:0:0:0:
248,184,147416,1,8,0:0:0:0:
248,184,147591,1,0,0:0:0:0:
260,142,147678,1,0,0:0:0:0:
248,184,147765,1,8,0:0:0:0:
248,184,147940,1,8,0:0:0:0:
248,184,148114,1,8,0:0:0:0:
248,184,148288,1,8,0:0:0:0:
248,184,148463,1,0,0:0:0:0:
256,176,148550,1,0,0:0:0:0:
256,176,148637,1,0,0:0:0:0:
256,176,148724,1,0,0:0:0:0:
256,176,148812,1,8,0:0:0:0:
256,176,148986,1,8,0:0:0:0:
256,176,149073,1,8,0:0:0:0:
248,152,149160,1,4,0:0:0:0:
248,152,149509,1,8,0:0:0:0:
248,152,149684,1,0,0:0:0:0:
248,152,149771,1,0,0:0:0:0:
248,152,149858,1,8,0:0:0:0:
248,152,150033,1,0,0:0:0:0:
248,152,150120,1,8,0:0:0:0:
248,152,150207,1,0,0:0:0:0:
248,152,150381,1,8,0:0:0:0:
248,152,150556,1,0,0:0:0:0:
248,152,150643,1,0,0:0:0:0:
248,152,150730,1,0,0:0:0:0:
248,152,150817,1,0,0:0:0:0:
248,152,150905,1,8,0:0:0:0:
248,152,151079,1,0,0:0:0:0:
248,152,151254,1,8,0:0:0:0:
248,152,151341,1,0,0:0:0:0:
248,152,151428,1,8,0:0:0:0:
248,152,151602,1,0,0:0:0:0:
232,112,151690,1,0,0:0:0:0:
248,152,151777,1,8,0:0:0:0:
248,152,151864,1,8,0:0:0:0:
240,144,151951,1,0,0:0:0:0:
248,152,152126,1,0,0:0:0:0:
248,152,152300,1,8,0:0:0:0:
248,152,152387,1,0,0:0:0:0:
248,152,152474,1,8,0:0:0:0:
248,152,152649,1,0,0:0:0:0:
248,152,152823,1,0,0:0:0:0:
240,144,152910,1,0,0:0:0:0:
248,152,152998,1,8,0:0:0:0:
248,152,153172,1,0,0:0:0:0:
248,152,153347,1,8,0:0:0:0:
224,144,153434,1,0,0:0:0:0:
224,144,153521,1,8,0:0:0:0:
224,144,153608,1,0,0:0:0:0:
224,144,153695,1,8,0:0:0:0:
224,144,153783,1,8,0:0:0:0:
248,152,153870,1,0,0:0:0:0:
224,144,153957,1,0,0:0:0:0:
248,152,154044,1,8,0:0:0:0:
248,152,154219,1,0,0:0:0:0:
248,152,154393,1,12,0:0:0:0:
248,152,154567,1,8,0:0:0:0:
248,152,154655,1,8,0:0:0:0:
248,152,154742,1,4,0:0:0:0:
248,152,155091,1,8,0:0:0:0:
248,152,155265,1,0,0:0:0:0:
248,152,155352,1,0,0:0:0:0:
248,152,155440,1,8,0:0:0:0:
248,152,155614,1,0,0:0:0:0:
248,152,155788,1,8,0:0:0:0:
248,152,155876,1,8,0:0:0:0:
248,152,155963,1,0,0:0:0:0:
248,152,156050,1,0,0:0:0:0:
248,152,156137,1,8,0:0:0:0:
248,152,156224,1,0,0:0:0:0:
248,152,156312,1,0,0:0:0:0:
248,152,156486,1,8,0:0:0:0:
248,152,156660,1,8,0:0:0:0:
248,152,156748,1,8,0:0:0:0:
248,152,156835,1,0,0:0:0:0:
248,152,156922,1,8,0:0:0:0:
248,152,157009,1,0,0:0:0:0:
232,120,157097,1,0,0:0:0:0:
248,152,157184,1,8,0:0:0:0:
232,112,157271,1,0,0:0:0:0:
248,152,157358,1,8,0:0:0:0:
240,144,157533,1,0,0:0:0:0:
248,152,157707,1,0,0:0:0:0:
240,120,157794,1,0,0:0:0:0:
248,152,157881,1,8,0:0:0:0:
248,152,158056,1,8,0:0:0:0:
240,128,158143,1,0,0:0:0:0:
248,152,158230,1,8,0:0:0:0:
248,152,158405,1,0,0:0:0:0:
240,144,158492,1,0,0:0:0:0:
248,152,158579,1,8,0:0:0:0:
248,152,158754,1,0,0:0:0:0:
248,152,158928,1,8,0:0:0:0:
224,144,159102,1,0,0:0:0:0:
224,144,159190,1,0,0:0:0:0:
224,144,159277,1,8,0:0:0:0:
248,152,159451,1,0,0:0:0:0:
232,136,159538,1,0,0:0:0:0:
248,152,159626,1,8,0:0:0:0:
248,152,159800,1,8,0:0:0:0:
256,136,159887,1,8,0:0:0:0:
248,152,159974,1,8,0:0:0:0:
256,136,160062,1,8,0:0:0:0:
248,152,160149,1,8,0:0:0:0:
248,152,160236,1,8,0:0:0:0:
248,152,160323,1,4,0:0:0:0:
248,152,160672,1,8,0:0:0:0:
248,152,160847,1,0,0:0:0:0:
248,152,160934,1,0,0:0:0:0:
248,152,161021,1,8,0:0:0:0:
248,152,161195,1,0,0:0:0:0:
248,152,161283,1,8,0:0:0:0:
248,152,161370,1,0,0:0:0:0:
256,128,161457,1,0,0:0:0:0:
248,152,161544,1,8,0:0:0:0:
240,144,161631,1,8,0:0:0:0:
248,152,161719,1,0,0:0:0:0:
248,152,161893,1,8,0:0:0:0:
256,136,161980,1,8,0:0:0:0:
248,152,162067,1,0,0:0:0:0:
248,152,162242,1,8,0:0:0:0:
248,152,162416,1,8,0:0:0:0:
248,152,162504,1,0,0:0:0:0:
248,152,162591,1,8,0:0:0:0:
224,120,162678,1,0,0:0:0:0:
248,152,162765,1,0,0:0:0:0:
240,136,162852,1,0,0:0:0:0:
248,152,162940,1,8,0:0:0:0:
224,136,163027,1,8,0:0:0:0:
240,144,163114,1,0,0:0:0:0:
248,152,163288,1,8,0:0:0:0:
232,128,163376,1,0,0:0:0:0:
248,152,163463,1,8,0:0:0:0:
248,152,163637,1,0,0:0:0:0:
248,152,163812,1,8,0:0:0:0:
264,144,163899,1,0,0:0:0:0:
248,152,163986,1,0,0:0:0:0:
240,144,164073,1,0,0:0:0:0:
248,152,164160,1,8,0:0:0:0:
248,152,164335,1,0,0:0:0:0:
248,152,164509,1,8,0:0:0:0:
224,144,164597,1,8,0:0:0:0:
224,144,164684,1,0,0:0:0:0:
224,144,164771,1,0,0:0:0:0:
224,144,164858,1,8,0:0:0:0:
224,144,164945,1,0,0:0:0:0:
248,152,165033,1,8,0:0:0:0:
224,144,165120,1,0,0:0:0:0:
248,152,165207,1,8,0:0:0:0:
248,152,165381,1,0,0:0:0:0:
248,152,165556,1,12,0:0:0:0:
248,152,165730,1,8,0:0:0:0:
248,152,165817,1,8,0:0:0:0:
248,152,165905,1,4,0:0:0:0:
248,152,166254,1,8,0:0:0:0:
248,152,166428,1,0,0:0:0:0:
248,152,166515,1,0,0:0:0:0:
248,152,166602,1,8,0:0:0:0:
248,128,166690,1,0,0:0:0:0:
248,152,166777,1,0,0:0:0:0:
248,152,166951,1,8,0:0:0:0:
248,152,167038,1,8,0:0:0:0:
248,152,167126,1,0,0:0:0:0:
248,152,167213,1,0,0:0:0:0:
248,152,167300,1,8,0:0:0:0:
248,152,167387,1,0,0:0:0:0:
248,152,167474,1,0,0:0:0:0:
248,152,167649,1,8,0:0:0:0:
248,152,167823,1,8,0:0:0:0:
248,152,167910,1,0,0:0:0:0:
248,152,167998,1,8,0:0:0:0:
248,152,168085,1,8,0:0:0:0:
248,152,168172,1,0,0:0:0:0:
232,120,168259,1,0,0:0:0:0:
248,152,168347,1,8,0:0:0:0:
232,112,168434,1,0,0:0:0:0:
248,152,168521,1,8,0:0:0:0:
240,144,168695,1,0,0:0:0:0:
248,152,168870,1,0,0:0:0:0:
216,128,168957,1,0,0:0:0:0:
248,152,169044,1,8,0:0:0:0:
248,152,169219,1,8,0:0:0:0:
240,128,169306,1,0,0:0:0:0:
248,152,169393,1,8,0:0:0:0:
248,152,169567,1,0,0:0:0:0:
240,144,169655,1,0,0:0:0:0:
248,152,169742,1,8,0:0:0:0:
248,152,169916,1,0,0:0:0:0:
248,152,170091,1,12,0:0:0:0:
248,152,170265,1,4,0:0:0:0:
248,152,170440,1,12,0:0:0:0:
248,152,170614,1,12,0:0:0:0:
248,152,170788,1,4,0:0:0:0:
248,152,170963,1,4,0:0:0:0:
248,152,171137,1,12,0:0:0:0:
248,152,171312,1,4,0:0:0:0:
248,152,171486,1,12,0:0:0:0:
248,152,171660,1,12,0:0:0:0:
248,152,171835,1,4,0:0:0:0:
248,152,172009,1,4,0:0:0:0:
248,160,172184,1,12,0:0:0:0:
256,136,172533,1,0,0:0:0:0:
256,136,172881,1,12,0:0:0:0:
248,144,173056,1,0,0:0:0:0:
248,144,173143,1,0,0:0:0:0:
248,144,173230,1,8,0:0:0:0:
248,144,173405,1,0,0:0:0:0:
208,88,173492,1,0,0:0:0:0:
248,144,173579,1,8,0:0:0:0:
248,144,173754,1,0,0:0:0:0:
248,144,173841,1,0,0:0:0:0:
248,144,173928,1,8,0:0:0:0:
216,88,174015,1,8,0:0:0:0:
248,144,174102,1,0,0:0:0:0:
248,144,174190,1,0,0:0:0:0:
248,144,174277,1,8,0:0:0:0:
248,144,174451,1,0,0:0:0:0:
248,144,174538,1,0,0:0:0:0:
248,144,174626,1,8,0:0:0:0:
248,144,174800,1,8,0:0:0:0:
248,144,174887,1,0,0:0:0:0:
248,144,174974,1,8,0:0:0:0:
248,144,175149,1,0,0:0:0:0:
248,144,175236,1,0,0:0:0:0:
248,144,175323,1,8,0:0:0:0:
248,144,175410,1,8,0:0:0:0:
248,144,175498,1,8,0:0:0:0:
248,144,175585,1,8,0:0:0:0:
256,192,175672,1,4,0:0:0:0:
224,192,176021,1,8,0:0:0:0:
224,192,176195,1,8,0:0:0:0:
224,192,176370,1,0,0:0:0:0:
224,192,176457,1,0,0:0:0:0:
224,192,176544,1,8,0:0:0:0:
222,189,176631,1,8,0:0:0:0:
224,192,176719,1,0,0:0:0:0:
224,192,176893,1,8,0:0:0:0:
224,192,177067,1,0,0:0:0:0:
224,224,177242,1,0,0:0:0:0:
256,160,177329,1,0,0:0:0:0:
224,192,177416,1,8,0:0:0:0:
224,192,177504,1,0,0:0:0:0:
224,224,177591,1,8,0:0:0:0:
224,192,177765,1,0,0:0:0:0:
224,192,177940,1,0,0:0:0:0:
240,128,178027,1,0,0:0:0:0:
224,192,178114,1,8,0:0:0:0:
224,128,178201,1,0,0:0:0:0:
224,192,178288,1,8,0:0:0:0:
224,128,178376,1,8,0:0:0:0:
224,192,178463,1,0,0:0:0:0:
224,192,178637,1,0,0:0:0:0:
224,192,178812,1,8,0:0:0:0:
224,192,178899,1,0,0:0:0:0:
224,192,178986,1,8,0:0:0:0:
224,192,179160,1,0,0:0:0:0:
224,192,179248,1,0,0:0:0:0:
224,192,179335,1,8,0:0:0:0:
224,128,179422,1,8,0:0:0:0:
224,192,179509,1,0,0:0:0:0:
224,192,179684,1,8,0:0:0:0:
224,192,179858,1,0,0:0:0:0:
224,192,180033,1,0,0:0:0:0:
224,128,180120,1,0,0:0:0:0:
224,192,180207,1,8,0:0:0:0:
224,192,180381,1,0,0:0:0:0:
224,192,180556,1,12,0:0:0:0:
224,192,180817,1,12,0:0:0:0:
224,192,181079,1,12,0:0:0:0:
256,192,181254,1,4,0:0:0:0:
224,192,181602,1,8,0:0:0:0:
224,192,181777,1,8,0:0:0:0:
224,192,181951,1,0,0:0:0:0:
224,192,182038,1,0,0:0:0:0:
224,192,182126,1,8,0:0:0:0:
224,189,182213,1,8,0:0:0:0:
224,192,182300,1,0,0:0:0:0:
224,192,182474,1,8,0:0:0:0:
224,192,182649,1,0,0:0:0:0:
224,224,182823,1,0,0:0:0:0:
256,160,182910,1,0,0:0:0:0:
224,192,182998,1,8,0:0:0:0:
224,192,183085,1,0,0:0:0:0:
224,224,183172,1,8,0:0:0:0:
224,192,183347,1,0,0:0:0:0:
224,192,183521,1,0,0:0:0:0:
240,128,183608,1,0,0:0:0:0:
224,192,183695,1,8,0:0:0:0:
224,128,183783,1,0,0:0:0:0:
224,192,183870,1,8,0:0:0:0:
224,128,183957,1,8,0:0:0:0:
224,192,184044,1,0,0:0:0:0:
224,192,184219,1,0,0:0:0:0:
224,192,184393,1,8,0:0:0:0:
224,192,184480,1,0,0:0:0:0:
224,192,184567,1,8,0:0:0:0:
224,192,184742,1,0,0:0:0:0:
224,192,184829,1,0,0:0:0:0:
224,192,184916,1,8,0:0:0:0:
224,192,185004,1,8,0:0:0:0:
224,192,185091,1,0,0:0:0:0:
224,192,185265,1,8,0:0:0:0:
224,192,185440,1,0,0:0:0:0:
224,192,185614,1,0,0:0:0:0:
224,128,185701,1,0,0:0:0:0:
224,192,185788,1,8,0:0:0:0:
224,192,185963,1,0,0:0:0:0:
224,192,186137,1,8,0:0:0:0:
232,160,186224,1,8,0:0:0:0:
224,192,186312,1,0,0:0:0:0:
232,160,186399,1,0,0:0:0:0:
232,160,186486,1,8,0:0:0:0:
232,160,186573,1,8,0:0:0:0:
224,192,186660,1,8,0:0:0:0:
232,160,186748,1,8,0:0:0:0:
224,192,186835,1,4,0:0:0:0:
248,184,187184,1,8,0:0:0:0:
248,184,187533,1,0,0:0:0:0:
248,184,187707,1,8,0:0:0:0:
248,184,187794,1,8,0:0:0:0:
248,184,187881,1,0,0:0:0:0:
248,184,188056,1,8,0:0:0:0:
248,184,188230,1,0,0:0:0:0:
248,184,188405,1,0,0:0:0:0:
248,184,188579,1,8,0:0:0:0:
248,184,188754,1,0,0:0:0:0:
248,184,188928,1,8,0:0:0:0:
248,184,189190,1,8,0:0:0:0:
248,184,189277,1,0,0:0:0:0:
248,184,189451,1,8,0:0:0:0:
248,184,189626,1,0,0:0:0:0:
227,126,189800,1,8,0:0:0:0:
248,184,189974,1,0,0:0:0:0:
227,126,190149,1,8,0:0:0:0:
248,184,190323,1,0,0:0:0:0:
248,184,190498,1,8,0:0:0:0:
248,184,190585,1,0,0:0:0:0:
248,184,190672,1,0,0:0:0:0:
248,184,190847,1,8,0:0:0:0:
248,184,191021,1,0,0:0:0:0:
248,184,191195,1,0,0:0:0:0:
248,184,191370,1,8,0:0:0:0:
248,184,191544,1,0,0:0:0:0:
248,184,191719,1,8,0:0:0:0:
248,184,191980,1,8,0:0:0:0:
248,184,192067,1,0,0:0:0:0:
248,184,192242,1,8,0:0:0:0:
248,184,192416,1,0,0:0:0:0:
248,184,192765,1,8,0:0:0:0:
248,184,193114,1,0,0:0:0:0:
248,184,193288,1,8,0:0:0:0:
248,184,193376,1,8,0:0:0:0:
248,184,193463,1,0,0:0:0:0:
248,184,193637,1,8,0:0:0:0:
248,184,193812,1,0,0:0:0:0:
248,184,193986,1,0,0:0:0:0:
248,184,194160,1,8,0:0:0:0:
248,184,194335,1,0,0:0:0:0:
248,184,194509,1,8,0:0:0:0:
248,184,194771,1,8,0:0:0:0:
248,184,194858,1,0,0:0:0:0:
248,184,195033,1,8,0:0:0:0:
248,184,195207,1,0,0:0:0:0:
246,151,195381,1,8,0:0:0:0:
248,184,195556,1,8,0:0:0:0:
246,151,195730,1,8,0:0:0:0:
248,184,195905,1,0,0:0:0:0:
248,184,196079,1,8,0:0:0:0:
248,184,196166,1,0,0:0:0:0:
248,184,196254,1,8,0:0:0:0:
248,184,196602,1,8,0:0:0:0:
240,168,196690,1,8,0:0:0:0:
248,184,196777,1,8,0:0:0:0:
240,168,196864,1,8,0:0:0:0:
248,184,196951,1,0,0:0:0:0:
248,184,197126,1,8,0:0:0:0:
224,160,197213,1,0,0:0:0:0:
248,184,197300,1,8,0:0:0:0:
224,160,197387,1,8,0:0:0:0:
248,184,197649,1,8,0:0:0:0:
248,184,197736,1,8,0:0:0:0:
248,184,197823,1,0,0:0:0:0:
