osu file format v14

[General]
AudioFilename: audio.mp3
AudioLeadIn: 0
PreviewTime: 61884
Countdown: 0
SampleSet: Soft
StackLeniency: 0.5
Mode: 0
LetterboxInBreaks: 0
WidescreenStoryboard: 1

[Editor]
DistanceSpacing: 0.5
BeatDivisor: 4
GridSize: 32
TimelineZoom: 1.7

[Metadata]
Title:Konna Inochi ga Nakereba
TitleUnicode:こんな命がなければ
Artist:Tsukuyomi
ArtistUnicode:月詠み
Creator:ponbot
Version:a_Blue's Expert
Source:
Tags:ユリイカノン ユリイ・カノン yurry cannon mikoto エポック epoch とうかさ toukasa if there is not such a life japanese rock yudragen rui wring a_blue satellite dagger-gazel chaoticred
BeatmapID:2880794
BeatmapSetID:1277983

[Difficulty]
HPDrainRate:6
CircleSize:4
OverallDifficulty:8.5
ApproachRate:9.5
SliderMultiplier:1.7
SliderTickRate:1

[Events]
//Background and Video events
0,0,"EkCOvT2UcAAQuaB.jpg",0,0
Video,-175,"ayyyya.mp4"
//Break Periods
2,93513,107951
2,154465,161314
//Storyboard Layer 0 (Background)
//Storyboard Layer 1 (Fail)
//Storyboard Layer 2 (Pass)
//Storyboard Layer 3 (Foreground)
//Storyboard Layer 4 (Overlay)
//Storyboard Sound Samples

[TimingPoints]
-20,238.095238095238,4,2,1,60,1,0
1884,-200,4,2,1,60,0,0
3789,-133.333333333333,4,2,1,60,0,0
7837,-166.666666666667,4,2,1,60,0,0
17122,-100,4,2,1,70,0,0
32360,-133.333333333333,4,2,1,60,0,0
59027,-100,4,2,1,60,0,0
62837,-90.9090909090909,4,2,1,70,0,1
93313,-90.9090909090909,4,2,1,60,0,0
108551,-200,4,2,1,50,0,0
116170,-133.333333333333,4,2,1,60,0,0
139027,-133.333333333333,4,2,1,65,0,0
161884,-133.333333333333,4,2,1,50,0,0
167599,-133.333333333333,4,2,1,40,0,0
168789,-133.333333333333,4,2,1,60,0,0
169503,-90.9090909090909,4,2,1,70,0,1
183789,-90.9090909090909,4,2,1,70,0,0
184741,-83.3333333333333,4,2,1,80,0,1
215218,-83.3333333333333,4,2,1,50,0,0
216170,-83.3333333333333,4,2,1,70,0,0
217122,-76.9230769230769,4,2,1,70,0,1
226646,-83.3333333333333,4,2,1,70,0,1
231408,-200,4,2,1,60,0,0

[Colours]
Combo1 : 249,168,237
Combo2 : 255,128,128
Combo3 : 172,172,215
Combo4 : 255,255,193
Combo5 : 255,73,73
Combo6 : 255,123,55

[HitObjects]
245,112,1170,5,0,0:0:0:0:
330,152,1408,1,0,0:0:0:0:
386,78,1646,1,0,0:0:0:0:
300,38,1884,2,0,P|197:112|82:168,1,255,4|8,3:2|0:0,0:0:0:0:
95,247,2837,2,0,P|217:253|248:369,1,255,4|8,3:2|0:0,0:0:0:0:
339,346,3789,6,0,P|332:314|328:283,1,63.7500024318696,4|0,3:2|0:0,0:0:0:0:
256,248,4027,1,8,0:0:0:0:
284,173,4146,2,0,P|315:166|346:162,1,63.7500024318696,8|0,0:3|0:0,0:0:0:0:
415,79,4384,1,4,0:3:0:0:
324,21,4503,2,0,P|292:25|261:31,1,63.7500024318696,4|0,0:3|0:0,0:0:0:0:
390,235,4741,5,4,3:2:0:0:
390,235,4979,1,4,0:3:0:0:
468,248,5099,37,4,0:3:0:0:
362,160,5218,1,8,0:0:0:0:
339,296,5337,1,0,0:0:0:0:
311,221,5456,5,8,0:0:0:0:
440,173,5575,1,8,0:0:0:0:
417,309,5694,1,4,3:2:0:0:
417,309,6408,1,8,0:0:0:0:
152,193,6646,1,4,3:2:0:0:
152,193,7360,1,8,0:0:0:0:
366,119,7599,1,4,3:2:0:0:
291,96,7837,6,0,P|295:70|302:45,1,50.9999984436036,8|8,0:0|0:3,0:0:0:0:
227,170,8194,2,0,P|222:144|215:119,1,50.9999984436036,4|4,0:3|0:3,0:0:0:0:
269,305,8551,1,4,3:2:0:0:
210,257,8789,5,8,0:0:0:0:
300,374,8908,1,0,0:0:0:0:
326,255,9027,1,8,0:3:0:0:
186,371,9146,1,0,0:0:0:0:
408,274,9265,38,0,P|411:248|417:224,1,50.9999984436036,4|8,0:3|0:0,0:0:0:0:
142,214,9503,6,0,P|136:163|123:113,1,101.999996887207,4|2,3:2|0:0,0:0:0:0:
374,158,9979,2,0,P|379:107|392:57,1,101.999996887207,0|2,3:0|0:0,0:0:0:0:
64,231,10456,6,0,P|58:180|45:130,1,101.999996887207,0|2,3:0|0:0,0:0:0:0:
452,175,10932,2,0,P|457:124|470:74,1,101.999996887207,0|2,3:0|0:0,0:0:0:0:
324,15,11408,5,4,3:2:0:0:
194,80,11646,1,2,0:0:0:0:
308,157,11884,1,0,3:0:0:0:
202,232,12122,1,2,0:0:0:0:
206,236,12241,1,0,0:0:0:0:
256,316,12360,37,0,3:0:0:0:
220,384,12599,5,2,0:0:0:0:
188,280,12837,1,0,3:0:0:0:
292,248,13075,1,2,0:0:0:0:
324,352,13313,1,0,3:0:0:0:
97,336,13551,6,0,P|105:311|110:286,1,50.9999984436036,2|0,0:0|0:0,0:0:0:0:
188,280,13789,2,0,P|179:255|174:230,1,50.9999984436036,0|0,3:0|0:0,0:0:0:0:
100,212,14027,1,2,0:0:0:0:
216,166,14146,1,2,0:0:0:0:
119,89,14265,2,0,P|127:64|132:39,1,50.9999984436036,0|0,3:0|0:0,0:0:0:0:
206,13,14503,5,2,0:0:0:0:
265,66,14622,2,0,P|269:90|278:115,1,50.9999984436036,2|0,0:0|3:0,0:0:0:0:
100,212,14860,37,0,0:0:0:0:
53,149,14979,2,0,P|48:124|39:99,1,50.9999984436036,2|0,0:0|0:0,0:0:0:0:
355,132,15218,6,0,P|338:180|328:230,1,101.999996887207,4|8,3:2|0:0,0:0:0:0:
257,264,15575,2,0,P|265:288|270:313,1,50.9999984436036,4|8,3:2|0:0,0:0:0:0:
257,184,15813,1,8,0:0:0:0:
405,249,15932,1,4,3:2:0:0:
310,380,16051,1,8,0:0:0:0:
162,315,16170,1,4,3:2:0:0:
162,315,16646,5,10,0:0:0:0:
201,247,16765,1,10,0:0:0:0:
266,290,16884,1,10,0:0:0:0:
228,358,17003,1,10,0:0:0:0:
83,313,17122,6,0,P|69:229|47:146,1,170,4|8,3:2|0:0,0:0:0:0:
98,89,17479,2,0,P|142:98|208:-15,1,170,2|0,3:2|3:0,0:0:0:0:
292,1,17837,37,10,0:0:0:0:
412,106,17956,1,0,0:0:0:0:
280,196,18075,2,0,P|269:154|262:113,1,85,0|2,3:0|0:0,0:0:0:0:
408,27,18313,5,8,0:0:0:0:
497,171,18432,2,0,P|416:198|343:242,1,170,2|2,3:2|3:2,0:0:0:0:
181,314,18789,2,0,P|192:272|199:231,1,85,10|0,0:0|0:0,0:0:0:0:
270,285,19027,5,0,3:0:0:0:
120,365,19146,1,2,0:0:0:0:
65,211,19265,1,8,0:0:0:0:
65,211,19384,2,0,P|140:176|212:126,1,170,2|0,3:2|3:0,0:0:0:0:
245,368,19741,2,0,P|214:338|180:313,1,85,10|0,0:0|0:0,0:0:0:0:
205,238,19979,5,0,3:0:0:0:
256,58,20099,2,0,P|287:88|321:113,1,85,2|8,0:0|0:0,0:0:0:0:
457,132,20337,2,0,P|382:167|310:217,1,170,2|2,0:0|3:2,0:0:0:0:
98,179,20694,37,10,0:0:0:0:
126,93,20813,1,2,3:2:0:0:
211,126,20932,2,0,P|182:205|162:288,1,170,0|8,3:0|0:0,0:0:0:0:
0,175,21289,2,0,P|29:96|49:13,1,170,2|0,3:2|3:0,0:0:0:0:
256,58,21646,2,0,P|295:72|337:82,1,85,10|0,0:0|0:0,0:0:0:0:
431,197,21884,5,0,3:0:0:0:
493,133,22003,2,0,P|452:119|411:109,1,85,2|8,0:0|0:0,0:0:0:0:
441,276,22241,2,0,P|358:295|278:324,1,170,2|2,3:2|3:2,0:0:0:0:
216,372,22599,2,0,P|177:356|152:322,1,85,10|0,0:0|0:0,0:0:0:0:
173,247,22837,5,0,3:0:0:0:
24,341,22956,1,2,0:0:0:0:
14,162,23075,1,10,0:0:0:0:
69,252,23194,2,0,P|83:211|92:170,1,85,2|0,3:2|0:0,0:0:0:0:
170,157,23432,1,2,3:2:0:0:
98,29,23551,1,10,0:0:0:0:
242,0,23670,1,0,0:0:0:0:
314,128,23789,6,0,P|323:86|336:46,1,85,14|2,0:0|3:2,0:0:0:0:
192,238,24027,2,0,P|182:196|169:156,1,85,10|2,0:0|3:2,0:0:0:0:
320,364,24265,1,10,0:0:0:0:
373,265,24384,1,0,3:0:0:0:
297,288,24503,1,10,0:0:0:0:
396,341,24622,1,10,0:0:0:0:
396,341,24741,38,0,P|408:256|426:172,1,170,4|8,3:2|0:0,0:0:0:0:
416,94,25099,2,0,P|335:96|292:28,1,170,2|0,3:2|3:0,0:0:0:0:
217,9,25456,5,10,0:0:0:0:
97,114,25575,1,0,0:0:0:0:
229,204,25694,2,0,P|240:162|247:121,1,85,0|2,3:0|0:0,0:0:0:0:
93,34,25932,5,8,0:0:0:0:
5,187,26051,2,0,P|38:268|123:278,1,170,2|2,3:2|3:2,0:0:0:0:
310,221,26408,2,0,P|317:179|327:138,1,85,10|0,0:0|0:0,0:0:0:0:
398,101,26646,5,0,3:2:0:0:
442,283,26765,1,2,0:0:0:0:
255,281,26884,1,8,0:0:0:0:
255,281,27003,2,0,P|276:198|290:115,1,170,2|0,3:2|3:0,0:0:0:0:
470,157,27360,2,0,P|430:172|393:192,1,85,10|0,0:0|0:0,0:0:0:0:
332,300,27599,37,0,3:2:0:0:
195,180,27718,2,0,P|202:138|212:97,1,85,2|8,0:0|0:0,0:0:0:0:
82,36,27956,2,0,P|103:118|117:201,1,170,2|2,0:0|0:0,0:0:0:0:
378,61,28313,5,10,0:0:0:0:
392,149,28432,1,2,0:0:0:0:
305,166,28551,2,0,P|290:82|269:0,1,170,0|8,3:0|0:0,0:0:0:0:
467,53,28908,2,0,P|481:136|502:219,1,170,2|0,3:2|3:0,0:0:0:0:
324,245,29265,2,0,P|282:252|241:262,1,85,10|0,0:0|0:0,0:0:0:0:
86,219,29503,5,0,3:0:0:0:
41,84,29622,2,0,P|34:125|23:167,1,85,2|8,0:0|0:0,0:0:0:0:
178,157,29860,2,0,P|162:240|141:322,1,170,2|0,3:2|3:0,0:0:0:0:
220,342,30218,2,0,P|262:335|303:325,1,85,10|0,0:0|0:0,0:0:0:0:
324,245,30456,5,2,3:2:0:0:
494,334,30575,1,2,0:0:0:0:
477,145,30694,1,10,0:0:0:0:
428,243,30813,2,0,P|386:250|345:260,1,85,2|2,3:2|0:0,0:0:0:0:
248,123,31051,1,2,3:2:0:0:
361,176,31170,1,10,0:2:0:0:
433,78,31289,1,2,0:0:0:0:
321,26,31408,37,2,3:2:0:0:
320,101,31527,5,2,3:2:0:0:
248,123,31646,5,10,0:0:0:0:
178,96,31765,5,2,3:2:0:0:
104,104,31884,37,8,0:3:0:0:
24,283,32003,5,8,0:3:0:0:
0,165,32122,5,4,0:3:0:0:
132,224,32241,5,4,0:3:0:0:
77,175,32360,37,4,3:2:0:0:
77,175,32599,2,0,P|106:189|132:208,1,63.7500024318696
202,189,32837,2,0,L|214:320,1,127.500004863739,0|0,3:0|0:0,0:0:0:0:
279,213,33194,1,0,0:0:0:0:
259,139,33313,2,0,P|291:137|323:133,1,63.7500024318696,0|0,3:0|0:0,0:0:0:0:
417,207,33551,2,0,P|385:205|353:201,1,63.7500024318696
398,132,33789,2,0,L|409:5,1,127.500004863739,0|0,3:0|0:0,0:0:0:0:
498,294,34265,6,0,B|435:279|435:279|393:325,1,127.500004863739,2|2,3:2|0:0,0:0:0:0:
342,272,34622,1,0,0:0:0:0:
321,344,34741,2,0,L|258:332,1,63.7500024318696,2|0,3:2|0:0,0:0:0:0:
209,279,34979,2,0,L|146:267,1,63.7500024318696,2|2,0:0|0:0,0:0:0:0:
72,272,35218,2,0,L|94:146,1,127.500004863739,0|0,3:0|0:0,0:0:0:0:
161,196,35575,1,0,0:0:0:0:
171,64,35694,2,0,B|177:96|177:96|162:123,1,63.7500024318696,0|0,3:0|0:0,0:0:0:0:
20,67,35932,2,0,B|14:35|14:35|28:7,1,63.7500024318696
224,10,36170,5,0,3:0:0:0:
292,52,36408,1,0,0:0:0:0:
292,52,36527,1,0,0:0:0:0:
368,37,36646,1,0,3:0:0:0:
368,37,36884,1,0,0:0:0:0:
368,37,37003,2,0,L|362:100,1,63.7500024318696,0|0,0:0|3:0,0:0:0:0:
295,131,37241,1,0,0:0:0:0:
295,131,37360,1,0,0:0:0:0:
360,178,37479,1,0,0:0:0:0:
360,178,37599,2,0,L|371:304,1,127.500004863739,0|0,3:0|0:0,0:0:0:0:
311,359,38075,6,0,P|278:307|217:308,1,127.500004863739,2|2,3:2|0:0,0:0:0:0:
51,373,38551,2,0,P|83:321|144:322,1,127.500004863739,2|2,3:2|0:0,0:0:0:0:
169,253,38908,1,2,0:0:0:0:
169,253,39027,2,0,P|165:189|169:125,1,127.500004863739,0|2,3:0|0:0,0:0:0:0:
240,107,39503,1,2,3:2:0:0:
302,181,39741,2,0,P|270:179|238:181,1,63.7500024318696
316,108,39979,38,0,P|368:86|372:17,1,127.500004863739,4|0,3:2|0:0,0:0:0:0:
453,13,40337,1,0,0:0:0:0:
468,88,40456,2,0,P|440:115|424:141,1,63.7500024318696,0|0,3:0|0:0,0:0:0:0:
478,191,40694,1,0,0:0:0:0:
378,194,40813,2,0,P|406:221|422:247,2,63.7500024318696,0|0|0,0:0|3:0|0:0,0:0:0:0:
491,267,41170,2,0,L|485:330,1,63.7500024318696
320,352,41408,2,0,L|309:224,1,127.500004863739,0|0,3:0|0:0,0:0:0:0:
234,230,41765,1,0,0:0:0:0:
241,346,41884,6,0,P|202:298|141:304,1,127.500004863739,2|2,3:2|0:0,0:0:0:0:
156,217,42241,1,0,0:0:0:0:
73,268,42360,2,0,L|80:204,1,63.7500024318696,2|0,3:2|0:0,0:0:0:0:
205,157,42599,2,0,L|197:93,1,63.7500024318696,2|2,0:0|0:0,0:0:0:0:
0,120,42837,2,0,L|126:133,1,127.500004863739,0|0,3:0|0:0,0:0:0:0:
130,58,43194,1,0,0:0:0:0:
256,11,43313,2,0,B|227:25|227:25|195:18,1,63.7500024318696,0|0,3:0|0:0,0:0:0:0:
341,176,43551,2,0,B|312:162|312:162|280:168,1,63.7500024318696
273,90,43789,5,0,3:0:0:0:
332,40,44027,1,0,0:0:0:0:
332,40,44146,1,0,0:0:0:0:
382,112,44265,1,0,3:0:0:0:
382,112,44503,1,0,0:0:0:0:
382,112,44622,2,0,L|453:98,1,63.7500024318696,0|0,0:0|3:0,0:0:0:0:
501,158,44860,1,0,0:0:0:0:
501,158,44979,1,0,0:0:0:0:
427,267,45099,1,0,0:0:0:0:
427,267,45218,2,0,L|301:242,1,127.500004863739,0|0,3:0|0:0,0:0:0:0:
153,294,45694,5,2,3:2:0:0:
86,260,45813,1,0,3:0:0:0:
58,330,45932,2,0,L|49:266,1,63.7500024318696,10|0,0:0|0:0,0:0:0:0:
224,264,46170,2,0,L|232:200,1,63.7500024318696,10|0,0:0|0:0,0:0:0:0:
298,169,46408,1,2,3:2:0:0:
115,130,46527,2,0,L|123:194,1,63.7500024318696,10|0,0:0|0:0,0:0:0:0:
191,139,46765,2,0,L|199:75,1,63.7500024318696,8|2,0:0|3:2,0:0:0:0:
1,159,47003,1,0,3:0:0:0:
127,55,47122,37,8,0:3:0:0:
272,97,47241,1,8,0:3:0:0:
145,203,47360,1,8,0:0:0:0:
302,244,47479,1,8,0:0:0:0:
302,244,47599,6,0,P|281:304|270:367,1,127.500004863739,4|0,3:2|0:0,0:0:0:0:
343,384,47956,1,0,3:0:0:0:
420,325,48075,2,0,P|388:319|358:309,1,63.7500024318696,8|0,0:0|0:0,0:0:0:0:
204,297,48313,2,0,P|174:287|143:282,1,63.7500024318696,0|8,3:0|0:0,0:0:0:0:
225,223,48551,6,0,P|246:163|257:100,1,127.500004863739,0|0,3:0|0:0,0:0:0:0:
246,23,48908,1,0,3:0:0:0:
380,67,49027,2,0,P|350:57|319:52,1,63.7500024318696,8|0,0:0|0:0,0:0:0:0:
185,71,49265,2,0,P|154:66|124:55,1,63.7500024318696,0|0,3:0|0:0,0:0:0:0:
47,66,49503,5,0,3:0:0:0:
80,188,49622,2,0,P|85:156|95:126,1,63.7500024318696,8|0,0:0|0:0,0:0:0:0:
93,265,49860,1,0,3:0:0:0:
0,196,49979,2,0,P|10:226|15:257,1,63.7500024318696,10|0,0:0|0:0,0:0:0:0:
173,258,50218,2,0,P|162:227|157:196,1,63.7500024318696,2|0,3:2|0:0,0:0:0:0:
136,331,50456,38,0,L|261:351,1,127.500004863739,2|8,3:2|0:0,0:0:0:0:
273,339,50753,1,8,0:0:0:0:
292,341,50813,1,8,0:0:0:0:
301,330,50872,1,8,0:0:0:0:
318,332,50932,2,0,P|310:300|308:269,1,63.7500024318696,8|0,0:0|0:0,0:0:0:0:
245,229,51170,2,0,P|252:197|254:166,1,63.7500024318696,0|0,3:0|0:0,0:0:0:0:
328,197,51408,5,0,3:0:0:0:
399,166,51646,1,0,0:0:0:0:
369,96,51765,1,0,3:0:0:0:
369,96,51884,2,0,P|337:93|306:86,1,63.7500024318696,8|0,0:0|0:0,0:0:0:0:
251,36,52122,1,0,3:0:0:0:
176,63,52241,1,8,0:0:0:0:
180,67,52360,5,0,3:0:0:0:
105,46,52479,1,8,0:0:0:0:
84,121,52599,1,0,3:0:0:0:
159,142,52718,1,0,3:0:0:0:
23,215,52837,2,0,L|14:152,1,63.7500024318696,8|0,0:0|0:0,0:0:0:0:
95,258,53075,2,0,L|104:195,1,63.7500024318696,0|0,3:0|0:0,0:0:0:0:
26,293,53313,6,0,B|17:324|17:324|28:353,1,63.7500024318696,2|0,3:2|0:0,0:0:0:0:
176,307,53551,2,0,B|185:276|185:276|173:246,1,63.7500024318696,0|2,3:0|0:0,0:0:0:0:
103,374,53789,2,0,L|166:383,1,63.7500024318696,8|0,0:0|0:0,0:0:0:0:
258,258,54027,1,2,3:2:0:0:
220,188,54146,2,0,L|283:179,1,63.7500024318696,8|2,0:0|3:2,0:0:0:0:
296,328,54384,2,0,L|359:337,1,63.7500024318696,8|0,0:0|3:0,0:0:0:0:
402,273,54622,1,8,0:0:0:0:
330,236,54741,37,8,0:3:0:0:
334,240,54860,1,8,0:3:0:0:
397,196,54979,1,4,0:3:0:0:
347,138,55099,1,4,0:3:0:0:
428,77,55218,6,0,P|365:64|304:45,1,127.500004863739,4|0,3:2|3:0,0:0:0:0:
273,115,55575,1,0,3:0:0:0:
168,68,55694,2,0,P|199:61|229:52,1,63.7500024318696,8|0,0:0|0:0,0:0:0:0:
268,194,55932,2,0,P|237:184|206:178,1,63.7500024318696,0|0,3:0|3:0,0:0:0:0:
98,34,56170,5,0,3:0:0:0:
57,148,56289,2,0,P|50:116|41:86,1,63.7500024318696,8|0,0:0|3:0,0:0:0:0:
168,68,56527,1,0,3:0:0:0:
140,140,56646,2,0,P|130:170|124:201,1,63.7500024318696,8|0,0:0|0:0,0:0:0:0:
65,287,56884,2,0,P|59:256|50:226,1,63.7500024318696,0|0,3:0|3:0,0:0:0:0:
143,275,57122,5,2,3:2:0:0:
209,380,57241,2,0,L|272:369,1,63.7500024318696,8|2,0:0|0:0,0:0:0:0:
216,301,57479,1,2,3:2:0:0:
261,237,57599,2,0,L|324:248,1,63.7500024318696,8|0,0:0|0:0,0:0:0:0:
334,324,57837,2,0,L|397:313,1,63.7500024318696,2|0,3:2|0:0,0:0:0:0:
474,169,58075,1,6,3:2:0:0:
38,169,58551,37,4,3:2:0:0:
38,169,58789,1,0,3:2:0:0:
149,76,59027,2,0,L|49:97,1,85,0|0,3:0|0:0,0:0:0:0:
262,133,59265,2,0,L|362:154,1,85,0|0,3:0|0:0,0:0:0:0:
185,146,59503,2,0,B|165:183|165:183|178:223,1,85,0|0,3:0|0:0,0:0:0:0:
325,302,59741,2,0,B|345:265|345:265|331:224,1,85,0|0,3:0|0:0,0:0:0:0:
256,213,59979,5,0,3:0:0:0:
256,213,60218,1,0,3:0:0:0:
262,133,60337,1,0,0:0:0:0:
404,200,60456,1,0,3:0:0:0:
292,310,60575,1,0,0:0:0:0:
150,243,60694,1,0,3:0:0:0:
186,174,60813,5,0,0:0:0:0:
35,216,60932,1,4,3:2:0:0:
35,216,61170,2,0,P|73:198|110:176,1,85,8|4,0:0|3:2,0:0:0:0:
478,160,61527,6,0,P|440:178|404:200,1,85,8|4,0:0|3:2,0:0:0:0:
260,43,62122,38,0,P|338:62|352:141,1,170,4|8,3:2|0:0,0:0:0:0:
283,163,62479,1,8,0:0:0:0:
320,226,62599,1,8,0:0:0:0:
250,246,62718,1,8,0:0:0:0:
148,162,62837,6,0,P|173:251|194:342,1,187.000005706787,4|8,3:2|0:0,0:0:0:0:
390,203,63194,2,0,P|377:158|366:112,1,93.5000028533936,0|0,3:0|0:0,0:0:0:0:
295,88,63432,1,0,3:0:0:0:
209,116,63551,2,0,P|222:71|233:26,1,93.5000028533936,8|0,0:0|0:0,0:0:0:0:
495,263,63789,6,0,B|404:240|417:332|342:349,1,187.000005706787,0|8,3:0|0:0,0:0:0:0:
511,185,64146,2,0,P|446:126|473:42,1,187.000005706787,0|0,3:0|3:0,0:0:0:0:
345,4,64503,2,0,P|358:49|369:95,1,93.5000028533936,8|0,0:0|0:0,0:0:0:0:
270,323,64741,6,0,P|224:333|179:346,1,93.5000028533936,2|0,3:2|0:0,0:0:0:0:
200,260,64979,1,10,0:0:0:0:
13,207,65099,2,0,P|101:219|115:307,1,187.000005706787,2|2,3:2|3:2,0:0:0:0:
277,92,65456,2,0,P|190:102|173:188,1,187.000005706787,10|0,0:0|3:0,0:0:0:0:
200,260,65813,1,0,0:0:0:0:
493,160,65932,38,0,B|446:154|446:154|413:186,1,93.5000028533936,10|0,0:0|0:0,0:0:0:0:
336,36,66170,2,0,B|355:80|355:80|399:93,1,93.5000028533936,2|0,3:2|3:0,0:0:0:0:
308,233,66408,2,0,B|336:195|336:195|326:151,1,93.5000028533936,10|0,0:0|0:0,0:0:0:0:
353,327,66646,6,0,B|173:274,1,187.000005706787,0|8,3:0|0:0,0:0:0:0:
147,203,67003,1,0,3:0:0:0:
79,327,67122,2,0,B|97:283|97:283|79:240,1,93.5000028533936,0|0,3:0|3:0,0:0:0:0:
10,208,67360,5,8,0:0:0:0:
184,133,67479,1,0,3:0:0:0:
33,20,67599,2,0,B|101:81|101:81|192:47,1,187.000005706787,0|8,3:0|0:0,0:0:0:0:
270,51,67956,2,0,B|252:95|252:95|270:138,1,93.5000028533936,0|0,3:0|0:0,0:0:0:0:
466,86,68194,1,0,3:0:0:0:
341,14,68313,1,8,0:0:0:0:
395,211,68432,1,2,0:0:0:0:
306,287,68551,6,0,L|322:182,1,93.5000028533936,2|0,3:2|0:0,0:0:0:0:
242,209,68789,1,10,0:0:0:0:
450,278,68908,2,0,B|349:293|398:353|296:370,1,187.000005706787,2|2,3:2|3:2,0:0:0:0:
235,325,69265,2,0,L|220:232,1,93.5000028533936,10|0,0:0|0:0,0:0:0:0:
7,321,69503,37,8,0:0:0:0:
167,365,69622,1,0,3:0:0:0:
144,245,69741,5,8,0:0:0:0:
8,304,69860,1,0,3:0:0:0:
37,192,69979,5,8,0:0:0:0:
145,228,70099,1,0,3:0:0:0:
287,102,70218,5,8,0:0:0:0:
116,139,70337,1,8,0:0:0:0:
242,209,70456,38,0,L|271:24,1,187.000005706787,4|8,3:2|0:0,0:0:0:0:
324,169,70813,2,0,P|368:181|385:222,1,93.5000028533936,0|0,3:0|0:0,0:0:0:0:
249,328,71051,1,0,3:0:0:0:
177,295,71170,2,0,L|162:202,1,93.5000028533936,8|0,0:0|0:0,0:0:0:0:
472,166,71408,6,0,L|443:351,1,187.000005706787,0|8,3:0|0:0,0:0:0:0:
315,287,71765,2,0,L|286:102,1,187.000005706787,0|0,3:0|3:0,0:0:0:0:
353,63,72122,2,0,P|396:65|425:105,1,93.5000028533936,8|0,0:0|0:0,0:0:0:0:
285,25,72360,6,0,P|197:18|162:99,1,187.000005706787,2|10,3:2|0:0,0:0:0:0:
145,174,72718,2,0,P|188:193|226:221,1,93.5000028533936,2|0,3:2|0:0,0:0:0:0:
302,208,72956,1,2,3:2:0:0:
315,287,73075,2,0,B|231:265|234:349|161:376,1,187.000005706787,10|0,0:0|3:0,0:0:0:0:
167,272,73432,1,0,0:0:0:0:
392,273,73551,6,0,B|378:228|378:228|403:189,1,93.5000028533936,10|0,0:0|0:0,0:0:0:0:
493,75,73789,2,0,B|461:110|461:110|415:109,1,93.5000028533936,2|0,3:2|3:0,0:0:0:0:
272,87,74027,2,0,B|317:97|317:97|340:139,1,93.5000028533936,10|0,0:0|0:0,0:0:0:0:
315,287,74265,38,0,B|231:265|234:349|161:376,1,187.000005706787,0|8,3:0|0:0,0:0:0:0:
106,322,74622,1,0,3:0:0:0:
19,373,74741,2,0,L|33:280,1,93.5000028533936,0|0,3:0|3:0,0:0:0:0:
12,206,74979,5,8,0:0:0:0:
167,272,75099,1,0,3:0:0:0:
147,105,75218,2,0,B|241:96|241:96|274:9,1,187.000005706787,0|8,3:0|0:0,0:0:0:0:
350,26,75575,2,0,B|397:31|397:31|415:73,1,93.5000028533936,0|0,3:0|0:0,0:0:0:0:
488,96,75813,1,0,3:0:0:0:
280,164,75932,1,8,0:0:0:0:
418,234,76051,1,0,0:0:0:0:
344,312,76170,6,0,L|337:217,1,93.5000028533936,6|0,3:2|0:0,0:0:0:0:
280,164,76408,1,10,0:0:0:0:
424,314,76527,2,0,B|321:300|354:372|250:357,1,187.000005706787,2|10,3:2|0:0,0:0:0:0:
171,375,76884,2,0,L|178:280,1,93.5000028533936,2|0,3:2|0:0,0:0:0:0:
92,152,77122,5,0,3:0:0:0:
92,152,77241,1,0,0:0:0:0:
25,193,77360,37,8,0:3:0:0:
159,111,77479,1,8,0:3:0:0:
51,85,77599,5,8,0:0:0:0:
133,219,77718,1,8,0:0:0:0:
267,137,77837,1,8,0:0:0:0:
185,3,77956,5,8,0:0:0:0:
335,92,78075,2,0,P|349:136|368:180,1,93.5000028533936,4|0,3:2|0:0,0:0:0:0:
296,210,78313,1,8,0:0:0:0:
185,277,78432,2,0,P|272:287|292:372,1,187.000005706787,0|0,3:0|3:0,0:0:0:0:
374,332,78789,2,0,P|388:288|407:244,1,93.5000028533936,8|0,0:0|0:0,0:0:0:0:
409,169,79027,5,0,3:0:0:0:
409,169,79146,1,0,3:0:0:0:
296,210,79265,1,8,0:0:0:0:
296,210,79384,1,0,3:0:0:0:
237,103,79503,1,0,3:0:0:0:
350,62,79622,1,0,3:0:0:0:
311,131,79741,1,8,0:0:0:0:
276,14,79860,1,0,0:0:0:0:
153,96,79979,38,0,P|165:140|176:186,1,93.5000028533936,2|0,3:2|0:0,0:0:0:0:
253,185,80218,1,10,0:0:0:0:
440,96,80337,2,0,P|427:50|416:5,1,93.5000028533936,2|0,3:2|3:0,0:0:0:0:
229,76,80575,1,2,3:2:0:0:
197,5,80694,2,0,P|151:16|106:27,1,93.5000028533936,10|0,0:0|0:0,0:0:0:0:
50,239,80932,6,0,P|142:258|231:282,1,187.000005706787,2|8,3:2|0:0,0:0:0:0:
321,259,81289,1,0,0:0:0:0:
321,259,81408,1,0,3:0:0:0:
258,210,81527,1,0,3:0:0:0:
294,329,81646,1,8,0:0:0:0:
397,260,81765,1,0,0:0:0:0:
284,124,81884,6,0,P|238:136|193:145,1,93.5000028533936,4|0,3:2|0:0,0:0:0:0:
334,182,82122,1,8,0:0:0:0:
389,69,82241,2,0,P|407:160|432:250,1,187.000005706787,0|0,3:0|3:0,0:0:0:0:
431,330,82599,5,8,0:0:0:0:
339,207,82718,1,0,0:0:0:0:
201,290,82837,2,0,P|191:335|179:380,1,93.5000028533936,0|0,3:0|3:0,0:0:0:0:
139,176,83075,2,0,P|104:144|71:111,1,93.5000028533936,8|0,0:0|3:0,0:0:0:0:
206,216,83313,1,0,3:0:0:0:
206,216,83432,1,0,3:0:0:0:
269,179,83551,2,0,P|313:164|358:152,1,93.5000028533936,8|0,0:0|3:0,0:0:0:0:
271,257,83789,37,14,0:2:0:0:
205,138,84027,1,10,0:0:0:0:
135,253,84146,1,2,3:2:0:0:
269,179,84265,1,8,0:0:0:0:
139,176,84384,1,2,3:2:0:0:
201,290,84503,1,10,0:0:0:0:
269,179,84622,1,2,3:2:0:0:
189,118,84741,5,14,0:0:0:0:
110,264,84979,1,8,0:3:0:0:
276,307,85099,1,8,0:3:0:0:
360,154,85218,1,8,0:0:0:0:
189,118,85337,1,8,0:0:0:0:
110,264,85456,1,8,0:0:0:0:
276,307,85575,1,8,0:0:0:0:
276,307,85694,6,0,P|258:263|246:218,1,93.5000028533936,4|0,3:2|0:0,0:0:0:0:
138,333,85932,1,8,0:0:0:0:
60,205,86051,2,0,P|103:122|142:37,1,187.000005706787,0|0,3:0|3:0,0:0:0:0:
303,58,86408,2,0,P|281:99|262:141,1,93.5000028533936,8|0,0:0|0:0,0:0:0:0:
275,221,86646,5,0,3:0:0:0:
275,221,86765,1,0,0:0:0:0:
411,276,86884,1,8,0:0:0:0:
411,276,87003,1,0,0:0:0:0:
464,140,87122,1,0,3:0:0:0:
350,134,87241,1,0,3:0:0:0:
413,196,87360,1,8,0:0:0:0:
395,63,87479,1,0,3:0:0:0:
261,141,87599,38,0,P|217:154|174:172,1,93.5000028533936,2|0,3:2|0:0,0:0:0:0:
156,248,87837,1,10,0:0:0:0:
10,266,87956,2,0,P|54:279|97:297,1,93.5000028533936,2|0,3:2|0:0,0:0:0:0:
206,74,88194,1,2,3:2:0:0:
134,105,88313,2,0,P|89:91|46:73,1,93.5000028533936,10|0,0:0|0:0,0:0:0:0:
284,65,88551,6,0,P|368:90|380:178,1,187.000005706787,2|8,3:2|0:0,0:0:0:0:
347,283,88908,1,0,0:0:0:0:
347,283,89027,1,0,3:0:0:0:
310,211,89146,1,0,3:0:0:0:
424,278,89265,1,8,0:0:0:0:
320,355,89384,1,0,3:0:0:0:
236,245,89503,6,0,P|233:198|225:152,1,93.5000028533936,4|0,3:2|0:0,0:0:0:0:
264,87,89741,1,8,0:0:0:0:
417,200,89860,2,0,P|332:224|320:312,1,187.000005706787,0|0,3:0|3:0,0:0:0:0:
246,335,90218,5,8,0:0:0:0:
130,259,90337,1,0,0:0:0:0:
23,339,90456,2,0,P|13:293|0:248,1,93.5000028533936,0|0,3:0|0:0,0:0:0:0:
176,197,90694,2,0,P|185:151|199:106,1,93.5000028533936,8|0,0:0|0:0,0:0:0:0:
12,14,90932,2,0,P|25:58|35:104,1,93.5000028533936,0|0,3:0|3:0,0:0:0:0:
252,216,91170,2,0,P|260:171|274:126,1,93.5000028533936,8|0,0:0|0:0,0:0:0:0:
452,114,91408,37,6,3:2:0:0:
452,114,91646,1,10,0:0:0:0:
478,183,91765,2,0,P|469:228|455:273,1,93.5000028533936,6|0,3:2|0:0,0:0:0:0:
333,199,92003,5,10,0:0:0:0:
404,172,92122,1,6,3:2:0:0:
280,144,92241,1,2,0:0:0:0:
308,269,92360,2,0,P|267:293|231:323,1,93.5000028533936,6|0,3:2|0:0,0:0:0:0:
12,238,92599,1,2,3:2:0:0:
118,180,92718,1,8,0:0:0:0:
165,287,92837,1,2,3:2:0:0:
65,348,92956,5,8,0:0:0:0:
82,272,93075,1,10,0:0:0:0:
36,210,93194,1,8,0:0:0:0:
55,135,93313,1,6,3:2:0:0:
457,249,108551,5,4,3:2:0:0:
457,249,110218,1,0,3:0:0:0:
388,222,110456,1,0,3:2:0:0:
388,222,112360,1,0,3:0:0:0:
388,222,114265,1,0,3:0:0:0:
174,275,116170,38,0,P|188:305|196:335,1,63.7500024318696,4|0,3:2|0:0,0:0:0:0:
243,236,116408,2,0,P|251:205|264:176,1,63.7500024318696
173,198,116646,2,0,L|46:221,1,127.500004863739,0|0,3:0|0:0,0:0:0:0:
14,151,117003,2,0,L|25:88,1,63.7500024318696,0|0,0:0|3:0,0:0:0:0:
102,77,117241,1,0,0:0:0:0:
102,77,117360,2,0,L|91:14,1,63.7500024318696
171,109,117599,2,0,L|290:152,1,127.500004863739,0|8,3:0|0:3,0:0:0:0:
174,275,118075,6,0,P|229:303|236:373,1,127.500004863739,0|0,3:0|0:0,0:0:0:0:
310,287,118432,1,0,0:0:0:0:
320,365,118551,2,0,P|332:275|347:218,1,127.500004863739,0|0,3:0|0:0,0:0:0:0:
264,225,118908,2,0,P|260:193|253:162,1,63.7500024318696,0|0,0:0|3:0,0:0:0:0:
333,163,119146,1,0,3:0:0:0:
398,84,119265,1,8,0:3:0:0:
482,142,119384,1,4,0:3:0:0:
416,221,119503,1,0,3:0:0:0:
416,221,119741,5,8,0:3:0:0:
321,87,119860,1,8,0:3:0:0:
176,164,119979,2,0,P|145:172|115:184,1,63.7500024318696,0|0,3:0|0:0,0:0:0:0:
141,47,120218,2,0,P|163:69|188:89,1,63.7500024318696
55,136,120456,2,0,P|64:72|62:9,1,127.500004863739,0|0,3:0|0:0,0:0:0:0:
140,29,120813,1,0,0:0:0:0:
110,211,120932,6,0,P|50:223|30:282,1,127.500004863739,0|0,3:0|0:0,0:0:0:0:
93,328,121289,1,0,0:0:0:0:
264,249,121408,2,0,P|255:218|250:186,1,63.7500024318696,0|0,3:0|0:0,0:0:0:0:
337,231,121646,2,0,P|328:200|323:168,1,63.7500024318696,8|8,0:0|0:0,0:0:0:0:
389,57,121884,37,4,3:2:0:0:
389,57,122122,1,8,0:0:0:0:
430,124,122360,5,8,0:0:0:0:
441,0,122479,1,8,0:0:0:0:
317,19,122599,1,8,0:0:0:0:
413,203,122718,5,4,3:2:0:0:
413,203,122956,1,0,3:2:0:0:
413,203,123075,1,8,0:0:0:0:
399,277,123313,5,0,3:0:0:0:
337,231,123432,1,0,3:0:0:0:
356,340,123551,1,8,0:0:0:0:
294,295,123670,1,8,0:0:0:0:
145,312,123789,38,0,B|86:299|86:363|44:379,1,127.500004863739,4|0,3:2|0:0,0:0:0:0:
120,236,124146,1,8,0:0:0:0:
195,253,124265,2,0,P|194:215|196:188,1,63.7500024318696,0|0,3:0|0:0,0:0:0:0:
23,165,124503,2,0,P|24:133|23:101,1,63.7500024318696,8|0,0:0|0:0,0:0:0:0:
167,119,124741,2,0,P|145:62|85:55,1,127.500004863739,2|2,3:2|0:0,0:0:0:0:
224,38,125099,2,0,P|282:63|344:78,1,127.500004863739,10|0,0:0|0:0,0:0:0:0:
333,95,125456,5,8,0:0:0:0:
384,152,125575,1,8,0:0:0:0:
328,204,125694,2,0,P|341:231|351:262,1,63.7500024318696,0|0,3:0|0:0,0:0:0:0:
440,100,125932,2,0,P|464:117|493:134,1,63.7500024318696,0|8,0:0|0:0,0:0:0:0:
497,290,126170,5,2,3:2:0:0:
421,299,126289,1,2,0:0:0:0:
420,221,126408,1,10,0:0:0:0:
497,212,126527,1,0,0:0:0:0:
356,340,126646,6,0,L|281:328,1,63.7500024318696,2|0,3:2|0:0,0:0:0:0:
227,368,126884,1,10,0:0:0:0:
268,258,127003,2,0,L|129:280,1,127.500004863739,10|0,0:0|0:0,0:0:0:0:
126,262,127360,37,8,0:0:0:0:
73,318,127479,1,8,0:0:0:0:
17,265,127599,2,0,L|37:139,1,127.500004863739,0|0,3:0|0:0,0:0:0:0:
21,120,127956,1,8,0:0:0:0:
121,65,128075,2,0,L|58:54,1,63.7500024318696,0|0,3:0|0:0,0:0:0:0:
194,42,128313,5,8,0:0:0:0:
223,112,128432,1,0,0:0:0:0:
298,93,128551,2,0,L|318:218,1,127.500004863739,0|0,3:0|0:0,0:0:0:0:
302,243,128908,1,8,0:0:0:0:
296,323,129027,2,0,L|236:300,1,63.7500024318696,0|0,3:0|0:0,0:0:0:0:
187,242,129265,2,0,L|236:202,1,63.7500024318696,8|8,0:0|0:0,0:0:0:0:
374,288,129503,6,0,L|394:163,1,127.500004863739,2|0,3:2|0:0,0:0:0:0:
432,71,129860,2,0,L|370:88,1,63.7500024318696,10|0,0:0|3:0,0:0:0:0:
307,47,130099,1,0,0:0:0:0:
307,47,130218,2,0,L|245:65,1,63.7500024318696,10|0,0:0|0:0,0:0:0:0:
160,21,130456,6,0,L|180:146,1,127.500004863739,6|8,3:2|0:3,0:0:0:0:
123,203,130813,1,4,0:3:0:0:
127,207,130932,1,0,3:0:0:0:
209,299,131051,1,8,0:0:0:0:
92,341,131170,1,8,0:0:0:0:
136,281,131289,1,8,0:0:0:0:
300,244,131408,38,0,P|286:306|275:369,1,127.500004863739,4|0,3:2|0:0,0:0:0:0:
200,375,131765,1,8,0:0:0:0:
309,355,131884,2,0,P|295:292|284:229,1,127.500004863739,0|8,3:0|0:0,0:0:0:0:
291,154,132241,1,0,0:0:0:0:
180,62,132360,6,0,B|234:97|234:97|292:71,1,127.500004863739,0|0,3:0|0:0,0:0:0:0:
356,112,132718,1,8,0:0:0:0:
422,49,132837,2,0,L|360:33,1,63.7500024318696,0|0,3:0|0:0,0:0:0:0:
432,125,133075,5,8,0:0:0:0:
491,175,133194,1,8,0:0:0:0:
435,228,133313,2,0,L|415:353,1,127.500004863739,0|0,3:0|0:0,0:0:0:0:
337,362,133670,1,8,0:0:0:0:
341,366,133789,1,2,3:2:0:0:
348,289,133908,1,2,0:0:0:0:
219,266,134027,1,10,0:0:0:0:
239,382,134146,1,2,0:0:0:0:
277,317,134265,6,0,L|257:192,1,127.500004863739,2|10,3:2|0:0,0:0:0:0:
180,200,134622,1,10,0:0:0:0:
254,113,134741,2,0,L|191:123,1,63.7500024318696,0|0,3:0|0:0,0:0:0:0:
119,96,134979,2,0,L|56:106,1,63.7500024318696,8|8,0:0|0:0,0:0:0:0:
6,203,135218,38,0,P|34:261|53:322,1,127.500004863739,0|0,3:0|0:0,0:0:0:0:
122,356,135575,1,8,0:0:0:0:
175,294,135694,2,0,P|152:286|114:265,1,63.7500024318696,0|0,3:0|0:0,0:0:0:0:
257,343,135932,2,0,P|234:351|196:372,1,63.7500024318696,8|0,0:0|0:0,0:0:0:0:
306,281,136170,6,0,P|366:300|429:315,1,127.500004863739,0|0,3:0|0:0,0:0:0:0:
486,263,136527,1,8,0:0:0:0:
415,232,136646,2,0,P|424:201|431:170,1,63.7500024318696,0|0,3:0|0:0,0:0:0:0:
488,119,136884,2,0,P|497:88|504:57,1,63.7500024318696,10|8,0:0|0:0,0:0:0:0:
440,14,137122,5,6,3:2:0:0:
374,46,137360,1,8,0:0:0:0:
301,46,137599,1,8,0:0:0:0:
233,18,137837,1,10,0:0:0:0:
163,41,138075,1,14,0:0:0:0:
121,102,138313,5,10,0:0:0:0:
187,135,138432,1,8,0:0:0:0:
86,170,138551,1,10,0:0:0:0:
156,205,138670,1,8,0:0:0:0:
60,58,138789,37,10,0:0:0:0:
258,110,138908,1,8,0:0:0:0:
140,276,139027,1,6,3:2:0:0:
144,280,139146,5,0,0:0:0:0:
147,300,139265,1,10,0:0:0:0:
150,320,139384,1,2,3:2:0:0:
217,384,139503,5,0,0:0:0:0:
226,330,139622,1,2,3:2:0:0:
235,276,139741,1,10,0:2:0:0:
244,222,139860,1,2,0:2:0:0:
309,299,139979,5,2,3:2:0:0:
377,263,140099,1,2,0:2:0:0:
357,359,140218,1,10,0:2:0:0:
425,323,140337,1,2,3:2:0:0:
471,262,140456,37,2,0:2:0:0:
453,252,140575,1,0,3:2:0:0:
458,232,140694,1,10,0:2:0:0:
440,222,140813,1,0,0:2:0:0:
464,124,140932,6,0,P|434:137|336:175,1,127.500004863739,2|10,3:2|0:0,0:0:0:0:
288,117,141289,2,0,P|258:130|160:168,1,127.500004863739,2|2,3:2|3:2,0:0:0:0:
112,110,141646,1,10,0:2:0:0:
98,115,141765,1,2,0:2:0:0:
73,187,141884,5,2,3:2:0:0:
176,241,142003,1,0,0:0:0:0:
107,330,142122,1,10,0:0:0:0:
2,282,142241,1,0,0:0:0:0:
103,255,142360,5,2,3:2:0:0:
76,294,142479,1,2,3:2:0:0:
86,341,142599,1,10,0:2:0:0:
60,381,142718,1,2,0:2:0:0:
60,381,142837,1,2,3:2:0:0:
184,337,142956,38,0,L|257:321,1,63.7500024318696,2|8,0:0|0:0,0:0:0:0:
290,259,143194,2,0,L|363:243,1,63.7500024318696,2|0,3:2|0:0,0:0:0:0:
330,174,143432,1,2,3:2:0:0:
224,109,143551,1,10,0:0:0:0:
319,28,143670,1,2,0:0:0:0:
301,103,143789,5,2,3:2:0:0:
198,37,143908,1,0,0:0:0:0:
160,153,144027,1,10,0:2:0:0:
88,122,144146,2,0,P|78:152|67:182,1,63.7500024318696,2|0,3:2|0:0,0:0:0:0:
134,225,144384,5,2,3:2:0:0:
254,189,144503,1,10,0:2:0:0:
272,313,144622,1,2,0:2:0:0:
332,265,144741,5,2,3:2:0:0:
369,295,144860,1,2,0:2:0:0:
414,279,144979,1,8,0:0:0:0:
451,309,145099,1,2,3:2:0:0:
451,309,145218,1,0,0:0:0:0:
434,206,145337,37,2,3:2:0:0:
492,158,145456,1,10,0:2:0:0:
479,83,145575,1,2,0:2:0:0:
386,64,145694,5,6,3:2:0:0:
337,103,145813,1,2,0:2:0:0:
348,166,145932,1,8,0:3:0:0:
279,194,146051,5,8,0:3:0:0:
226,143,146170,1,4,0:3:0:0:
157,168,146289,1,4,0:3:0:0:
159,241,146408,1,4,3:0:0:0:
104,289,146527,1,4,3:0:0:0:
36,262,146646,6,0,P|48:199|59:136,1,127.500004863739,6|2,3:2|0:0,0:0:0:0:
135,131,147003,2,0,P|147:68|158:5,1,127.500004863739,10|0,0:0|0:0,0:0:0:0:
225,68,147360,2,0,P|230:36|234:4,1,63.7500024318696,10|0,0:0|0:0,0:0:0:0:
291,107,147599,38,0,P|353:117|416:130,1,127.500004863739,2|2,3:2|0:0,0:0:0:0:
493,142,147956,2,0,P|487:173|483:205,1,63.7500024318696,10|0,0:0|3:0,0:0:0:0:
406,205,148194,1,2,0:2:0:0:
394,279,148313,1,10,0:2:0:0:
382,353,148432,1,10,0:2:0:0:
322,303,148551,6,0,P|259:292|196:279,1,127.500004863739,2|2,3:2|0:0,0:0:0:0:
126,311,148908,2,0,P|63:300|0:287,1,127.500004863739,10|0,0:0|0:0,0:0:0:0:
0,214,149265,1,10,0:2:0:0:
3,197,149384,1,10,0:2:0:0:
76,225,149503,6,0,P|86:162|99:99,1,127.500004863739,2|10,3:2|0:2,0:0:0:0:
79,27,149860,1,10,0:2:0:0:
173,114,149979,2,0,P|160:176|149:239,1,127.500004863739,2|10,3:2|0:2,0:0:0:0:
168,247,150337,1,10,0:2:0:0:
234,205,150456,5,6,3:2:0:0:
281,215,150575,1,0,0:0:0:0:
325,196,150694,1,0,0:0:0:0:
372,206,150813,1,10,0:0:0:0:
333,273,150932,37,2,3:2:0:0:
274,137,151051,1,0,0:0:0:0:
418,142,151170,1,10,0:0:0:0:
480,277,151289,1,0,0:0:0:0:
480,277,151408,5,2,3:2:0:0:
465,313,151527,1,0,0:0:0:0:
429,327,151646,1,0,0:0:0:0:
414,363,151765,1,10,0:0:0:0:
339,350,151884,5,2,3:2:0:0:
264,337,152003,1,0,0:0:0:0:
197,374,152122,1,10,0:0:0:0:
122,361,152241,1,10,0:0:0:0:
47,348,152360,5,6,3:2:0:0:
44,330,152479,1,0,0:0:0:0:
41,312,152599,1,0,0:0:0:0:
38,294,152718,1,10,0:0:0:0:
114,285,152837,37,10,0:0:0:0:
94,212,152956,1,10,0:2:0:0:
178,243,153075,1,10,0:2:0:0:
158,170,153194,1,10,0:2:0:0:
235,169,153313,5,0,3:0:0:0:
54,146,153432,1,0,0:0:0:0:
54,328,153551,1,0,0:0:0:0:
308,191,153670,5,0,3:0:0:0:
350,128,153789,1,0,0:0:0:0:
278,106,153908,1,0,0:0:0:0:
279,263,154027,5,0,3:0:0:0:
427,115,154146,1,0,0:0:0:0:
224,53,154265,1,4,3:2:0:0:
256,339,161884,37,0,3:0:0:0:
312,286,162122,5,2,0:0:0:0:
383,258,162360,5,0,3:0:0:0:
449,220,162599,5,2,0:0:0:0:
465,145,162837,37,0,3:0:0:0:
440,72,163075,5,2,0:0:0:0:
367,47,163313,5,0,3:0:0:0:
294,69,163551,5,2,0:0:0:0:
256,339,163789,37,0,3:0:0:0:
200,286,164027,5,2,0:0:0:0:
129,258,164265,5,0,3:0:0:0:
63,220,164504,5,2,0:0:0:0:
47,145,164742,37,2,3:2:0:0:
72,72,164980,5,0,0:0:0:0:
145,47,165218,5,2,3:2:0:0:
218,69,165456,5,2,0:0:0:0:
256,339,165694,37,10,0:0:0:0:
312,286,165813,1,0,0:0:0:0:
383,258,165932,1,8,0:0:0:0:
449,220,166051,1,0,0:0:0:0:
465,145,166170,1,8,0:0:0:0:
440,72,166289,1,0,0:0:0:0:
367,47,166408,1,8,0:0:0:0:
294,69,166526,1,0,0:0:0:0:
256,339,166646,5,8,0:0:0:0:
200,286,166764,1,0,0:0:0:0:
129,258,166883,1,8,0:0:0:0:
63,220,167003,1,0,0:0:0:0:
47,145,167122,1,8,0:0:0:0:
72,72,167241,1,0,0:0:0:0:
145,47,167360,1,8,0:0:0:0:
218,69,167479,1,0,0:0:0:0:
259,137,167599,5,2,0:0:0:0:
259,137,167658,5,0,0:0:0:0:
239,209,167956,37,2,0:0:0:0:
282,270,168313,5,2,0:0:0:0:
256,339,168551,5,2,0:0:0:0:
256,339,168789,5,8,0:0:0:0:
363,282,168908,1,8,0:0:0:0:
283,191,169027,1,8,0:0:0:0:
176,248,169146,1,8,0:0:0:0:
251,261,169265,1,8,0:0:0:0:
195,153,169384,1,8,0:0:0:0:
76,209,169503,38,0,P|111:295|142:383,1,187.000005706787,4|8,3:2|0:0,0:0:0:0:
62,384,169860,2,0,P|46:339|28:296,1,93.5000028533936,0|0,3:0|0:0,0:0:0:0:
0,225,170099,1,0,3:0:0:0:
119,142,170218,2,0,P|103:97|85:54,1,93.5000028533936,8|0,0:0|0:0,0:0:0:0:
304,46,170456,6,0,P|228:45|208:153,1,187.000005706787,0|8,3:0|0:0,0:0:0:0:
323,220,170813,2,0,P|353:131|389:45,1,187.000005706787,0|0,3:0|3:0,0:0:0:0:
234,207,171170,2,0,P|252:250|267:294,1,93.5000028533936,8|0,0:0|0:0,0:0:0:0:
432,260,171408,6,0,P|387:275|344:293,1,93.5000028533936,2|0,3:2|0:0,0:0:0:0:
305,361,171646,1,10,0:0:0:0:
135,242,171765,2,0,P|171:155|200:67,1,187.000005706787,2|2,3:2|3:2,0:0:0:0:
379,27,172122,2,0,P|465:33|484:119,1,187.000005706787,10|0,0:0|3:0,0:0:0:0:
423,166,172479,1,0,0:0:0:0:
286,88,172599,6,0,P|240:97|193:103,1,93.5000028533936,10|0,0:0|0:0,0:0:0:0:
333,190,172837,2,0,P|347:145|365:102,1,93.5000028533936,2|0,3:2|3:0,0:0:0:0:
221,180,173075,2,0,P|252:214|280:251,1,93.5000028533936,10|0,0:0|0:0,0:0:0:0:
265,15,173313,38,0,P|172:30|79:39,1,187.000005706787,0|8,3:0|0:0,0:0:0:0:
85,117,173670,1,0,3:0:0:0:
174,202,173789,2,0,P|166:155|162:109,1,93.5000028533936,0|0,3:0|3:0,0:0:0:0:
92,197,174027,5,8,0:0:0:0:
9,315,174146,1,0,0:0:0:0:
146,360,174265,2,0,P|239:345|332:336,1,187.000005706787,0|8,3:0|0:0,0:0:0:0:
410,341,174622,2,0,P|414:294|423:248,1,93.5000028533936,0|0,3:0|0:0,0:0:0:0:
344,260,174860,1,0,3:0:0:0:
246,137,174979,1,8,0:0:0:0:
399,97,175099,1,2,3:2:0:0:
496,220,175218,6,0,P|500:173|509:127,1,93.5000028533936,2|0,3:2|0:0,0:0:0:0:
468,60,175456,1,10,0:0:0:0:
331,166,175575,2,0,P|244:174|221:259,1,187.000005706787,2|2,3:2|3:2,0:0:0:0:
146,287,175932,2,0,P|142:240|133:194,1,93.5000028533936,10|0,0:0|0:0,0:0:0:0:
169,125,176170,5,8,0:0:0:0:
0,185,176289,1,0,3:0:0:0:
33,62,176408,37,8,0:0:0:0:
164,108,176527,1,0,3:0:0:0:
154,10,176646,5,8,0:0:0:0:
42,45,176765,1,0,3:0:0:0:
194,197,176884,5,8,0:0:0:0:
228,31,177003,1,8,0:0:0:0:
115,197,177122,6,0,P|128:289|131:382,1,187.000005706787,4|8,3:2|0:0,0:0:0:0:
205,274,177479,2,0,P|248:262|269:221,1,93.5000028533936,0|0,3:0|0:0,0:0:0:0:
311,156,177718,1,0,3:0:0:0:
356,317,177837,2,0,P|349:270|348:224,1,93.5000028533936,8|0,0:0|0:0,0:0:0:0:
388,40,178075,38,0,P|476:62|491:161,1,187.000005706787,0|8,3:0|0:0,0:0:0:0:
433,227,178432,2,0,B|353:179|353:179|269:220,1,187.000005706787,0|0,3:0|3:0,0:0:0:0:
194,197,178789,2,0,L|201:103,1,93.5000028533936,8|0,0:0|0:0,0:0:0:0:
90,255,179027,6,0,P|178:277|193:376,1,187.000005706787,2|10,3:2|0:0,0:0:0:0:
16,308,179384,2,0,L|8:214,1,93.5000028533936,2|0,3:2|0:0,0:0:0:0:
77,180,179622,1,2,3:2:0:0:
26,62,179741,2,0,B|106:110|106:110|190:69,1,187.000005706787,10|0,0:0|3:0,0:0:0:0:
228,5,180099,1,0,0:0:0:0:
403,114,180218,6,0,P|392:159|385:205,1,93.5000028533936,10|0,0:0|0:0,0:0:0:0:
293,71,180456,2,0,P|337:57|381:40,1,93.5000028533936,2|0,3:2|0:0,0:0:0:0:
311,188,180694,2,0,P|277:155|240:127,1,93.5000028533936,10|0,0:0|0:0,0:0:0:0:
480,120,180932,6,0,P|462:211|454:304,1,187.000005706787,0|8,3:0|0:0,0:0:0:0:
467,381,181289,1,0,3:0:0:0:
300,340,181408,2,0,P|345:349|392:353,1,93.5000028533936,0|0,3:0|3:0,0:0:0:0:
380,278,181646,37,8,0:0:0:0:
232,210,181765,1,0,0:0:0:0:
192,368,181884,2,0,P|165:263|142:185,1,187.000005706787,0|8,3:0|0:0,0:0:0:0:
347,146,182241,2,0,P|358:100|371:55,1,93.5000028533936,0|0,3:0|0:0,0:0:0:0:
309,12,182479,1,0,3:0:0:0:
175,9,182599,1,8,0:0:0:0:
203,139,182718,1,0,0:0:0:0:
448,76,182837,6,0,P|434:120|423:166,1,93.5000028533936,6|0,3:2|0:0,0:0:0:0:
368,220,183075,1,10,0:0:0:0:
203,139,183194,2,0,P|117:160|101:247,1,187.000005706787,2|10,3:2|0:0,0:0:0:0:
268,291,183551,2,0,P|278:245|293:200,1,93.5000028533936,2|0,3:2|0:0,0:0:0:0:
121,66,183789,5,0,3:0:0:0:
121,66,183908,1,0,0:0:0:0:
59,15,184027,5,8,0:3:0:0:
78,132,184146,1,8,0:3:0:0:
191,96,184265,1,4,0:3:0:0:
164,1,184384,37,4,0:3:0:0:
8,100,184503,1,8,0:0:0:0:
119,248,184622,1,8,0:0:0:0:
275,149,184741,54,0,P|268:98|266:47,1,101.999996887207,4|0,3:2|0:0,0:0:0:0:
336,13,184979,1,8,0:0:0:0:
404,137,185099,2,0,P|493:169|498:269,1,203.999993774414,0|0,3:0|3:0,0:0:0:0:
352,287,185456,2,0,P|345:236|343:185,1,101.999996887207,8|0,0:0|0:0,0:0:0:0:
201,174,185694,6,0,P|112:206|107:306,1,203.999993774414,0|8,3:0|0:0,0:0:0:0:
257,319,186051,2,0,P|263:268|266:217,1,101.999996887207,0|0,3:0|0:0,0:0:0:0:
172,93,186289,1,0,3:0:0:0:
39,174,186408,2,0,P|45:123|48:72,1,101.999996887207,8|0,0:0|0:0,0:0:0:0:
190,11,186646,70,0,P|231:41|273:69,1,101.999996887207,2|0,3:2|0:0,0:0:0:0:
349,61,186884,1,10,0:0:0:0:
272,203,187003,2,0,P|361:235|366:335,1,203.999993774414,2|2,3:2|3:2,0:0:0:0:
454,251,187360,2,0,P|437:150|426:48,1,203.999993774414,10|0,0:0|3:0,0:0:0:0:
349,61,187718,1,0,0:0:0:0:
193,198,187837,6,0,P|148:224|107:253,1,101.999996887207,10|0,0:0|0:0,0:0:0:0:
147,85,188075,2,0,P|190:110|237:131,1,101.999996887207,2|0,3:2|3:0,0:0:0:0:
72,181,188313,2,0,P|72:130|67:79,1,101.999996887207,10|0,0:0|0:0,0:0:0:0:
263,57,188551,70,0,P|268:158|283:259,1,203.999993774414,0|8,3:0|0:0,0:0:0:0:
209,278,188908,1,0,3:0:0:0:
74,340,189027,2,0,P|55:292|29:248,1,101.999996887207,0|0,0:0|3:0,0:0:0:0:
120,243,189265,5,8,0:0:0:0:
238,353,189384,1,0,0:0:0:0:
362,250,189503,2,0,P|346:149|341:47,1,203.999993774414,0|8,3:0|0:0,0:0:0:0:
419,41,189860,2,0,P|419:92|425:143,1,101.999996887207,0|0,3:0|0:0,0:0:0:0:
329,177,190099,1,0,3:0:0:0:
439,264,190218,1,8,0:0:0:0:
317,317,190337,1,0,0:0:0:0:
254,269,190456,70,0,P|254:218|248:167,1,101.999996887207,2|0,3:2|0:0,0:0:0:0:
243,347,190694,1,10,0:0:0:0:
180,298,190813,2,0,P|84:287|36:370,1,203.999993774414,2|2,3:2|3:2,0:0:0:0:
12,243,191170,2,0,P|12:192|6:141,1,101.999996887207,10|0,0:0|0:0,0:0:0:0:
64,88,191408,5,8,0:0:0:0:
109,194,191527,1,0,3:0:0:0:
263,24,191646,69,8,0:0:0:0:
151,0,191765,1,0,3:0:0:0:
224,218,191884,5,8,0:0:0:0:
300,136,192003,1,0,3:0:0:0:
186,107,192122,69,8,0:0:0:0:
337,245,192241,1,8,0:0:0:0:
375,42,192360,6,0,P|389:90|411:137,1,101.999996887207,4|0,3:2|0:0,0:0:0:0:
483,104,192599,1,8,0:0:0:0:
512,176,192718,2,0,P|433:233|445:330,1,203.999993774414,0|0,3:0|3:0,0:0:0:0:
313,352,193075,2,0,P|334:305|349:256,1,101.999996887207,8|0,0:0|0:0,0:0:0:0:
150,180,193313,70,0,P|128:226|113:275,1,101.999996887207,0|0,3:0|0:0,0:0:0:0:
212,130,193551,1,8,0:0:0:0:
139,100,193670,2,0,P|42:99|6:10,1,203.999993774414,0|0,3:0|3:0,0:0:0:0:
223,48,194027,2,0,P|269:69|318:84,1,101.999996887207,8|0,0:0|0:0,0:0:0:0:
363,158,194265,6,0,P|315:175|299:224,1,101.999996887207,2|0,3:2|0:0,0:0:0:0:
165,368,194503,1,10,0:0:0:0:
95,331,194622,2,0,P|83:221|62:115,1,203.999993774414,2|2,3:2|3:2,0:0:0:0:
139,100,194979,2,0,P|236:99|272:10,1,203.999993774414,10|0,0:0|3:0,0:0:0:0:
194,0,195337,1,0,0:0:0:0:
350,73,195456,70,0,P|334:121|330:172,1,101.999996887207,10|0,0:0|0:0,0:0:0:0:
501,113,195694,2,0,P|466:75|424:46,1,101.999996887207,2|0,3:2|0:0,0:0:0:0:
390,223,195932,2,0,P|439:211|485:190,1,101.999996887207,10|0,0:0|0:0,0:0:0:0:
318,188,196170,6,0,B|230:152|224:251|155:281,1,203.999993774414,0|8,3:0|0:0,0:0:0:0:
97,227,196527,1,0,3:0:0:0:
131,76,196646,2,0,P|139:120|158:178,1,101.999996887207,0|0,0:0|3:0,0:0:0:0:
67,155,196884,69,8,0:0:0:0:
114,346,197003,1,0,0:0:0:0:
291,261,197122,2,0,P|299:305|318:363,1,101.999996887207,0|0,3:0|0:0,0:0:0:0:
231,210,197360,1,8,0:0:0:0:
416,183,197479,2,0,P|319:186|274:100,1,203.999993774414,0|0,3:0|3:0,0:0:0:0:
197,123,197837,1,8,0:0:0:0:
336,52,197956,5,0,0:0:0:0:
262,23,198075,2,0,P|213:38|163:50,1,101.999996887207,6|0,3:2|0:0,0:0:0:0:
346,37,198313,1,10,0:0:0:0:
402,95,198432,2,0,P|450:110|500:122,1,101.999996887207,2|0,3:2|0:0,0:0:0:0:
485,260,198670,69,10,0:0:0:0:
353,304,198789,2,0,P|255:272|156:248,1,203.999993774414,2|8,3:2|0:0,0:0:0:0:
158,172,199146,1,0,0:0:0:0:
81,196,199265,1,8,0:3:0:0:
100,117,199384,1,4,0:3:0:0:
236,187,199503,5,0,3:0:0:0:
83,273,199622,1,0,3:0:0:0:
23,104,199741,1,8,0:0:0:0:
181,19,199860,69,8,0:0:0:0:
181,19,199979,2,0,P|251:93|327:160,1,203.999993774414,4|8,3:2|0:0,0:0:0:0:
301,233,200337,2,0,P|207:256|187:350,1,203.999993774414,0|0,3:0|3:0,0:0:0:0:
149,204,200694,2,0,P|153:153|149:102,1,101.999996887207,8|0,0:0|0:0,0:0:0:0:
232,109,200932,5,0,3:0:0:0:
232,109,201051,1,0,0:0:0:0:
383,37,201170,1,8,0:0:0:0:
383,37,201289,1,0,0:0:0:0:
432,206,201408,1,0,3:0:0:0:
335,248,201527,1,0,3:0:0:0:
359,172,201646,1,8,0:0:0:0:
408,282,201765,1,0,0:0:0:0:
255,251,201884,70,0,P|304:257|329:299,1,101.999996887207,2|0,3:2|0:0,0:0:0:0:
191,300,202122,1,10,0:0:0:0:
183,219,202241,2,0,P|135:238|85:250,1,101.999996887207,2|0,3:2|0:0,0:0:0:0:
82,171,202479,1,2,3:2:0:0:
246,175,202599,2,0,P|241:135|248:58,1,101.999996887207,10|0,0:0|0:0,0:0:0:0:
41,37,202837,6,0,P|136:52|157:146,1,203.999993774414,2|8,3:2|0:0,0:0:0:0:
263,92,203194,1,0,0:0:0:0:
263,92,203313,1,0,3:0:0:0:
221,23,203432,1,0,3:0:0:0:
339,68,203551,1,8,0:0:0:0:
266,169,203670,1,0,0:0:0:0:
141,125,203789,70,0,P|146:74|142:23,1,101.999996887207,4|0,3:2|0:0,0:0:0:0:
221,23,204027,1,8,0:0:0:0:
201,214,204146,2,0,P|152:201|88:326,1,203.999993774414,0|0,3:0|3:0,0:0:0:0:
151,350,204503,5,8,0:0:0:0:
274,248,204622,1,0,3:0:0:0:
404,342,204741,2,0,P|400:291|405:240,1,101.999996887207,0|0,3:0|0:0,0:0:0:0:
496,111,204979,2,0,P|453:139|407:160,1,101.999996887207,8|0,0:0|0:0,0:0:0:0:
483,221,205218,1,0,3:0:0:0:
483,221,205337,1,0,3:0:0:0:
338,198,205456,2,0,P|296:169|251:147,1,101.999996887207,8|0,0:0|0:0,0:0:0:0:
228,73,205694,69,14,0:0:0:0:
89,124,205932,1,10,0:0:0:0:
180,241,206051,1,2,3:2:0:0:
174,147,206170,1,8,0:0:0:0:
60,265,206289,1,2,3:2:0:0:
209,337,206408,1,10,0:0:0:0:
324,218,206527,1,10,0:0:0:0:
394,254,206646,5,6,3:2:0:0:
286,287,206884,1,8,0:3:0:0:
264,168,207003,1,4,0:3:0:0:
380,131,207122,1,8,0:0:0:0:
394,254,207241,1,8,0:0:0:0:
286,287,207360,1,8,0:0:0:0:
264,168,207479,1,8,0:0:0:0:
484,220,207599,70,0,P|474:270|468:320,1,101.999996887207,4|0,3:2|0:0,0:0:0:0:
252,359,207837,1,8,0:0:0:0:
204,295,207956,2,0,P|223:194|234:93,1,203.999993774414,0|0,3:0|3:0,0:0:0:0:
327,5,208313,2,0,P|317:55|311:105,1,101.999996887207,8|0,0:0|0:0,0:0:0:0:
245,17,208551,5,0,3:0:0:0:
245,17,208670,1,0,0:0:0:0:
97,42,208789,1,8,0:0:0:0:
97,42,208908,1,0,0:0:0:0:
126,187,209027,1,0,3:0:0:0:
155,114,209146,1,0,3:0:0:0:
48,174,209265,1,8,0:0:0:0:
134,266,209384,1,0,0:0:0:0:
224,151,209503,70,0,P|213:227|211:265,1,101.999996887207,2|0,3:2|0:0,0:0:0:0:
277,292,209741,1,10,0:0:0:0:
63,353,209860,2,0,P|58:302|50:251,1,101.999996887207,2|0,3:2|0:0,0:0:0:0:
221,74,210099,1,2,3:2:0:0:
291,107,210218,2,0,P|341:102|392:94,1,101.999996887207,10|0,0:0|0:0,0:0:0:0:
411,294,210456,6,0,P|390:200|295:193,1,203.999993774414,2|8,3:2|0:0,0:0:0:0:
236,304,210813,1,0,3:0:0:0:
236,304,210932,1,0,3:0:0:0:
225,226,211051,1,0,3:0:0:0:
310,323,211170,1,8,0:0:0:0:
191,365,211289,1,0,3:0:0:0:
88,263,211408,70,0,P|83:212|75:161,1,101.999996887207,4|0,3:2|0:0,0:0:0:0:
100,88,211646,1,8,0:0:0:0:
152,146,211765,2,0,P|242:112|246:15,1,203.999993774414,0|0,3:0|3:0,0:0:0:0:
332,17,212122,5,8,0:0:0:0:
473,78,212241,1,0,0:0:0:0:
371,193,212360,2,0,P|363:142|358:91,1,101.999996887207,0|0,3:0|0:0,0:0:0:0:
162,281,212599,2,0,P|169:230|174:179,1,101.999996887207,8|0,0:0|3:0,0:0:0:0:
320,254,212837,1,0,3:0:0:0:
211,343,212956,1,0,3:0:0:0:
406,370,213075,2,0,P|398:319|393:268,1,101.999996887207,8|0,0:0|0:0,0:0:0:0:
246,39,213313,69,6,3:2:0:0:
246,39,213551,1,10,0:0:0:0:
83,95,213670,2,0,P|90:146|95:197,1,101.999996887207,6|0,3:2|0:0,0:0:0:0:
84,274,213908,1,10,0:0:0:0:
275,256,214027,1,6,3:2:0:0:
167,107,214146,1,2,3:2:0:0:
350,316,214265,6,0,P|354:265|361:214,1,101.999996887207,2|0,3:2|0:0,0:0:0:0:
426,168,214503,1,0,3:0:0:0:
471,363,214622,1,8,0:0:0:0:
273,335,214741,1,2,3:2:0:0:
234,146,214860,69,8,0:0:0:0:
308,121,214979,1,10,0:0:0:0:
218,222,215099,1,8,0:0:0:0:
177,92,215218,1,6,3:2:0:0:
440,37,216170,21,4,3:2:0:0:
488,99,216289,1,0,3:0:0:0:
413,122,216408,1,0,3:0:0:0:
365,230,216527,85,8,0:0:0:0:
290,207,216646,1,0,3:0:0:0:
338,145,216765,1,0,3:0:0:0:
463,282,216884,85,8,0:0:0:0:
388,305,217003,1,0,3:0:0:0:
435,367,217122,54,0,P|332:327|224:308,1,220.999989883423,4|8,3:2|0:0,0:0:0:0:
170,249,217479,2,0,P|67:252|27:156,1,220.999989883423,0|0,3:0|3:0,0:0:0:0:
306,20,217837,2,0,P|266:123|247:231,1,220.999989883423,8|0,0:0|3:0,0:0:0:0:
177,170,218194,1,0,0:0:0:0:
88,64,218313,6,0,P|139:83|193:93,1,110.499994941712,8|0,0:0|3:0,0:0:0:0:
246,231,218551,2,0,P|297:211|351:201,1,110.499994941712,0|0,0:0|3:0,0:0:0:0:
373,124,218789,2,0,P|424:143|478:153,1,110.499994941712,8|0,0:0|0:0,0:0:0:0:
420,380,219027,70,0,P|489:306|426:225,1,220.999989883423,0|8,3:0|0:0,0:0:0:0:
344,351,219384,2,0,P|242:311|134:291,1,220.999989883423,0|0,3:0|3:0,0:0:0:0:
18,237,219741,2,0,P|72:227|123:206,1,110.499994941712,8|0,0:0|0:0,0:0:0:0:
172,42,219979,6,0,P|69:49|51:150,2,220.999989883423,0|8|0,3:0|0:0|3:0,0:0:0:0:
200,115,220575,1,0,3:0:0:0:
338,78,220694,1,8,0:0:0:0:
375,216,220813,1,0,0:0:0:0:
237,252,220932,70,0,P|257:198|271:148,1,110.499994941712,0|0,3:0|0:0,0:0:0:0:
335,103,221170,1,8,0:0:0:0:
462,280,221289,2,0,P|353:302|247:333,1,220.999989883423,0|0,3:0|3:0,0:0:0:0:
168,303,221646,1,8,0:0:0:0:
74,365,221765,1,0,0:0:0:0:
12,271,221884,1,0,3:0:0:0:
106,209,222003,5,0,3:0:0:0:
90,287,222122,1,8,0:0:0:0:
28,193,222241,1,0,3:0:0:0:
122,131,222360,1,0,3:0:0:0:
184,225,222479,1,0,3:0:0:0:
44,115,222599,1,8,0:0:0:0:
187,12,222718,1,0,3:0:0:0:
225,158,222837,70,0,P|237:104|255:51,1,110.499994941712,2|0,3:2|0:0,0:0:0:0:
330,32,223075,1,10,0:0:0:0:
414,107,223194,2,0,P|402:161|384:214,1,110.499994941712,2|0,3:2|0:0,0:0:0:0:
458,246,223432,1,2,3:2:0:0:
329,289,223551,2,0,P|311:236|299:182,1,110.499994941712,10|2,0:0|0:0,0:0:0:0:
44,351,223789,5,10,0:0:0:0:
100,297,223908,1,0,3:0:0:0:
26,275,224027,1,8,0:0:0:0:
83,222,224146,1,0,3:0:0:0:
65,146,224265,1,10,0:0:0:0:
140,169,224384,1,0,3:0:0:0:
122,93,224503,1,10,0:0:0:0:
178,39,224622,1,8,0:0:0:0:
104,17,224741,69,6,3:2:0:0:
104,17,224979,1,8,0:0:0:0:
344,61,225099,2,0,P|242:83|224:186,1,220.999989883423,0|0,3:0|3:0,0:0:0:0:
364,226,225456,2,0,P|376:172|395:120,1,110.499994941712,8|0,0:0|0:0,0:0:0:0:
466,147,225694,6,0,P|435:252|420:361,2,220.999989883423,0|8|0,3:0|0:0|3:0,0:0:0:0:
455,70,226289,1,0,3:0:0:0:
395,120,226408,1,8,0:0:0:0:
382,44,226527,1,0,0:0:0:0:
232,200,226646,70,0,P|142:232|144:330,1,203.999993774414,0|0,3:0|0:0,0:0:0:0:
33,336,227003,2,0,P|47:287|55:236,1,101.999996887207,0|0,3:0|0:0,0:0:0:0:
98,172,227241,1,0,3:0:0:0:
139,28,227360,2,0,P|146:78|161:127,1,101.999996887207,8|0,0:0|0:0,0:0:0:0:
329,248,227599,6,0,P|329:153|239:121,2,203.999993774414,0|8|0,3:0|0:0|3:0,0:0:0:0:
278,309,228194,1,0,0:0:0:0:
354,324,228313,2,0,P|403:309|454:302,1,101.999996887207,8|0,0:0|0:0,0:0:0:0:
486,231,228551,70,0,P|421:151|370:63,1,203.999993774414,0|8,3:0|0:0,0:0:0:0:
137,68,228908,2,0,P|201:147|252:235,1,203.999993774414,0|0,3:0|3:0,0:0:0:0:
238,64,229265,2,0,P|290:49|293:3,1,101.999996887207,8|0,0:0|3:0,0:0:0:0:
78,117,229503,6,0,P|112:154|139:197,1,101.999996887207,0|0,3:0|3:0,0:0:0:0:
139,361,229741,2,0,P|154:313|177:268,1,101.999996887207,8|0,0:0|3:0,0:0:0:0:
256,278,229979,1,0,3:0:0:0:
93,260,230099,1,0,3:0:0:0:
219,199,230218,2,0,P|270:198|320:187,1,101.999996887207,8|0,0:0|3:0,0:0:0:0:
369,357,230456,70,0,P|358:307|357:256,1,101.999996887207,6|0,3:2|0:0,0:0:0:0:
396,189,230694,1,10,0:0:0:0:
361,121,230813,2,0,P|295:50|205:84,1,203.999993774414,6|0,3:2|3:0,0:0:0:0:
434,84,231170,2,0,P|466:48|511:65,1,101.999996887207,14|0,0:0|0:0,0:0:0:0:
365,43,231408,6,0,L|357:1,1,42.5,2|0,3:2|0:0,0:0:0:0:
429,163,231765,2,0,L|469:177,1,42.5,2|0,3:2|0:0,0:0:0:0:
293,158,232122,2,0,L|260:185,1,42.5,2|0,3:2|0:0,0:0:0:0:
